osu file format v14

[General]
AudioFilename: audio.mp3
AudioLeadIn: 0
PreviewTime: -1
Countdown: 0
SampleSet: Soft
StackLeniency: 0.3
Mode: 0
LetterboxInBreaks: 0
WidescreenStoryboard: 0

[Editor]
DistanceSpacing: 3
BeatDivisor: 4
GridSize: 8
TimelineZoom: 1

[Metadata]
Title:epitaph
TitleUnicode:epitaph
Artist:MiddleIsland
ArtistUnicode:MiddleIsland
Creator:Silent Rock
Version:memories
Source:
Tags:
BeatmapID:1878748
BeatmapSetID:899414

[Difficulty]
HPDrainRate:5
CircleSize:4.6
OverallDifficulty:6
ApproachRate:9
SliderMultiplier:1
SliderTickRate:1

[Events]
//Background and Video events
0,0,"graveyard.jpg",0,0
//Break Periods
//Storyboard Layer 0 (Background)
//Storyboard Layer 1 (Fail)
//Storyboard Layer 2 (Pass)
//Storyboard Layer 3 (Foreground)
//Storyboard Sound Samples

[TimingPoints]
988,434.782608695652,6,2,1,20,1,0
988,-1000,6,2,1,20,0,0
2292,-1000,6,2,2,20,0,0
2509,-1000,6,2,2,20,0,0
2727,368.098159509202,6,2,1,20,1,0
2727,-142.857142857143,6,2,1,20,0,0
3095,352.941176470588,6,2,1,20,1,0
3447,340.909090909091,6,2,1,20,1,0
3447,-111.111111111111,6,2,1,20,0,0
3787,312.5,6,2,1,20,1,0
4412,284.36018957346,6,2,1,20,1,0
4696,301.507537688442,6,2,1,20,1,0
4997,309.278350515464,6,2,1,20,1,0
5306,306.122448979592,6,2,1,20,1,0
5919,333.333333333333,6,2,1,20,1,0
6585,306.122448979592,6,2,1,20,1,0
6585,-200,6,2,1,20,0,0
7197,291.26213592233,6,2,1,20,1,0
7197,-133.333333333333,6,2,1,20,0,0
7779,283.018867924528,6,2,1,20,1,0
7779,-100,6,2,1,20,0,0
8345,291.26213592233,6,2,1,20,1,0
8927,300,6,2,1,20,1,0
9527,329.67032967033,6,2,1,20,1,0
9527,-166.666666666667,6,2,1,20,0,0
10186,315.789473684211,6,2,1,20,1,0
10186,-200,6,2,1,20,0,0
10817,309.278350515464,6,2,1,20,1,0
10817,-133.333333333333,6,2,1,20,0,0
11435,300,6,2,1,20,1,0
12629,303.030303030303,6,2,1,20,1,0
13235,329.67032967033,6,2,1,20,1,0
13235,-200,6,2,1,20,0,0
13894,291.26213592233,6,2,1,20,1,0
13894,-125,6,2,1,20,0,0
14476,312.5,6,2,1,20,1,0
15101,337.078651685393,6,2,1,20,1,0
15775,337.078651685393,6,2,1,20,1,0
15775,-200,6,2,1,20,0,0
17123,303.030303030303,6,2,1,20,1,0
17729,304.568527918782,6,2,1,20,1,0
17729,-200,6,2,1,20,0,0
18337,297.029702970297,6,2,1,20,1,0
18337,-133.333333333333,6,2,1,20,0,0
18931,-100,6,2,1,20,0,0
19228,300,6,2,1,20,1,0
20727,312.5,6,2,1,20,1,0
21352,285.714285714286,6,2,1,20,1,0
21352,-200,6,2,1,20,0,0
21923,300,6,2,1,20,1,0
21923,-133.333333333333,6,2,1,20,0,0
23129,294.117647058824,6,2,1,20,1,0
23717,306.122448979592,6,2,1,20,1,0
24635,306.122448979592,6,2,1,20,1,0
24941,-200,6,2,1,20,0,0
25553,-133.333333333333,6,2,1,20,0,0
26780,439.56043956044,4,2,1,20,1,0
26780,-1000,4,2,1,20,0,0
28100,350.877192982456,6,2,1,20,1,0
28802,331.491712707182,6,2,1,20,1,0
28802,-400,6,2,1,20,0,0
29465,309.278350515464,6,2,1,20,1,0
29465,-200,6,2,1,20,0,0
30083,-133.333333333333,6,2,1,20,0,0
32557,294.117647058824,6,2,1,20,1,0
32557,-400,6,2,1,20,0,0
33145,306.122448979592,6,2,1,20,1,0
33145,-200,6,2,1,20,0,0
33757,297.029702970297,6,2,1,20,1,0
33757,-200,6,2,1,20,0,0
34351,303.030303030303,6,2,1,20,1,0
34351,-200,6,2,1,20,0,0
34957,295.566502463054,6,2,1,20,1,0
35547,304.568527918782,6,2,1,20,1,0
35547,-400,6,2,1,20,0,0
36159,287.081339712919,6,2,1,20,1,0
36159,-200,6,2,1,20,0,0
36446,301.507537688442,6,2,1,20,1,0
36747,279.06976744186,6,2,1,20,1,0
36747,-133.333333333333,6,2,1,20,0,0
37026,298.507462686567,6,2,1,20,1,0
37324,306.122448979592,6,2,1,20,1,0
37324,-100,6,2,1,20,0,0
37936,287.081339712919,6,2,1,20,1,0
38510,294.117647058824,6,2,1,20,1,0
39688,297.029702970297,6,2,1,20,1,0
39688,-200,6,2,1,20,0,0
40282,-133.333333333333,6,2,1,20,0,0
43252,294.117647058824,6,2,1,20,1,0
43252,-200,6,2,1,20,0,0
43840,-133.333333333333,6,2,1,20,0,0
45020,301.507537688442,6,2,1,20,1,0
45928,288.461538461538,6,2,1,20,1,0
46793,-200,6,2,1,20,0,0
46795,312.5,6,2,1,20,1,0
47420,329.67032967033,6,2,1,20,1,0
48738,-400,6,2,1,20,0,0
50057,276.497695852535,6,2,1,20,1,0
50632,298.507462686567,6,2,1,20,1,0
50632,-200,6,2,1,20,0,0
51229,-133.333333333333,6,2,1,20,0,0
51527,301.507537688442,6,2,1,20,1,0
53336,307.692307692308,6,2,1,20,1,0
54259,297.029702970297,6,2,1,20,1,0
54259,-200,6,2,1,20,0,0
54853,-133.333333333333,6,2,1,20,0,0
55150,301.507537688442,6,2,1,20,1,0
57863,303.030303030303,6,2,1,20,1,0
57863,-200,6,2,1,20,0,0
58469,-133.333333333333,6,2,1,20,0,0
59681,310.880829015544,6,2,1,20,1,0
60613,340.909090909091,6,2,1,20,1,0
60953,-1000,6,2,1,20,0,0
61635,310.880829015544,6,2,1,20,1,0
61635,-400,6,2,1,20,0,0
62256,-200,6,2,1,20,0,0
62567,319.148936170213,6,2,1,20,1,0
63524,314.13612565445,6,2,1,20,1,0
63524,-200,6,2,1,20,0,0
64466,300,6,2,1,20,1,0
64466,-133.333333333333,6,2,1,20,0,0
64766,-100,6,2,1,20,0,0
65066,329.67032967033,6,2,1,20,1,0
65395,306.122448979592,6,2,1,20,1,0
65395,-400,6,2,1,20,0,0
65701,322.58064516129,6,2,1,20,1,0
66023,320.855614973262,6,2,1,20,1,0
66023,-400,6,2,1,20,0,0
67306,-200,6,2,1,20,0,0
69231,-133.333333333333,6,2,1,20,0,0
69873,-200,6,2,1,20,0,0
71798,303.030303030303,6,2,1,20,1,0
72707,312.5,6,2,1,20,1,0
73019,-200,6,2,1,20,0,0
73644,306.122448979592,6,2,1,20,1,0
73644,-200,6,2,1,20,0,0
74868,-133.333333333333,6,2,1,20,0,0
76399,287.081339712919,6,2,1,20,1,0
77260,306.122448979592,6,2,1,20,1,0
78178,337.078651685393,6,2,1,20,1,0
78515,382.165605095541,6,2,1,20,1,0
80043,491.803278688525,6,2,1,20,1,0
80043,-400,6,2,1,20,0,0
80534,368.098159509202,6,2,1,20,1,0
80534,-200,6,2,1,20,0,0
81086,340.909090909093,6,2,1,30,1,1
81767,303.030303030305,6,2,1,30,1,1
82070,333.333333333335,6,2,1,30,1,1
82403,319.148936170214,6,2,1,30,1,1
83041,352.94117647059,6,2,1,30,1,1
83393,289.855072463769,6,2,1,30,1,1
83682,304.568527918783,6,2,1,30,1,1
83986,310.880829015546,6,2,1,30,1,1
84296,329.670329670331,6,2,1,30,1,1
84625,270.270270270271,6,2,1,30,1,1
84895,300.000000000001,6,2,1,30,1,1
85195,303.030303030305,6,2,1,30,1,1
85498,304.568527918783,6,2,1,30,1,1
86716,309.278350515465,6,2,1,30,1,1
87334,314.136125654452,6,2,1,30,1,1
87648,319.148936170214,6,2,1,30,1,1
87967,342.857142857145,6,2,1,30,1,1
88309,368.098159509205,6,2,1,30,1,1
88309,-200,6,2,1,30,0,1
88677,306.122448979593,6,2,1,30,1,1
92350,320.855614973264,6,2,1,30,1,1
92670,340.909090909093,6,2,1,30,1,1
93010,346.820809248557,6,2,1,30,1,1
93010,-133.333333333333,6,2,1,30,0,1
93356,-400,6,2,1,30,0,1
94050,379.74683544304,6,2,1,30,1,1
94050,-200,6,2,1,30,0,1
94429,355.029585798819,6,2,1,30,1,1
94784,310.880829015546,6,2,1,30,1,1
94784,-133.333333333333,6,2,1,30,0,1
95094,327.868852459018,6,2,1,30,1,1
95421,342.857142857145,6,2,1,30,1,1
95763,359.281437125751,6,2,1,30,1,1
95763,-200,6,2,1,30,0,1
96122,370.370370370373,6,2,1,30,1,1
96122,-400,6,2,1,30,0,0
96492,337.078651685395,6,2,1,30,1,1
96829,317.460317460319,6,2,1,30,1,1
97781,322.580645161292,6,2,1,30,1,1
99071,312.500000000002,6,2,1,30,1,1
100321,319.148936170214,6,2,1,30,1,1
103193,329.670329670331,6,2,1,30,1,1
103522,337.078651685395,6,2,1,30,1,1
103522,-133.333333333333,6,2,1,30,0,1
103859,322.580645161292,6,2,1,30,1,1
103859,-200,6,2,1,30,0,1
104504,340.909090909093,6,2,1,30,1,1
104844,348.837209302328,6,2,1,30,1,1
104844,-133.333333333333,6,2,1,30,0,1
105192,384.615384615387,6,2,1,30,1,1
105192,-133.333333333333,6,2,1,30,0,1
105576,410.958904109592,6,2,1,30,1,1
105576,-133.333333333333,6,2,1,30,0,1
106397,821.917808219178,6,2,1,30,1,0
108040,882.352941176471,6,2,1,20,1,0
108040,-400,6,2,1,20,0,0
108481,967.741935483871,6,2,1,20,1,0
108972,923.076923076923,6,2,1,20,1,0
109895,952.380952380952,6,2,1,20,1,0
110371,923.076923076923,6,2,1,20,1,0
110832,952.380952380952,6,2,1,20,1,0
112022,-100,6,2,1,5,0,0

[HitObjects]
150,147,988,6,0,L|155:178,1,30
155,177,2727,6,0,P|196:165|234:168,1,69.9999978637696
261,318,3447,2,0,P|220:291|203:252,1,89.9999972534181
341,157,4099,1,0,0:0:0:0:
291,235,4412,1,0,0:0:0:0:
273,45,4696,5,0,0:0:0:0:
341,157,4997,1,0,0:0:0:0:
206,151,5306,2,0,P|214:103|252:60,1,100
85,0,5918,1,0,0:0:0:0:
144,74,6252,1,0,0:0:0:0:
19,135,6585,6,0,P|19:163|26:190,1,50
129,186,7197,2,0,P|149:219|182:242,1,75.0000028610231
311,197,7779,2,0,P|367:210|415:206,1,100
244,106,8345,5,0,0:0:0:0:
198,248,8636,1,0,0:0:0:0:
234,88,8927,5,0,0:0:0:0:
292,190,9227,1,0,0:0:0:0:
103,126,9527,5,0,0:0:0:0:
224,70,9856,1,0,0:0:0:0:
208,266,10186,6,0,P|191:283|166:295,1,50
291,341,10817,2,0,P|328:354|365:359,1,75.0000028610231
322,222,11435,2,0,P|326:170|349:122,1,100
453,0,12035,5,0,0:0:0:0:
476,151,12335,1,0,0:0:0:0:
341,102,12629,5,0,0:0:0:0:
480,175,12932,1,0,0:0:0:0:
322,222,13235,2,0,P|348:224|374:219,1,50
306,31,13894,6,0,P|329:62|341:113,2,80
306,203,14788,5,0,0:0:0:0:
307,227,15101,5,0,0:0:0:0:
144,191,15438,1,0,0:0:0:0:
338,350,15775,2,0,P|388:364|438:344,1,100
431,348,17426,5,0,0:0:0:0:
437,341,17577,1,0,0:0:0:0:
445,327,17729,2,0,P|449:302|445:275,1,50
306,242,18337,2,0,P|331:277|360:293,1,75.0000028610231
347,137,18931,1,0,0:0:0:0:
192,191,19228,1,0,0:0:0:0:
257,28,19528,5,0,0:0:0:0:
186,212,19828,1,0,0:0:0:0:
151,63,20128,5,0,0:0:0:0:
192,235,20428,1,0,0:0:0:0:
298,118,20727,5,0,0:0:0:0:
113,160,21039,1,0,0:0:0:0:
321,259,21352,6,0,P|349:260|375:254,1,50
196,309,21923,2,0,P|230:326|271:333,1,75.0000028610231
72,287,22523,1,0,0:0:0:0:
128,368,22823,1,0,0:0:0:0:
113,160,23123,5,0,0:0:0:0:
61,310,23423,1,0,0:0:0:0:
216,195,23717,5,0,0:0:0:0:
72,287,24023,1,0,0:0:0:0:
75,112,24329,5,0,0:0:0:0:
179,302,24635,1,0,0:0:0:0:
215,60,24941,6,0,P|216:33|210:6,1,50
254,169,25553,2,0,P|277:139|289:94,1,75.0000028610231
179,302,26165,1,0,0:0:0:0:
296,257,26471,1,0,0:0:0:0:
437,333,26780,6,0,P|443:348|446:362,1,30
446,384,28450,1,0,0:0:0:0:
494,259,28802,6,0,L|491:234,1,25
410,204,29465,2,0,P|403:181|388:156,1,50
287,196,30083,2,0,P|251:182|215:179,1,75.0000028610231
71,242,30702,2,0,P|107:256|143:259,1,75.0000028610231
71,96,31320,5,0,0:0:0:0:
60,75,32248,1,0,0:0:0:0:
32,48,32557,6,0,L|61:51,1,25
149,102,33145,2,0,P|177:100|201:93,1,50
326,93,33757,2,0,P|345:75|358:55,1,50
264,206,34351,2,0,P|267:234|280:260,1,50
364,365,34957,5,0,0:0:0:0:
389,375,35547,2,0,L|385:347,1,25
451,187,36159,6,0,P|449:214|443:237,1,50
375,97,36747,2,0,P|406:74|450:64,1,75.0000028610231
341,199,37324,1,0,0:0:0:0:
341,199,37936,5,0,0:0:0:0:
318,35,38223,1,0,0:0:0:0:
237,213,38510,5,0,0:0:0:0:
320,57,38804,1,0,0:0:0:0:
353,269,39098,5,0,0:0:0:0:
230,110,39392,1,0,0:0:0:0:
204,344,39688,6,0,P|179:350|148:351,1,50
43,204,40282,2,0,P|63:240|68:281,1,75.0000028610231
21,376,40876,1,0,0:0:0:0:
0,384,41470,5,0,0:0:0:0:
174,178,41767,1,0,0:0:0:0:
174,163,41866,1,0,0:0:0:0:
161,170,41965,1,0,0:0:0:0:
170,171,42064,2,0,P|169:138|149:100,1,75.0000028610231
0,0,42658,2,0,P|1:33|21:71,1,75.0000028610231
53,231,43252,6,0,P|58:203|54:175,1,50
5,311,43840,2,0,P|41:323|82:319,1,75.0000028610231
211,280,44428,1,0,0:0:0:0:
231,266,45016,5,0,0:0:0:0:
53,231,45321,1,0,0:0:0:0:
260,151,45623,5,0,0:0:0:0:
74,225,45924,1,0,0:0:0:0:
238,295,46216,5,0,0:0:0:0:
135,115,46504,1,0,0:0:0:0:
340,284,46793,6,0,P|365:277|386:264,1,50
469,139,47420,1,0,0:0:0:0:
506,357,47749,5,0,0:0:0:0:
512,384,48079,1,0,0:0:0:0:
390,231,48409,1,0,0:0:0:0:
280,384,48738,6,0,P|254:388|228:384,1,50
70,218,50333,5,0,0:0:0:0:
76,211,50425,1,0,0:0:0:0:
84,206,50517,1,0,0:0:0:0:
90,187,50632,6,0,P|116:192|148:192,1,50
250,76,51229,2,0,P|222:99|204:139,1,75.0000028610231
201,258,51828,1,0,0:0:0:0:
208,283,52431,5,0,0:0:0:0:
361,188,52733,1,0,0:0:0:0:
308,345,53034,5,0,0:0:0:0:
345,167,53336,1,0,0:0:0:0:
217,376,53643,5,0,0:0:0:0:
201,232,53951,1,0,0:0:0:0:
371,270,54259,2,0,P|346:275|316:273,1,50
187,159,54853,2,0,P|187:193|202:234,1,75.0000028610231
287,53,55451,1,0,0:0:0:0:
304,36,56054,5,0,0:0:0:0:
369,196,56356,1,0,0:0:0:0:
423,13,56657,5,0,0:0:0:0:
346,196,56959,1,0,0:0:0:0:
512,146,57260,5,0,0:0:0:0:
310,58,57562,1,0,0:0:0:0:
512,0,57863,6,0,P|507:26|498:47,1,50
310,58,58469,2,0,P|348:66|378:86,1,75.0000028610231
437,191,59075,1,0,0:0:0:0:
437,191,59681,5,0,0:0:0:0:
324,333,59991,1,0,0:0:0:0:
245,81,60302,1,0,0:0:0:0:
223,100,60953,6,0,L|224:89,1,10
173,222,61635,6,0,P|170:209|169:195,1,25
170,364,62256,2,0,P|161:343|152:316,1,50
273,384,62886,1,0,0:0:0:0:
297,370,63524,6,0,L|300:341,3,25
379,310,64152,2,0,P|378:294|375:277,1,25
432,203,64466,2,0,P|425:182|413:161,1,37.5000014305115
448,64,64766,2,0,P|429:42|406:26,1,50
304,68,65066,1,0,0:0:0:0:
255,56,65230,1,0,0:0:0:0:
212,89,65395,6,0,L|186:88,1,25
88,15,66023,2,0,L|115:13,1,25
0,126,66664,5,0,0:0:0:0:
21,260,66985,1,0,0:0:0:0:
148,333,67306,2,0,P|176:337|201:334,1,50
352,263,67948,2,0,P|324:259|299:262,1,50
216,319,68589,1,0,0:0:0:0:
284,277,68910,1,0,0:0:0:0:
98,256,69231,6,0,P|62:259|22:276,1,75.0000028610231
200,201,69873,2,0,P|204:176|203:149,1,50
126,84,70514,2,0,P|122:109|123:136,1,50
165,317,71156,5,0,0:0:0:0:
250,191,71477,1,0,0:0:0:0:
224,172,71798,1,0,0:0:0:0:
280,360,72101,1,0,0:0:0:0:
314,339,72404,1,0,0:0:0:0:
127,215,72707,1,0,0:0:0:0:
395,159,73019,6,0,P|419:159|447:168,1,50
330,234,73644,2,0,P|318:254|299:272,1,50
297,145,74256,2,0,P|285:124|279:99,1,50
467,55,74868,6,0,P|429:62|389:58,1,75.0000028610231
510,213,75480,2,0,P|478:191|452:159,1,75.0000028610231
427,359,76092,2,0,P|419:321|423:280,1,75.0000028610231
282,384,76686,5,0,0:0:0:0:
288,356,76973,1,0,0:0:0:0:
180,298,77260,5,0,0:0:0:0:
184,319,77566,1,0,0:0:0:0:
95,369,77872,5,0,0:0:0:0:
98,358,78178,1,0,0:0:0:0:
0,333,78515,5,0,0:0:0:0:
202,273,80043,6,0,L|199:261,1,12.5
263,197,80534,2,0,L|242:172,1,25
305,87,80902,1,0,0:0:0:0:
356,240,81086,6,0,P|381:252|409:258,1,50
246,177,81426,2,0,P|220:164|193:159,1,50
355,176,81767,2,0,P|379:161|396:142,1,50
246,240,82070,2,0,P|222:255|208:275,1,50
300,145,82403,2,0,P|299:116|291:94,1,50
301,271,82722,2,0,P|302:300|312:322,1,50
405,364,83041,5,0,0:0:0:0:
498,318,83217,1,0,0:0:0:0:
409,257,83393,1,0,0:0:0:0:
405,364,83537,1,0,0:0:0:0:
434,229,83682,5,0,0:0:0:0:
301,271,83834,1,0,0:0:0:0:
405,364,83986,1,0,0:0:0:0:
434,229,84141,1,0,0:0:0:0:
297,302,84296,5,0,0:0:0:0:
438,198,84460,1,0,0:0:0:0:
316,229,84625,1,0,0:0:0:0:
417,269,84760,1,0,0:0:0:0:
202,338,84895,6,0,P|175:338|149:330,1,50
73,221,85195,2,0,P|100:221|125:229,1,50
184,352,85498,2,0,P|157:345|133:328,1,50
90,206,85802,2,0,P|116:212|137:228,1,50
164,362,86107,2,0,P|140:348|122:328,1,50
110,196,86411,2,0,P|133:209|149:228,1,50
28,305,86716,5,0,0:0:0:0:
132,191,86870,1,0,0:0:0:0:
6,242,87025,1,0,0:0:0:0:
136,158,87179,1,0,0:0:0:0:
296,175,87334,5,0,0:0:0:0:
149,129,87491,1,0,0:0:0:0:
283,110,87648,1,0,0:0:0:0:
129,103,87807,1,0,0:0:0:0:
149,314,87967,6,0,P|154:338|165:365,1,50
149,65,88309,2,0,P|146:49|142:35,1,25
296,175,88677,6,0,P|326:176|351:170,1,50
501,110,88983,2,0,P|471:109|446:115,1,50
375,247,89289,2,0,P|391:222|398:197,1,50
421,37,89595,2,0,P|405:62|398:87,1,50
477,215,89901,2,0,P|463:188|446:169,1,50
319,69,90207,2,0,P|333:96|350:115,1,50
501,110,90513,6,0,P|471:109|446:115,1,50
296,175,90819,2,0,P|266:176|241:170,1,50
477,215,91125,2,0,P|447:214|422:220,1,50
272,280,91431,2,0,P|242:281|217:275,1,50
451,316,91738,5,0,0:0:0:0:
342,324,91891,1,0,0:0:0:0:
246,381,92044,1,0,0:0:0:0:
137,373,92197,1,0,0:0:0:0:
65,296,92350,6,0,P|62:329|55:354,1,50
8,177,92670,2,0,P|5:206|8:237,1,50
77,71,93010,2,0,P|77:91|74:112,1,37.5000014305115
0,0,93356,6,0,L|14:1,1,12.5
27,20,93703,2,0,L|39:16,1,12.5
76,44,94050,2,0,P|103:35|128:22,1,50
219,17,94606,5,0,0:0:0:0:
285,90,94784,2,0,L|282:133,1,37.5000014305115
202,188,95094,1,0,0:0:0:0:
205,205,95257,1,0,0:0:0:0:
291,262,95421,1,0,0:0:0:0:
288,282,95592,1,0,0:0:0:0:
237,359,95763,2,0,L|241:388,1,25
367,333,96122,2,0,L|370:318,1,12.5
495,382,96492,5,0,0:0:0:0:
495,382,96829,2,0,P|495:358|489:331,1,50
433,244,97146,2,0,P|433:220|439:193,1,50
483,97,97463,5,0,0:0:0:0:
381,126,97622,1,0,0:0:0:0:
295,43,97781,5,0,0:0:0:0:
276,189,97942,1,0,0:0:0:0:
177,289,98103,5,0,0:0:0:0:
129,136,98264,1,0,0:0:0:0:
12,41,98426,5,0,0:0:0:0:
171,114,98587,1,0,0:0:0:0:
34,165,98748,1,0,0:0:0:0:
171,114,98909,1,0,0:0:0:0:
34,165,99071,5,0,0:0:0:0:
169,224,99227,1,0,0:0:0:0:
34,165,99383,1,0,0:0:0:0:
89,337,99539,1,0,0:0:0:0:
169,224,99696,5,0,0:0:0:0:
281,252,99852,1,0,0:0:0:0:
375,233,100008,1,0,0:0:0:0:
434,184,100164,1,0,0:0:0:0:
451,312,100321,5,0,0:0:0:0:
432,158,100480,1,0,0:0:0:0:
300,332,100640,5,0,0:0:0:0:
323,162,100799,1,0,0:0:0:0:
181,24,100959,5,0,0:0:0:0:
206,211,101118,1,0,0:0:0:0:
58,38,101278,5,0,0:0:0:0:
32,236,101437,1,0,0:0:0:0:
330,111,101597,5,0,0:0:0:0:
61,200,101757,1,0,0:0:0:0:
206,211,101916,1,0,0:0:0:0:
58,38,102076,1,0,0:0:0:0:
126,332,102235,5,0,0:0:0:0:
206,211,102395,1,0,0:0:0:0:
136,161,102555,1,0,0:0:0:0:
201,295,102714,1,0,0:0:0:0:
283,168,102874,6,0,P|284:149|279:118,1,50
270,342,103193,2,0,P|285:363|305:378,1,50
410,237,103522,6,0,P|407:257|398:277,1,37.5000014305115
453,106,103859,2,0,P|454:124|458:136,1,25
341,27,104181,5,0,0:0:0:0:
285,100,104342,1,0,0:0:0:0:
195,125,104504,2,0,P|169:125|142:117,1,50
50,60,104844,5,0,0:0:0:0:
71,142,105018,1,0,0:0:0:0:
46,225,105192,2,0,P|46:246|49:264,1,37.5000014305115
134,316,105576,6,0,P|168:304|215:305,1,75.0000028610231
0,384,106397,5,0,0:0:0:0:
99,219,108040,6,0,L|97:203,1,12.5
87,141,108964,5,0,0:0:0:0:
125,162,109433,1,0,0:0:0:0:
175,175,109895,1,0,0:0:0:0:
238,181,110371,1,0,0:0:0:0:
310,168,110832,1,0,0:0:0:0:
372,115,111308,2,0,L|386:93,2,16.6666666666667
424,167,111784,5,0,0:0:0:0:
256,192,112022,12,0,116546,0:0:0:0:
