osu file format v14

[General]
AudioFilename: xd.mp3
AudioLeadIn: 0
PreviewTime: 29619
Countdown: 0
SampleSet: Soft
StackLeniency: 0.4
Mode: 0
LetterboxInBreaks: 0
WidescreenStoryboard: 0

[Editor]
Bookmarks: 55719,73319,113319,138919,156519,183719,209319,239719,281319,286119
DistanceSpacing: 1.2
BeatDivisor: 4
GridSize: 8
TimelineZoom: 1.5

[Metadata]
Title:Yoiyami Datsugoku Hime
TitleUnicode:宵闇脱獄姫
Artist:MiddleIsland
ArtistUnicode:MiddleIsland
Creator:Mirash
Version:Sekai
Source:
Tags:Gothic Neo Calssica piano doujin C77 FrizzellWeisen フレイゼルワイゼン 睦鬼 中島岬 Nakajima Misaki mutsuki-saku mutsuki
BeatmapID:1258101
BeatmapSetID:594861

[Difficulty]
HPDrainRate:6.5
CircleSize:4
OverallDifficulty:8
ApproachRate:9.4
SliderMultiplier:3.59999990463257
SliderTickRate:1

[Events]
//Background and Video events
0,0,"devka s idolmastera.jpg",0,0
//Break Periods
//Storyboard Layer 0 (Background)
//Storyboard Layer 1 (Fail)
//Storyboard Layer 2 (Pass)
//Storyboard Layer 3 (Foreground)
//Storyboard Sound Samples

[TimingPoints]
-281,400,4,2,1,70,1,0
519,-250,4,2,1,70,0,0
12519,-133.333333333333,4,2,1,70,0,0
14319,-158.730158730159,4,2,1,70,0,0
15719,-100,4,2,1,70,0,1
19719,-100,4,2,1,70,0,0
20519,-100,4,2,1,70,0,1
22919,-100,4,2,1,70,0,0
27119,-133.333333333333,4,2,1,70,0,0
29719,-250,4,2,1,40,0,0
54119,-500,4,2,1,40,0,0
55319,-500,4,2,1,50,0,0
55719,-200,4,2,1,60,0,0
55919,-200,4,2,1,70,0,0
62119,-133.333333333333,4,2,1,70,0,0
72919,-80,4,2,1,70,0,0
73319,-80,4,2,1,70,0,1
77319,-80,4,2,1,70,0,0
78119,-80,4,2,1,70,0,1
82919,-80,4,2,1,70,0,0
84519,-80,4,2,1,70,0,1
90119,-80,4,2,1,70,0,0
90919,-80,4,2,1,70,0,1
94119,-100,4,2,1,70,0,0
97319,-200,4,2,1,70,0,0
99719,-200,4,2,1,50,0,0
112919,-250,4,2,1,40,0,0
113319,-250,4,2,1,40,0,0
137319,-500,4,2,1,40,0,0
138519,-500,4,2,1,50,0,0
138919,-200,4,2,1,60,0,0
139119,-200,4,2,1,70,0,0
145319,-133.333333333333,4,2,1,70,0,0
156119,-80,4,2,1,70,0,0
156519,-80,4,2,1,70,0,1
160519,-80,4,2,1,70,0,0
161319,-80,4,2,1,70,0,1
166119,-80,4,2,1,70,0,0
167719,-80,4,2,1,70,0,1
173319,-80,4,2,1,70,0,0
174119,-80,4,2,1,70,0,1
177319,-100,4,2,1,70,0,0
180519,-200,4,2,1,70,0,0
183719,-250,4,2,1,40,0,0
209319,-250,4,2,1,70,0,0
210919,-80,4,2,1,70,0,1
212519,-80,4,2,1,70,0,0
214119,-80,4,2,1,70,0,1
215719,-80,4,2,1,70,0,0
216519,-80,4,2,1,70,0,1
217319,-80,4,2,1,70,0,0
218119,-80,4,2,1,70,0,1
222119,-80,4,2,1,70,0,0
223719,-80,4,2,1,70,0,1
225319,-80,4,2,1,70,0,0
226919,-80,4,2,1,70,0,1
228519,-80,4,2,1,70,0,0
229319,-80,4,2,1,70,0,1
230119,-80,4,2,1,70,0,0
230919,-80,4,2,1,70,0,1
234919,-250,4,2,1,70,0,0
240519,-133.333333333333,4,2,1,70,0,0
241319,-80,4,2,1,70,0,1
245319,-80,4,2,1,70,0,0
246119,-80,4,2,1,70,0,1
250919,-80,4,2,1,70,0,0
252519,-80,4,2,1,70,0,1
258119,-80,4,2,1,70,0,0
258919,-80,4,2,1,70,0,1
262119,-80,4,2,1,70,0,0
265319,-80,4,2,1,70,0,1
270119,-80,4,2,1,70,0,0
271719,-80,4,2,1,70,0,1
281319,-80,4,2,1,70,0,0
286119,-250,4,2,1,40,0,0
298619,-250,4,2,1,35,0,0
298919,-250,4,2,1,30,0,0
299319,-250,4,2,1,25,0,0
299719,-250,4,2,1,20,0,0
299919,-250,4,2,1,15,0,0
300119,-250,4,2,1,10,0,0
300319,-250,4,2,1,5,0,0

[Colours]
Combo1 : 255,104,66
Combo2 : 85,232,169
Combo3 : 68,95,219
Combo4 : 226,88,105

[HitObjects]
161,58,519,5,2,0:0:0:0:
79,83,719,1,0,0:0:0:0:
143,143,919,2,0,L|129:174,3,23.9999993642171,2|0|0|2,0:0|0:0|0:0|0:0,0:0:0:0:
251,116,1319,6,2,P|261:179|247:266,1,143.999996185303,2|0,0:0|0:0,0:0:0:0:
90,230,2119,2,0,P|153:240|186:236,2,71.9999980926514,0|2|0,0:0|0:0|0:0,0:0:0:0:
392,259,2919,6,2,P|317:248|249:258,1,143.999996185303,2|0,0:0|0:0,0:0:0:0:
265,351,3519,1,0,0:0:0:0:
435,362,3719,2,0,P|360:372|334:370,2,71.9999980926514,0|2|0,0:0|0:0|0:0,0:0:0:0:
453,36,4519,6,2,L|437:193,1,143.999996185303,2|0,0:0|0:0,0:0:0:0:
280,95,5319,2,0,L|295:255,1,143.999996185303,0|2,0:0|0:0,0:0:0:0:
28,140,6119,5,4,0:0:0:0:
173,99,6519,1,2,0:0:0:0:
173,99,6719,1,2,0:0:0:0:
139,199,6919,2,0,B|206:180|206:180|280:199,1,143.999996185303,0|2,0:0|0:0,0:0:0:0:
60,352,7719,6,0,P|114:337|208:354,1,143.999996185303,2|0,0:0|0:0,0:0:0:0:
199,350,8319,1,2,0:0:0:0:
363,302,8519,2,2,P|323:299|276:306,2,71.9999980926514,0|2|2,0:0|0:0|0:0,0:0:0:0:
148,45,9319,6,2,P|151:119|155:197,1,143.999996185303,2|0,0:0|0:0,0:0:0:0:
154,188,9919,1,2,0:0:0:0:
297,186,10119,2,0,P|293:109|288:32,1,143.999996185303,0|2,0:0|0:0,0:0:0:0:
431,339,10919,5,2,0:0:0:0:
335,311,11119,1,0,0:0:0:0:
216,365,11319,1,0,0:0:0:0:
213,270,11519,1,0,0:0:0:0:
404,263,11719,1,4,1:2:0:0:
65,51,12319,5,2,0:0:0:0:
65,51,12419,1,0,0:0:0:0:
65,51,12519,1,2,1:2:0:0:
102,141,12719,1,2,0:0:0:0:
221,132,12919,1,0,0:0:0:0:
220,30,13119,1,2,0:0:0:0:
344,91,13319,5,2,1:2:0:0:
300,198,13519,2,0,L|320:276,1,67.5000007867814
128,242,13719,1,8,1:1:0:0:
118,235,13819,1,0,1:0:0:0:
108,228,13919,1,8,1:1:0:0:
471,147,14119,5,4,1:2:0:0:
471,147,14319,2,2,B|362:93|367:202|252:135,1,226.799987070466,0|0,0:0|0:0,0:2:0:0:
257,139,15119,1,8,1:1:0:0:
308,162,15219,1,8,1:1:0:0:
362,151,15319,1,8,1:1:0:0:
416,134,15419,1,8,1:1:0:0:
470,146,15519,1,8,1:1:0:0:
496,224,15619,5,0,1:0:0:0:
496,224,15719,2,0,L|397:209,1,89.9999976158143,4|0,1:0|0:0,0:0:0:0:
263,321,15919,2,0,P|335:285|396:352,1,179.999995231629,8|0,1:1|1:0,0:0:0:0:
165,271,16219,1,0,0:0:0:0:
165,271,16319,2,0,L|176:382,1,89.9999976158143,8|0,1:1|0:0,0:0:0:0:
244,215,16519,2,0,L|250:34,1,179.999995231629,2|8,1:3|1:1,0:0:0:0:
157,179,16819,1,0,0:0:0:0:
157,179,16919,2,0,L|153:86,1,89.9999976158143,0|0,1:0|0:0,0:0:0:0:
345,89,17119,2,0,L|336:185,1,89.9999976158143,8|0,1:1|0:0,0:0:0:0:
106,310,17319,6,0,B|164:307|164:307|217:341|217:341|284:338,1,179.999995231629,4|8,1:0|1:1,0:0:0:0:
359,268,17619,1,0,0:0:0:0:
359,268,17719,2,0,L|254:258,1,89.9999976158143,0|0,1:0|0:0,0:0:0:0:
391,359,17919,2,0,L|486:367,1,89.9999976158143,8|0,1:1|0:0,0:0:0:0:
450,279,18119,2,0,P|426:203|334:179,1,179.999995231629,2|8,1:3|1:1,0:0:0:0:
357,79,18419,1,0,0:0:0:0:
357,79,18519,2,0,P|411:83|455:104,1,89.9999976158143,0|0,1:0|0:0,0:0:0:0:
269,259,18719,2,0,P|245:210|243:167,1,89.9999976158143,8|0,1:1|0:0,0:0:0:0:
32,60,18919,6,0,P|106:52|179:124,1,179.999995231629,4|8,1:0|0:1,0:0:0:0:
412,209,19219,1,0,0:0:0:0:
412,209,19319,2,0,B|371:195|371:195|317:201,1,89.9999976158143,0|0,1:0|0:0,0:0:0:0:
106,246,19519,2,0,B|152:251|152:251|193:237,1,89.9999976158143,8|0,0:1|0:0,0:0:0:0:
489,90,19719,5,8,1:0:0:0:
328,204,19919,1,0,1:0:0:0:
328,204,20019,1,8,1:0:0:0:
366,51,20219,1,0,1:0:0:0:
366,51,20319,1,8,1:0:0:0:
467,247,20519,5,4,1:0:0:0:
268,304,20719,1,8,0:1:0:0:
268,304,20819,1,0,0:0:0:0:
268,304,20919,2,0,L|275:212,1,89.9999976158143,0|0,1:0|0:0,0:0:0:0:
138,80,21119,1,8,0:1:0:0:
138,80,21219,1,0,0:0:0:0:
138,80,21319,2,0,L|141:178,1,89.9999976158143,2|0,1:3|0:0,0:0:0:0:
246,21,21519,2,0,L|243:119,1,89.9999976158143,8|0,0:1|0:0,0:0:0:0:
163,258,21719,1,0,1:0:0:0:
153,273,21819,1,0,0:0:0:0:
143,288,21919,2,0,P|105:311|58:321,1,89.9999976158143,8|0,1:0|0:0,0:0:0:0:
317,146,22119,5,4,1:1:0:0:
385,124,22219,1,0,0:0:0:0:
452,149,22319,2,2,P|490:237|306:297,1,269.999992847443,10|0,0:1|0:1,0:1:0:0:
372,333,22719,2,0,L|378:239,1,89.9999976158143,8|0,0:1|0:0,0:0:0:0:
226,205,22919,6,0,L|270:196,2,44.9999988079071,0|0|0,1:0|1:0|1:0,1:0:0:0:
276,330,23119,1,0,1:0:0:0:
276,330,23219,1,8,1:0:0:0:
372,129,23419,1,0,1:0:0:0:
372,129,23519,1,8,1:0:0:0:
57,360,23719,5,4,1:2:0:0:
194,311,23919,1,0,1:0:0:0:
194,311,24019,1,0,1:0:0:0:
194,311,24119,1,8,1:0:0:0:
296,288,24519,5,4,1:2:0:0:
119,217,24719,1,0,1:0:0:0:
119,217,24819,1,0,1:0:0:0:
119,217,24919,1,8,1:0:0:0:
16,169,25319,5,4,1:2:0:0:
247,102,25519,1,0,1:0:0:0:
247,102,25619,1,0,1:0:0:0:
247,102,25719,1,8,1:0:0:0:
128,92,25919,1,8,0:1:0:0:
157,191,26119,5,4,1:3:0:0:
174,192,26219,1,4,1:3:0:0:
191,193,26319,1,4,1:3:0:0:
208,194,26419,1,4,1:3:0:0:
288,234,26519,5,4,1:3:0:0:
305,235,26619,1,4,1:3:0:0:
322,236,26719,1,4,1:3:0:0:
339,237,26819,1,4,1:3:0:0:
413,290,26919,5,4,1:3:0:0:
207,346,27119,1,8,1:0:0:0:
207,346,27219,2,0,L|215:277,1,67.5000007867814,8|0,1:0|0:0,0:0:0:0:
112,281,27419,1,2,1:0:0:0:
112,281,27519,1,2,1:0:0:0:
314,321,27719,1,0,1:0:0:0:
157,171,27919,1,0,1:0:0:0:
322,208,28119,1,2,0:0:0:0:
346,79,28319,1,2,0:0:0:0:
333,80,28419,1,0,0:0:0:0:
321,87,28519,1,2,0:0:0:0:
154,46,28719,5,2,0:0:0:0:
154,46,28819,1,2,0:0:0:0:
154,46,28919,2,0,L|150:122,1,67.5000007867814,0|2,0:0|0:0,0:0:0:0:
238,79,29119,1,2,0:0:0:0:
77,155,29319,1,2,0:0:0:0:
77,155,29719,2,2,L|190:147,1,107.999997138977,0|0,0:0|0:0,0:1:0:0:
184,147,30119,6,2,P|199:244|183:314,1,143.999996185303,4|2,1:2|0:0,0:1:0:0:
112,236,30719,1,2,0:0:0:0:
290,205,30919,2,2,P|342:195|396:200,2,107.999997138977,2|0|2,0:0|0:0|0:0,0:1:0:0:
356,108,31719,2,2,P|417:104|443:289,1,287.999992370606,2|2,1:1|0:0,0:0:0:0:
191,356,32919,5,2,0:0:0:0:
112,368,33119,1,0,0:0:0:0:
33,380,33319,2,2,P|22:300|39:208,1,143.999996185303,4|0,1:2|0:0,0:1:0:0:
29,237,34119,2,2,L|165:248,2,107.999997138977,2|0|2,0:0|0:0|0:0,0:1:0:0:
100,26,34919,6,0,L|94:54,1,17.9999995231628,2|0,1:2|0:0,0:0:0:0:
178,42,35119,1,2,0:0:0:0:
375,127,35319,5,2,0:0:0:0:
219,159,35519,1,0,0:0:0:0:
391,328,35719,5,2,0:0:0:0:
284,309,35919,1,2,0:0:0:0:
177,291,36119,1,2,0:0:0:0:
399,132,36519,6,0,L|406:165,1,17.9999995231628,6|0,1:2|0:0,0:0:0:0:
318,142,36719,1,2,0:0:0:0:
239,152,36919,1,2,0:0:0:0:
99,49,37119,5,0,0:0:0:0:
99,49,37319,2,2,P|102:115|110:215,1,143.999996185303,2|2,0:0|0:0,0:1:0:0:
268,223,37919,1,0,0:0:0:0:
268,223,38119,2,2,P|212:226|189:316,1,143.999996185303,2|2,1:2|0:1,0:1:0:0:
452,300,38719,1,2,0:0:0:0:
452,300,38919,2,2,B|375:291|375:291|306:316,1,143.999996185303,2|2,0:1|0:0,0:1:0:0:
140,69,39719,6,0,L|134:97,1,17.9999995231628,2|0,1:2|0:0,0:0:0:0:
218,84,39919,1,2,0:0:0:0:
296,100,40119,1,2,0:0:0:0:
427,231,40319,5,0,0:0:0:0:
427,231,40519,2,2,P|348:212|282:251,1,143.999996185303,2|2,0:0|0:0,0:1:0:0:
204,369,41119,1,2,0:1:0:0:
204,369,41319,2,0,B|192:297|192:297|203:227,1,143.999996185303,4|2,1:2|0:1,0:0:0:0:
428,350,41919,1,0,0:0:0:0:
428,350,42119,2,2,P|362:377|295:356,1,143.999996185303,0|0,0:0|0:0,0:1:0:0:
41,230,42719,5,2,0:0:0:0:
41,230,42919,2,2,B|110:199|201:231,1,143.999996185303,2|2,1:1|0:1,0:1:0:0:
247,165,43519,1,2,0:0:0:0:
365,173,43719,2,2,P|305:246|296:272,2,107.999997138977,2|0|2,0:0|0:0|0:0,0:1:0:0:
207,323,44519,2,2,P|272:358|414:225,1,287.999992370606,4|2,1:2|0:0,0:2:0:0:
159,39,45719,5,2,0:0:0:0:
236,54,45919,1,2,0:0:0:0:
313,70,46119,2,2,P|304:121|267:224,1,143.999996185303,0|2,1:0|0:1,0:1:0:0:
274,208,46919,2,2,L|160:175,2,107.999997138977,2|0|2,0:0|0:0|0:0,0:1:0:0:
53,356,47719,5,4,1:2:0:0:
131,350,47919,1,2,0:0:0:0:
0,232,48119,5,2,0:0:0:0:
68,266,48319,1,0,0:0:0:0:
144,199,48519,5,2,0:0:0:0:
186,265,48719,1,2,0:0:0:0:
229,331,48919,1,2,0:0:0:0:
445,323,49319,6,0,L|437:353,1,17.9999995231628,2|0,1:2|0:0,0:0:0:0:
360,298,49519,1,2,0:0:0:0:
428,213,49719,2,2,P|358:206|284:218,1,143.999996185303,2|0,0:0|0:0,0:1:0:0:
187,319,50319,2,2,L|191:157,1,143.999996185303,2|2,0:1|0:1,0:0:0:0:
285,96,50919,6,2,P|340:72|392:15,2,107.999997138977,4|0|2,1:2|0:0|0:0,0:1:0:0:
91,103,51719,2,2,L|104:259,1,143.999996185303,2|0,0:0|0:0,0:1:0:0:
279,196,52319,1,2,0:0:0:0:
279,196,52519,2,2,L|268:343,1,143.999996185303,2|2,1:0|0:0,0:0:0:0:
359,309,53119,1,2,0:1:0:0:
435,210,53319,2,2,P|476:270|477:341,1,143.999996185303,2|2,0:0|0:1,0:1:0:0:
238,53,54119,6,2,L|383:66,1,143.999996185303,4|2,1:2|0:0,0:0:0:0:
2,211,55319,5,0,1:0:0:0:
303,158,55719,1,0,1:0:0:0:
300,252,55919,1,0,1:0:0:0:
303,260,56119,1,2,0:0:0:0:
306,268,56319,1,2,0:0:0:0:
309,276,56519,1,0,0:0:0:0:
312,284,56719,1,2,0:0:0:0:
315,292,56919,5,8,1:0:0:0:
207,279,57119,1,2,0:0:0:0:
408,249,57319,6,0,P|375:171|408:75,1,179.999995231629,4|8,1:2|1:0,0:0:0:0:
401,83,57819,1,0,0:0:0:0:
401,83,57919,1,0,1:0:0:0:
191,84,58119,1,2,0:0:0:0:
282,113,58319,1,8,1:0:0:0:
182,202,58519,1,2,0:0:0:0:
93,147,58719,1,8,1:0:0:0:
348,371,58919,5,4,1:2:0:0:
332,272,59119,1,0,1:0:0:0:
335,264,59319,1,2,0:0:0:0:
338,256,59519,1,2,0:0:0:0:
341,248,59719,1,0,0:0:0:0:
344,240,59919,1,2,0:0:0:0:
347,232,60119,5,8,1:0:0:0:
450,267,60319,1,2,0:0:0:0:
256,258,60519,6,0,P|205:266|165:376,1,179.999995231629,4|8,1:2|1:0,0:0:0:0:
172,381,61019,1,0,0:0:0:0:
172,381,61119,2,0,L|222:372,1,44.9999988079071,0|0,1:0|0:0,0:0:0:0:
73,314,61319,2,0,L|66:202,1,89.9999976158143,2|8,0:0|1:0,0:0:0:0:
25,140,61719,2,0,B|64:118|64:118|118:114,1,89.9999976158143,0|8,1:0|1:0,0:0:0:0:
206,167,62019,5,2,0:0:0:0:
206,167,62119,2,0,B|271:154|271:154|355:167,1,135.000001573563,4|0,1:2|0:0,0:0:0:0:
271,253,62419,1,0,0:0:0:0:
271,253,62519,2,0,L|197:271,1,67.5000007867814,8|0,1:0|0:0,0:0:0:0:
384,375,62719,2,0,L|405:227,1,135.000001573563,2|0,0:0|1:0,0:0:0:0:
465,36,63119,6,0,P|429:33|377:45,1,67.5000007867814,0|0,1:0|0:0,0:0:0:0:
272,166,63319,2,0,P|308:169|360:157,1,67.5000007867814,8|0,1:0|0:0,0:0:0:0:
211,35,63519,2,0,P|177:30|144:33,1,67.5000007867814,0|0,1:0|0:0,0:0:0:0:
207,237,63719,6,0,P|103:217|75:114,1,202.500002360344,4|0,1:2|0:0,0:0:0:0:
165,150,64119,2,0,B|205:133|205:133|303:146,1,135.000001573563,8|0,1:0|1:0,0:0:0:0:
310,236,64419,1,0,0:0:0:0:
310,236,64519,2,0,L|295:306,1,67.5000007867814,2|0,0:0|0:0,0:0:0:0:
397,174,64719,2,0,P|389:96|272:41,1,202.500002360344,8|0,1:0|0:0,0:0:0:0:
42,44,65119,5,10,0:0:0:0:
59,53,65219,1,0,0:0:0:0:
69,70,65319,2,0,L|78:219,1,135.000001573563,4|0,1:2|1:0,0:0:0:0:
220,153,65619,1,0,0:0:0:0:
220,153,65719,2,0,L|310:139,1,67.5000007867814,8|0,1:0|0:0,0:0:0:0:
241,262,65919,2,0,L|165:263,1,67.5000007867814,2|0,0:0|0:0,0:0:0:0:
345,362,66119,2,0,P|340:284|481:269,1,202.500002360344,2|0,0:0|0:0,0:0:0:0:
503,156,66519,2,0,P|439:136|359:145,1,135.000001573563,8|0,1:0|1:0,0:0:0:0:
127,174,66919,6,0,B|57:254|57:254|36:239|45:217,1,135.000001573563,4|0,1:0|0:0,0:0:0:0:
208,132,67219,2,0,B|128:62|128:62|143:41|165:50,1,135.000001573563,4|0,1:0|0:0,0:0:0:0:
0,120,67519,2,0,L|69:120,1,67.5000007867814,8|0,1:0|0:0,0:0:0:0:
250,213,67719,6,0,B|320:133|320:133|341:148|332:170,1,135.000001573563,4|0,1:0|0:0,0:0:0:0:
169,255,68019,2,0,B|249:325|249:325|234:346|212:337,1,135.000001573563,4|0,1:0|0:0,0:0:0:0:
323,276,68319,2,0,L|419:270,1,67.5000007867814,8|0,1:0|0:0,0:0:0:0:
256,192,68519,12,4,69119,0:2:0:0:
430,88,69619,5,0,1:0:0:0:
430,88,69719,1,8,1:0:0:0:
341,111,69919,1,4,0:2:0:0:
252,134,70119,2,0,L|256:183,2,45.0000005245209,2|0|0,1:2|0:0|0:0,0:0:0:0:
427,219,70719,2,0,L|420:265,1,45.0000005245209,2|0,1:2|0:0,0:0:0:0:
15,187,71719,5,4,1:2:0:0:
98,96,72519,6,2,P|36:120|7:179,1,135.000001573563,2|0,0:0|0:0,0:2:0:0:
7,178,72819,1,2,0:0:0:0:
7,178,72919,1,8,1:0:0:0:
89,173,73019,5,8,1:0:0:0:
127,236,73119,1,8,1:0:0:0:
73,294,73219,1,8,1:0:0:0:
5,259,73319,2,0,L|117:237,1,112.499997019768,4|0,1:0|0:0,0:0:0:0:
420,350,73519,2,0,P|399:246|296:223,1,224.999994039536,8|0,1:0|1:0,0:0:0:0:
211,256,73819,1,0,0:0:0:0:
217,179,73919,1,8,1:0:0:0:
279,134,74019,1,0,0:0:0:0:
279,134,74119,2,0,L|419:128,1,112.499997019768,2|0,1:3|0:0,0:0:0:0:
251,37,74319,2,0,L|131:53,1,112.499997019768,8|0,1:0|0:0,0:0:0:0:
439,35,74519,2,0,P|492:129|410:241,1,224.999994039536,0|8,1:0|1:0,0:0:0:0:
176,361,74919,6,0,P|123:271|202:157,1,224.999994039536,4|8,1:0|1:0,0:0:0:0:
221,260,75219,1,0,0:0:0:0:
221,260,75319,2,0,B|276:247|276:247|345:262,1,112.499997019768,0|0,1:0|0:0,0:0:0:0:
402,162,75519,2,0,B|325:76|325:76|210:43,1,224.999994039536,8|2,1:0|1:3,0:0:0:0:
113,78,75819,1,0,0:0:0:0:
113,78,75919,2,0,P|83:131|83:189,1,112.499997019768,8|0,1:0|0:0,0:0:0:0:
266,152,76119,2,0,P|262:207|234:255,1,112.499997019768,0|0,1:0|0:0,0:0:0:0:
18,322,76319,2,0,P|67:296|123:297,1,112.499997019768,8|0,1:0|0:0,0:0:0:0:
394,366,76519,6,0,B|343:262|343:262|393:139,1,224.999994039536,4|8,1:0|1:0,0:0:0:0:
451,262,76819,1,0,0:0:0:0:
451,262,76919,2,0,L|504:369,1,112.499997019768,0|0,1:0|0:0,0:0:0:0:
282,376,77119,2,0,L|255:256,1,112.499997019768,8|0,1:0|0:0,0:0:0:0:
244,31,77319,5,10,1:2:0:0:
438,183,77519,1,0,1:2:0:0:
438,183,77619,1,10,1:2:0:0:
464,14,77819,1,0,1:2:0:0:
464,14,77919,1,10,1:2:0:0:
257,198,78119,6,0,B|142:196|142:196|38:278,1,224.999994039536,4|8,1:0|1:0,0:0:0:0:
207,282,78419,1,0,0:0:0:0:
207,282,78519,2,0,B|260:293|260:293|327:276,1,112.499997019768,0|0,1:0|0:0,0:0:0:0:
349,138,78719,2,0,P|246:93|149:162,1,224.999994039536,8|2,1:0|1:3,0:0:0:0:
37,340,79019,1,0,0:0:0:0:
37,340,79119,2,0,L|163:328,1,112.499997019768,8|0,1:0|0:0,0:0:0:0:
317,279,79319,2,0,L|460:294,1,112.499997019768,0|0,1:0|0:0,0:0:0:0:
208,247,79519,6,0,P|161:192|43:268,1,224.999994039536,8|4,1:0|1:0,0:0:0:0:
300,186,79819,1,0,0:0:0:0:
300,186,79919,2,0,P|351:135|462:221,1,224.999994039536,8|0,1:0|1:0,0:0:0:0:
265,92,80219,5,2,1:2:0:0:
186,102,80319,1,8,1:0:0:0:
108,112,80419,1,2,1:2:0:0:
30,123,80519,1,8,1:0:0:0:
220,31,80719,5,10,1:2:0:0:
298,40,80819,1,0,1:0:0:0:
376,49,80919,1,10,1:2:0:0:
454,59,81019,1,0,1:0:0:0:
454,59,81119,2,0,L|434:187,1,112.499997019768,10|0,1:2|0:0,0:0:0:0:
251,333,81319,6,0,B|329:333|329:333|380:284|380:284|456:284,1,224.999994039536,12|0,1:0|0:0,0:0:0:0:
111,247,81719,2,0,B|189:247|189:247|240:198|240:198|316:198,1,224.999994039536,12|0,1:0|0:0,0:0:0:0:
53,142,82119,2,0,B|92:142|92:142|117:117|117:117|155:117,1,112.499997019768,12|0,1:0|0:0,0:0:0:0:
312,7,82319,6,0,L|291:127,1,112.499997019768,12|0,1:0|0:0,0:0:0:0:
388,247,82519,2,0,P|396:191|382:138,1,112.499997019768,12|0,1:0|0:0,0:0:0:0:
220,172,82719,2,0,P|204:226|213:282,1,112.499997019768,8|0,1:0|0:0,0:0:0:0:
417,343,82919,6,0,L|300:333,1,112.499997019768,12|0,1:0|0:0,0:0:0:0:
125,160,83119,1,8,1:0:0:0:
167,96,83219,1,8,1:0:0:0:
243,85,83319,1,8,1:0:0:0:
302,134,83419,1,8,1:0:0:0:
305,211,83519,2,0,P|360:220|446:80,1,224.999994039536,4|0,1:0|1:0,0:0:0:0:
466,292,83819,1,0,0:0:0:0:
466,292,83919,2,0,L|348:315,1,112.499997019768,8|0,1:0|0:0,0:0:0:0:
138,366,84119,5,8,1:0:0:0:
71,329,84219,1,8,1:0:0:0:
64,253,84319,1,8,1:0:0:0:
121,204,84419,1,8,1:0:0:0:
194,223,84519,2,0,P|301:227|331:110,1,224.999994039536,4|8,1:0|1:0,0:0:0:0:
139,135,84819,1,0,0:0:0:0:
139,135,84919,2,0,L|250:152,1,112.499997019768,0|0,1:0|0:0,0:0:0:0:
419,78,85119,2,0,B|430:137|430:137|412:198,1,112.499997019768,8|0,1:0|0:0,0:0:0:0:
282,43,85319,2,0,L|51:47,1,224.999994039536,2|8,1:3|1:0,0:0:0:0:
44,235,85619,1,0,0:0:0:0:
44,235,85719,2,0,L|168:237,1,112.499997019768,0|0,1:0|0:0,0:0:0:0:
367,350,85919,6,0,P|442:306|375:213,1,224.999994039536,8|4,1:0|1:0,0:0:0:0:
282,324,86219,1,0,0:0:0:0:
282,324,86319,2,0,B|258:212|258:212|294:101,1,224.999994039536,8|0,1:0|1:0,0:0:0:0:
173,241,86619,1,0,0:0:0:0:
157,318,86719,1,8,1:0:0:0:
80,336,86819,1,0,0:0:0:0:
16,289,86919,1,2,1:3:0:0:
12,176,87019,5,0,0:0:0:0:
12,176,87119,2,0,L|97:258,1,112.499997019768,8|0,1:0|0:0,0:0:0:0:
150,140,87319,2,0,L|274:126,1,112.499997019768,0|0,1:0|0:0,0:0:0:0:
377,182,87519,2,0,L|289:252,1,112.499997019768,8|0,1:0|0:0,0:0:0:0:
403,32,87719,6,0,L|178:19,1,224.999994039536,4|8,1:0|1:0,0:0:0:0:
177,240,88019,1,0,0:0:0:0:
177,240,88119,2,0,L|293:252,1,112.499997019768,0|0,1:0|0:0,0:0:0:0:
118,142,88319,2,0,P|64:249|132:340,1,224.999994039536,8|2,1:0|1:3,0:0:0:0:
248,170,88619,1,0,0:0:0:0:
248,170,88719,2,0,B|301:164|301:164|357:183,1,112.499997019768,8|0,1:0|0:0,0:0:0:0:
334,335,88919,2,0,B|281:341|281:341|225:322,1,112.499997019768,0|0,1:0|0:0,0:0:0:0:
451,213,89119,2,0,L|430:342,1,112.499997019768,8|0,1:0|0:0,0:0:0:0:
414,109,89319,6,0,B|305:73|305:73|184:97,1,224.999994039536,4|8,1:0|1:0,0:0:0:0:
135,274,89619,1,0,0:0:0:0:
135,274,89719,2,0,L|119:156,1,112.499997019768,0|0,1:0|0:0,0:0:0:0:
357,183,89919,2,0,L|336:305,1,112.499997019768,8|0,1:0|2:0,0:0:0:0:
83,377,90119,5,10,1:2:0:0:
258,258,90319,1,0,1:2:0:0:
258,258,90419,1,10,1:2:0:0:
42,244,90619,1,0,1:2:0:0:
42,244,90719,1,10,1:2:0:0:
258,369,90919,6,0,L|374:360,1,112.499997019768,4|0,1:0|0:0,0:0:0:0:
487,191,91119,1,8,1:0:0:0:
487,191,91219,2,0,P|399:177|330:292,1,224.999994039536,0|0,1:0|1:0,0:0:0:0:
152,358,91519,2,0,L|129:120,1,224.999994039536,8|2,1:0|1:3,0:0:0:0:
240,255,91819,1,0,0:0:0:0:
240,255,91919,2,0,L|245:137,1,112.499997019768,8|0,1:0|0:0,0:0:0:0:
38,262,92119,2,0,L|33:144,1,112.499997019768,0|0,1:0|0:0,0:0:0:0:
193,40,92319,2,0,L|75:45,1,112.499997019768,8|0,1:0|0:0,0:0:0:0:
322,74,92519,6,0,P|365:52|467:174,1,224.999994039536,4|8,1:0|1:0,0:0:0:0:
247,256,92819,2,0,B|354:225|354:225|470:264,1,224.999994039536,0|0,1:0|1:0,0:0:0:0:
186,339,93119,1,8,1:0:0:0:
147,272,93219,1,8,1:0:0:0:
168,198,93319,1,10,1:0:0:0:
236,162,93419,1,8,1:0:0:0:
309,185,93519,5,8,1:0:0:0:
294,202,93619,1,4,0:3:0:0:
279,219,93719,1,4,0:3:0:0:
265,236,93819,1,4,1:3:0:0:
251,253,93919,1,4,0:3:0:0:
241,272,94019,5,4,0:3:0:0:
241,272,94119,1,4,1:0:0:0:
438,249,94319,1,0,1:0:0:0:
321,79,94519,1,2,0:0:0:0:
321,79,94619,1,2,0:0:0:0:
321,79,94719,1,8,1:1:0:0:
12,190,95119,1,0,1:0:0:0:
175,85,95319,5,2,0:0:0:0:
164,156,95419,1,0,0:0:0:0:
155,227,95519,1,2,0:0:0:0:
452,351,95719,5,4,1:0:0:0:
55,292,96119,5,0,1:0:0:0:
419,219,96452,5,0,1:0:0:0:
419,219,96519,1,12,1:0:0:0:
135,173,96919,5,0,1:0:0:0:
473,82,97319,6,0,B|335:28|335:152|210:73,1,269.999992847443,4|4,1:2|1:0,0:0:0:0:
256,192,98019,12,0,99719,0:0:0:0:
52,99,99919,5,2,0:0:0:0:
133,155,100119,1,2,0:0:0:0:
133,155,100219,1,0,0:0:0:0:
133,155,100319,1,2,0:0:0:0:
210,86,100519,1,0,0:0:0:0:
209,94,100619,1,2,0:0:0:0:
208,102,100719,1,0,0:0:0:0:
207,110,100819,1,2,0:0:0:0:
206,118,100919,2,0,L|246:131,5,29.9999992052714,2|0|2|2|2|0,0:0|0:0|0:0|0:0|0:0|0:0,0:0:0:0:
248,162,101319,5,2,0:0:0:0:
339,163,101519,1,2,0:0:0:0:
430,164,101719,2,0,L|427:186,1,22.4999994039536,2|0,0:0|0:0,0:0:0:0:
69,344,102069,6,0,L|72:312,2,22.4999994039536,0|2|0,0:0|0:0|0:0,0:0:0:0:
194,335,102319,1,2,0:0:0:0:
202,336,102419,1,0,0:0:0:0:
210,337,102519,2,0,L|223:297,5,29.9999992052714,2|0|2|2|2|0,0:0|0:0|0:0|0:0|0:0|0:0,0:0:0:0:
237,297,102919,5,2,0:0:0:0:
327,307,103119,1,2,0:0:0:0:
417,318,103319,2,0,L|414:286,1,22.4999994039536,2|0,0:0|0:0,0:0:0:0:
319,30,103719,5,4,0:1:0:0:
248,99,103919,1,2,0:0:0:0:
250,107,104019,1,0,0:0:0:0:
252,115,104119,2,0,L|212:128,6,29.9999992052714,2|0|2|2|2|0|2,0:0|0:0|0:0|0:0|0:0|0:0|0:0,0:0:0:0:
461,189,104919,5,2,0:0:0:0:
288,217,105119,1,2,0:0:0:0:
115,245,105319,1,4,0:0:0:0:
119,252,105419,1,2,0:0:0:0:
123,259,105519,1,0,0:0:0:0:
127,267,105619,1,2,0:0:0:0:
131,275,105719,2,0,L|172:266,5,29.9999992052714,2|0|2|2|2|0,0:0|0:0|0:0|0:0|0:0|0:0,0:0:0:0:
180,294,106119,5,2,0:0:0:0:
271,295,106319,1,2,0:0:0:0:
362,296,106519,2,0,L|359:264,1,22.4999994039536,2|0,0:0|0:0,0:0:0:0:
454,112,106869,6,0,L|449:140,2,22.4999994039536,0|2|0,0:0|0:0|0:0,0:0:0:0:
316,164,107119,1,2,0:0:0:0:
307,162,107219,1,0,0:0:0:0:
298,160,107319,2,0,L|285:120,5,29.9999992052714,2|0|2|2|2|0,0:0|0:0|0:0|0:0|0:0|0:0,0:0:0:0:
258,114,107719,5,2,0:0:0:0:
168,104,107919,1,2,0:0:0:0:
78,93,108119,2,0,L|81:125,1,22.4999994039536,2|0,0:0|0:0,0:0:0:0:
249,353,108519,5,0,0:0:0:0:
173,298,108719,1,2,0:0:0:0:
175,290,108819,1,0,0:0:0:0:
177,282,108919,2,0,L|205:272,6,29.9999992052714,2|0|2|2|2|0|2,0:0|0:0|0:0|0:0|0:0|0:0|0:0,0:0:0:0:
401,55,109719,5,0,0:0:0:0:
233,91,109919,1,2,0:0:0:0:
133,158,110119,5,2,0:0:0:0:
265,186,110319,1,2,0:0:0:0:
295,265,110519,5,0,0:0:0:0:
207,274,110719,1,2,0:0:0:0:
59,377,110919,5,6,1:2:0:0:
390,317,111519,5,2,0:0:0:0:
390,317,111619,1,0,0:0:0:0:
390,317,111719,1,0,1:0:0:0:
285,320,111919,1,2,0:0:0:0:
201,224,112119,5,2,0:0:0:0:
349,212,112319,1,0,0:0:0:0:
426,102,112519,5,0,1:0:0:0:
261,87,112719,1,0,1:0:0:0:
261,87,112819,1,0,1:0:0:0:
261,87,112919,2,0,P|250:148|260:201,1,107.999997138977,8|0,1:0|0:0,0:0:0:0:
257,192,113319,6,2,L|409:182,1,143.999996185303,4|2,1:2|0:0,0:1:0:0:
470,93,113919,1,2,0:0:0:0:
470,93,114119,2,2,P|413:84|344:54,2,107.999997138977,2|0|2,0:0|0:0|0:0,0:1:0:0:
512,326,114919,2,2,P|374:292|235:340,1,287.999992370606,2|2,0:1|0:0,0:0:0:0:
77,210,116119,5,2,0:0:0:0:
88,130,116319,1,0,0:0:0:0:
101,52,116519,2,2,P|180:66|262:110,1,143.999996185303,2|0,0:0|0:0,0:1:0:0:
238,93,117319,2,2,L|204:211,2,107.999997138977,2|0|2,0:0|0:0|0:0,0:1:0:0:
172,306,118119,6,0,L|175:323,1,17.9999995231628,2|0,0:0|0:0,0:0:0:0:
250,290,118319,1,2,0:0:0:0:
313,166,118519,5,2,0:0:0:0:
157,198,118719,1,2,0:0:0:0:
250,290,118919,5,0,0:0:0:0:
357,308,119119,1,2,0:0:0:0:
464,327,119319,1,2,0:0:0:0:
399,132,119719,6,0,L|406:165,1,17.9999995231628,2|0,0:0|0:0,0:0:0:0:
318,142,119919,1,2,0:0:0:0:
239,152,120119,1,2,0:0:0:0:
350,267,120319,5,0,0:0:0:0:
350,267,120519,2,2,P|402:289|416:369,1,143.999996185303,2|2,0:0|0:0,0:1:0:0:
261,349,121119,1,2,0:0:0:0:
261,349,121319,2,2,L|111:323,1,143.999996185303,0|2,0:0|0:1,0:1:0:0:
9,198,121919,1,2,0:0:0:0:
9,198,122119,2,2,B|79:191|79:191|155:214,1,143.999996185303,2|0,0:0|0:0,0:1:0:0:
388,92,122919,6,0,L|394:120,1,17.9999995231628,2|0,0:0|0:0,0:0:0:0:
310,107,123119,1,2,0:0:0:0:
232,123,123319,1,2,0:0:0:0:
67,27,123519,5,2,0:0:0:0:
67,27,123719,2,2,P|48:106|87:172,1,143.999996185303,2|0,0:0|0:0,0:1:0:0:
290,195,124319,1,2,0:0:0:0:
290,195,124519,2,2,B|218:183|218:183|148:194,1,143.999996185303,6|2,1:2|0:1,0:1:0:0:
83,365,125119,1,2,0:0:0:0:
83,365,125319,2,2,P|56:299|77:232,1,143.999996185303,2|0,0:1|0:0,0:0:0:0:
290,300,125919,5,2,0:0:0:0:
290,300,126119,2,2,B|221:269|130:301,1,143.999996185303,0|0,1:0|0:0,0:1:0:0:
166,205,126719,1,2,0:0:0:0:
200,114,126919,2,2,P|273:174|299:183,2,107.999997138977,2|0|2,0:0|0:0|0:0,0:1:0:0:
278,65,127719,6,2,P|390:140|362:272,1,287.999992370606,4|2,1:2|0:0,0:2:0:0:
62,357,128919,5,2,0:0:0:0:
77,280,129119,1,2,0:0:0:0:
93,203,129319,2,2,P|144:212|247:249,1,143.999996185303,0|0,1:0|0:0,0:1:0:0:
231,241,130119,2,2,L|192:351,2,107.999997138977,2|0|2,0:0|0:0|0:0,0:1:0:0:
472,354,130919,5,6,1:2:0:0:
394,348,131119,1,2,0:0:0:0:
511,176,131319,5,2,0:0:0:0:
434,243,131519,1,0,0:0:0:0:
268,136,131719,5,2,0:0:0:0:
310,202,131919,1,2,0:0:0:0:
353,268,132119,1,2,0:0:0:0:
86,313,132519,6,0,L|94:343,1,17.9999995231628,2|0,1:2|0:0,0:0:0:0:
171,288,132719,1,2,0:0:0:0:
103,203,132919,2,2,P|173:196|247:208,1,143.999996185303,2|0,0:0|0:0,0:1:0:0:
353,343,133519,2,2,L|357:181,1,143.999996185303,2|2,0:1|0:1,0:0:0:0:
245,68,134119,6,2,P|300:44|352:-13,2,107.999997138977,6|0|2,1:2|0:0|0:0,0:1:0:0:
124,29,134919,2,2,L|137:185,1,143.999996185303,2|2,0:0|0:0,0:1:0:0:
62,262,135519,1,2,0:0:0:0:
62,262,135719,2,2,B|130:277|130:277|209:273,1,143.999996185303,0|2,1:2|0:0,0:1:0:0:
251,170,136319,1,2,0:0:0:0:
354,132,136519,2,2,P|357:201|292:273,1,143.999996185303,2|0,0:1|0:0,0:0:0:0:
457,375,137319,6,2,L|464:229,1,143.999996185303,6|0,1:2|0:0,0:2:0:0:
248,186,138519,5,0,1:0:0:0:
9,257,138919,1,0,1:0:0:0:
73,154,139119,1,0,1:0:0:0:
79,160,139319,1,2,0:0:0:0:
85,166,139519,1,2,0:0:0:0:
91,172,139719,1,2,0:0:0:0:
97,178,139919,1,0,0:0:0:0:
103,184,140119,5,8,1:0:0:0:
206,144,140319,1,2,0:0:0:0:
232,242,140519,6,0,P|299:228|423:241,1,179.999995231629,4|0,1:2|1:0,0:0:0:0:
409,237,141019,1,0,0:0:0:0:
409,237,141119,1,8,1:0:0:0:
234,339,141319,1,2,0:0:0:0:
125,289,141519,1,8,1:0:0:0:
212,253,141719,1,0,0:0:0:0:
154,372,141919,1,8,1:0:0:0:
463,105,142119,5,0,1:0:0:0:
334,55,142319,1,0,1:0:0:0:
335,63,142519,1,2,0:0:0:0:
336,71,142719,1,2,0:0:0:0:
337,79,142919,1,2,0:0:0:0:
338,87,143119,1,0,0:0:0:0:
339,95,143319,5,8,1:0:0:0:
218,66,143519,1,2,0:0:0:0:
263,169,143719,6,0,P|250:227|327:313,1,179.999995231629,4|8,1:2|1:0,0:0:0:0:
331,319,144219,1,0,0:0:0:0:
331,319,144319,2,0,L|350:261,1,44.9999988079071,0|0,1:0|0:0,0:0:0:0:
168,269,144519,2,0,L|144:170,1,89.9999976158143,2|8,0:0|1:0,0:0:0:0:
362,178,144919,2,0,L|387:87,1,89.9999976158143,0|8,1:0|1:0,0:0:0:0:
462,289,145219,5,0,0:0:0:0:
462,289,145319,2,0,B|331:318,1,135.000001573563,4|0,1:2|0:0,0:0:0:0:
221,212,145619,1,0,0:0:0:0:
221,212,145719,2,0,L|308:232,1,67.5000007867814,8|0,1:0|0:0,0:0:0:0:
114,344,145919,2,0,L|120:203,1,135.000001573563,2|0,0:0|1:0,0:0:0:0:
49,40,146319,6,0,P|82:80|108:92,1,67.5000007867814,0|0,1:0|0:0,0:0:0:0:
267,73,146519,2,0,P|297:58|330:56,1,67.5000007867814,8|0,1:0|0:0,0:0:0:0:
443,184,146719,2,0,P|440:217|425:247,1,67.5000007867814,0|0,1:0|0:0,0:0:0:0:
222,154,146919,6,0,P|242:244|348:277,1,202.500002360344,4|0,1:2|0:0,0:0:0:0:
319,179,147319,2,0,B|370:137|370:137|450:137,1,135.000001573563,8|0,1:0|1:0,0:0:0:0:
443,251,147619,1,0,0:0:0:0:
443,251,147719,2,0,L|434:331,1,67.5000007867814,2|0,0:0|0:0,0:0:0:0:
246,362,147919,2,0,B|150:320|150:320|48:333,1,202.500002360344,8|0,1:0|0:0,0:0:0:0:
34,102,148319,5,10,0:0:0:0:
42,120,148419,1,0,0:0:0:0:
53,136,148519,2,0,P|110:152|183:138,1,135.000001573563,4|0,1:2|1:0,0:0:0:0:
259,249,148819,1,0,0:0:0:0:
259,249,148919,2,0,L|181:230,1,67.5000007867814,8|0,1:0|0:0,0:0:0:0:
288,162,149119,2,0,L|354:151,1,67.5000007867814,2|0,0:0|0:0,0:0:0:0:
346,268,149319,2,0,P|302:327|183:305,1,202.500002360344,2|0,0:0|0:0,0:0:0:0:
60,224,149719,2,0,B|126:217|126:217|218:238,1,135.000001573563,8|0,1:0|1:0,0:0:0:0:
472,121,150119,6,0,P|415:156|430:231,1,135.000001573563,4|0,1:0|0:0,0:0:0:0:
313,120,150419,2,0,L|167:103,1,135.000001573563,4|0,1:0|0:0,0:0:0:0:
47,73,150719,2,0,P|65:102|64:135,1,67.5000007867814,8|0,1:0|0:0,0:0:0:0:
54,345,150919,6,0,P|56:281|1:249,1,135.000001573563,4|0,1:0|0:0,0:0:0:0:
160,246,151219,2,0,L|306:229,1,135.000001573563,4|0,1:0|0:0,0:0:0:0:
404,275,151519,2,0,P|403:242|421:213,1,67.5000007867814,8|0,1:0|0:0,0:0:0:0:
256,192,151719,12,0,152319,1:2:0:0:
82,88,152819,5,0,1:0:0:0:
82,88,152919,1,8,1:0:0:0:
171,111,153119,1,4,0:2:0:0:
260,134,153319,2,0,L|255:180,2,45.0000005245209,2|0|0,1:2|0:0|0:0,0:0:0:0:
85,219,153919,2,0,L|90:264,1,45.0000005245209,2|0,1:2|0:0,0:0:0:0:
497,187,154919,5,4,1:2:0:0:
406,269,155719,6,2,P|468:245|497:186,1,135.000001573563,2|0,0:0|0:0,0:2:0:0:
496,185,156019,1,2,0:0:0:0:
496,185,156119,1,8,1:0:0:0:
425,171,156219,5,8,1:0:0:0:
350,194,156319,1,8,1:0:0:0:
275,180,156419,1,8,1:0:0:0:
200,192,156519,2,0,P|104:191|48:195,1,112.499997019768,4|0,1:0|0:0,0:0:0:0:
202,90,156719,2,0,P|271:66|379:158,1,224.999994039536,8|0,1:0|1:0,0:0:0:0:
228,284,157019,1,0,0:0:0:0:
149,280,157119,1,8,1:0:0:0:
91,333,157219,1,0,0:0:0:0:
91,333,157319,2,0,P|138:351|203:354,1,112.499997019768,2|0,1:3|0:0,0:0:0:0:
299,255,157519,2,0,P|291:205|261:147,1,112.499997019768,8|0,1:0|0:0,0:0:0:0:
40,239,157719,2,0,P|90:127|200:113,1,224.999994039536,0|8,1:0|1:0,0:0:0:0:
440,123,158119,6,0,P|390:235|280:249,1,224.999994039536,4|8,1:0|1:0,0:0:0:0:
330,144,158419,1,0,0:0:0:0:
330,144,158519,2,0,L|337:22,1,112.499997019768,0|0,1:0|0:0,0:0:0:0:
23,110,158719,2,0,B|97:112|97:112|157:159|157:159|247:163,1,224.999994039536,8|2,1:0|1:3,0:0:0:0:
74,215,159019,1,0,0:0:0:0:
74,215,159119,2,0,L|83:335,1,112.499997019768,8|0,1:0|0:0,0:0:0:0:
408,232,159319,2,0,L|385:365,1,112.499997019768,0|0,1:0|0:0,0:0:0:0:
189,263,159519,2,0,L|207:377,1,112.499997019768,8|0,1:0|0:0,0:0:0:0:
299,285,159719,6,0,L|321:42,1,224.999994039536,4|8,1:0|1:0,0:0:0:0:
226,129,160019,1,0,0:0:0:0:
226,129,160119,2,0,B|166:129|166:129|112:166,1,112.499997019768,0|0,1:0|0:0,0:0:0:0:
400,141,160319,2,0,B|459:151|459:151|505:197,1,112.499997019768,8|0,1:0|0:0,0:0:0:0:
203,224,160519,5,10,1:2:0:0:
422,225,160719,1,0,1:0:0:0:
422,225,160819,1,10,1:2:0:0:
217,340,161019,1,0,1:0:0:0:
217,340,161119,1,10,1:2:0:0:
31,277,161319,6,0,B|107:280|107:280|167:245|167:245|259:247,1,224.999994039536,4|8,1:0|1:0,0:0:0:0:
373,273,161619,1,0,0:0:0:0:
373,273,161719,2,0,L|356:394,1,112.499997019768,0|0,1:0|0:0,0:0:0:0:
503,199,161919,2,0,P|401:139|310:207,1,224.999994039536,8|2,1:0|1:3,0:0:0:0:
119,178,162219,1,0,0:0:0:0:
119,178,162319,2,0,B|173:185|173:185|235:169,1,112.499997019768,8|0,1:0|0:0,0:0:0:0:
215,14,162519,2,0,B|161:7|161:7|99:23,1,112.499997019768,0|0,1:0|0:0,0:0:0:0:
23,102,162719,6,0,L|280:92,1,224.999994039536,8|4,1:0|1:0,0:0:0:0:
486,289,163019,1,0,0:0:0:0:
486,289,163119,2,0,L|251:286,1,224.999994039536,8|0,1:0|1:0,0:0:0:0:
59,336,163419,5,2,1:2:0:0:
53,259,163519,1,8,1:0:0:0:
103,201,163619,1,2,1:2:0:0:
179,195,163719,1,8,1:0:0:0:
503,123,163919,5,10,1:2:0:0:
424,126,164019,1,0,1:0:0:0:
345,129,164119,1,10,1:2:0:0:
266,132,164219,1,0,1:0:0:0:
266,132,164319,2,0,L|283:268,1,112.499997019768,10|0,1:2|0:0,0:0:0:0:
111,330,164519,6,0,B|226:273|226:361|339:318,1,224.999994039536,12|0,1:0|0:0,0:0:0:0:
430,172,164919,2,0,B|326:211|326:123|211:180,1,224.999994039536,12|0,1:0|0:0,0:0:0:0:
423,380,165319,2,0,B|403:328|447:328|418:270,1,112.499997019768,12|0,1:0|0:0,0:0:0:0:
134,244,165519,6,0,B|121:186|121:186|133:130,1,112.499997019768,12|0,1:0|0:0,0:0:0:0:
318,88,165719,2,0,P|263:83|208:93,1,112.499997019768,12|0,1:0|0:0,0:0:0:0:
256,275,165919,2,0,P|312:286|368:281,1,112.499997019768,8|0,1:0|0:0,0:0:0:0:
417,91,166119,6,0,B|430:149|430:149|418:205,1,112.499997019768,12|0,1:0|0:0,0:0:0:0:
54,300,166319,1,8,1:0:0:0:
72,225,166419,1,8,1:0:0:0:
139,188,166519,1,8,1:0:0:0:
212,210,166619,1,8,1:0:0:0:
256,275,166719,2,0,P|299:296|419:179,1,224.999994039536,4|0,1:0|1:0,0:0:0:0:
363,375,167019,1,0,0:0:0:0:
363,375,167119,2,0,L|241:385,1,112.499997019768,8|0,1:0|0:0,0:0:0:0:
512,231,167319,5,8,1:0:0:0:
505,154,167419,1,8,1:0:0:0:
448,102,167519,1,8,1:0:0:0:
371,103,167619,1,8,1:0:0:0:
316,156,167719,2,0,B|205:204|205:111|93:160,1,224.999994039536,4|8,1:0|1:0,0:0:0:0:
252,68,168019,1,0,0:0:0:0:
252,68,168119,2,0,P|316:57|368:64,1,112.499997019768,0|0,1:0|0:0,0:0:0:0:
428,240,168319,2,0,P|364:251|312:244,1,112.499997019768,8|0,1:0|0:0,0:0:0:0:
31,257,168519,2,0,B|125:313|125:313|257:286,1,224.999994039536,2|8,1:3|1:0,0:0:0:0:
92,195,168819,1,0,0:0:0:0:
92,195,168919,2,0,L|203:211,1,112.499997019768,0|0,1:0|0:0,0:0:0:0:
449,173,169119,6,0,P|352:124|289:222,1,224.999994039536,8|4,1:0|1:0,0:0:0:0:
489,253,169419,1,0,0:0:0:0:
489,253,169519,2,0,B|395:309|395:309|263:282,1,224.999994039536,8|0,1:0|1:0,0:0:0:0:
49,182,169819,1,0,0:0:0:0:
113,141,169919,1,8,1:0:0:0:
185,165,170019,1,0,0:0:0:0:
213,236,170119,1,2,1:3:0:0:
115,291,170219,5,0,0:0:0:0:
115,291,170319,2,0,L|142:172,1,112.499997019768,8|0,1:0|0:0,0:0:0:0:
242,227,170519,2,0,L|245:339,1,112.499997019768,0|0,1:0|0:0,0:0:0:0:
371,384,170719,2,0,L|344:265,1,112.499997019768,8|0,1:0|0:0,0:0:0:0:
415,172,170919,6,0,P|336:89|230:117,1,224.999994039536,4|8,1:0|1:0,0:0:0:0:
52,41,171219,1,0,0:0:0:0:
52,41,171319,2,0,B|105:25|105:25|163:39,1,112.499997019768,0|0,1:0|0:0,0:0:0:0:
212,208,171519,2,0,B|102:248|102:248|-10:211,1,224.999994039536,8|2,1:0|1:3,0:0:0:0:
46,135,171819,1,0,0:0:0:0:
46,135,171919,2,0,L|173:137,1,112.499997019768,8|0,1:0|0:0,0:0:0:0:
292,150,172119,2,0,B|303:207|303:207|290:277,1,112.499997019768,0|0,1:0|0:0,0:0:0:0:
160,325,172319,2,0,P|106:336|33:323,1,112.499997019768,8|0,1:0|0:0,0:0:0:0:
376,359,172519,6,0,L|405:104,1,224.999994039536,4|8,1:0|1:0,0:0:0:0:
512,61,172819,1,0,0:0:0:0:
512,61,172919,2,0,L|503:183,1,112.499997019768,0|0,1:0|0:0,0:0:0:0:
283,37,173119,2,0,L|292:159,1,112.499997019768,8|0,1:0|0:0,0:0:0:0:
225,357,173319,5,10,1:2:0:0:
59,219,173519,1,0,1:0:0:0:
59,219,173619,1,10,1:2:0:0:
322,235,173819,1,0,1:0:0:0:
322,235,173919,1,10,1:2:0:0:
47,342,174119,6,0,B|151:305|151:305|224:187,1,224.999994039536,4|8,1:0|1:0,0:0:0:0:
57,135,174419,1,0,0:0:0:0:
57,135,174519,2,0,L|184:128,1,112.499997019768,0|0,1:0|1:0,0:0:0:0:
326,316,174719,2,0,P|326:186|254:136,1,224.999994039536,8|2,1:0|1:3,0:0:0:0:
412,132,175019,1,0,0:0:0:0:
412,132,175119,2,0,L|500:230,1,112.499997019768,8|0,1:0|0:0,0:0:0:0:
292,46,175319,2,0,L|460:30,1,112.499997019768,0|0,1:0|0:0,0:0:0:0:
150,117,175519,2,0,L|201:13,1,112.499997019768,8|0,1:0|0:0,0:0:0:0:
369,253,175719,6,0,B|265:276|265:276|147:222,1,224.999994039536,4|8,1:0|1:0,0:0:0:0:
230,139,176019,1,0,1:0:0:0:
230,139,176119,2,0,B|285:128|285:128|341:154,1,112.499997019768,0|0,1:0|0:0,0:0:0:0:
58,185,176319,1,8,1:0:0:0:
60,262,176419,1,8,1:0:0:0:
113,318,176519,1,10,1:0:0:0:
190,325,176619,1,8,1:0:0:0:
253,281,176719,5,4,0:3:0:0:
235,266,176819,1,4,0:3:0:0:
217,251,176919,1,4,0:3:0:0:
199,236,177019,1,4,0:3:0:0:
181,221,177119,1,4,0:3:0:0:
168,210,177219,5,4,0:3:0:0:
168,210,177319,1,4,1:0:0:0:
294,85,177519,1,0,1:0:0:0:
433,217,177719,1,2,0:0:0:0:
433,217,177819,1,2,0:0:0:0:
433,217,177919,1,8,1:0:0:0:
114,332,178319,1,0,1:0:0:0:
259,181,178519,5,2,0:0:0:0:
248,252,178619,1,0,0:0:0:0:
239,323,178719,1,2,0:0:0:0:
47,234,178919,5,4,1:0:0:0:
458,238,179319,5,0,1:0:0:0:
124,107,179652,5,0,1:0:0:0:
124,107,179719,1,12,1:0:0:0:
411,104,180119,5,0,1:0:0:0:
256,328,180519,6,0,B|304:280|208:104|272:56,1,269.999992847443,4|4,1:2|1:1,0:0:0:0:
256,192,181219,12,0,183719,0:0:0:0:
98,321,184119,5,2,0:0:0:0:
152,263,184519,2,2,P|158:184|146:108,1,143.999996185303,2|0,0:0|0:0,0:0:0:0:
199,58,185119,1,2,0:0:0:0:
274,159,185319,6,2,B|344:140|344:140|428:163,2,143.999996185303,2|2|2,1:0|0:0|0:0,0:0:0:0:
344,232,186519,1,0,0:0:0:0:
156,346,186819,5,0,1:0:0:0:
156,346,186919,2,0,L|248:342,1,71.9999980926514,2|0,1:0|0:0,0:0:0:0:
306,356,187319,2,2,P|307:271|301:207,1,143.999996185303,2|2,0:0|0:1,0:1:0:0:
199,248,188119,1,2,0:0:0:0:
199,248,188319,1,2,0:0:0:0:
199,248,188519,1,2,1:0:0:0:
77,115,188919,6,0,L|121:99,2,47.9999987284343,2|0|0,0:0|0:0|0:0,0:0:0:0:
156,67,189319,5,2,0:0:0:0:
213,63,189452,1,2,0:0:0:0:
265,87,189585,1,0,0:0:0:0:
301,131,189719,5,2,0:0:0:0:
354,151,189852,1,0,0:0:0:0:
410,143,189985,1,2,0:0:0:0:
463,164,190119,6,2,P|473:239|463:311,1,143.999996185303,2|2,1:0|0:0,0:0:0:0:
308,307,190819,1,0,1:0:0:0:
308,307,190919,2,2,P|298:235|306:164,1,143.999996185303,0|2,1:0|0:1,0:1:0:0:
237,125,191519,1,0,0:0:0:0:
194,249,191719,6,2,B|121:251|121:251|52:306,2,143.999996185303,6|2|2,1:0|0:0|0:0,0:0:0:0:
158,335,192919,1,2,0:0:0:0:
469,173,193319,6,2,L|314:159,1,143.999996185303,2|2,1:0|0:0,0:0:0:0:
238,35,194119,2,2,L|387:31,1,143.999996185303,2|2,0:0|0:0,0:1:0:0:
439,86,194719,1,0,0:0:0:0:
228,166,194919,6,2,P|257:230|334:253,2,143.999996185303,2|2|2,1:0|0:0|0:0,0:0:0:0:
150,234,196119,2,2,L|154:318,1,71.9999980926514,2|0,0:0|0:0,0:0:0:0:
153,305,196519,2,2,P|75:306|3:311,1,143.999996185303,2|2,1:0|0:0,0:0:0:0:
52,139,197319,2,2,L|151:149,2,71.9999980926514,2|0|2,0:0|0:0|0:1,0:1:0:0:
267,52,198119,6,2,P|252:114|265:204,1,143.999996185303,2|2,1:0|0:0,0:0:0:0:
450,272,198919,2,2,P|465:210|452:120,1,143.999996185303,2|2,0:0|0:1,0:1:0:0:
257,323,199619,5,0,1:0:0:0:
257,323,199719,2,2,L|105:332,1,143.999996185303,2|2,1:0|0:0,0:0:0:0:
222,211,200519,2,2,L|375:218,1,143.999996185303,2|2,0:0|0:1,0:1:0:0:
422,162,201119,1,2,0:0:0:0:
117,89,201319,6,2,P|121:161|130:243,2,143.999996185303,2|2|2,1:0|0:0|0:0,0:0:0:0:
220,112,202519,1,2,0:0:0:0:
436,332,202919,5,2,1:0:0:0:
393,301,203052,5,2,0:0:0:0:
340,301,203185,5,2,0:0:0:0:
320,272,203319,5,0,0:0:0:0:
303,293,203452,5,2,0:0:0:0:
302,322,203585,5,2,0:0:0:0:
302,322,203719,6,2,L|199:321,2,95.9999974568685,2|0|2,1:0|0:0|0:0,0:0:0:0:
89,244,204519,6,2,P|78:171|93:90,1,143.999996185303,2|2,1:0|0:0,0:0:0:0:
292,54,205319,2,2,P|303:127|288:208,1,143.999996185303,2|2,0:0|0:1,0:1:0:0:
292,195,206119,6,2,L|438:206,1,143.999996185303,2|2,1:0|0:0,0:0:0:0:
251,92,206919,2,2,L|90:97,1,143.999996185303,2|2,0:0|0:1,0:1:0:0:
50,152,207519,1,2,0:0:0:0:
197,303,207719,6,2,L|362:289,1,143.999996185303,2|2,1:0|0:0,0:0:0:0:
256,192,208519,12,4,209319,1:0:0:0:
256,192,209719,5,4,1:2:0:0:
36,349,210119,1,6,1:2:0:0:
246,349,210319,1,0,1:0:0:0:
246,349,210419,1,10,1:2:0:0:
43,215,210619,1,0,1:0:0:0:
43,215,210719,1,10,1:2:0:0:
290,225,210919,6,0,P|348:246|394:295,1,112.499997019768,4|0,1:0|0:0,0:0:0:0:
475,162,211119,1,8,1:0:0:0:
431,96,211219,1,2,0:2:0:0:
352,92,211319,2,0,P|297:106|224:111,1,112.499997019768,2|0,1:2|0:0,0:0:0:0:
0,176,211519,2,0,B|61:134|131:201|228:183,1,224.999994039536,10|2,1:2|1:3,0:0:0:0:
124,89,211819,1,0,0:0:0:0:
124,89,211919,2,0,P|49:83|10:85,1,112.499997019768,8|2,1:0|0:2,0:0:0:0:
226,25,212119,2,0,P|286:18|343:22,1,112.499997019768,2|0,1:2|0:0,0:0:0:0:
455,166,212319,2,0,P|395:173|338:169,1,112.499997019768,8|0,1:0|0:0,0:0:0:0:
107,329,212519,5,4,1:0:0:0:
425,309,212919,5,4,1:2:0:0:
77,242,213319,5,6,1:2:0:0:
335,220,213519,5,10,1:2:0:0:
413,211,213619,1,8,1:2:0:0:
491,203,213719,1,10,1:2:0:0:
231,174,213919,5,10,1:2:0:0:
152,166,214019,1,0,0:0:0:0:
73,159,214119,2,0,P|52:109|45:42,1,112.499997019768,4|0,1:0|0:0,0:0:0:0:
306,112,214319,2,0,P|327:162|334:229,1,112.499997019768,8|2,1:0|0:2,0:0:0:0:
130,30,214519,2,0,L|371:29,1,224.999994039536,2|10,1:2|1:2,0:0:0:0:
152,166,214819,1,0,0:0:0:0:
152,166,214919,2,0,P|158:221|180:273,1,112.499997019768,2|2,1:3|0:2,0:0:0:0:
511,319,215119,1,8,1:0:0:0:
486,245,215219,1,2,1:2:0:0:
413,213,215319,2,0,P|357:219|305:241,1,112.499997019768,2|0,1:2|0:0,0:0:0:0:
308,369,215519,2,0,P|363:362|415:340,1,112.499997019768,10|0,1:2|0:0,0:0:0:0:
483,95,215719,5,4,1:0:0:0:
247,82,216019,5,6,1:2:0:0:
10,74,216319,5,4,1:2:0:0:
140,26,216519,6,0,L|128:152,1,112.499997019768,2|0,1:2|0:0,0:0:0:0:
383,147,216719,1,8,1:2:0:0:
305,158,216819,1,0,0:0:0:0:
227,170,216919,1,2,1:2:0:0:
149,182,217019,1,0,0:0:0:0:
71,194,217119,1,8,1:2:0:0:
483,289,217319,5,4,1:0:0:0:
247,302,217619,5,6,1:2:0:0:
10,310,217919,5,6,1:2:0:0:
140,358,218119,6,0,L|128:232,1,112.499997019768,2|0,1:2|0:1,0:0:0:0:
383,237,218319,1,8,1:0:0:0:
305,226,218419,1,0,0:0:0:0:
227,214,218519,1,2,1:2:0:0:
149,202,218619,1,0,0:0:0:0:
71,190,218719,1,8,1:0:0:0:
288,202,218919,6,0,L|529:200,1,224.999994039536,4|8,1:0|1:0,0:0:0:0:
326,114,219219,1,0,0:0:0:0:
326,114,219319,2,0,B|264:117|264:117|210:138,1,112.499997019768,2|0,1:2|0:0,0:0:0:0:
248,295,219519,2,0,B|310:292|310:292|364:271,1,112.499997019768,8|0,1:0|0:0,0:0:0:0:
113,45,219719,2,0,L|130:288,1,224.999994039536,2|8,1:3|1:0,0:0:0:0:
16,120,220019,1,0,0:0:0:0:
16,120,220119,2,0,L|42:261,1,112.499997019768,2|0,1:2|0:0,0:0:0:0:
219,106,220319,2,0,L|210:230,1,112.499997019768,10|0,1:2|0:0,0:0:0:0:
470,325,220519,6,0,P|357:269|278:330,1,224.999994039536,4|8,1:0|1:0,0:0:0:0:
380,364,220819,1,2,0:2:0:0:
380,364,220919,2,0,L|384:247,1,112.499997019768,2|0,1:2|0:0,0:0:0:0:
466,96,221119,2,0,L|479:234,1,112.499997019768,10|0,1:2|0:0,0:0:0:0:
208,204,221319,6,0,P|263:184|303:128,1,112.499997019768,2|10,1:2|1:2,0:0:0:0:
88,80,221519,2,0,P|33:100|-7:156,1,112.499997019768,10|8,1:2|1:0,0:0:0:0:
89,320,221719,2,0,P|133:357|298:315,1,224.999994039536,10|2,1:2|1:2,0:0:0:0:
408,161,222119,5,4,1:0:0:0:
70,197,222519,5,6,1:2:0:0:
470,264,222919,5,6,1:2:0:0:
254,228,223119,5,0,1:0:0:0:
254,228,223219,1,12,1:0:0:0:
80,42,223519,1,10,1:2:0:0:
70,226,223719,6,0,P|65:286|78:351,1,112.499997019768,4|0,1:0|0:0,0:0:0:0:
278,297,223919,1,8,1:0:0:0:
312,226,224019,1,2,0:2:0:0:
268,160,224119,2,0,P|214:148|143:152,1,112.499997019768,2|0,1:2|0:0,0:0:0:0:
337,32,224319,2,0,L|361:163,1,112.499997019768,10|0,1:2|0:0,0:0:0:0:
188,243,224519,2,0,L|174:373,1,112.499997019768,2|0,1:3|0:0,0:0:0:0:
331,369,224719,1,8,1:0:0:0:
408,355,224819,1,2,1:2:0:0:
442,284,224919,2,0,P|416:247|266:297,1,224.999994039536,2|10,1:2|1:2,0:0:0:0:
48,149,225319,5,4,1:0:0:0:
411,83,225719,5,6,1:2:0:0:
111,29,226119,5,6,1:2:0:0:
131,255,226319,5,10,1:2:0:0:
209,262,226419,1,8,1:0:0:0:
287,269,226519,1,10,1:2:0:0:
478,74,226719,5,10,1:2:0:0:
400,81,226819,1,0,0:0:0:0:
322,88,226919,2,0,L|184:111,1,112.499997019768,4|0,1:0|0:0,0:0:0:0:
356,190,227119,2,0,L|379:328,1,112.499997019768,8|2,1:0|0:2,0:0:0:0:
31,208,227319,2,0,L|261:240,1,224.999994039536,2|10,1:2|1:2,0:0:0:0:
155,313,227619,1,0,0:0:0:0:
155,313,227719,2,0,L|38:308,1,112.499997019768,2|2,1:3|0:2,0:0:0:0:
191,150,227919,2,0,L|61:115,1,112.499997019768,8|2,1:0|1:2,0:0:0:0:
330,158,228119,2,0,P|352:283|263:362,1,224.999994039536,2|10,1:2|1:2,0:0:0:0:
467,244,228519,5,4,1:0:0:0:
257,248,228719,1,2,1:2:0:0:
257,248,228819,1,10,1:2:0:0:
451,118,229019,1,2,1:2:0:0:
451,118,229119,1,10,1:2:0:0:
222,96,229319,6,0,P|174:101|98:146,1,112.499997019768,2|0,1:2|0:0,0:0:0:0:
185,313,229519,1,8,1:0:0:0:
255,347,229619,1,0,0:0:0:0:
328,319,229719,2,0,P|362:249|293:119,1,224.999994039536,2|8,1:2|1:0,0:0:0:0:
253,250,230119,5,4,1:0:0:0:
461,169,230319,1,2,1:2:0:0:
461,169,230419,1,10,1:2:0:0:
274,38,230619,1,2,1:2:0:0:
274,38,230719,1,10,1:2:0:0:
153,181,230919,6,0,B|132:235|132:235|135:299,1,112.499997019768,2|0,1:2|0:0,0:0:0:0:
314,369,231119,1,8,1:0:0:0:
376,320,231219,1,0,0:0:0:0:
362,242,231319,2,0,B|335:190|335:190|286:149,1,112.499997019768,2|0,1:2|0:0,0:0:0:0:
237,226,231519,2,0,L|211:109,1,112.499997019768,8|0,1:0|0:0,0:0:0:0:
20,329,231719,6,0,B|125:292|125:292|237:321,1,224.999994039536,4|8,1:0|1:0,0:0:0:0:
127,210,232019,1,0,0:0:0:0:
127,210,232119,2,0,L|124:85,1,112.499997019768,2|0,1:2|0:0,0:0:0:0:
216,233,232319,2,0,L|236:120,1,112.499997019768,8|0,1:0|0:0,0:0:0:0:
34,234,232519,2,0,P|13:129|69:20,1,224.999994039536,2|8,1:3|1:0,0:0:0:0:
218,35,232819,1,2,0:2:0:0:
218,35,232919,2,0,P|266:43|322:82,1,112.499997019768,2|0,1:2|0:0,0:0:0:0:
216,233,233119,2,0,P|264:225|320:186,1,112.499997019768,10|0,1:2|0:0,0:0:0:0:
437,356,233319,6,0,L|192:345,1,224.999994039536,4|8,1:0|1:0,0:0:0:0:
219,352,233619,1,0,0:0:0:0:
219,352,233719,2,0,L|222:232,1,112.499997019768,0|0,1:0|0:0,0:0:0:0:
488,186,233919,1,10,1:2:0:0:
409,178,234019,1,10,1:2:0:0:
330,170,234119,1,10,1:2:0:0:
36,102,234319,5,4,1:3:0:0:
114,110,234419,1,4,1:3:0:0:
192,118,234519,1,4,1:3:0:0:
270,127,234619,1,4,1:3:0:0:
348,136,234719,1,4,1:3:0:0:
426,145,234819,1,4,1:3:0:0:
442,161,234919,6,0,L|429:379,1,215.999994277954,4|4,1:0|0:0,0:0:0:0:
154,373,236019,1,0,1:0:0:0:
154,372,236119,2,0,L|81:376,1,71.9999980926514,12|4,1:0|0:0,0:0:0:0:
82,376,236519,6,0,L|70:161,1,215.999994277954,4|4,1:0|1:2,0:0:0:0:
256,192,237219,12,0,238119,0:0:0:0:
328,170,238319,5,2,0:0:0:0:
402,208,238519,1,2,0:0:0:0:
459,136,238719,1,0,0:0:0:0:
468,146,238785,1,2,0:0:0:0:
477,157,238852,1,2,0:0:0:0:
486,168,238919,1,2,0:0:0:0:
256,192,239019,12,4,239719,0:1:0:0:
104,269,240519,6,2,P|42:245|13:186,1,135.000001573563,2|0,0:0|0:0,0:2:0:0:
14,185,240819,1,2,0:0:0:0:
14,185,240919,1,8,1:0:0:0:
93,168,241019,5,8,1:0:0:0:
166,191,241119,1,8,1:0:0:0:
241,174,241219,1,8,1:0:0:0:
312,192,241319,2,0,P|408:191|464:195,1,112.499997019768,4|0,1:0|0:0,0:0:0:0:
243,266,241519,2,0,B|137:311|137:311|23:278,1,224.999994039536,8|0,1:0|1:0,0:0:0:0:
15,187,241819,1,0,0:0:0:0:
15,187,241919,2,0,L|148:185,1,112.499997019768,8|0,1:0|0:0,0:0:0:0:
18,97,242119,2,0,B|124:52|124:52|229:82,1,224.999994039536,2|8,1:3|1:0,0:0:0:0:
240,175,242419,1,0,0:0:0:0:
240,175,242519,2,0,L|107:173,1,112.499997019768,0|0,1:0|0:0,0:0:0:0:
326,121,242719,2,0,L|459:119,1,112.499997019768,8|0,1:0|0:0,0:0:0:0:
332,224,242919,6,0,P|272:334|168:337,1,224.999994039536,4|8,1:0|1:0,0:0:0:0:
229,233,243219,1,0,0:0:0:0:
229,233,243319,2,0,P|240:173|272:128,1,112.499997019768,0|0,1:0|0:0,0:0:0:0:
472,241,243519,2,0,P|431:128|331:102,1,224.999994039536,8|2,1:0|1:3,0:0:0:0:
354,196,243819,1,0,0:0:0:0:
354,196,243919,2,0,L|369:321,1,112.499997019768,8|0,1:0|0:0,0:0:0:0:
212,126,244119,2,0,L|258:242,1,112.499997019768,0|0,1:0|0:0,0:0:0:0:
56,95,244319,2,0,L|131:195,1,112.499997019768,8|0,1:0|0:0,0:0:0:0:
369,46,244519,6,0,L|140:38,1,224.999994039536,4|8,1:0|1:0,0:0:0:0:
314,147,244819,1,0,0:0:0:0:
314,147,244919,2,0,B|370:143|370:143|424:156,1,112.499997019768,0|0,1:0|0:0,0:0:0:0:
411,305,245119,2,0,B|355:309|355:309|301:296,1,112.499997019768,8|0,1:0|0:0,0:0:0:0:
49,136,245319,5,10,1:2:0:0:
211,278,245519,1,0,1:0:0:0:
211,278,245619,1,10,1:2:0:0:
228,91,245819,1,0,1:0:0:0:
228,91,245919,1,10,1:2:0:0:
96,323,246119,6,0,P|142:355|314:343,1,224.999994039536,4|8,1:0|1:0,0:0:0:0:
459,138,246419,1,0,0:0:0:0:
459,138,246519,2,0,B|445:196|445:196|460:249,1,112.499997019768,0|0,1:0|0:0,0:0:0:0:
314,216,246719,2,0,L|78:217,1,224.999994039536,8|2,1:0|1:3,0:0:0:0:
245,97,247019,1,0,0:0:0:0:
245,97,247119,2,0,B|301:110|301:110|356:95,1,112.499997019768,8|0,1:0|0:0,0:0:0:0:
30,128,247319,2,0,B|85:115|85:115|141:129,1,112.499997019768,0|0,1:0|0:0,0:0:0:0:
426,333,247519,6,0,B|313:307|313:307|207:339,1,224.999994039536,8|4,1:0|1:0,0:0:0:0:
28,222,247819,1,0,0:0:0:0:
28,222,247919,2,0,L|277:239,1,224.999994039536,8|0,1:0|1:0,0:0:0:0:
454,161,248219,1,2,1:2:0:0:
375,157,248319,1,8,1:0:0:0:
296,153,248419,1,2,1:2:0:0:
217,149,248519,1,8,1:0:0:0:
52,333,248719,5,10,1:2:0:0:
131,329,248819,1,0,1:0:0:0:
210,325,248919,1,10,1:2:0:0:
289,321,249019,1,0,1:0:0:0:
289,321,249119,2,0,L|421:336,1,112.499997019768,10|0,1:2|0:0,0:0:0:0:
410,85,249319,6,0,L|386:320,1,224.999994039536,12|0,1:0|0:0,0:0:0:0:
211,31,249719,2,0,L|307:246,1,224.999994039536,12|0,1:0|0:0,0:0:0:0:
11,83,250119,2,0,L|106:152,1,112.499997019768,12|0,1:0|0:0,0:0:0:0:
265,329,250319,5,12,1:0:0:0:
213,269,250419,1,0,0:0:0:0:
136,288,250519,2,0,L|33:334,1,112.499997019768,12|0,1:0|0:0,0:0:0:0:
192,173,250719,2,0,L|303:184,1,112.499997019768,8|0,1:0|0:0,0:0:0:0:
363,324,250919,6,0,L|451:241,1,112.499997019768,12|0,1:0|0:0,0:0:0:0:
317,2,251119,1,8,1:0:0:0:
242,18,251219,1,8,1:0:0:0:
206,85,251319,1,8,1:0:0:0:
232,157,251419,1,8,1:0:0:0:
303,184,251519,2,0,P|374:198|348:331,1,224.999994039536,4|0,1:0|0:0,0:0:0:0:
197,360,251819,1,0,0:0:0:0:
197,360,251919,2,0,L|199:245,1,112.499997019768,8|0,1:0|0:0,0:0:0:0:
407,69,252119,5,8,1:0:0:0:
328,74,252219,1,8,1:0:0:0:
249,79,252319,1,8,1:0:0:0:
170,84,252419,1,8,1:0:0:0:
91,89,252519,2,0,P|23:121|92:225,1,224.999994039536,4|8,1:0|1:0,0:0:0:0:
215,157,252819,1,0,0:0:0:0:
215,157,252919,2,0,L|195:287,1,112.499997019768,0|0,1:0|0:0,0:0:0:0:
331,224,253119,2,0,L|457:241,1,112.499997019768,8|0,1:0|0:0,0:0:0:0:
331,133,253319,2,0,P|241:53|121:78,1,224.999994039536,2|8,1:3|1:0,0:0:0:0:
103,172,253619,1,0,0:0:0:0:
103,172,253719,2,0,L|220:156,1,112.499997019768,0|0,1:0|0:0,0:0:0:0:
118,285,253919,6,0,B|230:310|230:310|350:259,1,224.999994039536,8|4,1:0|1:0,0:0:0:0:
487,84,254219,1,0,0:0:0:0:
487,84,254319,2,0,P|382:79|358:206,1,224.999994039536,8|0,1:0|1:0,0:0:0:0:
190,325,254619,1,0,0:0:0:0:
124,363,254719,1,8,1:0:0:0:
56,332,254819,1,0,0:0:0:0:
43,257,254919,1,2,1:3:0:0:
150,213,255019,5,0,0:0:0:0:
150,213,255119,2,0,B|206:194|206:194|274:196,1,112.499997019768,8|0,1:0|0:0,0:0:0:0:
121,68,255319,2,0,B|177:87|177:87|230:85,1,112.499997019768,0|0,1:0|0:0,0:0:0:0:
0,146,255519,2,0,L|115:145,1,112.499997019768,8|0,1:0|0:0,0:0:0:0:
361,33,255719,6,0,B|317:130|407:155|354:280,1,224.999994039536,4|8,1:0|1:0,0:0:0:0:
446,98,256019,1,0,0:0:0:0:
446,98,256119,2,0,P|452:164|453:217,1,112.499997019768,0|0,1:0|0:0,0:0:0:0:
294,313,256319,2,0,P|382:343|442:208,1,224.999994039536,8|2,1:0|1:3,0:0:0:0:
282,214,256619,1,0,0:0:0:0:
282,214,256719,2,0,P|234:241|208:301,1,112.499997019768,8|0,1:0|0:0,0:0:0:0:
173,152,256919,2,0,P|117:166|58:160,1,112.499997019768,0|0,1:0|0:0,0:0:0:0:
171,42,257119,2,0,P|227:64|273:106,1,112.499997019768,8|0,1:0|0:0,0:0:0:0:
418,253,257319,6,0,B|366:151|366:151|414:34,1,224.999994039536,4|8,1:0|1:0,0:0:0:0:
306,236,257619,1,0,0:0:0:0:
306,236,257719,2,0,L|313:368,1,112.499997019768,0|0,1:0|0:0,0:0:0:0:
231,163,257919,2,0,L|203:292,1,112.499997019768,8|0,1:0|0:0,0:0:0:0:
464,148,258119,5,10,1:2:0:0:
222,64,258319,1,0,1:0:0:0:
222,64,258419,1,10,1:2:0:0:
477,16,258619,1,0,1:0:0:0:
477,16,258719,1,10,1:2:0:0:
344,164,258919,6,0,L|99:186,1,224.999994039536,4|8,1:0|1:0,0:0:0:0:
190,277,259219,1,0,0:0:0:0:
190,277,259319,2,0,B|243:261|243:261|305:266,1,112.499997019768,0|0,1:0|1:0,0:0:0:0:
334,60,259519,2,0,B|221:91|221:91|108:81,1,224.999994039536,8|2,1:0|1:3,0:0:0:0:
301,166,259819,1,0,0:0:0:0:
301,166,259919,2,0,L|429:177,1,112.499997019768,8|0,1:0|0:0,0:0:0:0:
383,352,260119,2,0,L|255:363,1,112.499997019768,0|0,1:0|0:0,0:0:0:0:
203,195,260319,2,0,P|191:254|203:313,1,112.499997019768,8|0,1:0|0:0,0:0:0:0:
472,373,260519,6,0,P|504:263|491:150,1,224.999994039536,4|8,1:0|1:0,0:0:0:0:
408,262,260819,1,0,1:0:0:0:
408,262,260919,2,0,L|269:258,1,112.499997019768,0|0,1:0|0:0,0:0:0:0:
50,184,261119,1,8,1:0:0:0:
65,109,261219,1,8,1:0:0:0:
131,71,261319,1,10,1:0:0:0:
203,97,261419,1,8,1:0:0:0:
231,168,261519,5,4,1:3:0:0:
208,170,261619,1,4,1:3:0:0:
185,171,261719,1,4,1:3:0:0:
162,172,261819,1,4,1:3:0:0:
139,173,261919,1,4,1:3:0:0:
118,176,262019,5,4,1:3:0:0:
118,176,262119,1,4,1:0:0:0:
198,296,262319,1,0,1:0:0:0:
336,211,262519,1,2,0:0:0:0:
336,211,262619,1,2,0:0:0:0:
336,211,262719,1,8,1:0:0:0:
122,52,263119,1,0,1:0:0:0:
273,28,263319,5,2,0:0:0:0:
251,103,263419,1,0,0:0:0:0:
229,178,263519,1,2,0:0:0:0:
456,324,263719,5,4,1:0:0:0:
61,284,264119,5,0,1:0:0:0:
416,197,264452,5,0,1:0:0:0:
416,197,264519,1,12,1:0:0:0:
121,156,264919,5,0,1:0:0:0:
314,36,265319,6,0,B|259:133|366:153|307:277,1,224.999994039536,4|8,1:0|1:0,0:0:0:0:
263,349,265619,1,0,0:0:0:0:
263,349,265719,2,0,P|319:342|389:356,1,112.499997019768,0|0,1:0|0:0,0:0:0:0:
216,249,265919,2,0,P|209:193|223:123,1,112.499997019768,8|0,1:0|0:0,0:0:0:0:
407,37,266119,2,0,P|425:131|413:262,1,224.999994039536,2|8,1:3|1:0,0:0:0:0:
318,159,266419,1,0,0:0:0:0:
318,159,266519,2,0,P|311:103|325:33,1,112.499997019768,0|0,1:0|0:0,0:0:0:0:
119,50,266719,2,0,P|128:106|121:162,1,112.499997019768,8|0,1:0|0:0,0:0:0:0:
100,315,266919,6,0,B|208:282|208:282|340:325,1,224.999994039536,4|8,1:0|1:0,0:0:0:0:
462,214,267219,1,0,0:0:0:0:
462,214,267319,2,0,L|349:215,1,112.499997019768,0|0,1:0|0:0,0:0:0:0:
67,177,267519,2,0,L|180:178,1,112.499997019768,8|0,1:0|0:0,0:0:0:0:
423,105,267719,2,0,L|310:106,1,112.499997019768,2|0,1:3|0:0,0:0:0:0:
60,72,267919,1,8,1:0:0:0:
128,33,268019,1,0,0:0:0:0:
198,67,268119,2,0,L|177:187,1,112.499997019768,0|0,1:0|0:0,0:0:0:0:
310,105,268319,2,0,L|331:225,1,112.499997019768,8|0,1:0|0:0,0:0:0:0:
0,321,268519,6,0,L|237:297,1,224.999994039536,4|8,1:0|1:0,0:0:0:0:
318,360,268819,1,0,0:0:0:0:
318,360,268919,2,0,L|322:242,1,112.499997019768,0|0,1:0|0:0,0:0:0:0:
496,95,269119,2,0,L|391:150,1,112.499997019768,8|0,1:0|0:0,0:0:0:0:
177,73,269319,2,0,L|277:135,1,112.499997019768,2|0,1:3|0:0,0:0:0:0:
464,302,269519,2,0,L|384:216,1,112.499997019768,8|0,1:0|0:0,0:0:0:0:
377,0,269719,2,0,L|343:95,1,112.499997019768,0|0,1:0|0:0,0:0:0:0:
154,228,269919,2,0,L|269:202,1,112.499997019768,8|0,1:0|0:0,0:0:0:0:
368,345,270119,6,0,L|136:329,1,224.999994039536,4|8,1:0|1:0,0:0:0:0:
29,212,270419,1,0,1:0:0:0:
107,209,270519,1,8,1:0:0:0:
185,206,270619,1,0,1:0:0:0:
263,203,270719,1,8,1:0:0:0:
493,96,270919,5,8,1:0:0:0:
415,93,271019,1,0,1:0:0:0:
337,90,271119,1,8,1:0:0:0:
259,87,271219,1,0,1:0:0:0:
259,87,271319,2,0,L|23:115,1,224.999994039536,8|8,1:0|1:0,0:0:0:0:
445,221,271719,6,0,P|335:234|218:205,1,224.999994039536,4|8,1:0|1:0,0:0:0:0:
71,293,272019,1,0,0:0:0:0:
71,293,272119,2,0,P|131:291|204:310,1,112.499997019768,0|0,1:0|0:0,0:0:0:0:
108,191,272319,2,0,P|141:162|175:99,1,112.499997019768,8|0,1:0|0:0,0:0:0:0:
329,348,272519,2,0,P|302:260|311:124,1,224.999994039536,2|8,1:3|1:0,0:0:0:0:
422,185,272819,1,0,0:0:0:0:
422,185,272919,2,0,P|423:249|414:302,1,112.499997019768,0|0,1:0|0:0,0:0:0:0:
212,286,273119,2,0,P|211:222|220:169,1,112.499997019768,8|0,1:0|0:0,0:0:0:0:
427,83,273319,6,0,B|318:45|318:45|206:69,1,224.999994039536,4|8,1:0|1:0,0:0:0:0:
85,229,273619,1,0,0:0:0:0:
85,229,273719,2,0,L|99:348,1,112.499997019768,0|0,1:0|0:0,0:0:0:0:
218,174,273919,2,0,L|204:293,1,112.499997019768,8|0,1:0|0:0,0:0:0:0:
117,113,274119,6,0,P|172:87|360:110,1,224.999994039536,8|8,1:0|1:0,0:0:0:0:
240,158,274419,2,0,B|239:246|239:246|207:302|207:302|203:398,1,224.999994039536,8|0,1:0|1:0,0:0:0:0:
293,319,274719,2,0,L|419:332,1,112.499997019768,8|0,1:0|0:0,0:0:0:0:
433,119,274919,6,0,P|396:30|261:17,1,224.999994039536,4|8,1:0|1:0,0:0:0:0:
338,119,275219,1,0,1:0:0:0:
338,119,275319,2,0,P|369:186|412:212,1,112.499997019768,0|0,1:0|0:0,0:0:0:0:
264,209,275519,2,0,P|247:245|177:298,1,112.499997019768,8|0,1:0|0:0,0:0:0:0:
52,139,275719,2,0,P|126:88|272:162,1,224.999994039536,2|8,1:3|1:0,0:0:0:0:
332,304,276019,1,0,0:0:0:0:
332,304,276119,2,0,L|456:327,1,112.499997019768,0|0,1:0|0:0,0:0:0:0:
155,199,276319,2,0,L|32:225,1,112.499997019768,8|0,1:0|0:0,0:0:0:0:
302,117,276519,6,0,L|210:323,1,224.999994039536,4|8,1:0|1:0,0:0:0:0:
332,304,276819,1,0,1:0:0:0:
332,304,276919,2,0,L|372:184,1,112.499997019768,0|0,1:0|0:0,0:0:0:0:
144,229,277119,2,0,L|201:125,1,112.499997019768,8|0,1:0|0:0,0:0:0:0:
444,266,277319,2,0,L|451:139,1,112.499997019768,2|0,1:3|0:0,0:0:0:0:
92,122,277519,2,0,L|173:36,1,112.499997019768,8|0,1:0|0:0,0:0:0:0:
266,67,277719,2,0,B|278:118|278:118|259:187,1,112.499997019768,0|0,1:0|0:0,0:0:0:0:
364,316,277919,2,0,B|352:265|352:265|371:196,1,112.499997019768,8|0,1:0|0:0,0:0:0:0:
252,297,278119,6,0,B|171:293|171:293|112:329|112:329|26:328,1,224.999994039536,4|8,1:0|1:0,0:0:0:0:
54,191,278419,1,0,1:0:0:0:
54,191,278519,2,0,L|181:200,1,112.499997019768,0|0,1:0|0:0,0:0:0:0:
285,52,278719,2,0,L|175:32,1,112.499997019768,8|0,1:0|0:0,0:0:0:0:
451,235,278919,2,0,P|395:163|274:198,1,224.999994039536,2|8,1:3|1:0,0:0:0:0:
388,301,279219,1,0,1:0:0:0:
388,301,279319,2,0,B|437:324|437:324|499:324,1,112.499997019768,0|0,1:0|0:0,0:0:0:0:
285,272,279519,2,0,B|236:295|236:295|174:295,1,112.499997019768,8|0,1:0|0:0,0:0:0:0:
40,79,279719,6,0,L|153:95,1,112.499997019768,4|0,1:0|0:0,0:0:0:0:
334,61,279919,2,0,L|318:174,1,112.499997019768,8|0,1:0|0:0,0:0:0:0:
352,355,280119,2,0,L|239:339,1,112.499997019768,0|0,1:0|0:0,0:0:0:0:
58,373,280319,2,0,L|74:260,1,112.499997019768,8|0,1:0|0:0,0:0:0:0:
102,50,280519,1,10,1:3:0:0:
177,43,280619,1,8,1:0:0:0:
222,103,280719,1,8,1:0:0:0:
195,173,280819,1,8,1:0:0:0:
121,187,280919,5,4,1:3:0:0:
133,206,281019,1,4,1:3:0:0:
144,225,281119,1,4,1:3:0:0:
157,246,281219,5,4,1:3:0:0:
231,270,281319,1,4,1:2:0:0:
366,34,281519,1,0,1:0:0:0:
351,111,281619,1,0,1:0:0:0:
337,188,281719,1,8,1:0:0:0:
193,78,282119,5,4,1:2:0:0:
414,314,282319,1,0,1:0:0:0:
337,299,282419,1,0,1:0:0:0:
260,285,282519,1,8,1:0:0:0:
386,120,282919,5,4,1:2:0:0:
120,351,283119,1,0,1:0:0:0:
135,274,283219,1,0,1:0:0:0:
149,197,283319,1,8,1:0:0:0:
258,224,283519,1,0,1:0:0:0:
303,61,283719,5,4,1:3:0:0:
286,62,283819,1,4,1:3:0:0:
269,63,283919,1,4,1:3:0:0:
252,64,284019,1,4,1:3:0:0:
172,104,284119,5,4,1:3:0:0:
155,105,284219,1,4,1:3:0:0:
138,106,284319,1,4,1:3:0:0:
121,107,284419,1,4,1:3:0:0:
47,160,284519,5,4,1:3:0:0:
203,330,284719,1,8,1:0:0:0:
278,309,284819,1,0,1:0:0:0:
353,288,284919,1,8,1:0:0:0:
369,32,285119,2,0,L|345:175,1,112.499997019768,0|0,1:0|0:0,0:0:0:0:
465,334,285319,5,4,1:0:0:0:
82,309,285519,5,4,1:2:0:0:
474,166,285719,5,4,1:0:0:0:
96,42,286119,6,2,P|91:104|102:203,1,143.999996185303,2|0,0:0|0:0,0:0:0:0:
158,226,286719,1,2,0:3:0:0:
221,191,286919,2,0,L|382:201,1,143.999996185303
215,354,287719,6,2,P|296:322|367:307,2,143.999996185303,2|0|2,0:0|0:0|0:0,0:0:0:0:
457,214,288919,1,2,0:0:0:0:
457,214,289119,1,2,0:3:0:0:
444,119,289319,6,2,L|299:173,1,143.999996185303,2|0,0:0|0:0,0:0:0:0:
244,138,289919,1,2,0:3:0:0:
180,172,290119,2,0,P|168:242|187:335,1,143.999996185303,2|2,0:0|0:0,0:0:0:0:
34,106,290819,5,2,0:0:0:0:
34,106,290919,2,2,B|104:90|104:90|185:97,2,143.999996185303,2|0|2,0:0|0:0|0:0,0:0:0:0:
87,229,292119,1,2,0:0:0:0:
87,229,292319,1,2,0:3:0:0:
236,188,292519,6,2,L|217:346,1,143.999996185303
279,369,293119,1,2,0:3:0:0:
341,332,293319,2,0,P|411:316|480:348,1,143.999996185303,2|0,0:0|0:0,0:0:0:0:
332,230,294119,6,2,L|357:84,1,143.999996185303
356,88,294919,1,2,0:0:0:0:
150,41,295319,2,0,P|146:96|161:137,1,71.9999980926514,2|2,0:0|0:3,0:0:0:0:
149,111,295719,6,2,L|298:106,1,143.999996185303
330,167,296319,1,2,0:2:0:0:
400,150,296519,2,0,P|408:216|401:299,1,143.999996185303,2|2,0:0|0:0,0:0:0:0:
211,208,297219,5,2,0:0:0:0:
211,208,297319,2,0,L|221:306,1,71.9999980926514,2|2,0:0|0:3,0:0:0:0:
138,347,297719,2,0,L|146:276,1,71.9999980926514,2|2,0:0|0:3,0:0:0:0:
75,258,298119,2,2,P|74:161|115:102,1,143.999996185303
256,192,298619,12,0,300519,0:0:0:0:
