osu file format v14

[General]
AudioFilename: audio.mp3
AudioLeadIn: 0
PreviewTime: -1
Countdown: 1
SampleSet: None
StackLeniency: 0.7
Mode: 3
LetterboxInBreaks: 0
SpecialStyle: 0
WidescreenStoryboard: 0

[Editor]
Bookmarks: 30730,37588,44447,53020,66737,80454,95886,109604,114748,123321,137038,150755,164472
DistanceSpacing: 2.1
BeatDivisor: 4
GridSize: 8
TimelineZoom: 1

[Metadata]
Title:Valderas
TitleUnicode:Valderas
Artist:MiddleIsland
ArtistUnicode:MiddleIsland
Creator:yaspo
Version:Flamenco
Source:
Tags:
BeatmapID:1714457
BeatmapSetID:817566

[Difficulty]
HPDrainRate:5
CircleSize:4
OverallDifficulty:5
ApproachRate:5
SliderMultiplier:1.4
SliderTickRate:1

[Events]
//Background and Video events
0,0,"Valderas.png",0,0
//Break Periods
//Storyboard Layer 0 (Background)
//Storyboard Layer 1 (Fail)
//Storyboard Layer 2 (Pass)
//Storyboard Layer 3 (Foreground)
//Storyboard Sound Samples

[TimingPoints]
944,545.454545454546,4,3,0,30,1,0
1490,545.454545454546,4,3,0,30,1,0
29717,428.663284989641,4,3,0,50,1,0
29717,-127.388535031847,4,3,0,50,0,0
30730,428.663284989641,4,3,0,50,1,0
30730,-127.388535031847,4,3,0,50,0,0
66737,-127.388535031847,4,3,0,50,0,1
95886,-127.388535031847,4,3,0,50,0,0
137038,-127.388535031847,4,3,0,50,0,1
164472,-127.388535031847,4,3,0,50,0,0

[HitObjects]
64,192,944,128,0,1489:0:0:0:0:
448,192,1490,1,0,0:0:0:0:
320,192,1490,1,0,0:0:0:0:
448,192,1762,1,0,0:0:0:0:
320,192,2035,1,0,0:0:0:0:
320,192,2308,1,0,0:0:0:0:
192,192,2308,1,0,0:0:0:0:
64,192,2580,1,0,0:0:0:0:
320,192,2853,1,0,0:0:0:0:
64,192,3126,1,0,0:0:0:0:
320,192,3126,1,0,0:0:0:0:
64,192,3399,1,0,0:0:0:0:
192,192,3535,1,0,0:0:0:0:
320,192,3671,1,0,0:0:0:0:
448,192,3671,1,0,0:0:0:0:
192,192,3944,1,0,0:0:0:0:
448,192,4217,1,0,0:0:0:0:
64,192,4490,128,0,5035:0:0:0:0:
320,192,5035,1,0,0:0:0:0:
320,192,5308,1,0,0:0:0:0:
320,192,5853,1,0,0:0:0:0:
448,192,5853,1,0,0:0:0:0:
192,192,6126,1,0,0:0:0:0:
448,192,6399,128,0,6671:0:0:0:0:
320,192,6671,1,0,0:0:0:0:
192,192,6944,1,0,0:0:0:0:
320,192,7217,1,0,0:0:0:0:
64,192,7490,1,0,0:0:0:0:
320,192,7490,1,0,0:0:0:0:
448,192,7762,1,0,0:0:0:0:
320,192,7899,1,0,0:0:0:0:
64,192,8035,128,0,8308:0:0:0:0:
192,192,8035,128,0,8308:0:0:0:0:
448,192,8580,128,0,8853:0:0:0:0:
448,192,9399,1,0,0:0:0:0:
64,192,9944,1,0,0:0:0:0:
64,192,10217,128,0,10762:0:0:0:0:
448,192,10217,1,0,0:0:0:0:
320,192,10762,1,0,0:0:0:0:
192,192,11035,1,0,0:0:0:0:
320,192,11308,128,0,11717:0:0:0:0:
192,192,11785,1,0,0:0:0:0:
64,192,11853,1,0,0:0:0:0:
64,192,12126,1,0,0:0:0:0:
192,192,12262,1,0,0:0:0:0:
320,192,12399,1,0,0:0:0:0:
448,192,12399,1,0,0:0:0:0:
64,192,12671,1,0,0:0:0:0:
320,192,12944,1,0,0:0:0:0:
320,192,13217,128,0,13490:0:0:0:0:
448,192,13490,1,0,0:0:0:0:
192,192,13762,1,0,0:0:0:0:
448,192,14035,1,0,0:0:0:0:
192,192,14035,1,0,0:0:0:0:
64,192,14308,1,0,0:0:0:0:
448,192,14580,128,0,15126:0:0:0:0:
320,192,14580,1,0,0:0:0:0:
192,192,15126,128,0,15399:0:0:0:0:
320,192,15535,1,0,0:0:0:0:
448,192,15671,1,0,0:0:0:0:
448,192,15944,1,0,0:0:0:0:
320,192,16217,1,0,0:0:0:0:
64,192,16217,128,0,16490:0:0:0:0:
192,192,16626,1,0,0:0:0:0:
448,192,16762,1,0,0:0:0:0:
320,192,16899,1,0,0:0:0:0:
192,192,16967,1,0,0:0:0:0:
64,192,17035,128,0,17490:0:0:0:0:
320,192,17671,1,0,0:0:0:0:
64,192,17853,1,0,0:0:0:0:
448,192,17853,1,0,0:0:0:0:
320,192,18035,1,0,0:0:0:0:
448,192,18217,1,0,0:0:0:0:
192,192,18399,1,0,0:0:0:0:
448,192,18580,1,0,0:0:0:0:
192,192,18762,1,0,0:0:0:0:
64,192,18944,128,0,19171:0:0:0:0:
448,192,19171,128,0,19626:0:0:0:0:
192,192,19694,1,0,0:0:0:0:
320,192,19762,1,0,0:0:0:0:
64,192,20035,1,0,0:0:0:0:
64,192,20308,1,0,0:0:0:0:
320,192,20308,1,0,0:0:0:0:
64,192,20580,1,0,0:0:0:0:
192,192,20762,1,0,0:0:0:0:
320,192,20944,1,0,0:0:0:0:
448,192,21126,1,0,0:0:0:0:
192,192,21399,1,0,0:0:0:0:
192,192,21671,1,0,0:0:0:0:
448,192,21671,1,0,0:0:0:0:
64,192,21944,1,0,0:0:0:0:
192,192,22080,1,0,0:0:0:0:
320,192,22217,1,0,0:0:0:0:
192,192,22626,1,0,0:0:0:0:
64,192,23035,1,0,0:0:0:0:
192,192,23171,1,0,0:0:0:0:
320,192,23308,1,0,0:0:0:0:
448,192,23308,1,0,0:0:0:0:
64,192,23580,1,0,0:0:0:0:
448,192,23580,1,0,0:0:0:0:
192,192,23853,1,0,0:0:0:0:
192,192,24126,1,0,0:0:0:0:
320,192,24399,128,0,24671:0:0:0:0:
448,192,24808,1,0,0:0:0:0:
320,192,24944,1,0,0:0:0:0:
320,192,25217,1,0,0:0:0:0:
192,192,25353,1,0,0:0:0:0:
320,192,25421,1,0,0:0:0:0:
448,192,25490,128,0,25853:0:0:0:0:
320,192,26126,128,0,26490:0:0:0:0:
320,192,27126,1,0,0:0:0:0:
320,192,29353,1,0,0:0:0:0:
448,192,29353,1,0,0:0:0:0:
64,192,29353,1,0,0:0:0:0:
320,192,29717,1,0,0:0:0:0:
192,192,29788,1,0,0:0:0:0:
320,192,29859,1,0,0:0:0:0:
192,192,29931,1,0,0:0:0:0:
320,192,30002,1,0,0:0:0:0:
192,192,30074,1,0,0:0:0:0:
320,192,30145,1,0,0:0:0:0:
192,192,30217,1,0,0:0:0:0:
320,192,30288,1,0,0:0:0:0:
192,192,30359,1,0,0:0:0:0:
320,192,30431,1,0,0:0:0:0:
192,192,30502,1,0,0:0:0:0:
320,192,30574,1,0,0:0:0:0:
448,192,30645,1,0,0:0:0:0:
320,192,30730,1,0,0:0:0:0:
64,192,30730,1,0,0:0:0:0:
448,192,30944,1,0,0:0:0:0:
448,192,31051,1,0,0:0:0:0:
320,192,31051,1,0,0:0:0:0:
64,192,31158,1,0,0:0:0:0:
192,192,31265,1,0,0:0:0:0:
320,192,31372,1,0,0:0:0:0:
320,192,31480,1,0,0:0:0:0:
448,192,31480,1,0,0:0:0:0:
64,192,31694,1,0,0:0:0:0:
192,192,31801,1,0,0:0:0:0:
448,192,31908,1,0,0:0:0:0:
320,192,32015,1,0,0:0:0:0:
448,192,32230,1,0,0:0:0:0:
320,192,32337,1,0,0:0:0:0:
192,192,32444,1,0,0:0:0:0:
448,192,32444,1,0,0:0:0:0:
320,192,32658,1,0,0:0:0:0:
320,192,32766,1,0,0:0:0:0:
448,192,32766,1,0,0:0:0:0:
192,192,32873,1,0,0:0:0:0:
64,192,32980,1,0,0:0:0:0:
192,192,33087,1,0,0:0:0:0:
192,192,33194,1,0,0:0:0:0:
320,192,33194,1,0,0:0:0:0:
448,192,33409,1,0,0:0:0:0:
320,192,33462,1,0,0:0:0:0:
192,192,33516,1,0,0:0:0:0:
64,192,33623,1,0,0:0:0:0:
448,192,33837,1,0,0:0:0:0:
320,192,33944,1,0,0:0:0:0:
320,192,34159,1,0,0:0:0:0:
64,192,34159,1,0,0:0:0:0:
448,192,34373,1,0,0:0:0:0:
448,192,34480,1,0,0:0:0:0:
320,192,34480,1,0,0:0:0:0:
64,192,34587,1,0,0:0:0:0:
192,192,34695,1,0,0:0:0:0:
320,192,34802,1,0,0:0:0:0:
320,192,34909,1,0,0:0:0:0:
448,192,34909,1,0,0:0:0:0:
64,192,35230,1,0,0:0:0:0:
320,192,35338,1,0,0:0:0:0:
192,192,35445,1,0,0:0:0:0:
448,192,35659,1,0,0:0:0:0:
320,192,35766,1,0,0:0:0:0:
448,192,35873,1,0,0:0:0:0:
192,192,35873,1,0,0:0:0:0:
64,192,36088,1,0,0:0:0:0:
64,192,36195,1,0,0:0:0:0:
192,192,36195,1,0,0:0:0:0:
320,192,36302,1,0,0:0:0:0:
192,192,36409,1,0,0:0:0:0:
320,192,36516,1,0,0:0:0:0:
448,192,36624,1,0,0:0:0:0:
320,192,36624,1,0,0:0:0:0:
64,192,36731,1,0,0:0:0:0:
192,192,36838,1,0,0:0:0:0:
320,192,36892,1,0,0:0:0:0:
448,192,36945,1,0,0:0:0:0:
320,192,37052,1,0,0:0:0:0:
64,192,37159,1,0,0:0:0:0:
320,192,37267,1,0,0:0:0:0:
448,192,37374,1,0,0:0:0:0:
448,192,37481,1,0,0:0:0:0:
320,192,37588,1,0,0:0:0:0:
64,192,37588,128,0,38231:0:0:0:0:
192,192,37802,1,0,0:0:0:0:
192,192,37910,1,0,0:0:0:0:
320,192,37910,1,0,0:0:0:0:
448,192,38017,1,0,0:0:0:0:
320,192,38231,1,0,0:0:0:0:
320,192,38338,1,0,0:0:0:0:
448,192,38338,128,0,38874:0:0:0:0:
192,192,38445,1,0,0:0:0:0:
64,192,38553,1,0,0:0:0:0:
192,192,38660,1,0,0:0:0:0:
320,192,38767,1,0,0:0:0:0:
64,192,38874,1,0,0:0:0:0:
448,192,39088,1,0,0:0:0:0:
448,192,39196,1,0,0:0:0:0:
320,192,39303,128,0,39946:0:0:0:0:
64,192,39303,1,0,0:0:0:0:
64,192,39517,1,0,0:0:0:0:
64,192,39624,1,0,0:0:0:0:
192,192,39624,1,0,0:0:0:0:
448,192,39731,1,0,0:0:0:0:
192,192,39839,1,0,0:0:0:0:
448,192,39946,1,0,0:0:0:0:
448,192,40053,128,0,40696:0:0:0:0:
192,192,40160,1,0,0:0:0:0:
64,192,40267,1,0,0:0:0:0:
192,192,40321,1,0,0:0:0:0:
320,192,40374,1,0,0:0:0:0:
64,192,40482,1,0,0:0:0:0:
320,192,40589,1,0,0:0:0:0:
64,192,40696,1,0,0:0:0:0:
192,192,40803,1,0,0:0:0:0:
192,192,40910,1,0,0:0:0:0:
320,192,41017,1,0,0:0:0:0:
64,192,41017,128,0,41660:0:0:0:0:
448,192,41232,1,0,0:0:0:0:
448,192,41339,1,0,0:0:0:0:
320,192,41339,1,0,0:0:0:0:
192,192,41446,1,0,0:0:0:0:
320,192,41660,1,0,0:0:0:0:
320,192,41768,1,0,0:0:0:0:
448,192,41768,128,0,42303:0:0:0:0:
192,192,41875,1,0,0:0:0:0:
64,192,41982,1,0,0:0:0:0:
192,192,42089,1,0,0:0:0:0:
320,192,42196,1,0,0:0:0:0:
64,192,42303,1,0,0:0:0:0:
320,192,42518,1,0,0:0:0:0:
320,192,42625,1,0,0:0:0:0:
448,192,42732,1,0,0:0:0:0:
192,192,42732,128,0,43375:0:0:0:0:
448,192,42946,1,0,0:0:0:0:
448,192,43054,1,0,0:0:0:0:
320,192,43054,1,0,0:0:0:0:
64,192,43161,1,0,0:0:0:0:
320,192,43268,1,0,0:0:0:0:
64,192,43375,1,0,0:0:0:0:
64,192,43482,128,0,44018:0:0:0:0:
320,192,43589,1,0,0:0:0:0:
448,192,43697,1,0,0:0:0:0:
320,192,43750,1,0,0:0:0:0:
192,192,43804,1,0,0:0:0:0:
448,192,43911,1,0,0:0:0:0:
192,192,44018,1,0,0:0:0:0:
448,192,44125,1,0,0:0:0:0:
320,192,44232,1,0,0:0:0:0:
320,192,44340,1,0,0:0:0:0:
448,192,44447,1,0,0:0:0:0:
320,192,44554,1,0,0:0:0:0:
64,192,44661,1,0,0:0:0:0:
448,192,44768,1,0,0:0:0:0:
320,192,44822,1,0,0:0:0:0:
64,192,44875,1,0,0:0:0:0:
192,192,44875,1,0,0:0:0:0:
448,192,44875,1,0,0:0:0:0:
64,192,45090,1,0,0:0:0:0:
192,192,45304,128,0,45518:0:0:0:0:
64,192,45304,128,0,45518:0:0:0:0:
320,192,45626,1,0,0:0:0:0:
192,192,45679,1,0,0:0:0:0:
64,192,45733,1,0,0:0:0:0:
320,192,45733,1,0,0:0:0:0:
448,192,45733,1,0,0:0:0:0:
64,192,45947,1,0,0:0:0:0:
192,192,46054,1,0,0:0:0:0:
320,192,46161,128,0,46376:0:0:0:0:
448,192,46161,128,0,46376:0:0:0:0:
192,192,46483,1,0,0:0:0:0:
320,192,46536,1,0,0:0:0:0:
64,192,46590,1,0,0:0:0:0:
192,192,46590,1,0,0:0:0:0:
448,192,46590,1,0,0:0:0:0:
64,192,46804,1,0,0:0:0:0:
192,192,47019,128,0,47233:0:0:0:0:
64,192,47019,128,0,47233:0:0:0:0:
448,192,47340,1,0,0:0:0:0:
320,192,47394,1,0,0:0:0:0:
448,192,47447,1,0,0:0:0:0:
64,192,47447,1,0,0:0:0:0:
192,192,47447,1,0,0:0:0:0:
64,192,47662,1,0,0:0:0:0:
192,192,47769,1,0,0:0:0:0:
320,192,47876,128,0,48090:0:0:0:0:
448,192,47876,128,0,48090:0:0:0:0:
64,192,48198,1,0,0:0:0:0:
192,192,48251,1,0,0:0:0:0:
64,192,48305,1,0,0:0:0:0:
320,192,48305,1,0,0:0:0:0:
448,192,48305,1,0,0:0:0:0:
64,192,48519,1,0,0:0:0:0:
64,192,48733,128,0,48948:0:0:0:0:
192,192,48733,128,0,48948:0:0:0:0:
448,192,49055,1,0,0:0:0:0:
320,192,49108,1,0,0:0:0:0:
192,192,49162,1,0,0:0:0:0:
448,192,49162,1,0,0:0:0:0:
64,192,49162,1,0,0:0:0:0:
64,192,49376,1,0,0:0:0:0:
192,192,49484,1,0,0:0:0:0:
64,192,49591,1,0,0:0:0:0:
64,192,49805,1,0,0:0:0:0:
320,192,50019,128,0,51305:0:0:0:0:
64,192,50019,128,0,50662:0:0:0:0:
192,192,50019,128,0,50662:0:0:0:0:
448,192,50662,128,0,51305:0:0:0:0:
320,192,51520,1,0,0:0:0:0:
320,192,51734,1,0,0:0:0:0:
192,192,51841,1,0,0:0:0:0:
448,192,51948,1,0,0:0:0:0:
320,192,52002,1,0,0:0:0:0:
192,192,52055,1,0,0:0:0:0:
64,192,52109,1,0,0:0:0:0:
448,192,52163,1,0,0:0:0:0:
448,192,52377,1,0,0:0:0:0:
448,192,52591,1,0,0:0:0:0:
320,192,52591,1,0,0:0:0:0:
192,192,52806,1,0,0:0:0:0:
448,192,52806,1,0,0:0:0:0:
320,192,52913,1,0,0:0:0:0:
64,192,53020,128,0,53341:0:0:0:0:
448,192,53020,1,0,0:0:0:0:
320,192,53234,1,0,0:0:0:0:
448,192,53341,1,0,0:0:0:0:
448,192,53449,1,0,0:0:0:0:
64,192,53663,1,0,0:0:0:0:
320,192,53824,1,0,0:0:0:0:
192,192,53877,1,0,0:0:0:0:
64,192,53877,1,0,0:0:0:0:
448,192,54092,1,0,0:0:0:0:
320,192,54199,1,0,0:0:0:0:
192,192,54199,1,0,0:0:0:0:
448,192,54306,1,0,0:0:0:0:
192,192,54520,1,0,0:0:0:0:
320,192,54627,1,0,0:0:0:0:
192,192,54735,1,0,0:0:0:0:
448,192,54735,128,0,55056:0:0:0:0:
64,192,54949,1,0,0:0:0:0:
192,192,55056,1,0,0:0:0:0:
192,192,55163,1,0,0:0:0:0:
320,192,55378,1,0,0:0:0:0:
192,192,55592,1,0,0:0:0:0:
448,192,55592,1,0,0:0:0:0:
64,192,55699,1,0,0:0:0:0:
192,192,55753,1,0,0:0:0:0:
320,192,55806,1,0,0:0:0:0:
448,192,55806,1,0,0:0:0:0:
64,192,55913,1,0,0:0:0:0:
192,192,56021,1,0,0:0:0:0:
448,192,56235,1,0,0:0:0:0:
320,192,56342,1,0,0:0:0:0:
192,192,56449,1,0,0:0:0:0:
448,192,56449,128,0,56771:0:0:0:0:
64,192,56664,1,0,0:0:0:0:
192,192,56771,1,0,0:0:0:0:
192,192,56878,1,0,0:0:0:0:
320,192,56878,1,0,0:0:0:0:
192,192,57092,1,0,0:0:0:0:
64,192,57199,1,0,0:0:0:0:
192,192,57253,1,0,0:0:0:0:
448,192,57307,1,0,0:0:0:0:
320,192,57307,128,0,57628:0:0:0:0:
64,192,57521,1,0,0:0:0:0:
192,192,57521,1,0,0:0:0:0:
192,192,57735,1,0,0:0:0:0:
448,192,57735,1,0,0:0:0:0:
320,192,57950,1,0,0:0:0:0:
448,192,57950,1,0,0:0:0:0:
320,192,58164,1,0,0:0:0:0:
64,192,58164,128,0,58485:0:0:0:0:
320,192,58378,1,0,0:0:0:0:
448,192,58378,1,0,0:0:0:0:
448,192,58807,1,0,0:0:0:0:
192,192,58914,1,0,0:0:0:0:
448,192,59021,128,0,59343:0:0:0:0:
320,192,59021,1,0,0:0:0:0:
64,192,59128,1,0,0:0:0:0:
192,192,59182,1,0,0:0:0:0:
320,192,59236,1,0,0:0:0:0:
64,192,59343,1,0,0:0:0:0:
320,192,59450,1,0,0:0:0:0:
320,192,59664,1,0,0:0:0:0:
448,192,59664,1,0,0:0:0:0:
448,192,59879,1,0,0:0:0:0:
192,192,59879,128,0,60200:0:0:0:0:
320,192,60093,1,0,0:0:0:0:
448,192,60200,1,0,0:0:0:0:
448,192,60307,1,0,0:0:0:0:
192,192,60414,1,0,0:0:0:0:
320,192,60468,1,0,0:0:0:0:
192,192,60522,1,0,0:0:0:0:
64,192,60736,128,0,61057:0:0:0:0:
320,192,60736,1,0,0:0:0:0:
448,192,60950,1,0,0:0:0:0:
192,192,61057,1,0,0:0:0:0:
320,192,61165,1,0,0:0:0:0:
192,192,61218,1,0,0:0:0:0:
320,192,61272,1,0,0:0:0:0:
192,192,61325,1,0,0:0:0:0:
320,192,61379,1,0,0:0:0:0:
192,192,61593,1,0,0:0:0:0:
448,192,61593,1,0,0:0:0:0:
448,192,61808,1,0,0:0:0:0:
192,192,61808,1,0,0:0:0:0:
64,192,61915,1,0,0:0:0:0:
448,192,62022,1,0,0:0:0:0:
192,192,62022,1,0,0:0:0:0:
320,192,62236,1,0,0:0:0:0:
448,192,62236,1,0,0:0:0:0:
320,192,62451,1,0,0:0:0:0:
448,192,62451,1,0,0:0:0:0:
192,192,62504,1,0,0:0:0:0:
64,192,62558,1,0,0:0:0:0:
448,192,62665,1,0,0:0:0:0:
320,192,62665,1,0,0:0:0:0:
192,192,62772,1,0,0:0:0:0:
64,192,62879,1,0,0:0:0:0:
320,192,62879,1,0,0:0:0:0:
64,192,63094,1,0,0:0:0:0:
320,192,63201,1,0,0:0:0:0:
192,192,63308,1,0,0:0:0:0:
448,192,63308,128,0,63629:0:0:0:0:
320,192,63522,1,0,0:0:0:0:
64,192,63629,1,0,0:0:0:0:
64,192,63737,1,0,0:0:0:0:
320,192,63951,1,0,0:0:0:0:
64,192,64058,1,0,0:0:0:0:
192,192,64112,1,0,0:0:0:0:
320,192,64165,1,0,0:0:0:0:
448,192,64380,1,0,0:0:0:0:
320,192,64380,1,0,0:0:0:0:
320,192,64594,1,0,0:0:0:0:
448,192,64594,1,0,0:0:0:0:
320,192,64808,1,0,0:0:0:0:
448,192,64915,1,0,0:0:0:0:
320,192,64969,1,0,0:0:0:0:
192,192,65023,1,0,0:0:0:0:
64,192,65023,1,0,0:0:0:0:
192,192,65237,1,0,0:0:0:0:
448,192,65237,1,0,0:0:0:0:
64,192,65344,1,0,0:0:0:0:
192,192,65451,1,0,0:0:0:0:
320,192,65451,1,0,0:0:0:0:
64,192,65666,1,0,0:0:0:0:
320,192,65666,1,0,0:0:0:0:
320,192,65880,1,0,0:0:0:0:
448,192,65880,1,0,0:0:0:0:
192,192,65987,1,0,0:0:0:0:
320,192,66041,1,0,0:0:0:0:
448,192,66094,1,0,0:0:0:0:
192,192,66201,1,0,0:0:0:0:
320,192,66309,1,0,0:0:0:0:
448,192,66523,1,0,0:0:0:0:
320,192,66576,1,0,0:0:0:0:
192,192,66630,1,0,0:0:0:0:
64,192,66684,1,0,0:0:0:0:
192,192,66737,1,0,0:0:0:0:
448,192,66737,128,0,67059:0:0:0:0:
64,192,66952,1,0,0:0:0:0:
192,192,67059,1,0,0:0:0:0:
192,192,67166,1,0,0:0:0:0:
320,192,67166,1,0,0:0:0:0:
192,192,67380,1,0,0:0:0:0:
64,192,67380,1,0,0:0:0:0:
320,192,67595,1,0,0:0:0:0:
192,192,67595,1,0,0:0:0:0:
320,192,67809,1,0,0:0:0:0:
448,192,67916,1,0,0:0:0:0:
192,192,67916,1,0,0:0:0:0:
320,192,68023,1,0,0:0:0:0:
448,192,68238,1,0,0:0:0:0:
192,192,68345,1,0,0:0:0:0:
320,192,68452,1,0,0:0:0:0:
64,192,68452,128,0,68773:0:0:0:0:
448,192,68666,1,0,0:0:0:0:
192,192,68666,1,0,0:0:0:0:
320,192,68773,1,0,0:0:0:0:
320,192,68881,1,0,0:0:0:0:
448,192,69095,1,0,0:0:0:0:
192,192,69095,1,0,0:0:0:0:
320,192,69309,1,0,0:0:0:0:
448,192,69309,1,0,0:0:0:0:
64,192,69416,1,0,0:0:0:0:
192,192,69470,1,0,0:0:0:0:
320,192,69524,1,0,0:0:0:0:
192,192,69631,1,0,0:0:0:0:
320,192,69738,1,0,0:0:0:0:
192,192,69845,1,0,0:0:0:0:
320,192,69952,1,0,0:0:0:0:
192,192,70059,1,0,0:0:0:0:
320,192,70167,1,0,0:0:0:0:
448,192,70167,128,0,70488:0:0:0:0:
64,192,70381,1,0,0:0:0:0:
192,192,70488,1,0,0:0:0:0:
64,192,70595,1,0,0:0:0:0:
192,192,70810,1,0,0:0:0:0:
448,192,70917,1,0,0:0:0:0:
320,192,70970,1,0,0:0:0:0:
64,192,71024,128,0,71345:0:0:0:0:
192,192,71024,1,0,0:0:0:0:
320,192,71238,1,0,0:0:0:0:
448,192,71238,1,0,0:0:0:0:
320,192,71453,1,0,0:0:0:0:
192,192,71453,1,0,0:0:0:0:
192,192,71667,1,0,0:0:0:0:
64,192,71667,1,0,0:0:0:0:
64,192,71881,1,0,0:0:0:0:
320,192,71881,128,0,72203:0:0:0:0:
64,192,72096,128,0,72739:0:0:0:0:
192,192,72310,1,0,0:0:0:0:
320,192,72524,1,0,0:0:0:0:
192,192,72739,1,0,0:0:0:0:
320,192,72846,1,0,0:0:0:0:
192,192,72899,1,0,0:0:0:0:
320,192,72953,1,0,0:0:0:0:
448,192,73060,1,0,0:0:0:0:
448,192,73167,1,0,0:0:0:0:
448,192,73381,1,0,0:0:0:0:
320,192,73381,1,0,0:0:0:0:
192,192,73596,1,0,0:0:0:0:
448,192,73596,128,0,73917:0:0:0:0:
64,192,73810,1,0,0:0:0:0:
192,192,73917,1,0,0:0:0:0:
192,192,74024,1,0,0:0:0:0:
448,192,74132,1,0,0:0:0:0:
320,192,74185,1,0,0:0:0:0:
192,192,74239,1,0,0:0:0:0:
64,192,74453,1,0,0:0:0:0:
192,192,74453,1,0,0:0:0:0:
64,192,74667,1,0,0:0:0:0:
192,192,74775,1,0,0:0:0:0:
320,192,74775,1,0,0:0:0:0:
64,192,74882,1,0,0:0:0:0:
192,192,74989,1,0,0:0:0:0:
320,192,75096,1,0,0:0:0:0:
448,192,75096,1,0,0:0:0:0:
192,192,75310,1,0,0:0:0:0:
448,192,75310,128,0,75632:0:0:0:0:
192,192,75525,1,0,0:0:0:0:
64,192,75632,1,0,0:0:0:0:
64,192,75739,1,0,0:0:0:0:
320,192,75953,1,0,0:0:0:0:
448,192,75953,1,0,0:0:0:0:
192,192,76168,1,0,0:0:0:0:
448,192,76168,1,0,0:0:0:0:
64,192,76275,1,0,0:0:0:0:
192,192,76329,1,0,0:0:0:0:
320,192,76382,1,0,0:0:0:0:
64,192,76489,1,0,0:0:0:0:
448,192,76489,1,0,0:0:0:0:
192,192,76596,1,0,0:0:0:0:
64,192,76811,1,0,0:0:0:0:
448,192,76811,1,0,0:0:0:0:
320,192,76918,1,0,0:0:0:0:
192,192,77025,1,0,0:0:0:0:
448,192,77025,1,0,0:0:0:0:
64,192,77239,128,0,77668:0:0:0:0:
448,192,77239,128,0,77668:0:0:0:0:
192,192,77347,1,0,0:0:0:0:
192,192,77454,1,0,0:0:0:0:
320,192,77668,1,0,0:0:0:0:
192,192,77775,1,0,0:0:0:0:
320,192,77829,1,0,0:0:0:0:
448,192,77882,1,0,0:0:0:0:
448,192,78097,1,0,0:0:0:0:
320,192,78204,1,0,0:0:0:0:
320,192,78311,1,0,0:0:0:0:
448,192,78525,1,0,0:0:0:0:
320,192,78579,1,0,0:0:0:0:
192,192,78633,1,0,0:0:0:0:
320,192,78686,1,0,0:0:0:0:
448,192,78740,128,0,79061:0:0:0:0:
320,192,78954,1,0,0:0:0:0:
192,192,79061,1,0,0:0:0:0:
192,192,79168,1,0,0:0:0:0:
448,192,79383,1,0,0:0:0:0:
320,192,79490,1,0,0:0:0:0:
448,192,79597,1,0,0:0:0:0:
192,192,79704,1,0,0:0:0:0:
320,192,79758,1,0,0:0:0:0:
448,192,79811,1,0,0:0:0:0:
192,192,79919,1,0,0:0:0:0:
320,192,80026,1,0,0:0:0:0:
448,192,80240,1,0,0:0:0:0:
320,192,80347,1,0,0:0:0:0:
192,192,80454,1,0,0:0:0:0:
448,192,80454,1,0,0:0:0:0:
64,192,80454,1,0,0:0:0:0:
192,192,80669,1,0,0:0:0:0:
320,192,80776,1,0,0:0:0:0:
64,192,80883,1,0,0:0:0:0:
192,192,80883,1,0,0:0:0:0:
320,192,80937,1,0,0:0:0:0:
448,192,80990,1,0,0:0:0:0:
320,192,81097,1,0,0:0:0:0:
192,192,81205,1,0,0:0:0:0:
448,192,81312,128,0,81740:0:0:0:0:
320,192,81312,1,0,0:0:0:0:
64,192,81312,128,0,81740:0:0:0:0:
192,192,81526,1,0,0:0:0:0:
320,192,81580,1,0,0:0:0:0:
192,192,81740,1,0,0:0:0:0:
64,192,81955,1,0,0:0:0:0:
192,192,82062,1,0,0:0:0:0:
64,192,82169,1,0,0:0:0:0:
320,192,82169,1,0,0:0:0:0:
448,192,82169,1,0,0:0:0:0:
448,192,82383,1,0,0:0:0:0:
320,192,82491,1,0,0:0:0:0:
448,192,82598,1,0,0:0:0:0:
192,192,82598,1,0,0:0:0:0:
320,192,82741,1,0,0:0:0:0:
192,192,82884,1,0,0:0:0:0:
320,192,83026,1,0,0:0:0:0:
64,192,83026,128,0,83455:0:0:0:0:
192,192,83026,128,0,83455:0:0:0:0:
448,192,83241,1,0,0:0:0:0:
320,192,83294,1,0,0:0:0:0:
448,192,83455,1,0,0:0:0:0:
192,192,83669,1,0,0:0:0:0:
320,192,83777,1,0,0:0:0:0:
192,192,83884,1,0,0:0:0:0:
64,192,83884,128,0,84312:0:0:0:0:
448,192,83884,128,0,84312:0:0:0:0:
320,192,84205,1,0,0:0:0:0:
192,192,84312,1,0,0:0:0:0:
320,192,84527,1,0,0:0:0:0:
448,192,84527,1,0,0:0:0:0:
320,192,84741,1,0,0:0:0:0:
64,192,84741,1,0,0:0:0:0:
448,192,84741,128,0,85170:0:0:0:0:
192,192,84884,1,0,0:0:0:0:
64,192,85027,1,0,0:0:0:0:
192,192,85170,1,0,0:0:0:0:
320,192,85313,1,0,0:0:0:0:
192,192,85456,1,0,0:0:0:0:
320,192,85598,1,0,0:0:0:0:
192,192,85598,1,0,0:0:0:0:
448,192,85598,128,0,85920:0:0:0:0:
192,192,85920,1,0,0:0:0:0:
64,192,85920,1,0,0:0:0:0:
320,192,86027,1,0,0:0:0:0:
448,192,86241,1,0,0:0:0:0:
320,192,86241,1,0,0:0:0:0:
64,192,86241,128,0,86884:0:0:0:0:
320,192,86456,1,0,0:0:0:0:
192,192,86563,1,0,0:0:0:0:
448,192,86670,1,0,0:0:0:0:
320,192,86724,1,0,0:0:0:0:
192,192,86884,1,0,0:0:0:0:
192,192,87099,1,0,0:0:0:0:
64,192,87206,1,0,0:0:0:0:
320,192,87313,1,0,0:0:0:0:
192,192,87313,1,0,0:0:0:0:
448,192,87313,128,0,87635:0:0:0:0:
192,192,87527,1,0,0:0:0:0:
64,192,87635,1,0,0:0:0:0:
192,192,87742,1,0,0:0:0:0:
320,192,87795,1,0,0:0:0:0:
448,192,87849,1,0,0:0:0:0:
320,192,87956,1,0,0:0:0:0:
192,192,88063,1,0,0:0:0:0:
320,192,88170,1,0,0:0:0:0:
448,192,88170,1,0,0:0:0:0:
64,192,88170,128,0,88492:0:0:0:0:
320,192,88385,1,0,0:0:0:0:
448,192,88438,1,0,0:0:0:0:
192,192,88599,1,0,0:0:0:0:
192,192,88813,1,0,0:0:0:0:
64,192,89028,1,0,0:0:0:0:
192,192,89028,1,0,0:0:0:0:
448,192,89028,128,0,89349:0:0:0:0:
192,192,89242,1,0,0:0:0:0:
64,192,89349,1,0,0:0:0:0:
192,192,89456,1,0,0:0:0:0:
320,192,89599,1,0,0:0:0:0:
448,192,89742,1,0,0:0:0:0:
192,192,89885,1,0,0:0:0:0:
448,192,89885,128,0,90528:0:0:0:0:
320,192,89885,128,0,90528:0:0:0:0:
64,192,90099,1,0,0:0:0:0:
192,192,90153,1,0,0:0:0:0:
64,192,90314,1,0,0:0:0:0:
192,192,90528,1,0,0:0:0:0:
320,192,90742,1,0,0:0:0:0:
448,192,90742,1,0,0:0:0:0:
320,192,91064,1,0,0:0:0:0:
448,192,91171,1,0,0:0:0:0:
448,192,91385,1,0,0:0:0:0:
320,192,91600,1,0,0:0:0:0:
448,192,91600,1,0,0:0:0:0:
448,192,91814,1,0,0:0:0:0:
320,192,91921,1,0,0:0:0:0:
192,192,92028,1,0,0:0:0:0:
320,192,92243,1,0,0:0:0:0:
64,192,92457,1,0,0:0:0:0:
320,192,92457,1,0,0:0:0:0:
448,192,92457,1,0,0:0:0:0:
192,192,92457,1,0,0:0:0:0:
448,192,92779,1,0,0:0:0:0:
320,192,92886,1,0,0:0:0:0:
192,192,92886,1,0,0:0:0:0:
448,192,93100,1,0,0:0:0:0:
320,192,93207,1,0,0:0:0:0:
64,192,93314,128,0,93636:0:0:0:0:
448,192,93314,1,0,0:0:0:0:
192,192,93314,1,0,0:0:0:0:
192,192,93529,1,0,0:0:0:0:
448,192,93636,1,0,0:0:0:0:
320,192,93743,1,0,0:0:0:0:
64,192,93957,1,0,0:0:0:0:
192,192,94065,1,0,0:0:0:0:
448,192,94172,1,0,0:0:0:0:
192,192,94172,1,0,0:0:0:0:
320,192,94172,1,0,0:0:0:0:
448,192,94386,1,0,0:0:0:0:
320,192,94493,1,0,0:0:0:0:
192,192,94707,1,0,0:0:0:0:
64,192,94815,1,0,0:0:0:0:
448,192,95029,1,0,0:0:0:0:
320,192,95083,1,0,0:0:0:0:
192,192,95136,1,0,0:0:0:0:
64,192,95190,1,0,0:0:0:0:
448,192,95243,1,0,0:0:0:0:
320,192,95297,1,0,0:0:0:0:
192,192,95350,1,0,0:0:0:0:
64,192,95404,1,0,0:0:0:0:
320,192,95458,1,0,0:0:0:0:
192,192,95511,1,0,0:0:0:0:
320,192,95565,1,0,0:0:0:0:
192,192,95618,1,0,0:0:0:0:
320,192,95672,1,0,0:0:0:0:
192,192,95726,1,0,0:0:0:0:
320,192,95779,1,0,0:0:0:0:
192,192,95886,1,0,0:0:0:0:
448,192,95886,1,0,0:0:0:0:
64,192,95886,1,0,0:0:0:0:
192,192,96208,1,0,0:0:0:0:
448,192,96208,1,0,0:0:0:0:
64,192,96315,1,0,0:0:0:0:
448,192,96529,1,0,0:0:0:0:
448,192,96744,1,0,0:0:0:0:
320,192,96744,1,0,0:0:0:0:
320,192,96958,1,0,0:0:0:0:
192,192,97065,1,0,0:0:0:0:
64,192,97172,1,0,0:0:0:0:
192,192,97315,1,0,0:0:0:0:
320,192,97458,1,0,0:0:0:0:
192,192,97601,1,0,0:0:0:0:
448,192,97601,1,0,0:0:0:0:
192,192,97922,1,0,0:0:0:0:
448,192,97922,1,0,0:0:0:0:
320,192,98244,1,0,0:0:0:0:
64,192,98458,1,0,0:0:0:0:
320,192,98458,1,0,0:0:0:0:
64,192,98780,1,0,0:0:0:0:
320,192,98780,1,0,0:0:0:0:
192,192,98887,1,0,0:0:0:0:
64,192,99101,1,0,0:0:0:0:
320,192,99316,1,0,0:0:0:0:
448,192,99316,1,0,0:0:0:0:
320,192,99637,1,0,0:0:0:0:
448,192,99637,1,0,0:0:0:0:
192,192,99959,1,0,0:0:0:0:
320,192,99959,1,0,0:0:0:0:
192,192,100173,1,0,0:0:0:0:
320,192,100227,1,0,0:0:0:0:
448,192,100280,1,0,0:0:0:0:
320,192,100387,1,0,0:0:0:0:
192,192,100494,1,0,0:0:0:0:
64,192,100602,1,0,0:0:0:0:
192,192,100655,1,0,0:0:0:0:
320,192,100709,1,0,0:0:0:0:
192,192,100816,1,0,0:0:0:0:
64,192,100923,1,0,0:0:0:0:
192,192,101030,1,0,0:0:0:0:
320,192,101245,1,0,0:0:0:0:
448,192,101245,1,0,0:0:0:0:
320,192,101459,1,0,0:0:0:0:
448,192,101459,1,0,0:0:0:0:
192,192,101673,1,0,0:0:0:0:
448,192,101888,128,0,102531:0:0:0:0:
192,192,102209,1,0,0:0:0:0:
320,192,102316,1,0,0:0:0:0:
192,192,102531,1,0,0:0:0:0:
64,192,102745,1,0,0:0:0:0:
320,192,102745,1,0,0:0:0:0:
448,192,102745,1,0,0:0:0:0:
64,192,103066,1,0,0:0:0:0:
320,192,103066,1,0,0:0:0:0:
448,192,103174,1,0,0:0:0:0:
320,192,103281,1,0,0:0:0:0:
448,192,103281,1,0,0:0:0:0:
192,192,103388,1,0,0:0:0:0:
320,192,103602,1,0,0:0:0:0:
448,192,103602,1,0,0:0:0:0:
192,192,103709,1,0,0:0:0:0:
320,192,103924,1,0,0:0:0:0:
448,192,103924,1,0,0:0:0:0:
192,192,104031,1,0,0:0:0:0:
320,192,104138,1,0,0:0:0:0:
448,192,104245,1,0,0:0:0:0:
320,192,104317,1,0,0:0:0:0:
448,192,104388,1,0,0:0:0:0:
192,192,104460,1,0,0:0:0:0:
320,192,104460,1,0,0:0:0:0:
448,192,104674,1,0,0:0:0:0:
192,192,104781,1,0,0:0:0:0:
320,192,104781,128,0,104995:0:0:0:0:
448,192,105103,1,0,0:0:0:0:
192,192,105174,128,0,105460:0:0:0:0:
64,192,105317,1,0,0:0:0:0:
448,192,105317,1,0,0:0:0:0:
64,192,105638,1,0,0:0:0:0:
320,192,105638,128,0,105906:0:0:0:0:
448,192,105906,1,0,0:0:0:0:
448,192,106103,1,0,0:0:0:0:
192,192,106174,1,0,0:0:0:0:
64,192,106174,1,0,0:0:0:0:
320,192,106281,1,0,0:0:0:0:
192,192,106496,1,0,0:0:0:0:
320,192,106496,1,0,0:0:0:0:
448,192,106603,1,0,0:0:0:0:
320,192,106817,1,0,0:0:0:0:
448,192,107032,1,0,0:0:0:0:
320,192,107032,1,0,0:0:0:0:
320,192,107246,1,0,0:0:0:0:
320,192,107353,1,0,0:0:0:0:
448,192,107460,1,0,0:0:0:0:
448,192,107675,1,0,0:0:0:0:
448,192,107889,1,0,0:0:0:0:
320,192,107889,1,0,0:0:0:0:
64,192,108103,1,0,0:0:0:0:
320,192,108103,1,0,0:0:0:0:
320,192,108318,1,0,0:0:0:0:
64,192,108318,1,0,0:0:0:0:
192,192,108425,1,0,0:0:0:0:
448,192,108478,1,0,0:0:0:0:
192,192,108532,1,0,0:0:0:0:
64,192,108746,1,0,0:0:0:0:
192,192,108961,1,0,0:0:0:0:
320,192,109068,1,0,0:0:0:0:
320,192,109175,1,0,0:0:0:0:
320,192,109389,1,0,0:0:0:0:
64,192,109604,1,0,0:0:0:0:
192,192,109604,1,0,0:0:0:0:
320,192,109604,1,0,0:0:0:0:
64,192,109925,1,0,0:0:0:0:
320,192,109925,1,0,0:0:0:0:
192,192,109925,1,0,0:0:0:0:
448,192,110247,1,0,0:0:0:0:
448,192,110461,1,0,0:0:0:0:
320,192,110675,128,0,110997:0:0:0:0:
192,192,110997,1,0,0:0:0:0:
320,192,111211,1,0,0:0:0:0:
192,192,111265,1,0,0:0:0:0:
64,192,111318,128,0,111640:0:0:0:0:
448,192,111318,1,0,0:0:0:0:
192,192,111640,128,0,111961:0:0:0:0:
448,192,111640,1,0,0:0:0:0:
320,192,111961,1,0,0:0:0:0:
64,192,112176,1,0,0:0:0:0:
192,192,112390,1,0,0:0:0:0:
320,192,112604,1,0,0:0:0:0:
64,192,112819,1,0,0:0:0:0:
192,192,112926,1,0,0:0:0:0:
320,192,113033,1,0,0:0:0:0:
64,192,113140,1,0,0:0:0:0:
192,192,113247,1,0,0:0:0:0:
320,192,113354,1,0,0:0:0:0:
64,192,113462,1,0,0:0:0:0:
192,192,113533,1,0,0:0:0:0:
320,192,113604,1,0,0:0:0:0:
64,192,113676,1,0,0:0:0:0:
192,192,113747,1,0,0:0:0:0:
320,192,113819,1,0,0:0:0:0:
64,192,113890,1,0,0:0:0:0:
192,192,113962,1,0,0:0:0:0:
320,192,114033,1,0,0:0:0:0:
64,192,114105,128,0,114640:0:0:0:0:
448,192,114105,1,0,0:0:0:0:
320,192,114319,1,0,0:0:0:0:
320,192,114426,1,0,0:0:0:0:
192,192,114533,1,0,0:0:0:0:
448,192,114640,1,0,0:0:0:0:
192,192,114748,1,0,0:0:0:0:
320,192,114748,1,0,0:0:0:0:
448,192,114962,1,0,0:0:0:0:
192,192,115069,1,0,0:0:0:0:
320,192,115069,1,0,0:0:0:0:
64,192,115176,1,0,0:0:0:0:
192,192,115248,1,0,0:0:0:0:
320,192,115319,1,0,0:0:0:0:
448,192,115390,1,0,0:0:0:0:
320,192,115462,1,0,0:0:0:0:
192,192,115533,1,0,0:0:0:0:
64,192,115605,1,0,0:0:0:0:
192,192,115676,1,0,0:0:0:0:
320,192,115748,1,0,0:0:0:0:
192,192,115819,1,0,0:0:0:0:
320,192,115891,1,0,0:0:0:0:
448,192,115962,1,0,0:0:0:0:
192,192,116033,1,0,0:0:0:0:
320,192,116105,1,0,0:0:0:0:
448,192,116176,1,0,0:0:0:0:
192,192,116248,1,0,0:0:0:0:
320,192,116319,1,0,0:0:0:0:
448,192,116391,1,0,0:0:0:0:
64,192,116462,1,0,0:0:0:0:
192,192,116462,1,0,0:0:0:0:
448,192,116676,1,0,0:0:0:0:
64,192,116784,1,0,0:0:0:0:
192,192,116784,1,0,0:0:0:0:
448,192,116998,1,0,0:0:0:0:
320,192,117105,1,0,0:0:0:0:
320,192,117319,1,0,0:0:0:0:
192,192,117427,1,0,0:0:0:0:
320,192,117480,1,0,0:0:0:0:
448,192,117534,1,0,0:0:0:0:
192,192,117641,1,0,0:0:0:0:
320,192,117855,1,0,0:0:0:0:
192,192,118070,1,0,0:0:0:0:
448,192,118070,1,0,0:0:0:0:
64,192,118177,1,0,0:0:0:0:
320,192,118177,1,0,0:0:0:0:
192,192,118284,1,0,0:0:0:0:
64,192,118498,1,0,0:0:0:0:
320,192,118498,1,0,0:0:0:0:
448,192,118677,1,0,0:0:0:0:
320,192,118748,1,0,0:0:0:0:
64,192,118820,1,0,0:0:0:0:
192,192,118820,1,0,0:0:0:0:
64,192,119034,1,0,0:0:0:0:
192,192,119106,1,0,0:0:0:0:
320,192,119177,1,0,0:0:0:0:
448,192,119356,1,0,0:0:0:0:
192,192,119463,1,0,0:0:0:0:
448,192,119534,1,0,0:0:0:0:
320,192,119606,1,0,0:0:0:0:
192,192,119677,1,0,0:0:0:0:
320,192,119749,1,0,0:0:0:0:
64,192,119891,1,0,0:0:0:0:
192,192,119891,1,0,0:0:0:0:
448,192,119891,1,0,0:0:0:0:
192,192,120213,1,0,0:0:0:0:
448,192,120213,1,0,0:0:0:0:
448,192,120320,1,0,0:0:0:0:
320,192,120534,128,0,120963:0:0:0:0:
192,192,120534,1,0,0:0:0:0:
64,192,120749,1,0,0:0:0:0:
192,192,120963,1,0,0:0:0:0:
448,192,120963,1,0,0:0:0:0:
64,192,121070,1,0,0:0:0:0:
64,192,121177,1,0,0:0:0:0:
320,192,121392,1,0,0:0:0:0:
192,192,121499,1,0,0:0:0:0:
64,192,121606,1,0,0:0:0:0:
320,192,121606,1,0,0:0:0:0:
448,192,121606,1,0,0:0:0:0:
64,192,121820,1,0,0:0:0:0:
192,192,121928,1,0,0:0:0:0:
192,192,122142,1,0,0:0:0:0:
64,192,122249,1,0,0:0:0:0:
192,192,122303,1,0,0:0:0:0:
320,192,122356,1,0,0:0:0:0:
448,192,122410,1,0,0:0:0:0:
64,192,122463,1,0,0:0:0:0:
192,192,122517,1,0,0:0:0:0:
320,192,122571,1,0,0:0:0:0:
192,192,122624,1,0,0:0:0:0:
64,192,122678,1,0,0:0:0:0:
192,192,122731,1,0,0:0:0:0:
320,192,122785,1,0,0:0:0:0:
448,192,122839,1,0,0:0:0:0:
64,192,122892,1,0,0:0:0:0:
192,192,122999,1,0,0:0:0:0:
192,192,123106,1,0,0:0:0:0:
448,192,123214,1,0,0:0:0:0:
448,192,123321,1,0,0:0:0:0:
64,192,123321,128,0,123535:0:0:0:0:
448,192,123535,1,0,0:0:0:0:
320,192,123642,1,0,0:0:0:0:
320,192,123749,1,0,0:0:0:0:
64,192,123964,1,0,0:0:0:0:
192,192,124178,128,0,124500:0:0:0:0:
320,192,124392,1,0,0:0:0:0:
448,192,124500,1,0,0:0:0:0:
448,192,124607,1,0,0:0:0:0:
192,192,124821,1,0,0:0:0:0:
448,192,124928,1,0,0:0:0:0:
320,192,125035,1,0,0:0:0:0:
64,192,125250,128,0,125678:0:0:0:0:
448,192,125357,1,0,0:0:0:0:
448,192,125464,1,0,0:0:0:0:
320,192,125678,1,0,0:0:0:0:
448,192,125893,128,0,126321:0:0:0:0:
320,192,126107,1,0,0:0:0:0:
64,192,126214,1,0,0:0:0:0:
192,192,126321,1,0,0:0:0:0:
64,192,126536,1,0,0:0:0:0:
320,192,126643,1,0,0:0:0:0:
64,192,126750,128,0,127179:0:0:0:0:
320,192,126750,1,0,0:0:0:0:
192,192,127072,1,0,0:0:0:0:
448,192,127179,1,0,0:0:0:0:
192,192,127179,128,0,127607:0:0:0:0:
320,192,127607,1,0,0:0:0:0:
448,192,127607,1,0,0:0:0:0:
192,192,127822,1,0,0:0:0:0:
448,192,127822,1,0,0:0:0:0:
64,192,128036,1,0,0:0:0:0:
320,192,128036,1,0,0:0:0:0:
320,192,128250,1,0,0:0:0:0:
448,192,128465,128,0,129322:0:0:0:0:
192,192,128679,1,0,0:0:0:0:
64,192,128679,128,0,129108:0:0:0:0:
320,192,128786,1,0,0:0:0:0:
320,192,128893,1,0,0:0:0:0:
192,192,129322,1,0,0:0:0:0:
320,192,129322,1,0,0:0:0:0:
64,192,129536,1,0,0:0:0:0:
192,192,129536,1,0,0:0:0:0:
192,192,129751,1,0,0:0:0:0:
320,192,129751,1,0,0:0:0:0:
192,192,129965,1,0,0:0:0:0:
448,192,129965,1,0,0:0:0:0:
64,192,130179,1,0,0:0:0:0:
448,192,130179,128,0,130501:0:0:0:0:
320,192,130501,128,0,130822:0:0:0:0:
64,192,130501,1,0,0:0:0:0:
64,192,130608,1,0,0:0:0:0:
192,192,130769,1,0,0:0:0:0:
448,192,130822,1,0,0:0:0:0:
448,192,131037,1,0,0:0:0:0:
64,192,131251,128,0,131465:0:0:0:0:
448,192,131251,1,0,0:0:0:0:
320,192,131465,1,0,0:0:0:0:
192,192,131519,1,0,0:0:0:0:
320,192,131573,1,0,0:0:0:0:
192,192,131626,1,0,0:0:0:0:
320,192,131680,1,0,0:0:0:0:
448,192,131787,1,0,0:0:0:0:
64,192,131894,1,0,0:0:0:0:
320,192,131894,1,0,0:0:0:0:
320,192,132108,1,0,0:0:0:0:
448,192,132108,1,0,0:0:0:0:
320,192,132323,1,0,0:0:0:0:
448,192,132323,1,0,0:0:0:0:
64,192,132537,1,0,0:0:0:0:
320,192,132537,1,0,0:0:0:0:
320,192,132751,1,0,0:0:0:0:
448,192,132751,1,0,0:0:0:0:
64,192,132859,1,0,0:0:0:0:
320,192,132966,1,0,0:0:0:0:
448,192,132966,1,0,0:0:0:0:
320,192,133180,1,0,0:0:0:0:
448,192,133180,1,0,0:0:0:0:
192,192,133394,1,0,0:0:0:0:
448,192,133394,1,0,0:0:0:0:
320,192,133609,1,0,0:0:0:0:
64,192,133609,128,0,133930:0:0:0:0:
448,192,133877,1,0,0:0:0:0:
320,192,133930,1,0,0:0:0:0:
320,192,134037,1,0,0:0:0:0:
64,192,134252,128,0,134466:0:0:0:0:
320,192,134466,128,0,134680:0:0:0:0:
64,192,134680,1,0,0:0:0:0:
64,192,134895,1,0,0:0:0:0:
320,192,134895,1,0,0:0:0:0:
448,192,135109,1,0,0:0:0:0:
64,192,135216,1,0,0:0:0:0:
192,192,135270,1,0,0:0:0:0:
320,192,135323,1,0,0:0:0:0:
448,192,135323,1,0,0:0:0:0:
64,192,135538,1,0,0:0:0:0:
320,192,135538,1,0,0:0:0:0:
448,192,135645,1,0,0:0:0:0:
192,192,135752,1,0,0:0:0:0:
320,192,135752,1,0,0:0:0:0:
192,192,135966,1,0,0:0:0:0:
448,192,135966,1,0,0:0:0:0:
320,192,136074,1,0,0:0:0:0:
64,192,136181,1,0,0:0:0:0:
192,192,136181,1,0,0:0:0:0:
448,192,136288,1,0,0:0:0:0:
320,192,136341,1,0,0:0:0:0:
192,192,136395,1,0,0:0:0:0:
448,192,136502,1,0,0:0:0:0:
192,192,136609,1,0,0:0:0:0:
320,192,136716,1,0,0:0:0:0:
448,192,136824,1,0,0:0:0:0:
320,192,136877,1,0,0:0:0:0:
192,192,136931,1,0,0:0:0:0:
64,192,136984,1,0,0:0:0:0:
448,192,137038,128,0,137359:0:0:0:0:
192,192,137038,1,0,0:0:0:0:
64,192,137252,1,0,0:0:0:0:
192,192,137359,1,0,0:0:0:0:
192,192,137467,1,0,0:0:0:0:
320,192,137467,1,0,0:0:0:0:
448,192,137574,1,0,0:0:0:0:
64,192,137681,1,0,0:0:0:0:
192,192,137681,1,0,0:0:0:0:
320,192,137895,1,0,0:0:0:0:
192,192,137895,1,0,0:0:0:0:
192,192,138110,1,0,0:0:0:0:
320,192,138217,1,0,0:0:0:0:
192,192,138324,1,0,0:0:0:0:
448,192,138324,1,0,0:0:0:0:
320,192,138538,1,0,0:0:0:0:
192,192,138753,1,0,0:0:0:0:
448,192,138753,128,0,139074:0:0:0:0:
64,192,138967,1,0,0:0:0:0:
192,192,138967,1,0,0:0:0:0:
320,192,139074,1,0,0:0:0:0:
320,192,139181,1,0,0:0:0:0:
192,192,139396,1,0,0:0:0:0:
448,192,139396,1,0,0:0:0:0:
192,192,139610,1,0,0:0:0:0:
64,192,139610,1,0,0:0:0:0:
320,192,139664,1,0,0:0:0:0:
448,192,139717,1,0,0:0:0:0:
192,192,139824,1,0,0:0:0:0:
448,192,139931,1,0,0:0:0:0:
192,192,140039,1,0,0:0:0:0:
448,192,140146,1,0,0:0:0:0:
192,192,140253,1,0,0:0:0:0:
320,192,140360,1,0,0:0:0:0:
192,192,140467,1,0,0:0:0:0:
448,192,140467,128,0,140789:0:0:0:0:
64,192,140682,1,0,0:0:0:0:
192,192,140789,1,0,0:0:0:0:
192,192,140896,1,0,0:0:0:0:
320,192,140896,1,0,0:0:0:0:
448,192,141110,1,0,0:0:0:0:
192,192,141217,1,0,0:0:0:0:
64,192,141271,1,0,0:0:0:0:
192,192,141325,1,0,0:0:0:0:
320,192,141325,128,0,141646:0:0:0:0:
64,192,141539,1,0,0:0:0:0:
192,192,141539,1,0,0:0:0:0:
448,192,141646,1,0,0:0:0:0:
192,192,141753,1,0,0:0:0:0:
448,192,141753,1,0,0:0:0:0:
64,192,141968,1,0,0:0:0:0:
192,192,141968,1,0,0:0:0:0:
320,192,142182,128,0,142503:0:0:0:0:
64,192,142182,1,0,0:0:0:0:
64,192,142396,128,0,142825:0:0:0:0:
448,192,142503,1,0,0:0:0:0:
448,192,142611,1,0,0:0:0:0:
320,192,142825,1,0,0:0:0:0:
192,192,142932,1,0,0:0:0:0:
64,192,143039,1,0,0:0:0:0:
320,192,143146,1,0,0:0:0:0:
192,192,143200,1,0,0:0:0:0:
320,192,143254,1,0,0:0:0:0:
448,192,143361,1,0,0:0:0:0:
448,192,143468,1,0,0:0:0:0:
448,192,143682,1,0,0:0:0:0:
320,192,143682,1,0,0:0:0:0:
192,192,143897,128,0,144218:0:0:0:0:
448,192,144111,1,0,0:0:0:0:
64,192,144218,1,0,0:0:0:0:
64,192,144325,1,0,0:0:0:0:
448,192,144432,1,0,0:0:0:0:
320,192,144486,1,0,0:0:0:0:
192,192,144540,1,0,0:0:0:0:
64,192,144540,1,0,0:0:0:0:
448,192,144754,1,0,0:0:0:0:
192,192,144754,1,0,0:0:0:0:
320,192,144968,1,0,0:0:0:0:
192,192,145075,1,0,0:0:0:0:
320,192,145183,1,0,0:0:0:0:
448,192,145183,1,0,0:0:0:0:
448,192,145397,1,0,0:0:0:0:
448,192,145611,128,0,145933:0:0:0:0:
192,192,145611,1,0,0:0:0:0:
64,192,145826,1,0,0:0:0:0:
192,192,145933,1,0,0:0:0:0:
192,192,146040,1,0,0:0:0:0:
192,192,146254,1,0,0:0:0:0:
448,192,146254,1,0,0:0:0:0:
64,192,146469,1,0,0:0:0:0:
448,192,146469,1,0,0:0:0:0:
320,192,146576,1,0,0:0:0:0:
192,192,146629,1,0,0:0:0:0:
64,192,146683,1,0,0:0:0:0:
192,192,146790,1,0,0:0:0:0:
448,192,146790,1,0,0:0:0:0:
64,192,146897,1,0,0:0:0:0:
64,192,147112,1,0,0:0:0:0:
192,192,147112,1,0,0:0:0:0:
320,192,147219,1,0,0:0:0:0:
64,192,147326,1,0,0:0:0:0:
448,192,147326,1,0,0:0:0:0:
448,192,147540,128,0,147969:0:0:0:0:
64,192,147540,128,0,147969:0:0:0:0:
192,192,147647,1,0,0:0:0:0:
192,192,147755,1,0,0:0:0:0:
320,192,147969,1,0,0:0:0:0:
192,192,148076,1,0,0:0:0:0:
320,192,148130,1,0,0:0:0:0:
448,192,148183,1,0,0:0:0:0:
320,192,148398,1,0,0:0:0:0:
448,192,148505,1,0,0:0:0:0:
448,192,148612,1,0,0:0:0:0:
320,192,148826,1,0,0:0:0:0:
448,192,148933,1,0,0:0:0:0:
320,192,148987,1,0,0:0:0:0:
192,192,149041,1,0,0:0:0:0:
64,192,149041,128,0,149362:0:0:0:0:
320,192,149255,1,0,0:0:0:0:
192,192,149362,1,0,0:0:0:0:
192,192,149469,1,0,0:0:0:0:
320,192,149684,1,0,0:0:0:0:
448,192,149791,1,0,0:0:0:0:
320,192,149898,1,0,0:0:0:0:
192,192,150005,1,0,0:0:0:0:
320,192,150059,1,0,0:0:0:0:
448,192,150112,1,0,0:0:0:0:
320,192,150219,1,0,0:0:0:0:
448,192,150327,1,0,0:0:0:0:
448,192,150541,1,0,0:0:0:0:
320,192,150648,1,0,0:0:0:0:
64,192,150755,1,0,0:0:0:0:
192,192,150755,1,0,0:0:0:0:
448,192,150755,1,0,0:0:0:0:
448,192,150970,1,0,0:0:0:0:
320,192,151077,1,0,0:0:0:0:
192,192,151184,1,0,0:0:0:0:
64,192,151184,1,0,0:0:0:0:
320,192,151237,1,0,0:0:0:0:
448,192,151291,1,0,0:0:0:0:
320,192,151398,1,0,0:0:0:0:
192,192,151505,1,0,0:0:0:0:
448,192,151613,128,0,152041:0:0:0:0:
64,192,151613,128,0,152041:0:0:0:0:
320,192,151613,1,0,0:0:0:0:
192,192,151827,1,0,0:0:0:0:
320,192,151880,1,0,0:0:0:0:
192,192,152041,1,0,0:0:0:0:
192,192,152256,1,0,0:0:0:0:
320,192,152363,1,0,0:0:0:0:
192,192,152470,1,0,0:0:0:0:
448,192,152470,1,0,0:0:0:0:
64,192,152470,1,0,0:0:0:0:
448,192,152613,1,0,0:0:0:0:
320,192,152756,1,0,0:0:0:0:
192,192,152899,1,0,0:0:0:0:
64,192,152899,1,0,0:0:0:0:
448,192,153041,1,0,0:0:0:0:
320,192,153184,1,0,0:0:0:0:
320,192,153327,1,0,0:0:0:0:
64,192,153327,128,0,153756:0:0:0:0:
192,192,153327,128,0,153756:0:0:0:0:
448,192,153542,1,0,0:0:0:0:
320,192,153595,1,0,0:0:0:0:
448,192,153756,1,0,0:0:0:0:
192,192,153970,1,0,0:0:0:0:
64,192,154077,1,0,0:0:0:0:
320,192,154185,1,0,0:0:0:0:
192,192,154185,128,0,154613:0:0:0:0:
448,192,154185,128,0,154613:0:0:0:0:
64,192,154506,1,0,0:0:0:0:
320,192,154613,1,0,0:0:0:0:
192,192,154828,1,0,0:0:0:0:
64,192,154828,1,0,0:0:0:0:
64,192,155042,1,0,0:0:0:0:
320,192,155042,1,0,0:0:0:0:
448,192,155042,1,0,0:0:0:0:
192,192,155185,1,0,0:0:0:0:
320,192,155328,1,0,0:0:0:0:
192,192,155471,1,0,0:0:0:0:
320,192,155613,1,0,0:0:0:0:
448,192,155756,1,0,0:0:0:0:
320,192,155899,1,0,0:0:0:0:
448,192,155899,1,0,0:0:0:0:
64,192,155899,128,0,156221:0:0:0:0:
192,192,156114,1,0,0:0:0:0:
320,192,156221,1,0,0:0:0:0:
448,192,156221,1,0,0:0:0:0:
192,192,156435,1,0,0:0:0:0:
320,192,156435,1,0,0:0:0:0:
448,192,156435,128,0,157185:0:0:0:0:
64,192,156864,1,0,0:0:0:0:
192,192,156917,1,0,0:0:0:0:
320,192,156971,1,0,0:0:0:0:
64,192,157078,1,0,0:0:0:0:
320,192,157185,1,0,0:0:0:0:
64,192,157400,1,0,0:0:0:0:
192,192,157507,1,0,0:0:0:0:
192,192,157614,1,0,0:0:0:0:
320,192,157614,1,0,0:0:0:0:
448,192,157614,1,0,0:0:0:0:
320,192,157828,1,0,0:0:0:0:
192,192,157935,1,0,0:0:0:0:
448,192,157935,1,0,0:0:0:0:
64,192,158042,1,0,0:0:0:0:
320,192,158150,1,0,0:0:0:0:
192,192,158203,1,0,0:0:0:0:
64,192,158257,1,0,0:0:0:0:
192,192,158364,1,0,0:0:0:0:
320,192,158471,1,0,0:0:0:0:
448,192,158471,1,0,0:0:0:0:
64,192,158471,128,0,158793:0:0:0:0:
320,192,158685,1,0,0:0:0:0:
448,192,158739,1,0,0:0:0:0:
320,192,158900,1,0,0:0:0:0:
320,192,159114,1,0,0:0:0:0:
448,192,159114,1,0,0:0:0:0:
192,192,159221,1,0,0:0:0:0:
64,192,159328,1,0,0:0:0:0:
192,192,159328,1,0,0:0:0:0:
320,192,159328,128,0,159650:0:0:0:0:
64,192,159543,1,0,0:0:0:0:
192,192,159650,1,0,0:0:0:0:
192,192,159757,1,0,0:0:0:0:
320,192,159900,1,0,0:0:0:0:
448,192,160043,1,0,0:0:0:0:
320,192,160186,1,0,0:0:0:0:
448,192,160186,1,0,0:0:0:0:
448,192,160400,1,0,0:0:0:0:
320,192,160507,1,0,0:0:0:0:
320,192,160614,1,0,0:0:0:0:
448,192,160829,1,0,0:0:0:0:
320,192,160936,1,0,0:0:0:0:
192,192,161043,1,0,0:0:0:0:
448,192,161043,128,0,161365:0:0:0:0:
320,192,161257,1,0,0:0:0:0:
192,192,161365,1,0,0:0:0:0:
192,192,161472,1,0,0:0:0:0:
448,192,161686,1,0,0:0:0:0:
192,192,161793,1,0,0:0:0:0:
320,192,161847,1,0,0:0:0:0:
448,192,161900,1,0,0:0:0:0:
320,192,162115,1,0,0:0:0:0:
448,192,162222,1,0,0:0:0:0:
192,192,162329,1,0,0:0:0:0:
64,192,162543,1,0,0:0:0:0:
64,192,162758,1,0,0:0:0:0:
192,192,162758,1,0,0:0:0:0:
320,192,162758,1,0,0:0:0:0:
448,192,162758,1,0,0:0:0:0:
320,192,162972,1,0,0:0:0:0:
448,192,163079,1,0,0:0:0:0:
192,192,163186,1,0,0:0:0:0:
448,192,163186,1,0,0:0:0:0:
192,192,163401,1,0,0:0:0:0:
320,192,163401,1,0,0:0:0:0:
448,192,163508,1,0,0:0:0:0:
192,192,163615,1,0,0:0:0:0:
64,192,163615,1,0,0:0:0:0:
64,192,163829,1,0,0:0:0:0:
192,192,163937,1,0,0:0:0:0:
320,192,163937,1,0,0:0:0:0:
192,192,164044,1,0,0:0:0:0:
64,192,164258,1,0,0:0:0:0:
192,192,164365,1,0,0:0:0:0:
320,192,164472,1,0,0:0:0:0:
448,192,164472,1,0,0:0:0:0:
64,192,164472,1,0,0:0:0:0:
448,192,164687,1,0,0:0:0:0:
320,192,164794,1,0,0:0:0:0:
320,192,165008,1,0,0:0:0:0:
448,192,165115,1,0,0:0:0:0:
320,192,165169,1,0,0:0:0:0:
192,192,165223,1,0,0:0:0:0:
64,192,165276,1,0,0:0:0:0:
448,192,165330,1,0,0:0:0:0:
320,192,165544,1,0,0:0:0:0:
192,192,165544,1,0,0:0:0:0:
320,192,165758,1,0,0:0:0:0:
448,192,165758,1,0,0:0:0:0:
192,192,165973,1,0,0:0:0:0:
320,192,165973,1,0,0:0:0:0:
192,192,166187,1,0,0:0:0:0:
320,192,166187,1,0,0:0:0:0:
448,192,166187,1,0,0:0:0:0:
64,192,166330,1,0,0:0:0:0:
192,192,166473,1,0,0:0:0:0:
320,192,166616,1,0,0:0:0:0:
448,192,166616,1,0,0:0:0:0:
192,192,166759,1,0,0:0:0:0:
320,192,166902,1,0,0:0:0:0:
192,192,167044,1,0,0:0:0:0:
64,192,167044,1,0,0:0:0:0:
448,192,167044,1,0,0:0:0:0:
320,192,167187,1,0,0:0:0:0:
192,192,167330,1,0,0:0:0:0:
320,192,167473,1,0,0:0:0:0:
448,192,167616,1,0,0:0:0:0:
320,192,167759,1,0,0:0:0:0:
448,192,167902,1,0,0:0:0:0:
320,192,167902,1,0,0:0:0:0:
320,192,168116,1,0,0:0:0:0:
448,192,168116,1,0,0:0:0:0:
448,192,168330,128,0,171331:0:0:0:0:
64,192,168330,128,0,171331:0:0:0:0:
192,192,168330,1,0,0:0:0:0:
320,192,168330,1,0,0:0:0:0:
448,192,171760,1,0,0:0:0:0:
192,192,171760,1,0,0:0:0:0:
64,192,171760,1,0,0:0:0:0:
