osu file format v14

[General]
AudioFilename: Song.mp3
AudioLeadIn: 2000
PreviewTime: 491
Countdown: 0
SampleSet: Soft
StackLeniency: 0.7
Mode: 0
LetterboxInBreaks: 0
WidescreenStoryboard: 0

[Editor]
DistanceSpacing: 1
BeatDivisor: 1
GridSize: 32
TimelineZoom: 2.1

[Metadata]
Title:Tokiiro Serenade
TitleUnicode:鴇色セレナーデ
Artist:MiddleIsland
ArtistUnicode:MiddleIsland
Creator:Acyl
Version:Normal
Source:牙旗と黒翼と白銀の羽
Tags:弦奏悲哀響 Nakajima Misaki Lan wings 中島岬 c75 piano
BeatmapID:792629
BeatmapSetID:360654

[Difficulty]
HPDrainRate:3
CircleSize:3
OverallDifficulty:4
ApproachRate:5
SliderMultiplier:1
SliderTickRate:1

[Events]
//Background and Video events
0,0,"BackGround.png",0,0
//Break Periods
//Storyboard Layer 0 (Background)
//Storyboard Layer 1 (Fail)
//Storyboard Layer 2 (Pass)
//Storyboard Layer 3 (Foreground)
//Storyboard Sound Samples

[TimingPoints]
564,582.52427184466,4,2,3,40,1,0
855,579.710144927536,4,2,3,40,1,0
1144,526.315789473684,4,2,3,40,1,0
1408,437.956204379562,4,2,3,40,1,0
2284,422.535211267606,4,2,3,40,1,0
3129,430.106263345196,4,2,3,40,1,0
4848,444.444444444444,4,2,3,40,1,0
5736,422.535211267606,4,2,3,40,1,0
7003,434.782608695652,4,2,3,40,1,0
7437,460.475825019186,4,2,3,40,1,0
7897,487.80487804878,4,2,3,30,1,0
8384,437.956204379562,4,2,3,40,1,0
8384,-102.040816326531,4,2,3,40,0,0
8602,454.545454545455,4,2,3,40,1,0
9283,451.127819548872,4,2,3,40,1,0
9734,419.58041958042,4,2,3,40,1,0
10153,434.782608695652,4,2,3,50,1,0
11895,447.761194029851,4,2,3,40,1,0
13686,441.176470588235,4,2,3,40,1,0
13686,-97.8473581213307,4,2,3,40,0,0
13906,422.535211267606,4,2,3,40,1,0
14117,434.782608695652,4,2,3,40,1,0
14551,447.761194029851,4,2,3,40,1,0
15446,413.793103448276,4,2,3,40,1,0
15446,-101.010101010101,4,2,3,40,0,0
15652,425.531914893617,4,2,3,40,1,0
15864,440.366972477064,4,2,3,40,1,0
16304,440.366972477064,4,2,3,40,1,0
16744,458.015267175573,4,2,3,40,1,0
17202,468.75,4,2,3,40,1,0
18139,468.75,4,2,3,40,1,0
19076,447.761194029851,4,2,3,40,1,0
19971,441.176470588235,4,2,3,40,1,0
20191,428.571428571429,4,2,3,40,1,0
20405,405.405405405405,4,2,3,40,1,0
20607,428.571428571429,4,2,3,40,1,0
20821,425.531914893617,4,2,3,40,1,0
22097,491.803278688525,4,2,3,40,1,0
22589,472.44094488189,4,2,3,40,1,0
22589,-97.65625,4,2,3,40,0,0
23061,450.281425891182,4,2,3,40,1,0
23511,441.176470588235,4,2,3,40,1,0
24393,452.830188679245,4,2,3,40,1,0
24837,-100,4,2,3,45,0,0
25298,439.238653001464,4,2,3,40,1,0
26176,449.438202247191,4,2,3,40,1,0
29322,480,4,2,3,40,1,0
29562,456.273764258555,4,2,3,40,1,0
29790,447.761194029851,4,2,3,40,1,0
30685,428.571428571429,4,2,3,40,1,0
31327,389.61038961039,4,2,3,40,1,0
31521,422.535211267606,4,2,3,40,1,0
32367,428.571428571429,4,2,3,40,1,0
33224,451.127819548872,4,2,3,40,1,0
33675,427.046263345196,4,2,3,40,1,0
34102,422.535211267606,4,2,3,40,1,0
34947,428.571428571429,4,2,3,40,1,0
35589,461.538461538462,4,2,3,40,1,0
35819,458.015267175573,4,2,3,40,1,0
36277,478.011472275335,4,2,3,40,1,0
36755,424.535211267606,4,2,3,40,1,0
37604,445.765230312036,4,2,3,40,1,0
37826,437.158469945355,4,2,3,40,1,0
38263,400,4,2,3,40,1,0
38463,428.571428571429,4,2,3,40,1,0
39320,437.956204379562,4,2,3,40,1,0
40195,446.096654275093,4,2,3,40,1,0
41533,456.273764258555,4,2,3,40,1,0
41989,422.535211267606,4,2,3,40,1,0
42411,443.62292051756,4,2,3,40,1,0
42854,441.176470588235,4,2,3,40,1,0
43736,431.654676258993,4,2,3,40,1,0
44599,436.363636363636,4,2,3,40,1,0
45470,441.176470588235,4,2,3,40,1,0
45911,-100,4,2,3,20,0,0
46352,-100,4,2,3,45,0,0
46793,-100,4,2,3,20,0,0
47234,434.782608695652,4,2,3,40,1,0
48973,413.793103448276,4,2,3,40,1,0
49800,444.444444444444,4,2,3,40,1,0
50244,480,4,2,3,40,1,0
50484,491.803278688525,4,2,3,40,1,0
50729,427.654676258993,4,2,3,40,1,0
51584,431.546263345196,4,2,3,40,1,0
52447,431.654676258993,4,2,3,40,1,0
53094,-109.170305676856,4,2,3,45,0,0
53310,419.58041958042,4,2,3,40,1,0
53729,431.654676258993,4,2,3,40,1,0
54160,434.782608695652,4,2,3,40,1,0
54812,428.571428571429,4,2,3,40,1,0
55883,437.956204379562,4,2,3,40,1,0
56757,419.58041958042,4,2,3,40,1,0
57596,430.10752688172,4,2,3,40,1,0
61036,-100,4,2,3,55,0,0
67918,-100,4,2,3,55,0,0
71359,423.728813559322,4,2,3,60,1,0
72206,436.681222707424,4,2,3,60,1,0
73079,425.531914893617,4,2,3,60,1,0
73930,430.10752688172,4,2,3,60,1,0
74575,461.538461538462,4,2,3,60,1,0
74805,410.958904109589,4,2,3,60,1,0
74805,-103.842159916926,4,2,3,60,0,0
75421,444.444444444444,4,2,3,60,1,0
75644,425.531914893617,4,2,3,60,1,0
76495,431.654676258993,4,2,3,60,1,0
79948,428.571428571429,4,2,3,70,1,0
83376,-100,4,2,3,30,0,0
84233,444.444444444444,4,2,3,60,1,0
84677,419.58041958042,4,2,3,60,1,0
85094,434.782608695652,4,2,3,60,1,0
86400,447.761194029851,4,2,3,60,1,0
86847,465.116279069767,4,2,3,60,1,0
87312,476.190476190476,4,2,3,60,1,0
87788,521.739130434783,4,2,3,60,1,0
88309,560.747663551402,4,2,3,60,1,0
88869,517.241379310345,4,2,3,50,1,0
89386,491.803278688525,4,2,3,50,1,0
89631,426.287744227353,4,2,3,50,1,0
89844,456.273764258555,4,2,3,50,1,0
89844,-96.1538461538461,4,2,3,50,0,0
90072,419.58041958042,4,2,3,50,1,0
90281,398.671096345515,4,2,3,50,1,0
90480,476.190476190476,4,2,3,50,1,0
90718,431.654676258993,4,2,3,50,1,0
91581,434.782608695652,4,2,3,50,1,0
92015,441.176470588235,4,2,3,50,1,0
92456,437.956204379562,4,2,3,50,1,0
93988,413.793103448276,4,2,3,50,1,0
94195,434.782608695652,4,2,3,50,1,0
94847,-100,4,2,3,55,0,0
95064,439.56043956044,4,2,3,50,1,0
95503,437.956204379562,4,2,3,50,1,0
95940,437.956204379562,4,2,3,50,1,0
97472,422.535211267606,4,2,3,50,1,0
97683,454.545454545455,4,2,3,50,1,0
97683,-94.1619585687382,4,2,3,50,0,0
97910,441.176470588235,4,2,3,50,1,0
98130,428.571428571429,4,2,3,50,1,0
98558,428.571428571429,4,2,3,50,1,0
99415,442.80442804428,4,2,3,50,1,0
101186,416.666666666667,4,2,3,50,1,0
101602,434.782608695652,4,2,3,50,1,0
102036,441.176470588235,4,2,3,50,1,0
102918,434.782608695652,4,2,3,50,1,0
103787,441.176470588235,4,2,3,50,1,0
104228,447.761194029851,4,2,3,50,1,0
104675,422.535211267606,4,2,3,50,1,0
105520,434.782608695652,4,2,3,50,1,0
107259,441.176470588235,4,2,3,50,1,0
108141,434.782608695652,4,2,3,50,1,0
111184,441.176470588235,4,2,3,50,1,0
112066,434.782608695652,4,2,3,50,1,0
112283,-99.009900990099,4,2,3,45,0,0
112500,428.571428571429,4,2,3,50,1,0
112928,437.956204379562,4,2,3,50,1,0
113365,434.782608695652,4,2,3,50,1,0
115104,441.176470588235,4,2,3,40,1,0
115986,428.571428571429,4,2,3,40,1,0
116843,441.176470588235,4,2,3,35,1,0
118607,454.545454545455,4,2,3,35,1,0
119516,461.538461538462,4,2,3,35,1,0
120439,461.538461538462,4,2,3,35,1,0
121592,483.870967741935,4,2,3,35,1,0
122317,472.44094488189,4,2,3,30,1,0
123261,483.870967741935,4,2,3,30,1,0
124228,508.474576271186,4,2,3,25,1,0
125244,500,4,2,3,25,1,0
125744,517.241379310345,4,2,3,25,1,0
126261,535.714285714286,4,2,3,25,1,0

[Colours]
Combo1 : 187,117,117
Combo2 : 200,197,125
Combo3 : 209,163,208
Combo4 : 74,153,155

[HitObjects]
428,95,1408,6,0,L|311:103,1,100,2|0,0:0|0:0,0:0:0:0:
236,60,2284,2,0,P|223:109|248:169,1,100,2|0,0:0|0:0,0:0:0:0:
328,200,3128,1,2,0:0:0:0:
240,248,3558,2,0,B|149:213|149:213|52:248,1,200,2|2,0:0|0:0,0:0:0:0:
36,152,4848,6,0,L|52:44,1,100,2|0,0:0|0:0,0:0:0:0:
152,76,5736,2,0,P|214:91|276:68,1,100,2|0,0:0|0:0,0:0:0:0:
324,20,6581,2,0,P|343:51|332:132,1,100,2|0,0:0|0:0,0:0:0:0:
316,152,7220,1,2,0:0:0:0:
279,184,7437,2,0,P|271:236|307:292,1,100,0|2,0:1|0:0,0:0:0:0:
384,216,8384,6,0,P|444:224|492:196,1,100,2|0,0:0|0:0,0:0:0:0:
424,124,9283,1,2,0:0:0:0:
324,136,9734,1,0,0:0:0:0:
288,224,10153,2,0,P|200:216|144:112,1,200,2|2,0:0|0:0,0:0:0:0:
128,316,11895,5,2,0:0:0:0:
224,344,12342,1,0,0:0:0:0:
316,308,12790,2,0,P|374:306|422:241,1,100,2|0,0:0|0:0,0:0:0:0:
336,208,13686,2,0,P|283:205|238:241,1,100
152,256,14551,1,2,0:0:0:0:
76,64,15446,6,0,L|193:65,1,100,2|0,0:0|0:0,0:0:0:0:
272,44,16303,1,2,0:0:0:0:
320,128,16744,1,0,0:0:0:0:
372,48,17202,2,0,P|416:124|356:216,1,200,2|2,0:0|0:0,0:0:0:0:
196,332,19076,5,2,0:0:0:0:
120,268,19523,2,0,P|112:220|144:164,1,100,0|2,0:0|0:0,0:0:0:0:
232,136,20405,1,0,0:0:0:0:
216,232,20822,1,2,0:0:0:0:
296,292,21246,2,0,L|404:316,2,100,0|2|2,0:0|0:0|0:0,0:0:0:0:
196,332,22589,6,0,P|92:344|36:276,1,200,2|2,0:0|0:0,0:0:0:0:
64,180,23952,1,0,0:0:0:0:
136,248,24393,1,2,0:0:0:0:
96,48,25298,1,2,0:0:0:0:
136,248,26176,6,0,P|184:312|284:256,1,200,2|0,0:0|0:0,0:0:0:0:
336,188,27524,1,2,0:0:0:0:
380,276,27973,2,0,L|404:384,2,100,2|2|2,0:0|0:0|0:0,0:0:0:0:
336,192,29322,1,2,0:0:0:0:
272,112,29790,6,0,P|332:104|368:64,1,100,2|0,0:0|0:0,0:0:0:0:
464,64,30685,2,0,L|484:180,1,100,2|0,0:0|0:0,0:0:0:0:
412,236,31521,1,2,0:0:0:0:
452,328,31943,2,0,P|388:336|344:304,1,100,2|0,0:0|0:0,0:0:0:0:
316,232,32795,1,2,0:0:0:0:
276,140,33224,6,0,P|228:180|216:236,1,100,2|0,0:0|0:0,0:0:0:0:
316,232,34102,2,0,P|364:192|372:144,1,100,2|0,0:0|0:0,0:0:0:0:
344,64,34947,2,0,L|232:48,1,100,2|0,0:0|0:0,0:0:0:0:
200,32,35589,1,2,0:0:0:0:
156,44,35819,2,0,P|124:88|136:152,1,100,0|2,0:0|0:0,0:0:0:0:
112,240,36755,6,0,L|212:300,1,100,2|0,0:0|0:0,0:0:0:0:
292,288,37604,1,2,0:0:0:0:
252,196,38044,1,0,0:0:0:0:
332,144,38463,2,0,P|408:152|460:88,1,150,2|0,0:0|0:0,0:0:0:0:
440,56,39320,2,0,B|360:44|360:44|308:92,1,150,2|0,0:0|0:0,0:0:0:0:
276,128,40195,5,2,0:0:0:0:
180,160,40641,1,0,0:0:0:0:
88,120,41087,2,0,P|84:196|124:236,1,100,2|0,0:0|0:0,0:0:0:0:
187,253,41989,2,0,P|191:177|151:137,1,100
96,208,42854,2,0,P|85:275|149:343,1,150
184,344,43736,6,0,L|312:360,1,100,2|0,0:0|0:0,0:0:0:0:
340,276,44599,2,0,L|212:260,1,100,2|0,0:0|0:0,0:0:0:0:
208,172,45471,2,0,P|184:120|236:36,1,150,2|0,0:0|0:0,0:0:0:0:
272,24,46352,1,2,0:0:0:0:
468,80,47234,5,2,0:0:0:0:
380,128,47668,1,0,0:0:0:0:
464,180,48103,2,0,P|461:234|432:280,1,100,2|0,0:0|0:0,0:0:0:0:
368,348,48973,1,2,0:0:0:0:
336,252,49386,1,0,0:0:0:0:
248,228,49800,2,0,P|176:236|132:280,1,100,2|0,0:0|0:0,0:0:0:0:
104,348,50729,6,0,P|64:316|52:256,1,100
88,176,51584,1,2,0:0:0:0:
154,250,52015,1,0,0:0:0:0:
216,172,52447,2,0,P|240:136|224:60,1,100,2|0,0:0|0:0,0:0:0:0:
196,64,53094,2,0,L|348:64,1,134.999995880127,2|2,0:0|0:0,0:0:0:0:
416,16,54160,6,0,P|432:64|404:128,1,100,2|0,0:0|0:0,0:0:0:0:
332,156,55026,2,0,P|372:200|424:208,1,100,2|0,0:0|0:0,0:0:0:0:
504,176,55883,1,2,0:0:0:0:
331,64,56758,2,0,P|256:40|200:88,1,150
184,124,57596,6,0,P|156:160|88:160,1,100,2|0,0:0|0:0,0:0:0:0:
12,128,58456,2,0,L|19:227,1,100,2|0,0:0|0:0,0:0:0:0:
112,260,59316,1,2,0:0:0:0:
92,60,60176,1,2,0:0:0:0:
112,260,61036,6,0,P|180:268|204:328,1,100,2|0,0:0|0:0,0:0:0:0:
296,296,61897,2,0,P|284:344|232:380,1,100,2|0,0:0|0:0,0:0:0:0:
216,336,62542,1,0,0:0:0:0:
197,289,62757,2,0,P|204:252|260:204,1,100,2|0,0:0|0:0,0:0:0:0:
308,128,63617,2,0,P|340:164|340:232,1,100,2|0,0:0|0:0,0:0:0:0:
296,296,64477,6,0,B|344:304|344:304|416:288,1,100,2|0,0:0|0:0,0:0:0:0:
480,344,65337,2,0,B|496:300|496:300|483:246,1,100,2|0,0:0|0:0,0:0:0:0:
400,192,66198,1,2,0:0:0:0:
376,96,66628,1,0,0:0:0:0:
280,68,67058,2,0,L|168:68,1,100,2|2,0:0|0:0,0:0:0:0:
136,44,67703,1,2,0:0:0:0:
96,72,67918,6,0,P|76:120|96:176,1,100,2|0,0:0|0:0,0:0:0:0:
168,220,68778,2,0,P|188:172|168:116,1,100,2|0,0:0|0:0,0:0:0:0:
248,60,69639,2,0,L|404:60,1,150,2|0,0:0|0:0,0:0:0:0:
444,80,70499,2,0,P|460:124|372:168,1,150,2|0,0:0|0:0,0:0:0:0:
352,140,71359,6,0,P|268:152|240:280,1,200,2|2,0:0|0:0,0:0:0:0:
328,236,72642,1,2,0:0:0:0:
420,272,73079,2,0,P|392:312|324:332,1,100,2|0,0:0|0:0,0:0:0:0:
296,324,73717,1,0,0:0:0:0:
248,312,73930,2,0,L|132:296,1,100,2|0,0:0|0:0,0:0:0:0:
112,324,74575,1,0,0:0:0:0:
68,356,74805,6,0,P|48:272|88:212,1,144.449995591736,2|2,0:0|0:0,0:0:0:0:
122,205,75644,1,0,0:0:0:0:
148,298,76069,1,2,0:0:0:0:
208,220,76495,2,0,P|204:168|172:132,1,100,2|0,0:0|0:0,0:0:0:0:
76,120,77358,2,0,P|88:76|148:36,1,100,2|0,0:0|0:0,0:0:0:0:
228,60,78221,5,0,0:0:0:0:
228,60,78653,1,2,0:0:0:0:
312,124,79084,1,0,0:0:0:0:
312,124,79516,1,2,0:0:0:0:
380,52,79948,1,0,0:0:0:0:
380,52,80376,1,2,0:0:0:0:
420,152,80805,1,0,0:0:0:0:
420,152,81233,1,2,0:0:0:0:
344,220,81662,6,0,B|296:264|312:336|312:336|256:264|176:260|160:356|36:328,1,400,2|0,0:0|0:0,0:0:0:0:
92,140,84233,1,0,0:0:0:0:
196,140,84677,1,0,0:0:0:0:
264,72,85094,6,0,P|292:124|264:196,1,100,2|0,0:0|0:0,0:0:0:0:
212,232,85963,1,2,0:0:0:0:
220,332,86398,1,0,0:0:0:0:
296,276,86847,2,0,L|408:264,1,100,2|0,0:0|0:0,0:0:0:0:
396,176,87788,2,0,L|276:188,1,100,2|2,0:0|0:0,0:0:0:0:
248,196,88589,1,2,0:0:0:0:
200,168,88869,6,0,P|172:136|184:52,1,100,2|0,0:0|0:0,0:0:0:0:
280,88,89844,2,0,L|400:80,1,100,2|0,0:0|0:0,0:0:0:0:
448,152,90718,1,2,0:0:0:0:
356,189,91149,2,0,B|340:249|340:249|356:324,1,100,2|0,0:0|0:0,0:0:0:0:
376,384,92015,1,2,0:0:0:0:
464,348,92456,6,0,L|440:232,1,100,2|0,0:0|0:0,0:0:0:0:
444,152,93331,2,0,L|424:40,1,100,2|0,0:0|0:0,0:0:0:0:
332,80,94195,2,0,P|272:88|228:52,1,100,2|0,0:0|0:0,0:0:0:0:
212,28,94847,1,2,0:0:0:0:
164,20,95064,2,0,P|112:24|68:84,1,100,0|2,0:0|0:0,0:0:0:0:
156,120,95940,6,0,P|156:172|116:220,1,100,2|0,0:0|0:0,0:0:0:0:
44,160,96815,1,2,0:0:0:0:
40,260,97253,1,0,0:0:0:0:
132,296,97683,2,0,P|184:336|276:296,1,154.800002362061,2|0,0:0|0:0,0:0:0:0:
292,272,98558,1,2,0:0:0:0:
280,80,99415,6,0,L|148:80,1,100,2|0,0:0|0:0,0:0:0:0:
96,28,100300,2,0,P|80:88|104:136,1,100,2|0,0:0|0:0,0:0:0:0:
180,184,101186,1,2,0:0:0:0:
96,228,101602,1,0,0:0:0:0:
180,280,102036,2,0,L|368:284,1,150,2|0,0:0|0:0,0:0:0:0:
372,312,102918,6,0,P|424:328|472:304,1,100,2|0,0:0|0:0,0:0:0:0:
420,224,103787,2,0,P|384:208|300:260,1,100,2|0,0:0|0:0,0:0:0:0:
280,316,104675,1,2,0:0:0:0:
240,120,105519,1,2,0:0:0:0:
404,4,106389,5,2,0:0:0:0:
496,44,106824,2,0,P|500:96|480:148,1,100,0|2,0:0|0:0,0:0:0:0:
448,232,107700,1,0,0:0:0:0:
384,156,108141,1,2,0:0:0:0:
352,248,108575,2,0,L|344:356,2,100,0|2|0,0:0|0:0|0:0,0:0:0:0:
384,156,109880,6,0,P|320:144|288:84,1,100,2|0,0:0|0:0,0:0:0:0:
224,52,110749,1,2,0:0:0:0:
204,148,111184,1,0,0:0:0:0:
280,212,111625,2,0,P|236:244|180:240,1,100,2|0,0:0|0:0,0:0:0:0:
148,228,112283,2,0,P|100:168|16:168,1,150,2|2,0:0|0:0,0:0:0:0:
52,260,113365,6,0,P|96:316|224:280,1,200,2|2,0:0|0:0,0:0:0:0:
199,197,114669,1,2,0:0:0:0:
288,244,115104,1,2,0:0:0:0:
176,80,115986,1,0,0:0:0:0:
288,244,116843,6,0,P|376:248|432:144,1,200,2|2,0:0|0:0,0:0:0:0:
388,72,118166,1,2,0:0:0:0:
336,156,118607,1,2,0:0:0:0:
436,320,119516,1,0,0:0:0:0:
336,156,120439,6,0,B|208:132|208:132|136:152,1,200,2|2,0:0|0:0,0:0:0:0:
92,240,121833,1,2,0:0:0:0:
196,236,122317,1,2,0:0:0:0:
20,148,123261,1,0,0:0:0:0:
196,236,124228,6,0,B|336:256|336:256|408:232,1,200,2|2,0:0|0:0,0:0:0:0:
328,160,125744,1,2,0:0:0:0:
424,148,126261,1,2,0:0:0:0:
412,348,127332,1,0,0:0:0:0:
