osu file format v14

[General]
AudioFilename: Song.mp3
AudioLeadIn: 2000
PreviewTime: 418
Countdown: 0
SampleSet: Soft
StackLeniency: 0.7
Mode: 0
LetterboxInBreaks: 0
WidescreenStoryboard: 1

[Editor]
Bookmarks: 119493
DistanceSpacing: 1.8
BeatDivisor: 1
GridSize: 32
TimelineZoom: 3.199999

[Metadata]
Title:Tokiiro Serenade
TitleUnicode:鴇色セレナーデ
Artist:MiddleIsland
ArtistUnicode:MiddleIsland
Creator:Acyl
Version:Lan's Insane
Source:牙旗と黒翼と白銀の羽
Tags:弦奏悲哀響 Nakajima Misaki Lan wings 中島岬 c75 piano
BeatmapID:795140
BeatmapSetID:360654

[Difficulty]
HPDrainRate:6
CircleSize:4
OverallDifficulty:7
ApproachRate:9
SliderMultiplier:1.6
SliderTickRate:1

[Events]
//Background and Video events
0,0,"BackGround.png",0,0
//Break Periods
//Storyboard Layer 0 (Background)
//Storyboard Layer 1 (Fail)
//Storyboard Layer 2 (Pass)
//Storyboard Layer 3 (Foreground)
//Storyboard Sound Samples

[TimingPoints]
564,582.52427184466,4,2,3,40,1,0
855,579.710144927536,4,2,3,40,1,0
1144,526.315789473684,4,2,3,40,1,0
1408,437.956204379562,4,2,3,40,1,0
2284,422.535211267606,4,2,3,40,1,0
3129,430.106263345196,4,2,3,40,1,0
4848,444.444444444444,4,2,3,40,1,0
5736,422.535211267606,4,2,3,40,1,0
7003,434.782608695652,4,2,3,40,1,0
7437,460.475825019186,4,2,3,40,1,0
7897,487.80487804878,4,2,3,30,1,0
8384,437.956204379562,4,2,3,40,1,0
8602,454.545454545455,4,2,3,40,1,0
9283,451.127819548872,4,2,3,40,1,0
9734,419.58041958042,4,2,3,40,1,0
10153,434.782608695652,4,2,3,50,1,0
10153,-100,4,2,3,50,0,0
10370,-100,4,2,3,40,0,0
11895,447.761194029851,4,2,3,40,1,0
13686,441.176470588235,4,2,3,40,1,0
13906,422.535211267606,4,2,3,40,1,0
14117,434.782608695652,4,2,3,40,1,0
14551,447.761194029851,4,2,3,40,1,0
15446,413.793103448276,4,2,3,40,1,0
15652,425.531914893617,4,2,3,40,1,0
15864,440.366972477064,4,2,3,40,1,0
16304,440.366972477064,4,2,3,40,1,0
16744,458.015267175573,4,2,3,40,1,0
17202,468.75,4,2,3,40,1,0
18139,468.75,4,2,3,40,1,0
19076,447.761194029851,4,2,3,40,1,0
19971,441.176470588235,4,2,3,40,1,0
20191,428.571428571429,4,2,3,40,1,0
20405,405.405405405405,4,2,3,40,1,0
20607,428.571428571429,4,2,3,40,1,0
20821,425.531914893617,4,2,3,40,1,0
22097,491.803278688525,4,2,3,40,1,0
22589,472.44094488189,4,2,3,40,1,0
23061,450.281425891182,4,2,3,40,1,0
23511,441.176470588235,4,2,3,40,1,0
24393,452.830188679245,4,2,3,40,1,0
25298,439.238653001464,4,2,3,40,1,0
26176,449.438202247191,4,2,3,40,1,0
29322,480,4,2,3,40,1,0
29562,456.273764258555,4,2,3,40,1,0
29790,447.761194029851,4,2,3,40,1,0
30685,428.571428571429,4,2,3,40,1,0
31327,389.61038961039,4,2,3,40,1,0
31521,422.535211267606,4,2,3,40,1,0
32367,428.571428571429,4,2,3,40,1,0
33224,451.127819548872,4,2,3,40,1,0
33675,427.046263345196,4,2,3,40,1,0
34102,422.535211267606,4,2,3,40,1,0
34947,428.571428571429,4,2,3,40,1,0
35589,461.538461538462,4,2,3,40,1,0
35819,458.015267175573,4,2,3,40,1,0
36277,478.011472275335,4,2,3,40,1,0
36755,424.535211267606,4,2,3,40,1,0
37604,445.765230312036,4,2,3,40,1,0
37826,437.158469945355,4,2,3,40,1,0
38263,400,4,2,3,40,1,0
38463,428.571428571429,4,2,3,40,1,0
39320,437.956204379562,4,2,3,40,1,0
40195,446.096654275093,4,2,3,40,1,0
41087,-100,4,2,3,20,0,0
41310,-100,4,2,3,40,0,0
41533,456.273764258555,4,2,3,40,1,0
41989,422.535211267606,4,2,3,40,1,0
42411,443.62292051756,4,2,3,40,1,0
42854,441.176470588235,4,2,3,40,1,0
43736,431.654676258993,4,2,3,40,1,0
44599,436.363636363636,4,2,3,40,1,0
45470,441.176470588235,4,2,3,40,1,0
47234,434.782608695652,4,2,3,40,1,0
48973,413.793103448276,4,2,3,40,1,0
49800,444.444444444444,4,2,3,40,1,0
50244,480,4,2,3,40,1,0
50484,491.803278688525,4,2,3,40,1,0
50729,427.654676258993,4,2,3,40,1,0
51584,431.546263345196,4,2,3,40,1,0
52447,431.654676258993,4,2,3,40,1,0
53310,419.58041958042,4,2,3,40,1,0
53729,431.654676258993,4,2,3,40,1,0
54160,434.782608695652,4,2,3,40,1,0
54812,428.571428571429,4,2,3,40,1,0
55883,437.956204379562,4,2,3,40,1,0
55883,-200,4,2,3,40,0,0
56757,419.58041958042,4,2,3,40,1,0
57596,430.10752688172,4,2,3,40,1,0
59316,-133.333333333333,4,2,3,40,0,0
60821,-100,4,2,3,40,0,0
61036,-90.9090909090909,4,2,3,60,0,0
67058,-76.9230769230769,4,2,3,80,0,0
67273,-90.9090909090909,4,2,3,60,0,0
68671,-90.9090909090909,4,2,3,60,0,0
68778,-90.9090909090909,4,2,3,60,0,0
70499,-90.9090909090909,4,2,3,60,0,0
71359,423.728813559322,4,2,3,60,1,0
71359,-83.3333333333333,4,2,3,60,0,0
71574,-90.9090909090909,4,2,3,60,0,0
72206,436.681222707424,4,2,3,60,1,0
73079,425.531914893617,4,2,3,60,1,0
73079,-90.9090909090909,4,2,3,60,0,0
73294,-100,4,2,3,60,0,0
73930,430.10752688172,4,2,3,60,1,0
73930,-90.9090909090909,4,2,3,60,0,0
74145,-100,4,2,3,60,0,0
74575,461.538461538462,4,2,3,60,1,0
74805,410.958904109589,4,2,3,60,1,0
75421,444.444444444444,4,2,3,60,1,0
75644,425.531914893617,4,2,3,60,1,0
76495,431.654676258993,4,2,3,60,1,0
76495,-71.4285714285714,4,2,3,60,0,0
76710,-100,4,2,3,60,0,0
79084,-100,4,2,3,65,0,0
79300,-100,4,2,3,60,0,0
79948,428.571428571429,4,2,3,70,1,0
80162,-100,4,2,3,60,0,0
80805,-100,4,2,3,80,0,0
81019,-100,4,2,3,60,0,0
81662,-100,4,2,3,100,0,0
81876,-100,4,2,3,60,0,0
82519,-100,4,2,3,90,0,0
82733,-100,4,2,3,60,0,0
83376,-100,4,2,3,30,0,0
84233,444.444444444444,4,2,3,60,1,0
84566,-100,4,2,3,5,0,0
84677,419.58041958042,4,2,3,60,1,0
84991,-100,4,2,3,5,0,0
85094,434.782608695652,4,2,3,60,1,0
86400,447.761194029851,4,2,3,60,1,0
86847,465.116279069767,4,2,3,60,1,0
86847,-111.111111111111,4,2,3,60,0,0
87312,476.190476190476,4,2,3,60,1,0
87312,-125,4,2,3,60,0,0
87788,521.739130434783,4,2,3,60,1,0
87788,-142.857142857143,4,2,3,60,0,0
88309,560.747663551402,4,2,3,60,1,0
88309,-166.666666666667,4,2,3,60,0,0
88869,517.241379310345,4,2,3,50,1,0
89386,491.803278688525,4,2,3,50,1,0
89631,426.287744227353,4,2,3,50,1,0
89844,456.273764258555,4,2,3,50,1,0
90072,419.58041958042,4,2,3,50,1,0
90281,398.671096345515,4,2,3,50,1,0
90480,476.190476190476,4,2,3,50,1,0
90718,431.654676258993,4,2,3,50,1,0
91581,434.782608695652,4,2,3,50,1,0
92015,441.176470588235,4,2,3,50,1,0
92456,437.956204379562,4,2,3,50,1,0
93988,413.793103448276,4,2,3,50,1,0
94195,434.782608695652,4,2,3,50,1,0
95064,439.56043956044,4,2,3,50,1,0
95503,437.956204379562,4,2,3,50,1,0
95940,437.956204379562,4,2,3,50,1,0
97472,422.535211267606,4,2,3,50,1,0
97683,454.545454545455,4,2,3,50,1,0
97910,441.176470588235,4,2,3,50,1,0
98130,428.571428571429,4,2,3,50,1,0
98558,428.571428571429,4,2,3,50,1,0
99415,442.80442804428,4,2,3,50,1,0
101186,416.666666666667,4,2,3,50,1,0
101602,434.782608695652,4,2,3,50,1,0
102036,441.176470588235,4,2,3,50,1,0
102918,434.782608695652,4,2,3,50,1,0
103787,441.176470588235,4,2,3,50,1,0
104228,447.761194029851,4,2,3,50,1,0
104675,422.535211267606,4,2,3,50,1,0
105520,434.782608695652,4,2,3,50,1,0
105520,-125,4,2,3,50,0,0
106172,-100,4,2,3,50,0,0
107259,441.176470588235,4,2,3,50,1,0
108141,434.782608695652,4,2,3,50,1,0
111184,441.176470588235,4,2,3,50,1,0
112066,434.782608695652,4,2,3,50,1,0
112500,428.571428571429,4,2,3,50,1,0
112928,437.956204379562,4,2,3,50,1,0
113365,434.782608695652,4,2,3,50,1,0
114451,-100,4,2,3,30,0,0
114669,-100,4,2,3,40,0,0
115104,441.176470588235,4,2,3,40,1,0
115986,428.571428571429,4,2,3,40,1,0
116843,441.176470588235,4,2,3,35,1,0
118607,454.545454545455,4,2,3,35,1,0
119516,461.538461538462,4,2,3,35,1,0
120439,461.538461538462,4,2,3,35,1,0
121592,483.870967741935,4,2,3,35,1,0
122317,472.44094488189,4,2,3,30,1,0
123261,483.870967741935,4,2,3,30,1,0
124228,508.474576271186,4,2,3,25,1,0
125244,500,4,2,3,25,1,0
125744,517.241379310345,4,2,3,25,1,0
126261,535.714285714286,4,2,3,25,1,0

[Colours]
Combo1 : 187,117,117
Combo2 : 200,197,125
Combo3 : 209,163,208
Combo4 : 74,153,155

[HitObjects]
84,176,564,5,0,0:0:0:0:
204,156,855,1,0,0:0:0:0:
276,60,1144,1,0,0:0:0:0:
288,80,1408,6,0,L|368:92,1,80,2|0,3:0|0:0,0:0:0:0:
212,180,1845,2,0,L|275:230,1,80
396,56,2284,6,0,L|476:68,1,80
320,156,2706,2,0,L|383:206,1,80
68,192,3128,1,2,0:3:0:0:
64,212,3558,5,2,3:2:0:0:
64,212,3701,1,2,0:0:0:0:
64,212,3845,1,0,0:0:0:0:
64,212,3988,2,0,P|72:272|172:276,1,160,2|0,0:0|0:0,0:0:0:0:
256,56,4848,5,0,3:0:0:0:
396,76,5070,1,0,0:0:0:0:
180,144,5292,5,0,0:0:0:0:
268,72,5514,1,0,0:0:0:0:
440,196,5736,5,2,0:3:0:0:
380,96,5947,1,0,0:0:0:0:
280,92,6158,5,0,0:0:0:0:
412,56,6369,1,0,0:0:0:0:
152,40,6581,1,2,0:0:0:0:
152,40,7003,5,0,0:0:0:0:
332,12,7220,1,4,0:3:0:0:
464,136,7437,1,2,0:1:0:0:
472,152,7897,5,4,0:3:0:0:
480,168,8384,5,2,0:0:0:0:
396,288,8602,1,0,0:0:0:0:
380,292,8677,1,0,0:0:0:0:
364,296,8753,1,0,0:0:0:0:
348,300,8829,2,0,L|256:280,1,80
108,248,9283,5,2,0:3:0:0:
320,184,9508,1,0,0:0:0:0:
184,276,9734,1,2,0:0:0:0:
312,96,9943,1,0,0:0:0:0:
168,44,10153,5,4,3:0:0:0:
200,168,10370,1,0,0:0:0:0:
312,96,10587,5,0,0:0:0:0:
184,276,10805,1,0,0:0:0:0:
28,136,11022,1,2,0:0:0:0:
28,136,11895,6,0,L|16:48,1,80,2|0,0:0|0:0,0:0:0:0:
140,148,12342,2,0,L|128:60,1,80,0|2,0:0|0:0,0:0:0:0:
184,276,12790,5,2,0:3:0:0:
344,224,13014,1,0,0:0:0:0:
184,172,13238,1,0,0:0:0:0:
283,309,13462,1,0,0:0:0:0:
283,140,13686,5,8,0:3:0:0:
439,77,13906,1,0,0:0:0:0:
350,220,14117,1,0,0:0:0:0:
338,52,14334,1,0,0:0:0:0:
448,183,14551,1,2,0:3:0:0:
448,183,15446,6,0,L|480:280,1,80,0|0,3:0|0:0,0:0:0:0:
283,140,15864,2,0,L|203:196,1,80
350,220,16303,6,0,L|296:308,1,80,2|0,0:3|0:0,0:0:0:0:
340,48,16744,2,0,L|258:28,1,80,0|2,0:0|0:3,0:0:0:0:
439,77,17202,1,2,0:1:0:0:
439,77,18139,5,2,0:0:0:0:
439,77,19076,5,2,3:2:0:0:
352,164,19299,1,0,0:0:0:0:
340,168,19374,1,0,0:0:0:0:
328,172,19449,1,0,0:0:0:0:
316,176,19523,2,0,L|237:160,1,80
144,136,19971,5,2,0:3:0:0:
312,80,20191,1,0,0:0:0:0:
120,208,20405,5,0,0:0:0:0:
237,75,20607,1,4,0:3:0:0:
136,284,20821,5,2,0:0:0:0:
176,112,21033,1,0,0:0:0:0:
156,92,21104,1,0,0:0:0:0:
144,68,21175,1,0,0:0:0:0:
139,40,21246,2,0,P|131:78|111:113,1,80
40,44,21672,5,2,0:0:0:0:
268,144,21884,1,0,0:0:0:0:
460,32,22097,1,4,0:3:0:0:
460,32,22589,6,0,L|484:112,1,80,2|0,0:0|0:0,0:0:0:0:
408,208,23061,2,0,L|385:131,1,80
248,60,23511,2,0,L|270:136,1,80
195,261,23952,2,0,L|167:169,1,80
432,284,24393,5,2,0:0:0:0:
348,308,25298,5,2,0:1:0:0:
264,332,26176,5,8,0:3:0:0:
112,280,26400,1,0,0:0:0:0:
232,176,26625,1,0,0:0:0:0:
192,297,26850,5,2,0:0:0:0:
106,199,27074,1,0,0:0:0:0:
232,176,27299,1,0,0:0:0:0:
316,264,27524,5,2,0:0:0:0:
106,199,27749,1,2,0:0:0:0:
368,144,27973,6,0,L|424:88,1,80,2|0,0:0|0:0,0:0:0:0:
160,36,28423,2,0,L|268:52,1,80,2|0,0:0|0:0,0:0:0:0:
332,64,28872,5,2,0:3:0:0:
256,148,29097,1,0,0:0:0:0:
88,120,29322,2,0,L|8:108,1,80,2|0,0:3|0:0,0:0:0:0:
264,156,29790,5,2,0:0:0:0:
352,248,30013,1,0,0:0:0:0:
248,140,30237,5,0,0:0:0:0:
396,128,30461,1,0,0:0:0:0:
232,128,30685,5,2,0:3:0:0:
168,248,30899,1,0,0:0:0:0:
96,132,31113,5,0,0:0:0:0:
56,280,31327,1,0,0:0:0:0:
276,248,31521,6,0,P|344:256|396:296,1,120,2|0,0:0|0:0,0:0:0:0:
352,368,31943,2,0,P|324:356|284:308,1,53.3333333333333,2|0,0:0|0:0,0:0:0:0:
444,359,32225,1,0,0:0:0:0:
444,359,32367,2,0,P|472:312|468:248,1,106.666666666667,2|0,0:0|0:0,0:0:0:0:
424,188,32795,1,2,0:0:0:0:
424,188,33224,6,0,P|422:145|432:96,1,80,2|0,3:3|0:0,0:0:0:0:
304,44,33675,2,0,P|316:84|342:127,1,80
256,256,34102,2,0,P|271:216|279:166,1,80,2|0,0:0|0:0,0:0:0:0:
188,88,34524,5,0,0:0:0:0:
279,179,34735,1,2,0:0:0:0:
400,48,34947,1,2,0:3:0:0:
400,48,35375,5,0,0:0:0:0:
456,104,35589,2,0,L|472:60,1,40,4|0,3:3|0:0,0:0:0:0:
512,160,35819,1,2,0:0:0:0:
464,224,36277,5,4,0:3:0:0:
416,288,36755,5,2,0:0:0:0:
228,272,36967,1,0,0:0:0:0:
192,288,37038,1,0,0:0:0:0:
156,304,37108,1,0,0:0:0:0:
120,320,37179,2,0,L|20:304,1,80
252,344,37604,5,2,0:0:0:0:
108,236,37826,1,0,0:0:0:0:
424,340,38044,2,0,L|516:336,1,80,2|0,0:0|0:0,0:0:0:0:
228,272,38463,6,0,L|148:275,1,80,8|0,3:3|0:0,0:0:0:0:
0,216,38891,1,0,0:0:0:0:
148,275,39105,1,0,0:0:0:0:
384,164,39320,1,2,0:0:0:0:
384,164,40195,5,2,0:0:0:0:
432,92,40418,1,0,0:0:0:0:
336,80,40641,1,0,0:0:0:0:
480,176,40864,1,2,0:0:0:0:
288,152,41087,6,0,L|172:136,1,80,6|0,0:3|0:0,0:0:0:0:
112,124,41533,1,0,0:0:0:0:
240,68,41761,1,0,0:0:0:0:
146,205,41989,6,0,L|30:189,1,80,8|0,0:3|0:0,0:0:0:0:
80,48,42411,2,0,L|0:37,1,80
240,68,42854,1,2,0:3:0:0:
240,68,43736,5,8,0:3:0:0:
404,92,43951,1,0,0:0:0:0:
328,32,44167,5,0,0:0:0:0:
392,188,44383,1,0,0:0:0:0:
316,128,44599,5,2,0:3:0:0:
480,152,44817,1,0,0:0:0:0:
304,224,45035,5,0,0:0:0:0:
404,92,45253,1,0,0:0:0:0:
240,68,45471,1,2,0:1:0:0:
228,164,46352,5,2,0:0:0:0:
216,260,47234,5,2,0:0:0:0:
104,168,47451,1,0,0:0:0:0:
92,136,47523,1,0,0:0:0:0:
92,100,47596,1,0,0:0:0:0:
108,68,47668,2,0,P|68:80|4:84,1,80,0|0,0:1|0:0,0:0:0:0:
176,112,48103,2,0,P|216:100|280:96,1,80,2|0,0:3|0:0,0:0:0:0:
388,132,48538,1,2,0:0:0:0:
240,216,48755,1,4,0:3:0:0:
264,24,48973,5,2,0:0:0:0:
400,148,49179,1,0,0:0:0:0:
392,188,49248,1,0,0:0:0:0:
396,228,49317,1,0,0:0:0:0:
411,264,49386,2,0,P|398:301|368:327,1,80
308,128,49800,2,0,P|321:90|351:64,1,80,4|0,0:3|0:0,0:0:0:0:
156,108,50244,2,0,P|142:145|112:171,1,80,2|0,0:3|0:0,0:0:0:0:
224,200,50729,6,0,P|261:213|287:243,1,80,8|0,0:3|0:0,0:0:0:0:
244,48,51156,2,0,P|206:34|180:4,1,80
396,32,51584,5,4,0:3:0:0:
444,92,52015,1,2,0:0:0:0:
492,152,52447,2,0,L|384:132,1,80,2|0,0:1|0:0,0:0:0:0:
212,172,52878,5,0,0:0:0:0:
217,190,52950,1,0,0:0:0:0:
222,209,53022,1,0,0:0:0:0:
228,229,53094,1,0,0:0:0:0:
232,248,53729,1,0,0:0:0:0:
388,284,54160,5,2,3:0:0:0:
233,248,54377,1,0,0:3:0:0:
302,303,54594,5,2,0:0:0:0:
233,160,54812,1,0,0:0:0:0:
233,248,55026,5,0,0:0:0:0:
302,105,55240,1,2,0:0:0:0:
233,160,55454,5,2,0:3:0:0:
388,125,55669,1,0,0:0:0:0:
388,284,55883,2,0,P|337:340|272:324,1,140,2|0,0:0|0:0,0:0:0:0:
248,304,56757,6,0,B|216:300|216:300|204:284|204:284|120:316|56:272|64:188,1,240,4|0,0:3|0:0,0:0:0:0:
168,76,57596,5,8,0:3:0:0:
332,128,57811,1,0,0:0:0:0:
196,68,58026,1,0,0:0:0:0:
356,152,58241,1,0,0:0:0:0:
224,60,58456,1,2,0:0:0:0:
380,176,58671,1,0,0:0:0:0:
252,52,58886,1,2,0:3:0:0:
404,200,59101,1,0,0:0:0:0:
168,76,59316,6,0,P|168:156|76:188,1,180.000006866455,2|0,0:0|0:0,0:0:0:0:
168,76,60176,2,0,P|224:128|328:96,1,180.000006866455,8|0,0:3|0:0,0:0:0:0:
466,164,61036,6,0,L|376:184,1,88.000002685547,8|0,0:3|0:0,0:0:0:0:
252,52,61466,1,2,0:0:0:0:
466,164,61682,1,0,0:0:0:0:
256,280,61897,6,0,L|166:300,1,88.000002685547,4|0,0:3|0:0,0:0:0:0:
64,128,62327,1,2,0:0:0:0:
256,280,62542,1,2,0:0:0:0:
0,244,62757,6,0,L|85:224,1,88.000002685547,8|0,0:3|0:0,0:0:0:0:
256,184,63187,1,2,0:0:0:0:
64,128,63402,1,4,0:3:0:0:
336,316,63617,6,0,L|421:296,1,88.000002685547,2|0,0:0|0:0,0:0:0:0:
164,276,64047,2,0,L|249:256,1,88.000002685547,2|2,0:0|0:0,0:0:0:0:
496,124,64477,6,0,L|410:143,1,88.000002685547,4|0,0:3|0:0,0:0:0:0:
256,184,64907,1,2,0:0:0:0:
432,56,65122,1,0,0:0:0:0:
424,252,65337,6,0,L|420:339,1,88.000002685547,2|0,0:0|0:0,0:0:0:0:
228,200,65768,1,2,0:0:0:0:
424,40,65983,1,2,0:0:0:0:
404,264,66198,5,4,0:3:0:0:
200,216,66413,1,0,0:0:0:0:
376,147,66628,2,0,L|409:65,1,88.000002685547
419,93,66950,5,0,0:0:0:0:
284,157,67058,2,0,B|276:169|276:169|276:181|276:181|268:189|268:189|268:201|268:201|260:209|260:209|260:221|260:221|252:229|252:229|248:249,1,103.999995239258,2|0,0:0|0:0,0:0:0:0:
424,200,67488,1,2,0:0:0:0:
124,232,67703,1,0,0:0:0:0:
436,216,67918,6,0,L|349:234,1,88.000002685547,2|0,0:0|0:0,0:0:0:0:
160,124,68348,1,2,0:0:0:0:
344,320,68563,2,0,L|300:329,1,44.0000013427735
156,360,68778,6,0,L|60:332,1,88.000002685547,2|4,0:0|0:3,0:0:0:0:
44,216,69208,1,2,0:0:0:0:
156,360,69423,1,2,0:0:0:0:
88,114,69639,5,8,0:3:0:0:
224,232,69854,1,0,0:0:0:0:
44,216,70069,1,0,0:0:0:0:
200,124,70284,1,2,0:0:0:0:
104,320,70499,6,0,L|144:168,1,132.00000402832,2|2,0:0|0:0,0:0:0:0:
372,156,70929,2,0,L|292:194,1,88.000002685547,2|0,0:0|0:0,0:0:0:0:
512,268,71359,6,0,L|420:238,1,95.9999970703126,4|0,0:3|0:0,0:0:0:0:
224,232,71782,1,2,0:2:0:0:
452,124,71994,1,2,0:0:0:0:
224,232,72206,5,4,0:3:0:0:
56,76,72424,1,2,0:3:0:0:
208,224,72642,5,0,0:0:0:0:
380,68,72861,1,2,0:3:0:0:
192,216,73079,6,0,L|104:220,1,88.000002685547,12|0,0:3|0:0,0:0:0:0:
8,225,73504,1,0,0:0:0:0:
56,76,73717,1,2,0:3:0:0:
296,280,73930,6,0,L|384:276,1,88.000002685547,8|0,0:3|0:0,0:0:0:0:
480,272,74360,1,2,0:3:0:0:
384,64,74575,1,2,0:3:0:0:
204,128,74805,6,0,L|124:131,1,80,8|0,0:3|0:0,0:0:0:0:
388,60,75215,1,2,0:0:0:0:
348,224,75421,2,0,L|339:262,1,40
232,128,75644,6,0,L|168:40,1,80,2|4,0:3|0:3,0:0:0:0:
408,64,76069,1,2,0:0:0:0:
360,248,76282,1,2,0:0:0:0:
128,128,76495,2,0,B|123:125|123:125|119:129|119:129|115:125|115:125|111:129|111:129|107:125|107:125|103:129|103:129|99:125|99:125|95:129|95:129|91:125|91:125|87:129|87:129|83:125|83:125|79:129|79:129|75:125|75:125|71:129|71:129|67:125|67:125|63:129|63:129|59:125|59:125|55:129|55:129|50:125|50:125|46:129|46:129|41:125,1,111.999996582031,4|0,0:3|0:0,0:0:0:0:
208,216,76926,6,0,P|247:215|284:199,1,80,2|0,0:3|0:0,0:0:0:0:
344,4,77358,2,0,P|324:38|319:78,1,80,2|0,0:3|0:0,0:0:0:0:
448,216,77789,2,0,P|427:182|395:157,1,80,2|2,0:0|0:0,0:0:0:0:
48,200,78221,6,0,P|68:233|100:258,1,80,4|2,0:3|0:3,0:0:0:0:
256,284,78653,1,2,0:0:0:0:
256,128,78869,1,2,0:0:0:0:
57,128,79084,6,0,P|65:167|86:201,1,80,4|2,0:3|0:3,0:0:0:0:
224,278,79516,1,0,0:0:0:0:
277,131,79732,1,2,0:0:0:0:
91,64,79948,6,0,P|85:103|94:142,1,80,4|2,0:3|0:3,0:0:0:0:
196,262,80376,1,2,0:0:0:0:
297,142,80590,1,2,0:0:0:0:
145,15,80805,6,0,P|125:50|120:90,1,80,4|2,2:3|2:3,2:0:0:0:
176,237,81233,1,2,0:3:0:0:
311,160,81449,1,2,0:0:0:0:
134,212,81662,5,4,0:3:0:0:
349,175,81876,1,0,0:0:0:0:
152,130,82090,1,2,0:0:0:0:
330,256,82306,1,0,0:0:0:0:
222,86,82519,1,4,0:3:0:0:
260,301,82733,1,0,0:0:0:0:
304,104,82948,1,0,0:0:0:0:
178,282,83162,1,0,0:0:0:0:
244,192,83376,5,2,0:1:0:0:
244,192,84233,6,0,L|160:72,1,120,2|0,0:0|0:0,0:0:0:0:
32,216,84677,2,0,L|177:203,1,120,2|0,0:0|0:0,0:0:0:0:
124,28,85094,6,0,L|82:115,1,80,8|0,0:3|0:0,0:0:0:0:
16,220,85528,1,0,0:0:0:0:
256,204,85746,1,0,0:0:0:0:
48,248,85963,5,4,0:3:0:0:
280,136,86180,1,0,0:0:0:0:
80,276,86400,2,0,L|-8:296,1,80
304,68,86847,6,0,L|327:135,1,71.9999978027344,4|0,0:3|0:0,0:0:0:0:
192,96,87312,2,0,L|124:119,1,64,8|0,0:3|0:0,0:0:0:0:
408,120,87788,2,0,L|431:187,1,55.9999982910157
84,60,88309,2,0,L|31:78,1,47.9999985351563
180,184,88869,6,0,L|260:156,1,80,2|0,0:3|0:0,0:0:0:0:
404,260,89386,2,0,L|324:232,1,80
124,304,89844,2,0,L|204:276,1,80
504,212,90281,2,0,L|424:184,1,80
288,108,90718,6,0,B|352:92|352:92|372:36,1,120,2|0,0:0|0:0,0:0:0:0:
404,260,91149,2,0,L|384:320,1,53.3333333333333,2|2,0:0|0:0,0:0:0:0:
504,212,91437,1,0,0:0:0:0:
236,180,91581,6,0,B|171:197|171:197|124:184,1,106.666666666667,2|0,0:0|0:0,0:0:0:0:
288,108,92015,2,0,B|353:91|353:91|400:104,1,106.666666666667,2|0,0:0|0:0,0:0:0:0:
204,48,92456,5,8,0:3:0:0:
312,240,92674,1,0,0:0:0:0:
468,132,92893,1,0,0:0:0:0:
236,180,93112,1,0,0:0:0:0:
4,152,93331,5,2,0:0:0:0:
209,77,93550,1,0,0:0:0:0:
87,257,93769,1,0,0:0:0:0:
81,39,93988,1,0,0:0:0:0:
217,213,94195,6,0,P|271:247|348:212,1,120,2|0,0:0|0:0,0:0:0:0:
340,200,94629,1,0,0:0:0:0:
256,52,94847,2,0,L|256:12,1,40,4|0,3:3|0:0,0:0:0:0:
512,192,95064,1,2,0:1:0:0:
504,208,95503,5,4,0:3:0:0:
496,224,95940,5,2,0:0:0:0:
292,292,96158,1,0,0:1:0:0:
260,280,96231,1,0,0:0:0:0:
224,280,96304,1,0,0:0:0:0:
191,296,96377,2,0,P|160:312|114:309,1,80
44,236,96815,5,2,0:3:0:0:
176,88,97034,1,0,0:0:0:0:
11,167,97253,1,2,0:0:0:0:
208,156,97472,1,0,0:0:0:0:
312,316,97683,5,2,3:2:0:0:
400,148,97910,1,0,0:0:0:0:
356,232,98130,5,0,0:0:0:0:
268,64,98344,1,0,0:0:0:0:
452,232,98558,1,2,0:0:0:0:
452,232,99415,5,2,0:0:0:0:
312,148,99636,1,0,0:0:0:0:
416,20,99857,1,0,0:0:0:0:
400,148,100079,1,2,0:0:0:0:
287,219,100300,6,0,P|247:227|199:219,1,80,2|0,0:3|0:0,0:0:0:0:
144,120,100743,1,0,0:0:0:0:
400,148,100964,1,0,0:0:0:0:
287,219,101186,6,0,P|253:197|235:162,1,80,8|0,0:3|0:0,0:0:0:0:
360,72,101602,1,0,0:0:0:0:
452,232,101819,1,0,0:0:0:0:
320,312,102036,2,0,P|208:276|212:160,1,240,2|0,0:0|0:0,0:0:0:0:
205,168,102918,6,0,P|168:184|125:184,1,80,8|0,3:3|0:0,0:0:0:0:
52,140,103352,1,0,0:0:0:0:
216,80,103570,1,0,0:0:0:0:
287,219,103787,5,2,0:3:0:0:
188,88,104007,1,0,0:0:0:0:
356,192,104228,1,2,0:3:0:0:
120,112,104451,1,2,0:3:0:0:
423,163,104675,1,2,0:1:0:0:
423,163,105520,6,0,P|401:249|312:250,1,192,2|0,0:0|0:0,0:0:0:0:
256,64,106389,5,2,0:0:0:0:
423,163,106606,1,0,0:0:0:0:
448,188,106679,1,0,0:0:0:0:
464,220,106751,1,0,0:0:0:0:
468,256,106824,2,0,P|460:294|432:322,1,80
356,192,107259,5,2,0:3:0:0:
212,304,107479,1,0,0:0:0:0:
328,168,107700,1,0,0:0:0:0:
224,344,107920,1,4,0:3:0:0:
300,144,108141,5,2,0:0:0:0:
120,232,108358,1,0,0:0:0:0:
84,232,108430,1,0,0:0:0:0:
52,220,108503,1,0,0:0:0:0:
24,200,108575,2,0,P|49:239|52:280,1,80
0,332,109010,5,6,0:3:0:0:
120,104,109227,1,0,0:0:0:0:
88,344,109445,1,0,0:0:0:0:
32,92,109662,1,0,0:0:0:0:
176,356,109880,5,8,3:3:0:0:
140,184,110097,1,0,0:0:0:0:
0,332,110314,1,0,0:0:0:0:
316,208,110532,1,4,0:3:0:0:
140,184,110749,6,0,P|100:140|80:80,1,120,2|0,0:0|0:0,0:0:0:0:
232,196,111184,2,0,P|213:252|171:299,1,120,2|0,0:0|0:0,0:0:0:0:
196,108,111625,2,0,P|254:95|316:108,1,120,12|0,0:3|0:0,0:0:0:0:
456,96,112066,2,0,L|447:133,3,26.6666666666667
456,96,112928,5,2,0:0:0:0:
492,168,113365,5,10,0:3:0:0:
320,200,113582,1,0,0:0:0:0:
384,60,113799,5,0,0:0:0:0:
440,232,114017,1,0,0:0:0:0:
272,300,114234,1,0,0:0:0:0:
308,40,114451,5,4,0:3:0:0:
364,212,114669,1,0,0:0:0:0:
196,280,114886,1,0,0:0:0:0:
120,116,115104,1,2,0:0:0:0:
112,132,115986,5,8,0:3:0:0:
104,148,116843,5,10,0:3:0:0:
44,280,117063,1,0,0:0:0:0:
76,216,117284,5,2,0:0:0:0:
114,355,117504,1,0,0:0:0:0:
96,288,117725,5,2,0:0:0:0:
214,370,117945,1,2,0:0:0:0:
152,332,118166,5,2,0:3:0:0:
295,318,118387,1,0,0:0:0:0:
400,144,118607,1,4,0:3:0:0:
416,168,119516,5,2,0:3:0:0:
432,192,120439,5,2,3:0:0:0:
288,307,120669,1,0,0:0:0:0:
388,100,120900,5,2,0:0:0:0:
388,285,121131,1,0,0:0:0:0:
288,77,121362,5,2,0:0:0:0:
432,192,121592,1,2,0:0:0:0:
207,141,121833,5,2,0:3:0:0:
388,100,122075,1,0,0:0:0:0:
207,243,122317,1,2,0:0:0:0:
192,260,123261,5,2,3:3:0:0:
177,277,124228,5,10,0:3:0:0:
22,209,124482,1,0,0:0:0:0:
185,176,124736,1,2,0:0:0:0:
73,298,124990,1,0,0:0:0:0:
90,133,125244,5,2,0:0:0:0:
304,229,125494,1,0,0:0:0:0:
187,27,125744,1,2,0:0:0:0:
161,258,126002,1,2,0:0:0:0:
317,85,126261,1,6,0:3:0:0:
317,85,127332,5,2,0:1:0:0:
