osu file format v14

[General]
AudioFilename: audio.mp3
AudioLeadIn: 0
PreviewTime: 95562
Countdown: 1
SampleSet: Soft
StackLeniency: 0.2
Mode: 3
LetterboxInBreaks: 0
SpecialStyle: 0
WidescreenStoryboard: 0

[Editor]
DistanceSpacing: 1
BeatDivisor: 8
GridSize: 4
TimelineZoom: 1

[Metadata]
Title:Roze
TitleUnicode:Roze
Artist:MiddleIsland
ArtistUnicode:MiddleIsland
Creator:Fantyful
Version:FF
Source:
Tags:
BeatmapID:1053957
BeatmapSetID:495044

[Difficulty]
HPDrainRate:5
CircleSize:4
OverallDifficulty:5
ApproachRate:5
SliderMultiplier:1.4
SliderTickRate:1

[Events]
//Background and Video events
0,0,"Roze BG.jpg",0,0
//Break Periods
//Storyboard Layer 0 (Background)
//Storyboard Layer 1 (Fail)
//Storyboard Layer 2 (Pass)
//Storyboard Layer 3 (Foreground)
//Storyboard Sound Samples

[TimingPoints]
1190.15384615385,307.692307692308,4,2,1,8,1,0
1497,332.409972299169,4,2,1,8,1,0
2494,314.13612565445,4,2,1,5,1,0
3750,276.497695852535,4,2,1,10,1,0
4302,295.566502463054,4,2,1,10,1,0
4597,329.67032967033,4,2,1,10,1,0
4761,-100,4,2,1,12,0,0
5586,353.565114908662,4,2,1,12,1,0
6204,-100,4,2,1,13,0,0
6646,323.275862068966,4,2,1,13,1,0
7292,285.714285714286,4,2,1,15,1,0
7577,292.682926829268,4,2,1,10,1,0
8455,297.029702970297,4,2,1,10,1,0
8603,-100,4,2,1,12,0,0
9643,320.855614973262,4,2,1,12,1,0
9803,-100,4,2,1,5,0,0
10284,342.857142857143,4,2,1,5,1,0
10626,387.096774193548,4,2,3,5,1,0
11013,517.241379310345,4,2,3,5,1,0
11530,352.941176470588,4,2,1,10,1,0
12235,324.324324324324,4,2,1,10,1,0
12559,314.13612565445,4,2,1,11,1,0
15386,341.880341880342,4,2,1,12,1,0
15727,346.820809248555,4,2,1,9,1,0
16420,361.44578313253,4,2,1,9,1,0
16781,324.324324324324,4,2,1,15,1,0
17105,333.324324324324,4,2,1,10,1,0
17438,319.148936170213,4,2,1,10,1,0
17757,284.36018957346,4,2,1,10,1,0
18041,317.460317460317,4,2,1,10,1,0
18596,-100,4,2,1,9,0,0
19231,-133.333333333333,4,2,1,14,0,0
19390,-133.333333333333,4,2,1,13,0,0
19469,-133.333333333333,4,2,1,11,0,0
20263,326.975476839237,4,2,1,15,1,0
20426,-100,4,2,1,13,0,0
20916,362.537764350453,4,2,1,13,1,0
21278,348.837209302326,4,2,1,15,1,0
21626,357.142857142857,4,2,1,15,1,0
21983,320.855614973262,4,2,1,15,1,0
22624,314.96062992126,4,2,1,13,1,0
22938,310.077519379845,4,2,1,13,1,0
23558,304.955527318933,4,2,1,15,1,0
24396,-133.333333333333,4,2,1,13,0,0
25006,-100,4,2,1,13,0,0
25387,341.880341880342,4,2,1,13,1,0
25557,-100,4,2,3,15,0,0
26412,344.827586206897,4,2,1,15,1,0
27101,340.909090909091,4,2,1,14,1,0
27441,332.409972299169,4,2,1,14,1,0
27773,319.148936170213,4,2,1,13,1,0
28411,324.324324324324,4,2,1,13,1,0
29383,322.58064516129,4,2,1,13,1,0
29705,325.20325203252,4,2,1,15,1,0
30030,315.789473684211,4,2,1,15,1,0
30345,333.333333333333,4,2,1,15,1,0
30678,352.941176470588,4,2,1,15,1,0
30854,-100,4,2,1,10,0,0
31560,-100,4,2,1,16,0,0
32442,327.868852459016,4,2,1,14,1,0
32769,321.71581769437,4,2,1,16,1,0
33412,317.460317460317,4,2,1,16,1,0
34205,-100,4,2,1,14,0,0
34840,-100,4,2,1,13,0,0
35316,320.855614973262,4,2,1,16,1,0
36278,334.261838440111,4,2,1,14,1,0
36278,-133.333333333333,4,2,1,14,0,0
36612,344.827586206897,4,2,1,14,1,0
37129,-100,4,2,1,14,0,0
37474,-133.333333333333,4,2,1,13,0,0
38336,303.030303030303,4,2,1,12,1,0
38942,319.148936170213,4,2,1,16,1,0
39101,-100,4,2,1,16,0,0
39500,-100,4,2,1,16,0,0
40138,-133.333333333333,4,2,1,18,0,0
41176,326.086956521739,4,2,1,16,1,0
41502,347.826086956522,4,2,1,16,1,0
42197,359.281437125748,4,2,1,16,1,0
42556,-100,4,2,1,25,0,0
42915,327.868852459016,4,2,1,22,1,0
43570,319.148936170213,4,2,1,10,1,0
43729,-100,4,2,1,18,0,0
44208,310.880829015544,4,2,1,20,1,0
45451,332.871012482663,4,2,4,16,1,0
45561,-100,4,2,4,15,0,0
45783,-100,4,2,4,14,0,0
46033,-100,4,2,4,13,0,0
46199,-100,4,2,4,12,0,0
46449,-100,4,2,4,11,0,0
46782,357.142857142857,4,2,4,14,1,0
46782,-200,4,2,4,14,0,0
48210,330.578512396694,4,2,1,14,1,0
48705,-100,4,2,1,12,0,0
49367,-100,4,2,1,15,0,0
50524,332.409972299169,4,2,1,15,1,0
50690,-133.333333333333,4,2,1,15,0,0
51853,352.941176470588,4,2,1,15,1,0
51853,-133.333333333333,4,2,1,14,0,0
52205,355.029585798817,4,2,1,13,1,0
52382,-133.333333333333,4,2,1,12,0,0
52915,433.212996389892,4,2,1,13,1,0
53348,677.966101694915,4,2,1,14,1,0
54025,410.25641025641,4,2,1,15,1,0
54435,315.789473684211,4,2,1,15,1,0
54435,-133.333333333333,4,2,1,16,0,0
55382,310.880829015544,4,2,1,18,1,0
56314,315.789473684211,4,2,1,18,1,0
56629,311.688311688312,4,2,1,18,1,0
57875,-100,4,2,1,20,0,0
58187,313.31592689295,4,2,1,18,1,0
58500,328.767123287671,4,2,1,16,1,0
58828,366.412213740458,4,2,1,14,1,0
59194,340.909090909091,4,2,1,16,1,0
59534,300.751879699248,4,2,1,16,1,0
59834,315.789473684211,4,2,1,16,1,0
60307,-100,4,2,1,14,0,0
60781,309.278350515464,4,2,1,16,1,0
61012,-100,4,2,1,18,0,0
61399,-100,4,2,1,20,0,0
62636,326.086956521739,4,2,1,16,1,0
63288,348.837209302326,4,2,1,18,1,0
63636,356.083086053412,4,2,1,20,1,0
63992,369.230769230769,4,2,1,18,1,0
64361,320.427236315087,4,2,1,18,1,0
64361,-133.333333333333,4,2,1,18,0,0
64921,-133.333333333333,4,2,1,20,0,0
65322,309.278350515464,4,2,1,18,1,0
65631,313.31592689295,4,2,1,16,1,0
66570,331.491712707182,4,2,1,16,1,0
66901,305.343511450382,4,2,1,16,1,0
66901,-133.333333333333,4,2,1,18,0,0
67282,-133.333333333333,4,2,1,12,0,0
67511,317.460317460317,4,2,1,20,1,0
67828,347.826086956522,4,2,1,18,1,0
68175,304.182509505703,4,2,1,18,1,0
68479,326.086956521739,4,2,1,18,1,0
68805,360.902255639098,4,2,1,18,1,0
69526,345.821325648415,4,2,1,20,1,0
69871,291.26213592233,4,2,1,14,1,0
70162,300,4,2,1,20,1,0
70462,319.573901464714,4,2,1,16,1,0
70781,314.547837483617,4,2,1,20,1,0
71514,-100,4,2,1,14,0,0
71881,-100,4,2,1,20,0,0
72196,-100,4,2,1,18,0,0
73297,326.975476839237,4,2,1,14,1,0
73950,361.01083032491,4,2,1,18,1,0
74220,-100,4,2,1,19,0,0
74672,322.58064516129,4,2,1,20,1,0
75964,312.174817898023,4,2,1,18,1,0
76900,320,4,2,1,18,1,0
77060,-100,4,2,1,20,0,0
78180,335.195530726257,4,2,1,18,1,0
79185,356.083086053412,4,2,1,18,1,0
79897,336.605890603086,4,2,1,18,1,0
80233,309.677419354839,4,2,1,18,1,0
80542,324.324324324324,4,2,1,20,1,0
80542,-133.333333333333,4,2,1,18,0,0
80582,-133.333333333333,4,3,1,13,0,0
80866,319.148936170213,4,2,1,18,1,0
81185,315.789473684211,4,2,1,18,1,0
82448,320,4,2,1,18,1,0
83088,326.086956521739,4,2,1,19,1,0
83740,352.941176470588,4,2,1,23,1,0
83916,-100,4,2,1,20,0,0
84445,356.612184249629,4,2,1,16,1,0
84534,-100,4,2,1,21,0,0
84712,-100,4,2,1,30,0,0
85158,322.58064516129,4,2,1,28,1,0
85480,319.148936170213,4,2,1,28,1,0
85799,322.147651006711,4,2,1,10,1,0
85960,-100,4,2,1,18,0,0
86443,312.5,4,2,1,18,1,0
86651,-100,4,2,1,5,0,0
86755,-100,4,2,1,18,0,0
87380,317.040951122853,4,2,1,14,1,0
87697,327.868852459016,4,2,4,16,1,0
87806,-100,4,2,4,15,0,0
88024,-100,4,2,4,14,0,0
88270,-100,4,2,4,13,0,0
88434,-100,4,2,4,12,0,0
88680,-100,4,2,4,11,0,0
89008,356.612184249628,4,2,4,10,1,0
89008,-200,4,2,4,10,0,0
90434,336.605890603086,4,2,1,18,1,0
90602,-100,4,2,1,12,0,0
90938,-133.333333333333,4,2,1,8,0,0
91443,322.578512396694,4,2,1,14,1,0
91604,-100,4,2,1,20,0,0
92088,334.261838440111,4,2,1,18,1,0
92422,335.195530726257,4,2,1,18,1,0
93092,300,4,2,1,18,1,0
93092,-133.333333333333,4,2,1,18,0,0
93392,341.394025604552,4,2,1,18,1,0
93733,340.425531914894,4,2,1,18,1,0
93733,-133.333333333333,4,2,1,18,0,0
94073,367.534456355283,4,2,1,18,1,0
94440,364.741641337386,4,2,1,18,1,0
94440,-133.333333333333,4,2,1,18,0,0
95169,393.44262295082,4,2,1,18,1,0
95169,-133.333333333333,4,2,1,18,0,0
95562,284.697508896797,4,2,1,16,1,0
95846,310.880829015544,4,2,1,18,1,0
96156,336.605890603086,4,2,1,20,1,0
96492,308.08729139923,4,2,1,18,1,0
96800,307.692307692308,4,2,1,18,1,0
97030,-100,4,2,1,19,0,0
97415,273.348519362187,4,2,1,19,1,0
97688,288.461538461538,4,2,1,19,1,0
97976,297.766749379653,4,2,1,19,1,0
98273,289.855072463768,4,2,1,18,1,0
98562,281.359906213365,4,2,1,18,1,0
98843,289.855072463768,4,2,1,18,1,0
99132,288.461538461538,4,2,1,20,1,0
99636,-100,4,2,1,22,0,0
100357,-100,4,2,1,18,0,0
100502,-100,4,2,1,22,0,0
100790,-100,4,2,1,24,0,0
102232,-100,4,2,1,23,0,0
104324,293.398533007335,4,2,1,30,1,0
104470,-100,4,2,1,20,0,0
105497,286.73835125448,4,2,1,22,1,0
106572,-100,4,2,1,18,0,0
106715,-100,4,2,1,20,0,0
106859,-100,4,2,1,23,0,0
107719,-100,4,2,1,25,0,0
108077,292.682926829268,4,2,1,23,1,0
108369,291.26213592233,4,2,1,22,1,0
108878,-100,4,2,1,20,0,0
109461,-100,4,2,1,19,0,0
109825,286.396181384248,4,2,1,19,1,0
110039,-100,4,2,1,22,0,0
110684,292.682926829268,4,2,1,23,1,0
110976,287.769784172662,4,2,1,23,1,0
111263,291.970802919708,4,2,1,25,1,0
111554,290.556900726392,4,2,1,25,1,0
111844,307.692307692308,4,2,1,25,1,0
111997,344.827586206897,4,2,1,25,1,0
112169,320,4,2,1,25,1,0
112489,297.397769516729,4,2,1,25,1,0
113381,321.71581769437,4,2,1,30,1,0
114024,327.421555252387,4,2,1,38,1,0
114187,-100,4,2,1,25,0,0
114678,320,4,2,1,23,1,0
114998,287.081339712919,4,2,1,25,1,0
115069,-100,4,2,1,22,0,0
115285,284.36018957346,4,2,1,22,1,0
116920,-100,4,2,1,23,0,0
117204,-100,4,2,1,18,0,0
117346,-100,4,2,1,20,0,0
117488,-100,4,2,1,24,0,0
119194,-100,4,2,1,26,0,0
120403,297.397769516729,4,2,1,26,1,0
121295,314.13612565445,4,2,1,26,1,0
121609,324.324324324324,4,2,1,26,1,0
121933,299.625468164794,4,2,1,28,1,0
122232,324.763193504736,4,2,1,28,1,0
122556,318.725099601594,4,2,1,26,1,0
122874,299.625468164794,4,2,1,26,1,0
123173,297.029702970297,4,2,1,22,1,0
123767,283.687943262411,4,2,1,22,1,0
123979,-100,4,2,1,24,0,0
124263,-100,4,2,1,22,0,0
124334,277.777777777778,4,2,1,22,1,0
125167,291.26213592233,4,2,1,25,1,0
125458,280.373831775701,4,2,1,25,1,0
125668,-100,4,2,1,28,0,0
126579,277.777777777778,4,2,1,20,1,0
126717,-100,4,2,1,28,0,0
127134,288.808664259928,4,2,1,28,1,0
127422,290.908664259928,4,2,1,28,1,0
127712,302.267002518892,4,2,1,28,1,0
128014,319.573901464714,4,2,1,28,1,0
128333,317.880794701987,4,2,1,28,1,0
128650,326.086956521739,4,2,1,28,1,0
128976,302.267002518892,4,2,1,30,1,0
129278,288.461538461538,4,2,1,30,1,0
129566,271.186440677966,4,2,1,28,1,0
129837,287.425149700599,4,2,1,28,1,0
130052,-100,4,2,1,26,0,0
130196,-100,4,2,1,29,0,0
130411,292.682926829268,4,2,1,29,1,0
130703,307.692307692308,4,2,1,28,1,0
131010,333.333333333333,4,2,1,29,1,0
131343,327.421555252387,4,2,1,30,1,0
131670,313.31592689295,4,2,1,28,1,0
131983,289.855072463768,4,2,1,28,1,0
132562,285.714285714286,4,2,1,28,1,0
133419,309.278350515464,4,2,1,28,1,0
133573,338.028169014084,4,2,1,28,1,0
133742,307.692307692308,4,2,1,35,1,0
134703,-100,4,2,1,25,0,0
134818,-100,4,2,1,35,0,0
134972,303.030303030303,4,2,1,35,1,0
136184,370.027752081406,4,2,1,12,1,0
137664,307.692307692308,4,2,1,35,1,0
137740,-100,4,2,1,28,0,0
137971,298.879202988792,4,2,1,28,1,0
138269,315.789473684211,4,2,1,28,1,0
138584,327.421555252387,4,2,1,26,1,1
139566,316.622691292876,4,2,1,26,1,1
139882,313.31592689295,4,2,1,26,1,1
140195,306.122448979592,4,2,1,26,1,1
140807,298.507462686567,4,2,1,26,1,1
140956,360.36036036036,4,2,1,26,1,1
141136,277.777777777778,4,2,1,22,1,1
141136,-133.333333333333,4,2,1,22,0,1
141413,285.714285714286,4,2,1,20,1,1
141555,-100,4,2,1,26,0,1
142555,315.789473684211,4,2,1,28,1,1
142712,307.692307692308,4,2,1,26,1,1
143019,342.857142857143,4,2,1,26,1,1
143533,333.333333333333,4,2,1,20,1,1
144199,329.67032967033,4,2,1,26,1,1
144528,296.73590504451,4,2,1,26,1,1
144972,-100,4,2,1,28,0,1
145343,-100,4,2,1,26,0,1
145937,-100,4,2,1,26,0,1
146308,279.06976744186,4,2,1,26,1,1
146587,301.507537688442,4,2,1,26,1,1
147494,282.352941176471,4,2,1,26,1,1
147776,260.869565217391,4,2,1,26,1,1
147906,331.491712707182,4,2,1,26,1,1
148237,355.555555555556,4,2,1,26,1,1
148414,300,4,2,1,28,1,1
148789,-100,4,2,1,26,0,1
149914,285.035629453682,4,2,1,30,1,1
150199,304.955527318933,4,2,1,30,1,1
150503,302.648171500631,4,2,1,26,1,1
150805,267.558528428094,4,2,1,26,1,1
151072,287.081339712919,4,2,1,26,1,1
151359,294.840294840295,4,2,1,28,1,1
151653,320,4,2,1,26,1,1
151973,267.857142857143,4,2,1,26,1,1
152240,295.566502463054,4,2,1,26,1,1
152535,303.413400758534,4,2,1,28,1,1
153141,301.88679245283,4,2,1,26,1,1
153442,317.880794701987,4,2,1,26,1,1
153759,305.343511450382,4,2,1,26,1,1
154369,317.460317460317,4,2,1,26,1,1
154633,-100,4,2,1,20,0,1
154739,-100,4,2,1,26,0,1
155321,333.333333333333,4,2,1,26,1,1
155654,318.725099601594,4,2,1,26,1,1
157247,336.605890603086,4,2,1,26,1,1
157527,-100,4,2,1,19,0,1
157864,-100,4,2,1,14,0,1
158200,-100,4,2,1,35,0,1
158593,304.800609601219,4,2,1,26,1,1
159126,-100,4,2,1,40,0,1
159278,-100,4,2,1,30,0,1
160726,334.261838440111,4,2,1,32,1,1
161060,310.480829015544,4,2,1,28,1,1
162301,306.513409961686,4,2,1,28,1,1
162914,303.79746835443,4,2,1,28,1,1
163141,-100,4,2,1,30,0,1
165040,340.425531914894,4,2,1,30,1,1
165720,327.868852459016,4,2,1,35,1,1
166047,298.879202988792,4,2,1,32,1,1
166345,327.868852459016,4,2,1,28,1,1
166672,340.909090909091,4,2,1,28,1,1
167012,332.409972299169,4,2,1,32,1,1
167344,338.028169014084,4,2,1,32,1,1
167682,352.941176470588,4,2,1,25,1,1
167770,-100,4,2,1,32,0,1
168034,365.853658536585,4,2,1,30,1,1
168399,333.333333333333,4,2,1,30,1,1
168732,309.278350515464,4,2,1,28,1,1
168809,-100,4,2,1,32,0,1
169041,324.324324324324,4,2,1,28,1,1
169365,315.789473684211,4,2,1,28,1,1
169443,-100,4,2,1,32,0,1
169680,312.093628088427,4,2,1,28,1,1
169992,313.31592689295,4,2,1,28,1,1
170618,322.147651006711,4,2,1,28,1,1
171262,346.820809248555,4,2,1,28,1,1
171955,361.44578313253,4,2,1,28,1,1
172316,386.473429951691,4,2,1,26,1,1
172702,406.779661016949,4,2,1,24,1,1
173108,441.663599558336,4,2,1,22,1,1
174874,468.75,4,2,1,14,1,0
175811,461.538461538462,4,2,1,10,1,0
176272,434.782608695652,4,2,1,10,1,0
176706,477.516912057302,4,2,1,15,1,0
178138,471.698113207547,4,2,1,15,1,0
178609,307.692307692308,4,2,1,20,1,0
178609,-133.333333333333,4,2,1,20,0,0
178916,347.826086956522,4,2,1,20,1,0
179263,335.195530726257,4,2,1,20,1,0
179263,-133.333333333333,4,2,1,20,0,0
179598,311.688311688312,4,2,1,20,1,0
179753,-133.333333333333,4,2,1,20,0,0
180065,-133.333333333333,4,2,1,22,0,0
180533,301.507537688442,4,2,1,22,1,0
180533,-133.333333333333,4,2,1,22,0,0
180834,334.728033472803,4,2,1,22,1,0
181168,265.486725663717,4,2,1,24,1,0
181168,-133.333333333333,4,2,1,24,0,0
181433,296.296296296296,4,2,1,22,1,0
182025,323.450134770889,4,2,1,22,1,0
182025,-133.333333333333,4,2,1,22,0,0
182995,360.36036036036,4,2,1,22,1,0
182995,-133.333333333333,4,2,1,22,0,0
183355,389.61038961039,4,2,1,22,1,0
183744,318.894499069891,4,2,1,24,1,0
183744,-133.333333333333,4,2,1,24,0,0
184222,-133.333333333333,4,2,1,22,0,0
184700,293.757649938801,4,2,1,22,1,0
184846,-133.333333333333,4,2,1,20,0,0
185875,311.688311688312,4,2,1,20,1,0
186186,266.963292547275,4,2,1,24,1,0
186186,-133.333333333333,4,2,1,22,0,0
186452,292.682926829268,4,2,1,22,1,0
186744,321.71581769437,4,2,1,20,1,0
187065,316.622691292876,4,2,1,18,1,0
187065,-133.333333333333,4,2,1,18,0,0
187698,339.943342776204,4,2,1,16,1,0
188037,400,4,2,1,14,1,0
188037,-133.333333333333,4,2,1,14,0,0
188437,505.263157894737,4,2,1,12,1,0
188689,-100,4,2,1,5,0,0

[HitObjects]
192,192,1151,5,0,0:0:0:0:
64,192,1190,1,0,0:0:0:0:
320,192,1190,1,0,0:0:0:0:
320,192,1497,1,0,0:0:0:0:
192,192,1829,1,0,0:0:0:0:
64,192,2161,1,0,0:0:0:0:
320,192,2494,1,0,0:0:0:0:
448,192,2494,1,0,0:0:0:0:
320,192,2808,1,0,0:0:0:0:
192,192,3122,1,0,0:0:0:0:
64,192,3436,1,0,0:0:0:0:
448,192,3711,1,0,0:0:0:0:
320,192,3750,1,0,0:0:0:0:
192,192,3750,1,0,0:0:0:0:
64,192,4026,1,0,0:0:0:0:
320,192,4302,1,0,0:0:0:0:
448,192,4302,1,0,0:0:0:0:
192,192,4597,1,0,0:0:0:0:
448,192,4926,1,0,0:0:0:0:
64,192,4926,1,0,0:0:0:0:
192,192,5256,1,0,0:0:0:0:
448,192,5586,1,0,0:0:0:0:
448,192,5939,1,0,0:0:0:0:
320,192,6248,1,0,0:0:0:0:
64,192,6293,1,0,0:0:0:0:
192,192,6293,1,0,0:0:0:0:
448,192,6646,1,0,0:0:0:0:
320,192,6646,1,0,0:0:0:0:
192,192,6969,1,0,0:0:0:0:
448,192,7292,1,0,0:0:0:0:
64,192,7577,1,0,0:0:0:0:
320,192,7577,1,0,0:0:0:0:
192,192,7869,1,0,0:0:0:0:
320,192,8162,1,0,0:0:0:0:
64,192,8455,1,0,0:0:0:0:
320,192,8714,1,0,0:0:0:0:
192,192,8752,1,0,0:0:0:0:
448,192,8752,1,0,0:0:0:0:
64,192,9049,1,0,0:0:0:0:
320,192,9346,1,0,0:0:0:0:
192,192,9643,1,0,0:0:0:0:
448,192,9963,1,0,0:0:0:0:
320,192,10284,1,0,0:0:0:0:
192,192,10626,1,0,0:0:0:0:
64,192,11013,1,0,0:0:0:0:
192,192,11487,1,0,0:0:0:0:
448,192,11530,1,0,0:0:0:0:
320,192,11530,1,0,0:0:0:0:
192,192,11882,1,0,0:0:0:0:
448,192,12235,1,0,0:0:0:0:
64,192,12559,1,0,0:0:0:0:
192,192,12716,1,0,0:0:0:0:
320,192,12873,1,0,0:0:0:0:
448,192,12873,1,0,0:0:0:0:
192,192,13187,1,0,0:0:0:0:
64,192,13501,1,0,0:0:0:0:
320,192,13815,1,0,0:0:0:0:
448,192,14090,1,0,0:0:0:0:
192,192,14129,1,0,0:0:0:0:
320,192,14129,1,0,0:0:0:0:
320,192,14443,1,0,0:0:0:0:
64,192,14757,1,0,0:0:0:0:
192,192,15072,1,0,0:0:0:0:
448,192,15386,1,0,0:0:0:0:
320,192,15727,1,0,0:0:0:0:
192,192,16073,1,0,0:0:0:0:
64,192,16420,1,0,0:0:0:0:
320,192,16736,1,0,0:0:0:0:
192,192,16781,1,0,0:0:0:0:
448,192,16781,1,0,0:0:0:0:
320,192,17105,1,0,0:0:0:0:
192,192,17438,1,0,0:0:0:0:
320,192,17757,1,0,0:0:0:0:
448,192,18041,1,0,0:0:0:0:
64,192,18358,1,0,0:0:0:0:
192,192,18675,1,0,0:0:0:0:
64,192,18993,1,0,0:0:0:0:
192,192,19271,1,0,0:0:0:0:
320,192,19310,1,0,0:0:0:0:
448,192,19310,1,0,0:0:0:0:
192,192,19628,1,0,0:0:0:0:
320,192,19945,1,0,0:0:0:0:
192,192,20263,1,0,0:0:0:0:
448,192,20589,1,0,0:0:0:0:
320,192,20589,1,0,0:0:0:0:
192,192,20916,1,0,0:0:0:0:
320,192,21278,1,0,0:0:0:0:
448,192,21583,1,0,0:0:0:0:
320,192,21626,1,0,0:0:0:0:
192,192,21626,1,0,0:0:0:0:
320,192,21938,1,0,0:0:0:0:
192,192,21983,1,0,0:0:0:0:
64,192,21983,1,0,0:0:0:0:
192,192,22303,1,0,0:0:0:0:
320,192,22464,1,0,0:0:0:0:
448,192,22624,1,0,0:0:0:0:
320,192,22938,1,0,0:0:0:0:
64,192,23248,1,0,0:0:0:0:
320,192,23558,1,0,0:0:0:0:
448,192,23862,1,0,0:0:0:0:
320,192,24167,1,0,0:0:0:0:
192,192,24434,1,0,0:0:0:0:
320,192,24472,1,0,0:0:0:0:
448,192,24472,1,0,0:0:0:0:
192,192,24777,1,0,0:0:0:0:
320,192,24930,1,0,0:0:0:0:
448,192,25082,1,0,0:0:0:0:
320,192,25387,1,0,0:0:0:0:
64,192,25686,1,0,0:0:0:0:
192,192,26070,1,0,0:0:0:0:
64,192,26412,1,0,0:0:0:0:
192,192,26756,1,0,0:0:0:0:
192,192,27058,1,0,0:0:0:0:
64,192,27101,1,0,0:0:0:0:
320,192,27101,1,0,0:0:0:0:
192,192,27441,1,0,0:0:0:0:
64,192,27773,1,0,0:0:0:0:
192,192,28132,1,0,0:0:0:0:
320,192,28451,1,0,0:0:0:0:
448,192,29705,1,0,0:0:0:0:
192,192,29705,1,0,0:0:0:0:
320,192,30030,1,0,0:0:0:0:
192,192,30345,1,0,0:0:0:0:
320,192,30678,1,0,0:0:0:0:
448,192,30986,1,0,0:0:0:0:
320,192,31383,1,0,0:0:0:0:
192,192,31736,1,0,0:0:0:0:
320,192,32089,1,0,0:0:0:0:
448,192,32442,1,0,0:0:0:0:
64,192,32442,1,0,0:0:0:0:
192,192,32769,1,0,0:0:0:0:
64,192,33090,1,0,0:0:0:0:
192,192,33412,1,0,0:0:0:0:
320,192,33729,1,0,0:0:0:0:
448,192,33729,1,0,0:0:0:0:
320,192,34046,1,0,0:0:0:0:
192,192,34364,1,0,0:0:0:0:
64,192,34681,1,0,0:0:0:0:
192,192,34959,1,0,0:0:0:0:
320,192,34999,1,0,0:0:0:0:
448,192,34999,1,0,0:0:0:0:
192,192,35316,1,0,0:0:0:0:
64,192,35636,1,0,0:0:0:0:
64,192,35957,1,0,0:0:0:0:
448,192,36278,1,0,0:0:0:0:
320,192,36278,1,0,0:0:0:0:
320,192,36612,1,0,0:0:0:0:
192,192,36956,1,0,0:0:0:0:
64,192,37301,1,0,0:0:0:0:
192,192,37603,1,0,0:0:0:0:
320,192,37646,1,0,0:0:0:0:
64,192,37646,1,0,0:0:0:0:
192,192,37991,1,0,0:0:0:0:
320,192,38336,1,0,0:0:0:0:
64,192,38639,1,0,0:0:0:0:
192,192,38942,1,0,0:0:0:0:
448,192,38942,1,0,0:0:0:0:
192,192,39261,1,0,0:0:0:0:
448,192,39580,1,0,0:0:0:0:
320,192,39899,1,0,0:0:0:0:
320,192,40178,1,0,0:0:0:0:
192,192,40218,1,0,0:0:0:0:
448,192,40218,1,0,0:0:0:0:
192,192,40537,1,0,0:0:0:0:
320,192,40856,1,0,0:0:0:0:
192,192,41176,1,0,0:0:0:0:
448,192,41502,1,0,0:0:0:0:
64,192,41502,1,0,0:0:0:0:
192,192,41849,1,0,0:0:0:0:
64,192,42197,1,0,0:0:0:0:
192,192,42197,1,0,0:0:0:0:
320,192,42556,1,0,0:0:0:0:
192,192,42556,1,0,0:0:0:0:
320,192,42915,1,0,0:0:0:0:
448,192,42915,1,0,0:0:0:0:
192,192,43242,1,0,0:0:0:0:
320,192,43406,1,0,0:0:0:0:
448,192,43570,1,0,0:0:0:0:
320,192,43889,1,0,0:0:0:0:
192,192,44208,1,0,0:0:0:0:
320,192,44208,1,0,0:0:0:0:
192,192,44518,1,0,0:0:0:0:
448,192,44829,1,0,0:0:0:0:
320,192,45140,1,0,0:0:0:0:
320,192,45451,1,0,0:0:0:0:
448,192,45451,1,0,0:0:0:0:
192,192,45672,1,0,0:0:0:0:
448,192,45894,1,0,0:0:0:0:
320,192,46116,1,0,0:0:0:0:
192,192,46116,1,0,0:0:0:0:
64,192,46338,1,0,0:0:0:0:
320,192,46560,1,0,0:0:0:0:
64,192,46782,128,0,48210:0:0:0:0:
192,192,46782,128,0,48210:0:0:0:0:
320,192,48210,1,0,0:0:0:0:
448,192,48210,1,0,0:0:0:0:
64,192,48540,1,0,0:0:0:0:
320,192,48871,1,0,0:0:0:0:
192,192,49201,1,0,0:0:0:0:
320,192,49490,1,0,0:0:0:0:
192,192,49532,1,0,0:0:0:0:
64,192,49532,1,0,0:0:0:0:
320,192,49862,1,0,0:0:0:0:
64,192,50193,1,0,0:0:0:0:
64,192,50524,1,0,0:0:0:0:
192,192,50814,1,0,0:0:0:0:
320,192,50856,1,0,0:0:0:0:
448,192,50856,1,0,0:0:0:0:
320,192,51188,1,0,0:0:0:0:
192,192,51521,1,0,0:0:0:0:
64,192,51853,1,0,0:0:0:0:
192,192,52205,1,0,0:0:0:0:
64,192,52515,1,0,0:0:0:0:
448,192,52915,1,0,0:0:0:0:
64,192,53348,128,0,54025:0:0:0:0:
192,192,54025,1,0,0:0:0:0:
320,192,54025,1,0,0:0:0:0:
448,192,54025,1,0,0:0:0:0:
192,192,54383,1,0,0:0:0:0:
64,192,54750,1,0,0:0:0:0:
192,192,55066,1,0,0:0:0:0:
448,192,55224,1,0,0:0:0:0:
320,192,55382,1,0,0:0:0:0:
64,192,55382,1,0,0:0:0:0:
64,192,55692,1,0,0:0:0:0:
448,192,55848,1,0,0:0:0:0:
192,192,56003,1,0,0:0:0:0:
64,192,56314,1,0,0:0:0:0:
192,192,56314,1,0,0:0:0:0:
192,192,56629,1,0,0:0:0:0:
64,192,56629,1,0,0:0:0:0:
320,192,56940,1,0,0:0:0:0:
192,192,57252,1,0,0:0:0:0:
64,192,57564,1,0,0:0:0:0:
192,192,57641,1,0,0:0:0:0:
320,192,57719,1,0,0:0:0:0:
448,192,57797,1,0,0:0:0:0:
192,192,57875,1,0,0:0:0:0:
64,192,57875,1,0,0:0:0:0:
192,192,58187,1,0,0:0:0:0:
64,192,58500,1,0,0:0:0:0:
320,192,58828,1,0,0:0:0:0:
64,192,59194,1,0,0:0:0:0:
320,192,59194,1,0,0:0:0:0:
64,192,59534,1,0,0:0:0:0:
192,192,59834,1,0,0:0:0:0:
320,192,59834,1,0,0:0:0:0:
320,192,60149,1,0,0:0:0:0:
192,192,60465,1,0,0:0:0:0:
320,192,60781,1,0,0:0:0:0:
192,192,60935,1,0,0:0:0:0:
64,192,61090,1,0,0:0:0:0:
192,192,61296,1,0,0:0:0:0:
320,192,61502,1,0,0:0:0:0:
448,192,61502,1,0,0:0:0:0:
448,192,61708,1,0,0:0:0:0:
320,192,61708,1,0,0:0:0:0:
64,192,62018,1,0,0:0:0:0:
192,192,62172,1,0,0:0:0:0:
320,192,62172,1,0,0:0:0:0:
320,192,62327,1,0,0:0:0:0:
192,192,62327,1,0,0:0:0:0:
192,192,62636,1,0,0:0:0:0:
64,192,62962,1,0,0:0:0:0:
320,192,63288,1,0,0:0:0:0:
448,192,63288,1,0,0:0:0:0:
192,192,63636,1,0,0:0:0:0:
448,192,63636,1,0,0:0:0:0:
64,192,63992,1,0,0:0:0:0:
320,192,63992,1,0,0:0:0:0:
64,192,64361,1,0,0:0:0:0:
192,192,64361,1,0,0:0:0:0:
192,192,64681,1,0,0:0:0:0:
320,192,64841,1,0,0:0:0:0:
448,192,64841,1,0,0:0:0:0:
64,192,65001,1,0,0:0:0:0:
320,192,65322,1,0,0:0:0:0:
192,192,65631,1,0,0:0:0:0:
448,192,65944,1,0,0:0:0:0:
64,192,65944,1,0,0:0:0:0:
320,192,66257,1,0,0:0:0:0:
64,192,66570,1,0,0:0:0:0:
448,192,66860,1,0,0:0:0:0:
320,192,66901,1,0,0:0:0:0:
192,192,66901,1,0,0:0:0:0:
448,192,67206,1,0,0:0:0:0:
64,192,67359,1,0,0:0:0:0:
320,192,67359,1,0,0:0:0:0:
192,192,67511,1,0,0:0:0:0:
320,192,67828,1,0,0:0:0:0:
64,192,68175,1,0,0:0:0:0:
192,192,68479,1,0,0:0:0:0:
320,192,68805,1,0,0:0:0:0:
64,192,69165,1,0,0:0:0:0:
192,192,69346,1,0,0:0:0:0:
320,192,69526,1,0,0:0:0:0:
192,192,69871,1,0,0:0:0:0:
448,192,70162,1,0,0:0:0:0:
192,192,70462,1,0,0:0:0:0:
64,192,70781,1,0,0:0:0:0:
192,192,71252,1,0,0:0:0:0:
320,192,71724,1,0,0:0:0:0:
448,192,72039,1,0,0:0:0:0:
320,192,72039,1,0,0:0:0:0:
192,192,72353,1,0,0:0:0:0:
320,192,72668,1,0,0:0:0:0:
448,192,72982,1,0,0:0:0:0:
448,192,73140,1,0,0:0:0:0:
448,192,73297,1,0,0:0:0:0:
320,192,73623,1,0,0:0:0:0:
64,192,73787,1,0,0:0:0:0:
192,192,73950,1,0,0:0:0:0:
192,192,74130,1,0,0:0:0:0:
320,192,74311,1,0,0:0:0:0:
320,192,74491,1,0,0:0:0:0:
448,192,74672,1,0,0:0:0:0:
192,192,74994,1,0,0:0:0:0:
192,192,75317,1,0,0:0:0:0:
320,192,75317,1,0,0:0:0:0:
192,192,75639,1,0,0:0:0:0:
320,192,75801,1,0,0:0:0:0:
448,192,75962,1,0,0:0:0:0:
192,192,75962,1,0,0:0:0:0:
64,192,76276,1,0,0:0:0:0:
448,192,76432,1,0,0:0:0:0:
192,192,76432,1,0,0:0:0:0:
320,192,76588,1,0,0:0:0:0:
320,192,76900,1,0,0:0:0:0:
192,192,77180,1,0,0:0:0:0:
64,192,77220,1,0,0:0:0:0:
192,192,77540,1,0,0:0:0:0:
320,192,77860,1,0,0:0:0:0:
448,192,78180,1,0,0:0:0:0:
320,192,78347,1,0,0:0:0:0:
192,192,78515,1,0,0:0:0:0:
320,192,78682,1,0,0:0:0:0:
64,192,78850,1,0,0:0:0:0:
320,192,79017,1,0,0:0:0:0:
192,192,79185,1,0,0:0:0:0:
448,192,79363,1,0,0:0:0:0:
320,192,79541,1,0,0:0:0:0:
448,192,79719,1,0,0:0:0:0:
64,192,79897,1,0,0:0:0:0:
192,192,79897,1,0,0:0:0:0:
64,192,80233,1,0,0:0:0:0:
320,192,80503,1,0,0:0:0:0:
448,192,80542,1,0,0:0:0:0:
64,192,80866,1,0,0:0:0:0:
192,192,81185,1,0,0:0:0:0:
64,192,81500,1,0,0:0:0:0:
192,192,81658,1,0,0:0:0:0:
320,192,81816,1,0,0:0:0:0:
448,192,82132,1,0,0:0:0:0:
64,192,82369,1,0,0:0:0:0:
192,192,82408,1,0,0:0:0:0:
320,192,82448,1,0,0:0:0:0:
192,192,82608,1,0,0:0:0:0:
64,192,82768,1,0,0:0:0:0:
192,192,82928,1,0,0:0:0:0:
448,192,83088,1,0,0:0:0:0:
320,192,83251,1,0,0:0:0:0:
192,192,83414,1,0,0:0:0:0:
64,192,83577,1,0,0:0:0:0:
448,192,83740,1,0,0:0:0:0:
320,192,83740,1,0,0:0:0:0:
192,192,83740,1,0,0:0:0:0:
320,192,83916,1,0,0:0:0:0:
64,192,84092,1,0,0:0:0:0:
192,192,84269,1,0,0:0:0:0:
448,192,84445,1,0,0:0:0:0:
192,192,84623,1,0,0:0:0:0:
320,192,84801,1,0,0:0:0:0:
64,192,84979,1,0,0:0:0:0:
320,192,85158,1,0,0:0:0:0:
448,192,85158,1,0,0:0:0:0:
64,192,85480,1,0,0:0:0:0:
192,192,85799,1,0,0:0:0:0:
320,192,85799,1,0,0:0:0:0:
192,192,86121,1,0,0:0:0:0:
64,192,86443,1,0,0:0:0:0:
192,192,86755,1,0,0:0:0:0:
320,192,86859,1,0,0:0:0:0:
448,192,86963,1,0,0:0:0:0:
64,192,87068,1,0,0:0:0:0:
192,192,87380,1,0,0:0:0:0:
192,192,87697,1,0,0:0:0:0:
64,192,87697,1,0,0:0:0:0:
320,192,87915,1,0,0:0:0:0:
64,192,88134,1,0,0:0:0:0:
192,192,88352,1,0,0:0:0:0:
320,192,88352,1,0,0:0:0:0:
448,192,88571,1,0,0:0:0:0:
192,192,88789,1,0,0:0:0:0:
320,192,89008,128,0,90434:0:0:0:0:
448,192,89008,128,0,90434:0:0:0:0:
192,192,90434,1,0,0:0:0:0:
64,192,90434,1,0,0:0:0:0:
64,192,90770,1,0,0:0:0:0:
192,192,91107,1,0,0:0:0:0:
448,192,91443,1,0,0:0:0:0:
64,192,91765,1,0,0:0:0:0:
320,192,92255,1,0,0:0:0:0:
320,192,92757,1,0,0:0:0:0:
192,192,93050,1,0,0:0:0:0:
64,192,93092,1,0,0:0:0:0:
64,192,93392,1,0,0:0:0:0:
192,192,93733,1,0,0:0:0:0:
64,192,94073,1,0,0:0:0:0:
320,192,94440,1,0,0:0:0:0:
192,192,94804,1,0,0:0:0:0:
320,192,95169,1,0,0:0:0:0:
448,192,95562,1,0,0:0:0:0:
64,192,95562,128,0,96156:0:0:0:0:
320,192,95846,1,0,0:0:0:0:
448,192,96156,1,0,0:0:0:0:
320,192,96324,1,0,0:0:0:0:
192,192,96492,1,0,0:0:0:0:
64,192,96492,1,0,0:0:0:0:
448,192,96646,1,0,0:0:0:0:
320,192,96800,1,0,0:0:0:0:
192,192,96953,1,0,0:0:0:0:
448,192,97107,1,0,0:0:0:0:
64,192,97107,1,0,0:0:0:0:
320,192,97261,1,0,0:0:0:0:
192,192,97415,1,0,0:0:0:0:
64,192,97415,1,0,0:0:0:0:
320,192,97551,1,0,0:0:0:0:
192,192,97688,1,0,0:0:0:0:
64,192,97688,1,0,0:0:0:0:
320,192,97832,1,0,0:0:0:0:
192,192,97976,1,0,0:0:0:0:
64,192,97976,1,0,0:0:0:0:
320,192,98124,1,0,0:0:0:0:
64,192,98273,1,0,0:0:0:0:
192,192,98273,1,0,0:0:0:0:
320,192,98417,1,0,0:0:0:0:
448,192,98562,1,0,0:0:0:0:
192,192,98702,1,0,0:0:0:0:
448,192,98843,1,0,0:0:0:0:
320,192,98843,1,0,0:0:0:0:
64,192,98987,1,0,0:0:0:0:
320,192,99132,1,0,0:0:0:0:
448,192,99132,1,0,0:0:0:0:
192,192,99276,1,0,0:0:0:0:
320,192,99420,1,0,0:0:0:0:
448,192,99420,1,0,0:0:0:0:
64,192,99564,1,0,0:0:0:0:
448,192,99708,1,0,0:0:0:0:
320,192,99708,1,0,0:0:0:0:
192,192,99853,1,0,0:0:0:0:
448,192,99997,1,0,0:0:0:0:
320,192,99997,1,0,0:0:0:0:
64,192,100141,1,0,0:0:0:0:
320,192,100285,1,0,0:0:0:0:
192,192,100285,1,0,0:0:0:0:
448,192,100430,1,0,0:0:0:0:
320,192,100574,1,0,0:0:0:0:
192,192,100574,1,0,0:0:0:0:
64,192,100718,1,0,0:0:0:0:
448,192,100862,1,0,0:0:0:0:
192,192,100862,1,0,0:0:0:0:
320,192,101007,1,0,0:0:0:0:
448,192,101151,1,0,0:0:0:0:
64,192,101295,1,0,0:0:0:0:
320,192,101295,1,0,0:0:0:0:
192,192,101439,1,0,0:0:0:0:
320,192,101583,1,0,0:0:0:0:
448,192,101728,1,0,0:0:0:0:
192,192,101728,1,0,0:0:0:0:
320,192,101872,1,0,0:0:0:0:
448,192,102016,1,0,0:0:0:0:
64,192,102160,1,0,0:0:0:0:
320,192,102160,1,0,0:0:0:0:
192,192,102305,1,0,0:0:0:0:
320,192,102449,1,0,0:0:0:0:
448,192,102593,1,0,0:0:0:0:
192,192,102593,1,0,0:0:0:0:
320,192,102737,1,0,0:0:0:0:
192,192,102882,1,0,0:0:0:0:
320,192,103026,1,0,0:0:0:0:
448,192,103026,1,0,0:0:0:0:
192,192,103170,1,0,0:0:0:0:
64,192,103314,1,0,0:0:0:0:
320,192,103458,1,0,0:0:0:0:
448,192,103458,1,0,0:0:0:0:
192,192,103458,1,0,0:0:0:0:
64,192,103603,1,0,0:0:0:0:
192,192,103747,1,0,0:0:0:0:
320,192,103891,1,0,0:0:0:0:
448,192,103891,1,0,0:0:0:0:
64,192,103891,1,0,0:0:0:0:
192,192,104035,1,0,0:0:0:0:
64,192,104180,1,0,0:0:0:0:
320,192,104324,1,0,0:0:0:0:
192,192,104324,1,0,0:0:0:0:
448,192,104324,1,0,0:0:0:0:
64,192,104617,1,0,0:0:0:0:
320,192,104764,1,0,0:0:0:0:
192,192,104910,1,0,0:0:0:0:
448,192,105057,1,0,0:0:0:0:
192,192,105204,1,0,0:0:0:0:
320,192,105350,1,0,0:0:0:0:
64,192,105497,1,0,0:0:0:0:
192,192,105640,1,0,0:0:0:0:
448,192,105783,1,0,0:0:0:0:
192,192,105927,1,0,0:0:0:0:
64,192,106070,1,0,0:0:0:0:
192,192,106213,1,0,0:0:0:0:
448,192,106357,1,0,0:0:0:0:
320,192,106500,1,0,0:0:0:0:
192,192,106643,1,0,0:0:0:0:
320,192,106787,1,0,0:0:0:0:
192,192,106930,1,0,0:0:0:0:
64,192,106930,1,0,0:0:0:0:
448,192,107074,1,0,0:0:0:0:
192,192,107217,1,0,0:0:0:0:
320,192,107217,1,0,0:0:0:0:
64,192,107360,1,0,0:0:0:0:
320,192,107504,1,0,0:0:0:0:
448,192,107504,1,0,0:0:0:0:
192,192,107647,1,0,0:0:0:0:
64,192,107790,1,0,0:0:0:0:
448,192,107790,1,0,0:0:0:0:
320,192,107790,1,0,0:0:0:0:
448,192,108077,1,0,0:0:0:0:
320,192,108223,1,0,0:0:0:0:
64,192,108369,1,0,0:0:0:0:
192,192,108514,1,0,0:0:0:0:
320,192,108660,1,0,0:0:0:0:
64,192,108805,1,0,0:0:0:0:
320,192,108951,1,0,0:0:0:0:
192,192,109097,1,0,0:0:0:0:
320,192,109242,1,0,0:0:0:0:
64,192,109388,1,0,0:0:0:0:
320,192,109534,1,0,0:0:0:0:
448,192,109679,1,0,0:0:0:0:
192,192,109825,1,0,0:0:0:0:
64,192,109968,1,0,0:0:0:0:
192,192,110111,1,0,0:0:0:0:
320,192,110111,1,0,0:0:0:0:
192,192,110397,1,0,0:0:0:0:
64,192,110540,1,0,0:0:0:0:
320,192,110684,1,0,0:0:0:0:
192,192,110830,1,0,0:0:0:0:
64,192,110976,1,0,0:0:0:0:
320,192,111119,1,0,0:0:0:0:
192,192,111263,1,0,0:0:0:0:
320,192,111408,1,0,0:0:0:0:
192,192,111554,1,0,0:0:0:0:
320,192,111699,1,0,0:0:0:0:
192,192,111844,1,0,0:0:0:0:
64,192,111844,1,0,0:0:0:0:
448,192,111997,1,0,0:0:0:0:
320,192,112169,1,0,0:0:0:0:
448,192,112169,1,0,0:0:0:0:
64,192,112329,1,0,0:0:0:0:
192,192,112489,1,0,0:0:0:0:
64,192,112489,1,0,0:0:0:0:
320,192,112489,1,0,0:0:0:0:
64,192,112786,1,0,0:0:0:0:
320,192,112935,1,0,0:0:0:0:
448,192,113083,1,0,0:0:0:0:
64,192,113232,1,0,0:0:0:0:
320,192,113381,1,0,0:0:0:0:
448,192,113381,1,0,0:0:0:0:
192,192,113381,1,0,0:0:0:0:
192,192,113702,1,0,0:0:0:0:
448,192,114024,1,0,0:0:0:0:
320,192,114024,1,0,0:0:0:0:
192,192,114351,1,0,0:0:0:0:
192,192,114678,1,0,0:0:0:0:
320,192,114838,1,0,0:0:0:0:
192,192,114998,1,0,0:0:0:0:
64,192,114998,1,0,0:0:0:0:
448,192,115141,1,0,0:0:0:0:
192,192,115285,1,0,0:0:0:0:
64,192,115427,1,0,0:0:0:0:
320,192,115569,1,0,0:0:0:0:
64,192,115711,1,0,0:0:0:0:
448,192,115853,1,0,0:0:0:0:
192,192,115995,1,0,0:0:0:0:
448,192,116138,1,0,0:0:0:0:
64,192,116280,1,0,0:0:0:0:
320,192,116422,1,0,0:0:0:0:
192,192,116422,1,0,0:0:0:0:
64,192,116564,1,0,0:0:0:0:
320,192,116706,1,0,0:0:0:0:
192,192,116706,1,0,0:0:0:0:
448,192,116848,1,0,0:0:0:0:
320,192,116991,1,0,0:0:0:0:
192,192,116991,1,0,0:0:0:0:
448,192,117133,1,0,0:0:0:0:
192,192,117275,1,0,0:0:0:0:
64,192,117275,1,0,0:0:0:0:
320,192,117417,1,0,0:0:0:0:
448,192,117559,1,0,0:0:0:0:
64,192,117559,1,0,0:0:0:0:
192,192,117702,1,0,0:0:0:0:
320,192,117844,1,0,0:0:0:0:
64,192,117844,1,0,0:0:0:0:
448,192,117986,1,0,0:0:0:0:
192,192,118128,1,0,0:0:0:0:
64,192,118128,1,0,0:0:0:0:
320,192,118270,1,0,0:0:0:0:
448,192,118412,1,0,0:0:0:0:
64,192,118412,1,0,0:0:0:0:
192,192,118555,1,0,0:0:0:0:
320,192,118697,1,0,0:0:0:0:
64,192,118697,1,0,0:0:0:0:
448,192,118839,1,0,0:0:0:0:
192,192,118981,1,0,0:0:0:0:
64,192,118981,1,0,0:0:0:0:
320,192,119123,1,0,0:0:0:0:
448,192,119266,1,0,0:0:0:0:
192,192,119408,1,0,0:0:0:0:
448,192,119550,1,0,0:0:0:0:
320,192,119550,1,0,0:0:0:0:
64,192,119692,1,0,0:0:0:0:
320,192,119834,1,0,0:0:0:0:
448,192,119834,1,0,0:0:0:0:
192,192,119976,1,0,0:0:0:0:
320,192,120119,1,0,0:0:0:0:
448,192,120119,1,0,0:0:0:0:
192,192,120261,1,0,0:0:0:0:
320,192,120403,1,0,0:0:0:0:
448,192,120403,1,0,0:0:0:0:
192,192,120551,1,0,0:0:0:0:
320,192,120700,1,0,0:0:0:0:
448,192,120849,1,0,0:0:0:0:
320,192,120997,1,0,0:0:0:0:
192,192,120997,1,0,0:0:0:0:
64,192,121146,1,0,0:0:0:0:
320,192,121295,1,0,0:0:0:0:
192,192,121295,1,0,0:0:0:0:
448,192,121452,1,0,0:0:0:0:
320,192,121609,1,0,0:0:0:0:
192,192,121609,1,0,0:0:0:0:
64,192,121771,1,0,0:0:0:0:
192,192,121933,1,0,0:0:0:0:
320,192,122082,1,0,0:0:0:0:
64,192,122232,1,0,0:0:0:0:
192,192,122232,1,0,0:0:0:0:
448,192,122394,1,0,0:0:0:0:
192,192,122556,1,0,0:0:0:0:
64,192,122556,1,0,0:0:0:0:
320,192,122715,1,0,0:0:0:0:
192,192,122874,1,0,0:0:0:0:
64,192,122874,1,0,0:0:0:0:
320,192,123023,1,0,0:0:0:0:
448,192,123173,1,0,0:0:0:0:
192,192,123321,1,0,0:0:0:0:
448,192,123470,1,0,0:0:0:0:
320,192,123470,1,0,0:0:0:0:
64,192,123618,1,0,0:0:0:0:
448,192,123767,1,0,0:0:0:0:
320,192,123767,1,0,0:0:0:0:
192,192,123908,1,0,0:0:0:0:
448,192,124050,1,0,0:0:0:0:
320,192,124050,1,0,0:0:0:0:
192,192,124192,1,0,0:0:0:0:
448,192,124334,1,0,0:0:0:0:
320,192,124472,1,0,0:0:0:0:
192,192,124611,1,0,0:0:0:0:
64,192,124611,1,0,0:0:0:0:
448,192,124750,1,0,0:0:0:0:
192,192,124889,1,0,0:0:0:0:
64,192,124889,1,0,0:0:0:0:
320,192,125028,1,0,0:0:0:0:
192,192,125167,1,0,0:0:0:0:
64,192,125167,1,0,0:0:0:0:
448,192,125312,1,0,0:0:0:0:
320,192,125458,1,0,0:0:0:0:
192,192,125458,1,0,0:0:0:0:
64,192,125598,1,0,0:0:0:0:
192,192,125738,1,0,0:0:0:0:
448,192,125738,1,0,0:0:0:0:
320,192,125878,1,0,0:0:0:0:
192,192,126018,1,0,0:0:0:0:
64,192,126018,1,0,0:0:0:0:
320,192,126158,1,0,0:0:0:0:
192,192,126299,1,0,0:0:0:0:
448,192,126299,1,0,0:0:0:0:
320,192,126439,1,0,0:0:0:0:
64,192,126579,1,0,0:0:0:0:
192,192,126717,1,0,0:0:0:0:
448,192,126856,1,0,0:0:0:0:
64,192,126856,1,0,0:0:0:0:
192,192,126995,1,0,0:0:0:0:
320,192,127134,1,0,0:0:0:0:
448,192,127278,1,0,0:0:0:0:
192,192,127422,1,0,0:0:0:0:
64,192,127422,1,0,0:0:0:0:
320,192,127567,1,0,0:0:0:0:
448,192,127712,1,0,0:0:0:0:
64,192,127712,1,0,0:0:0:0:
192,192,127863,1,0,0:0:0:0:
320,192,128014,1,0,0:0:0:0:
448,192,128173,1,0,0:0:0:0:
64,192,128173,1,0,0:0:0:0:
320,192,128333,1,0,0:0:0:0:
192,192,128491,1,0,0:0:0:0:
64,192,128650,1,0,0:0:0:0:
448,192,128650,1,0,0:0:0:0:
320,192,128813,1,0,0:0:0:0:
64,192,128976,1,0,0:0:0:0:
320,192,129127,1,0,0:0:0:0:
192,192,129278,1,0,0:0:0:0:
320,192,129422,1,0,0:0:0:0:
448,192,129422,1,0,0:0:0:0:
192,192,129566,1,0,0:0:0:0:
64,192,129701,1,0,0:0:0:0:
448,192,129837,1,0,0:0:0:0:
320,192,129837,1,0,0:0:0:0:
192,192,129980,1,0,0:0:0:0:
64,192,129980,1,0,0:0:0:0:
448,192,130124,1,0,0:0:0:0:
320,192,130124,1,0,0:0:0:0:
192,192,130268,1,0,0:0:0:0:
320,192,130411,1,0,0:0:0:0:
64,192,130411,1,0,0:0:0:0:
448,192,130557,1,0,0:0:0:0:
192,192,130557,1,0,0:0:0:0:
320,192,130703,1,0,0:0:0:0:
64,192,130856,1,0,0:0:0:0:
192,192,131010,1,0,0:0:0:0:
320,192,131176,1,0,0:0:0:0:
448,192,131343,1,0,0:0:0:0:
320,192,131343,1,0,0:0:0:0:
192,192,131506,1,0,0:0:0:0:
320,192,131670,1,0,0:0:0:0:
448,192,131826,1,0,0:0:0:0:
320,192,131826,1,0,0:0:0:0:
192,192,131983,1,0,0:0:0:0:
320,192,132127,1,0,0:0:0:0:
320,192,132272,1,0,0:0:0:0:
192,192,132272,1,0,0:0:0:0:
64,192,132417,1,0,0:0:0:0:
192,192,132562,1,0,0:0:0:0:
64,192,132704,1,0,0:0:0:0:
192,192,132847,1,0,0:0:0:0:
64,192,132990,1,0,0:0:0:0:
192,192,133133,1,0,0:0:0:0:
320,192,133276,1,0,0:0:0:0:
192,192,133419,1,0,0:0:0:0:
320,192,133573,1,0,0:0:0:0:
448,192,133742,1,0,0:0:0:0:
192,192,133742,1,0,0:0:0:0:
64,192,133742,1,0,0:0:0:0:
320,192,134665,1,0,0:0:0:0:
192,192,134767,1,0,0:0:0:0:
320,192,134870,1,0,0:0:0:0:
64,192,134972,1,0,0:0:0:0:
448,192,134972,1,0,0:0:0:0:
192,192,134972,1,0,0:0:0:0:
64,192,136184,1,0,0:0:0:0:
448,192,137664,1,0,0:0:0:0:
192,192,137664,1,0,0:0:0:0:
64,192,137817,1,0,0:0:0:0:
320,192,137971,1,0,0:0:0:0:
192,192,138120,1,0,0:0:0:0:
64,192,138269,1,0,0:0:0:0:
320,192,138426,1,0,0:0:0:0:
192,192,138584,1,0,0:0:0:0:
64,192,138584,1,0,0:0:0:0:
448,192,138747,1,0,0:0:0:0:
192,192,138911,1,0,0:0:0:0:
320,192,139075,1,0,0:0:0:0:
192,192,139238,1,0,0:0:0:0:
448,192,139238,1,0,0:0:0:0:
320,192,139402,1,0,0:0:0:0:
64,192,139566,1,0,0:0:0:0:
448,192,139724,1,0,0:0:0:0:
64,192,139882,1,0,0:0:0:0:
320,192,139882,1,0,0:0:0:0:
192,192,140195,1,0,0:0:0:0:
448,192,140195,1,0,0:0:0:0:
64,192,140348,1,0,0:0:0:0:
448,192,140501,1,0,0:0:0:0:
320,192,140654,1,0,0:0:0:0:
192,192,140807,1,0,0:0:0:0:
64,192,140956,1,0,0:0:0:0:
192,192,141136,1,0,0:0:0:0:
320,192,141136,1,0,0:0:0:0:
64,192,141274,1,0,0:0:0:0:
192,192,141413,1,0,0:0:0:0:
320,192,141555,1,0,0:0:0:0:
192,192,141698,1,0,0:0:0:0:
320,192,141841,1,0,0:0:0:0:
448,192,141984,1,0,0:0:0:0:
192,192,142127,1,0,0:0:0:0:
64,192,142270,1,0,0:0:0:0:
320,192,142270,1,0,0:0:0:0:
448,192,142555,1,0,0:0:0:0:
192,192,142555,1,0,0:0:0:0:
320,192,142712,1,0,0:0:0:0:
64,192,142865,1,0,0:0:0:0:
64,192,143019,1,0,0:0:0:0:
320,192,143190,1,0,0:0:0:0:
320,192,143361,1,0,0:0:0:0:
64,192,143533,1,0,0:0:0:0:
192,192,143533,1,0,0:0:0:0:
320,192,143699,1,0,0:0:0:0:
64,192,143866,1,0,0:0:0:0:
192,192,144033,1,0,0:0:0:0:
448,192,144199,1,0,0:0:0:0:
320,192,144199,1,0,0:0:0:0:
192,192,144363,1,0,0:0:0:0:
448,192,144528,1,0,0:0:0:0:
64,192,144676,1,0,0:0:0:0:
192,192,144824,1,0,0:0:0:0:
448,192,144824,1,0,0:0:0:0:
320,192,145121,1,0,0:0:0:0:
448,192,145121,1,0,0:0:0:0:
192,192,145418,1,0,0:0:0:0:
320,192,145566,1,0,0:0:0:0:
64,192,145714,1,0,0:0:0:0:
448,192,145863,1,0,0:0:0:0:
320,192,146011,1,0,0:0:0:0:
64,192,146011,1,0,0:0:0:0:
192,192,146160,1,0,0:0:0:0:
320,192,146308,1,0,0:0:0:0:
448,192,146447,1,0,0:0:0:0:
192,192,146587,1,0,0:0:0:0:
320,192,146587,1,0,0:0:0:0:
448,192,146737,1,0,0:0:0:0:
192,192,146888,1,0,0:0:0:0:
320,192,147039,1,0,0:0:0:0:
448,192,147190,1,0,0:0:0:0:
192,192,147190,1,0,0:0:0:0:
320,192,147491,1,0,0:0:0:0:
64,192,147494,1,0,0:0:0:0:
192,192,147635,1,0,0:0:0:0:
320,192,147776,1,0,0:0:0:0:
448,192,147906,1,0,0:0:0:0:
320,192,148071,1,0,0:0:0:0:
192,192,148237,1,0,0:0:0:0:
64,192,148414,1,0,0:0:0:0:
320,192,148414,1,0,0:0:0:0:
192,192,148564,1,0,0:0:0:0:
448,192,148714,1,0,0:0:0:0:
320,192,148864,1,0,0:0:0:0:
64,192,149014,1,0,0:0:0:0:
192,192,149014,1,0,0:0:0:0:
320,192,149164,1,0,0:0:0:0:
64,192,149314,1,0,0:0:0:0:
448,192,149464,1,0,0:0:0:0:
64,192,149614,1,0,0:0:0:0:
320,192,149614,1,0,0:0:0:0:
192,192,149914,1,0,0:0:0:0:
64,192,150056,1,0,0:0:0:0:
320,192,150199,1,0,0:0:0:0:
448,192,150199,1,0,0:0:0:0:
64,192,150351,1,0,0:0:0:0:
192,192,150351,1,0,0:0:0:0:
448,192,150503,1,0,0:0:0:0:
320,192,150503,1,0,0:0:0:0:
192,192,150654,1,0,0:0:0:0:
64,192,150805,1,0,0:0:0:0:
192,192,150938,1,0,0:0:0:0:
320,192,151072,1,0,0:0:0:0:
64,192,151072,1,0,0:0:0:0:
320,192,151215,1,0,0:0:0:0:
192,192,151359,1,0,0:0:0:0:
448,192,151359,1,0,0:0:0:0:
64,192,151359,1,0,0:0:0:0:
192,192,151506,1,0,0:0:0:0:
320,192,151653,1,0,0:0:0:0:
64,192,151653,1,0,0:0:0:0:
320,192,151813,1,0,0:0:0:0:
64,192,151973,1,0,0:0:0:0:
448,192,151973,1,0,0:0:0:0:
64,192,152106,1,0,0:0:0:0:
320,192,152240,1,0,0:0:0:0:
192,192,152240,1,0,0:0:0:0:
320,192,152387,1,0,0:0:0:0:
448,192,152535,1,0,0:0:0:0:
192,192,152535,1,0,0:0:0:0:
64,192,152535,1,0,0:0:0:0:
448,192,152686,1,0,0:0:0:0:
192,192,152838,1,0,0:0:0:0:
192,192,152990,1,0,0:0:0:0:
320,192,153141,1,0,0:0:0:0:
448,192,153241,1,0,0:0:0:0:
320,192,153342,1,0,0:0:0:0:
192,192,153442,1,0,0:0:0:0:
64,192,153547,1,0,0:0:0:0:
192,192,153653,1,0,0:0:0:0:
320,192,153759,1,0,0:0:0:0:
192,192,153860,1,0,0:0:0:0:
64,192,153962,1,0,0:0:0:0:
192,192,154064,1,0,0:0:0:0:
320,192,154166,1,0,0:0:0:0:
448,192,154267,1,0,0:0:0:0:
192,192,154369,1,0,0:0:0:0:
448,192,154474,1,0,0:0:0:0:
320,192,154580,1,0,0:0:0:0:
448,192,154686,1,0,0:0:0:0:
192,192,154792,1,0,0:0:0:0:
448,192,154898,1,0,0:0:0:0:
320,192,155003,1,0,0:0:0:0:
192,192,155109,1,0,0:0:0:0:
448,192,155215,1,0,0:0:0:0:
320,192,155321,1,0,0:0:0:0:
192,192,155432,1,0,0:0:0:0:
320,192,155543,1,0,0:0:0:0:
192,192,155654,1,0,0:0:0:0:
64,192,155654,1,0,0:0:0:0:
320,192,155760,1,0,0:0:0:0:
448,192,155866,1,0,0:0:0:0:
320,192,155972,1,0,0:0:0:0:
192,192,156078,1,0,0:0:0:0:
64,192,156185,1,0,0:0:0:0:
320,192,156291,1,0,0:0:0:0:
448,192,156397,1,0,0:0:0:0:
192,192,156503,1,0,0:0:0:0:
320,192,156610,1,0,0:0:0:0:
192,192,156716,1,0,0:0:0:0:
448,192,156822,1,0,0:0:0:0:
192,192,156928,1,0,0:0:0:0:
448,192,157035,1,0,0:0:0:0:
320,192,157141,1,0,0:0:0:0:
448,192,157247,1,0,0:0:0:0:
192,192,157359,1,0,0:0:0:0:
448,192,157471,1,0,0:0:0:0:
64,192,157583,1,0,0:0:0:0:
448,192,157695,1,0,0:0:0:0:
192,192,157808,1,0,0:0:0:0:
448,192,157920,1,0,0:0:0:0:
64,192,158032,1,0,0:0:0:0:
320,192,158144,1,0,0:0:0:0:
192,192,158256,1,0,0:0:0:0:
64,192,158256,1,0,0:0:0:0:
320,192,158425,1,0,0:0:0:0:
192,192,158593,1,0,0:0:0:0:
448,192,158745,1,0,0:0:0:0:
320,192,158897,1,0,0:0:0:0:
192,192,159050,1,0,0:0:0:0:
448,192,159202,1,0,0:0:0:0:
64,192,159202,1,0,0:0:0:0:
320,192,159355,1,0,0:0:0:0:
192,192,159355,1,0,0:0:0:0:
448,192,159507,1,0,0:0:0:0:
64,192,159507,1,0,0:0:0:0:
192,192,159659,1,0,0:0:0:0:
320,192,159812,1,0,0:0:0:0:
64,192,159964,1,0,0:0:0:0:
448,192,159964,1,0,0:0:0:0:
320,192,160117,1,0,0:0:0:0:
192,192,160269,1,0,0:0:0:0:
64,192,160421,1,0,0:0:0:0:
448,192,160421,1,0,0:0:0:0:
192,192,160574,1,0,0:0:0:0:
320,192,160574,1,0,0:0:0:0:
448,192,160726,1,0,0:0:0:0:
64,192,160726,1,0,0:0:0:0:
320,192,160893,1,0,0:0:0:0:
192,192,161060,1,0,0:0:0:0:
320,192,161215,1,0,0:0:0:0:
64,192,161370,1,0,0:0:0:0:
320,192,161525,1,0,0:0:0:0:
64,192,161680,1,0,0:0:0:0:
192,192,161758,1,0,0:0:0:0:
320,192,161836,1,0,0:0:0:0:
448,192,161913,1,0,0:0:0:0:
64,192,161991,1,0,0:0:0:0:
192,192,161991,1,0,0:0:0:0:
320,192,162146,1,0,0:0:0:0:
64,192,162301,1,0,0:0:0:0:
192,192,162454,1,0,0:0:0:0:
64,192,162607,1,0,0:0:0:0:
320,192,162607,1,0,0:0:0:0:
448,192,162760,1,0,0:0:0:0:
320,192,162914,1,0,0:0:0:0:
64,192,163065,1,0,0:0:0:0:
64,192,163217,1,0,0:0:0:0:
192,192,163217,1,0,0:0:0:0:
448,192,163369,1,0,0:0:0:0:
64,192,163521,1,0,0:0:0:0:
448,192,163673,1,0,0:0:0:0:
192,192,163673,1,0,0:0:0:0:
192,192,163825,1,0,0:0:0:0:
448,192,163825,1,0,0:0:0:0:
320,192,163977,1,0,0:0:0:0:
64,192,164129,1,0,0:0:0:0:
192,192,164281,1,0,0:0:0:0:
448,192,164432,1,0,0:0:0:0:
320,192,164584,1,0,0:0:0:0:
64,192,164736,1,0,0:0:0:0:
192,192,164736,1,0,0:0:0:0:
320,192,164888,1,0,0:0:0:0:
448,192,164888,1,0,0:0:0:0:
192,192,165040,1,0,0:0:0:0:
64,192,165040,1,0,0:0:0:0:
64,192,165266,1,0,0:0:0:0:
320,192,165266,1,0,0:0:0:0:
192,192,165493,1,0,0:0:0:0:
448,192,165493,1,0,0:0:0:0:
320,192,165720,1,0,0:0:0:0:
448,192,165720,1,0,0:0:0:0:
192,192,165883,1,0,0:0:0:0:
320,192,166047,1,0,0:0:0:0:
64,192,166196,1,0,0:0:0:0:
448,192,166345,1,0,0:0:0:0:
320,192,166508,1,0,0:0:0:0:
64,192,166672,1,0,0:0:0:0:
320,192,166842,1,0,0:0:0:0:
448,192,167012,1,0,0:0:0:0:
320,192,167122,1,0,0:0:0:0:
192,192,167233,1,0,0:0:0:0:
448,192,167344,1,0,0:0:0:0:
320,192,167456,1,0,0:0:0:0:
192,192,167569,1,0,0:0:0:0:
64,192,167682,1,0,0:0:0:0:
192,192,167799,1,0,0:0:0:0:
320,192,167917,1,0,0:0:0:0:
64,192,168034,1,0,0:0:0:0:
192,192,168155,1,0,0:0:0:0:
320,192,168277,1,0,0:0:0:0:
448,192,168399,1,0,0:0:0:0:
192,192,168399,1,0,0:0:0:0:
320,192,168565,1,0,0:0:0:0:
64,192,168732,1,0,0:0:0:0:
192,192,168886,1,0,0:0:0:0:
448,192,168886,1,0,0:0:0:0:
192,192,169041,1,0,0:0:0:0:
448,192,169041,1,0,0:0:0:0:
320,192,169203,1,0,0:0:0:0:
192,192,169365,1,0,0:0:0:0:
64,192,169522,1,0,0:0:0:0:
320,192,169522,1,0,0:0:0:0:
448,192,169680,1,0,0:0:0:0:
320,192,169836,1,0,0:0:0:0:
192,192,169992,1,0,0:0:0:0:
64,192,170148,1,0,0:0:0:0:
192,192,170305,1,0,0:0:0:0:
320,192,170461,1,0,0:0:0:0:
192,192,170618,1,0,0:0:0:0:
64,192,170779,1,0,0:0:0:0:
320,192,170940,1,0,0:0:0:0:
192,192,170940,1,0,0:0:0:0:
64,192,171101,1,0,0:0:0:0:
448,192,171262,1,0,0:0:0:0:
64,192,171435,1,0,0:0:0:0:
192,192,171608,1,0,0:0:0:0:
320,192,171608,1,0,0:0:0:0:
448,192,171782,1,0,0:0:0:0:
64,192,171955,1,0,0:0:0:0:
448,192,172135,1,0,0:0:0:0:
320,192,172316,1,0,0:0:0:0:
192,192,172316,1,0,0:0:0:0:
64,192,172509,1,0,0:0:0:0:
192,192,172702,1,0,0:0:0:0:
320,192,172905,1,0,0:0:0:0:
448,192,173108,128,0,174653:0:0:0:0:
192,192,174837,1,0,0:0:0:0:
64,192,174874,1,0,0:0:0:0:
320,192,174874,1,0,0:0:0:0:
320,192,176706,1,0,0:0:0:0:
448,192,176706,1,0,0:0:0:0:
192,192,178570,1,0,0:0:0:0:
320,192,178609,1,0,0:0:0:0:
64,192,178609,1,0,0:0:0:0:
320,192,178916,1,0,0:0:0:0:
192,192,179263,1,0,0:0:0:0:
64,192,179598,1,0,0:0:0:0:
320,192,179909,1,0,0:0:0:0:
448,192,179909,1,0,0:0:0:0:
320,192,180221,1,0,0:0:0:0:
192,192,180533,1,0,0:0:0:0:
64,192,180834,1,0,0:0:0:0:
192,192,181126,1,0,0:0:0:0:
320,192,181168,1,0,0:0:0:0:
448,192,181168,1,0,0:0:0:0:
192,192,181433,1,0,0:0:0:0:
320,192,181729,1,0,0:0:0:0:
64,192,181729,1,0,0:0:0:0:
192,192,182025,1,0,0:0:0:0:
448,192,182348,1,0,0:0:0:0:
192,192,182348,1,0,0:0:0:0:
64,192,182671,1,0,0:0:0:0:
192,192,182995,1,0,0:0:0:0:
320,192,182995,1,0,0:0:0:0:
64,192,183355,1,0,0:0:0:0:
320,192,183695,1,0,0:0:0:0:
448,192,183744,1,0,0:0:0:0:
192,192,183744,1,0,0:0:0:0:
320,192,184062,1,0,0:0:0:0:
448,192,184381,1,0,0:0:0:0:
192,192,184700,1,0,0:0:0:0:
320,192,184993,1,0,0:0:0:0:
64,192,184993,1,0,0:0:0:0:
192,192,185287,1,0,0:0:0:0:
64,192,185581,1,0,0:0:0:0:
192,192,185875,1,0,0:0:0:0:
192,192,186147,1,0,0:0:0:0:
64,192,186186,1,0,0:0:0:0:
320,192,186186,1,0,0:0:0:0:
320,192,186452,1,0,0:0:0:0:
192,192,186744,1,0,0:0:0:0:
192,192,187065,1,0,0:0:0:0:
448,192,187381,1,0,0:0:0:0:
192,192,187698,1,0,0:0:0:0:
320,192,188037,1,0,0:0:0:0:
320,192,188437,1,0,0:0:0:0:
64,192,190458,128,0,195763:0:0:0:0:
