osu file format v14

[General]
AudioFilename: audio.mp3
AudioLeadIn: 0
PreviewTime: 80724
Countdown: 0
SampleSet: Soft
StackLeniency: 0.8
Mode: 0
LetterboxInBreaks: 0
WidescreenStoryboard: 1

[Editor]
Bookmarks: 17724,32724,56724,68724,74724,79224,94224,110724,122724,137920
DistanceSpacing: 0.9
BeatDivisor: 4
GridSize: 32
TimelineZoom: 3.099999

[Metadata]
Title:Piano Kyousoukyoku Ni-ban "Nageki no Mai"
TitleUnicode:ピアノ協奏曲二番 '嘆きの舞'
Artist:MiddleIsland
ArtistUnicode:MiddleIsland
Creator:kisata
Version:Normal
Source:
Tags:apaffy pandahero concerto number no.2 2-ban mourning dance 現実否定 genjitsu hitei reality denial instrumental classical
BeatmapID:3232860
BeatmapSetID:1520799

[Difficulty]
HPDrainRate:3
CircleSize:3.5
OverallDifficulty:4
ApproachRate:5
SliderMultiplier:1
SliderTickRate:1

[Events]
//Background and Video events
0,0,"wallpaper-280120.jpg",0,0
//Break Periods
//Storyboard Layer 0 (Background)
//Storyboard Layer 1 (Fail)
//Storyboard Layer 2 (Pass)
//Storyboard Layer 3 (Foreground)
//Storyboard Layer 4 (Overlay)
//Storyboard Sound Samples

[TimingPoints]
1224,375,4,2,1,15,1,0
4974,-100,4,2,1,10,0,0
5724,-100,4,2,1,15,0,0
15849,-100,4,2,1,25,0,0
16224,-100,4,2,1,45,0,0
17349,-100,4,2,1,55,0,0
17724,-100,4,2,1,65,0,0
23724,-100,4,2,1,70,0,0
27942,-100,4,2,1,5,0,0
28036,-100,4,2,1,70,0,0
28130,-100,4,2,1,5,0,0
28224,-100,4,2,1,70,0,0
29724,-100,4,2,1,60,0,0
29817,-100,4,2,1,50,0,0
30849,-100,4,2,1,40,0,0
31224,-100,4,2,1,5,0,0
31599,-100,4,2,1,30,0,0
32724,-100,4,2,1,25,0,0
37505,-100,4,2,1,5,0,0
37599,-100,4,2,1,25,0,0
40036,-100,4,2,1,30,0,0
40224,-100,4,2,1,35,0,0
40505,-100,4,2,1,5,0,0
40599,-100,4,2,1,35,0,0
41724,-100,4,2,1,40,0,0
43224,-100,4,2,1,50,0,0
43692,-100,4,2,1,5,0,0
43786,-100,4,2,1,50,0,0
44724,-100,4,2,1,65,0,0
48005,-100,4,2,1,5,0,0
48099,-100,4,2,1,65,0,0
48380,-100,4,2,1,5,0,0
48474,-100,4,2,1,65,0,0
56724,-100,4,2,1,70,0,0
79224,-100,4,2,1,55,0,0
80724,-100,4,2,1,5,0,0
81005,-100,4,2,1,40,0,0
81380,-100,4,2,1,5,0,0
81474,-100,4,2,1,55,0,0
81849,-100,4,2,1,65,0,0
82224,-100,4,2,1,75,0,0
94224,-100,4,2,1,80,0,0
97880,-100,4,2,1,5,0,0
97974,-100,4,2,1,80,0,0
105599,-100,4,1,1,60,0,0
105661,-100,4,1,1,25,0,0
109224,-100,4,2,1,5,0,0
110349,-100,4,1,1,25,0,0
110724,-100,4,2,1,15,0,0
118849,-100,4,2,1,5,0,0
118911,-100,4,2,1,15,0,0
119724,-100,4,2,1,20,0,0
120849,-100,4,2,1,35,0,0
121599,-100,4,2,1,15,0,0
121786,-100,4,2,1,25,0,0
122724,-100,4,2,1,20,0,0
124224,387.096774193548,4,2,1,20,1,0
124998,393.44262295082,4,2,1,20,1,8
125784,400,4,2,1,20,1,0
126584,406.779661016949,4,2,1,20,1,8
127397,428.571428571429,4,2,1,20,1,0
128254,495.867768595041,4,2,1,20,1,8
129245,512.820512820513,4,2,1,15,1,0
130270,535.714285714286,4,2,1,15,1,8
130805,697.674418604651,4,2,1,15,1,8
131502,606.060606060606,4,2,1,15,1,0
132714,625,4,2,1,15,1,8
133339,705.882352941176,4,2,1,15,1,8
133809,821.917808219178,4,2,1,15,1,8
134082,800,4,2,1,15,1,0
134882,839.160839160839,4,2,1,15,1,8
135721,800,4,2,1,15,1,8
135987,919.540229885057,4,2,1,15,1,8
136599,937.5,4,2,1,15,1,8
136911,1126.76056338028,4,2,1,15,1,8
137286,1904.7619047619,4,2,1,20,1,8
137920,1904.7619047619,4,2,1,15,1,0
138039,-100,4,2,1,5,0,0

[Colours]
Combo1 : 182,71,74
Combo2 : 218,218,218
Combo3 : 128,128,128
Combo4 : 216,156,157

[HitObjects]
253,189,1224,5,0,0:0:0:0:
256,192,1599,12,0,4974,1:0:0:0:
253,189,5724,5,4,0:0:0:0:
420,255,6474,1,0,1:0:0:0:
427,299,6661,1,0,0:0:0:0:
434,343,6849,1,2,0:0:0:0:
344,351,7224,38,0,B|290:354|290:354|284:352|284:352|226:354,1,100,0|0,1:0|0:0,0:0:0:0:
199,354,7786,1,2,0:0:0:0:
173,316,7974,2,0,P|157:272|183:207,1,100,0|0,1:0|0:0,0:0:0:0:
209,200,8536,1,2,0:0:0:0:
253,191,8724,5,0,1:0:0:0:
456,95,9661,2,0,L|461:38,2,50,0|2|0,3:0|0:0|3:0,0:0:0:0:
453,140,10224,1,0,1:0:0:0:
449,184,10411,2,0,P|395:182|350:133,1,100,2|0,0:0|3:0,0:0:0:0:
335,116,10974,1,0,0:0:0:0:
173,36,11724,37,0,1:0:0:0:
169,80,11911,1,0,1:0:0:0:
288,142,12474,1,2,0:0:0:0:
108,145,13224,5,0,1:0:0:0:
104,189,13411,1,0,1:0:0:0:
228,240,13974,1,0,1:0:0:0:
81,344,14724,37,0,1:0:0:0:
81,344,14911,2,0,P|125:353|192:329,1,100,0|2,1:0|0:0,0:0:0:0:
235,269,15661,2,0,L|298:277,2,50,0|0|2,3:0|1:0|0:0,0:0:0:0:
190,261,16224,6,0,P|191:219|326:176,1,200,4|2,1:2|0:0,0:0:0:0:
380,235,17349,37,4,1:2:0:0:
452,287,17724,2,0,P|465:244|467:180,1,100,4|2,1:0|1:3,0:0:0:0:
459,145,18286,2,0,L|452:85,1,50,0|0,1:0|0:0,0:0:0:0:
445,50,18661,1,2,0:0:0:0:
434,5,18849,1,0,3:0:0:0:
350,38,19224,6,0,B|297:46|297:46|284:45|284:45|236:52,1,100,0|0,1:0|0:0,0:0:0:0:
206,54,19786,1,0,1:0:0:0:
122,88,20161,1,0,1:0:0:0:
115,132,20349,1,2,1:3:0:0:
145,216,20724,2,0,L|31:202,1,100,4|2,1:2|1:3,0:0:0:0:
1,198,21286,1,0,1:0:0:0:
17,286,21661,1,2,1:3:0:0:
62,285,21849,2,0,P|105:287|125:297,1,50,2|0,1:3|0:0,0:0:0:0:
152,308,22224,2,0,P|194:319|266:296,1,100,4|2,1:2|1:3,0:0:0:0:
414,255,23349,1,2,1:3:0:0:
498,291,23724,38,0,P|474:229|486:191,1,100,4|2,1:0|1:3,0:0:0:0:
497,156,24286,2,0,P|501:108|475:46,1,100,2|0,0:0|3:0,0:0:0:0:
454,26,24849,1,2,1:2:0:0:
364,36,25224,2,0,P|312:69|304:123,1,100,4|2,1:2|1:3,0:0:0:0:
301,148,25786,1,0,1:0:0:0:
358,217,26161,1,2,0:0:0:0:
354,261,26349,1,2,1:3:0:0:
304,335,26724,5,4,1:2:0:0:
215,320,27099,1,2,1:3:0:0:
126,304,27474,2,0,P|61:298|40:301,2,75,2|2|2,1:2|0:0|1:2,0:0:0:0:
147,264,28224,2,0,P|170:227|157:158,1,100,4|2,1:2|1:3,1:0:0:0:
98,112,28974,2,0,P|84:68|111:17,1,100,2|2,1:2|1:3,0:0:0:0:
195,30,29724,1,4,0:0:0:0:
464,39,31599,37,2,0:0:0:0:
374,47,31974,1,0,3:0:0:0:
284,55,32349,1,2,0:0:0:0:
194,63,32724,2,0,L|185:130,1,50,4|0,1:2|0:0,0:0:0:0:
180,157,33099,1,2,0:0:0:0:
243,220,33474,2,0,P|297:210|353:208,1,100,0|0,1:0|0:0,0:0:0:0:
429,229,34224,6,0,L|483:269,2,50,0|0|2,1:0|3:0|0:0,0:0:0:0:
397,313,34974,1,0,1:0:0:0:
352,307,35161,1,2,0:0:0:0:
307,301,35349,1,0,3:0:0:0:
224,337,35724,38,0,P|214:292|242:232,1,100,0|0,1:0|3:0,0:0:0:0:
287,170,36474,1,0,1:2:0:0:
306,129,36661,2,0,P|311:98|305:76,2,50,2|0|0,0:0|1:0|3:0,0:0:0:0:
261,122,37224,5,0,1:0:0:0:
172,106,37599,1,2,0:0:0:0:
93,149,37974,1,0,1:0:0:0:
74,237,38349,1,0,1:0:0:0:
84,326,38724,38,0,L|195:313,1,100,4|0,1:2|3:0,0:0:0:0:
271,314,39474,2,0,P|310:326|328:335,2,50,0|2|0,3:0|0:0|3:0,0:0:0:0:
257,271,40036,1,0,1:0:0:0:
266,226,40224,2,0,P|279:158|260:112,1,100,0|0,1:0|0:0,0:0:0:0:
246,91,40786,2,0,P|201:74|131:95,1,100,2|0,0:0|3:0,0:0:0:0:
108,99,41349,1,2,0:0:0:0:
71,181,41724,2,0,P|47:226|61:276,1,100,4|2,1:2|0:0,0:0:0:0:
86,306,42286,1,0,1:0:0:0:
168,269,42661,1,2,0:0:0:0:
212,263,42849,2,0,L|283:256,1,50,0|0,1:0|0:0,0:0:0:0:
306,254,43224,6,2,P|351:241|351:95,1,200,4|0,1:2|1:0,0:0:0:0:
318,36,44349,1,0,3:0:0:0:
228,42,44724,38,2,B|173:47|173:47|168:44|168:44|112:49,1,100,4|2,1:0|1:3,0:0:0:0:
38,48,45474,1,0,3:0:0:0:
37,92,45661,2,0,L|34:155,2,50,2|2|2,0:0|0:3|0:0,0:0:0:0:
80,103,46224,2,0,P|125:116|151:164,1,100,0|2,1:0|1:3,0:0:0:0:
160,203,46786,1,0,1:0:0:0:
226,141,47161,1,0,3:0:0:0:
213,97,47349,1,2,1:3:0:0:
259,19,47724,6,0,L|322:23,1,50,4|0,1:2|0:0,0:0:0:0:
353,25,48099,1,2,1:3:0:0:
379,110,48474,2,0,L|442:114,1,50,2|0,1:2|0:0,0:0:0:0:
473,116,48849,1,2,1:3:0:0:
490,204,49224,38,2,P|461:230|455:304,1,100,4|2,1:2|1:3,0:0:0:0:
463,331,49786,1,0,1:0:0:0:
375,351,50161,1,0,0:0:0:0:
330,345,50349,1,2,1:3:0:0:
240,335,50724,6,0,L|182:328,2,50,4|0|2,1:0|0:0|1:3,0:0:0:0:
275,252,51474,1,0,0:0:0:0:
273,207,51661,2,0,P|239:158|145:163,1,150,0|0,3:0|1:0,0:0:0:0:
66,177,52599,2,0,L|55:234,2,50,2|0|2,1:3|1:0|0:0,0:0:0:0:
82,88,53349,1,2,1:3:0:0:
159,42,53724,37,4,1:2:0:0:
167,86,53911,1,2,0:0:0:0:
175,130,54099,2,0,L|188:189,1,50,2|0,1:3|1:0,0:0:0:0:
168,267,54661,1,2,1:3:0:0:
263,276,55036,1,2,0:0:0:0:
263,276,55224,2,2,P|330:261|376:286,1,100,4|2,1:2|1:3,0:0:0:0:
421,334,55974,1,2,0:0:0:0:
480,266,56349,1,2,1:3:0:0:
398,226,56724,5,4,1:0:0:0:
403,181,56911,1,2,1:2:0:0:
408,136,57099,1,2,1:3:0:0:
414,46,57474,2,0,L|347:55,1,50,2|0,0:0|3:0,0:0:0:0:
320,60,57849,2,0,L|253:69,1,50,2|0,1:3|1:0,0:0:0:0:
225,74,58224,1,0,1:0:0:0:
135,84,58599,38,0,P|117:51|116:20,2,50,2|0|0,1:3|1:0|1:0,0:0:0:0:
155,124,59161,2,0,P|164:152|160:190,2,50,2|2|0,0:0|1:3|0:0,0:0:0:0:
122,155,59724,2,0,P|81:173|17:170,1,100,4|2,1:2|1:3,0:0:0:0:
5,84,60474,1,2,0:0:0:0:
94,75,60849,1,2,1:3:0:0:
138,68,61036,1,2,0:0:0:0:
182,63,61224,1,4,1:2:0:0:
271,53,61599,5,2,1:3:0:0:
347,100,61974,1,0,1:0:0:0:
285,165,62349,1,2,1:3:0:0:
351,225,62724,38,0,P|361:263|361:288,1,50,4|0,1:0|0:0,0:0:0:0:
358,318,63099,2,0,P|317:313|259:331,1,100,2|0,1:3|1:0,0:0:0:0:
174,351,63849,2,0,P|171:314|162:293,1,50,0|0,3:0|1:0,0:0:0:0:
145,262,64224,2,0,P|192:239|226:200,1,100,0|2,1:0|1:3,0:0:0:0:
247,117,64974,1,2,0:0:0:0:
216,32,65349,2,0,L|152:28,1,50,2|0,1:3|0:0,0:0:0:0:
121,25,65724,1,4,1:0:0:0:
49,79,66099,5,2,1:3:0:0:
45,123,66286,1,2,1:2:0:0:
41,167,66474,1,0,1:0:0:0:
119,211,66849,37,2,1:2:0:0:
115,255,67036,1,2,0:0:0:0:
111,299,67224,2,0,P|166:321|210:299,1,100,2|2,1:2|1:3,0:0:0:0:
279,261,67974,2,0,L|328:220,2,50,2|2|2,0:0|0:0|1:3,0:0:0:0:
277,306,68536,1,0,3:0:0:0:
301,344,68724,2,0,P|347:346|396:317,1,100,4|2,1:0|1:3,0:0:0:0:
464,265,69474,2,0,L|472:209,1,50,0|0,1:0|3:0,0:0:0:0:
459,171,69849,2,0,L|446:118,1,50,2|0,1:3|1:0,0:0:0:0:
460,79,70224,5,0,1:0:0:0:
384,29,70599,1,2,1:3:0:0:
346,53,70786,1,0,1:0:0:0:
308,77,70974,1,2,0:0:0:0:
233,126,71349,1,2,1:3:0:0:
155,79,71724,38,2,L|104:50,1,50,4|0,1:0|0:0,0:0:0:0:
71,33,72099,2,0,P|44:62|43:137,1,100,2|4,1:3|1:2,0:0:0:0:
86,195,72849,1,2,1:3:0:0:
67,283,73224,2,0,L|78:349,1,50,4|2,1:0|1:3,0:0:0:0:
90,374,73599,2,0,P|136:355|155:291,1,100,2|2,0:0|0:0,0:0:0:0:
155,221,74349,1,2,1:3:0:0:
180,134,74724,5,0,1:0:0:0:
185,89,74911,1,2,1:2:0:0:
190,44,75099,1,4,1:0:0:0:
276,19,75474,1,2,1:3:0:0:
320,27,75661,2,0,L|390:36,2,50,2|2|2,0:0|0:0|0:0,0:0:0:0:
321,72,76224,2,0,P|351:122|404:146,1,100,4|2,1:0|1:3,0:0:0:0:
476,143,76974,2,0,L|490:209,2,66.6666666666667,2|0|2,0:0|0:0|0:0,0:0:0:0:
418,124,77724,38,0,P|392:149|369:219,1,100,4|2,1:0|1:2,0:0:0:0:
310,276,78474,2,0,L|240:263,2,66.6666666666667,2|2|2,1:0|1:0|1:0,0:0:0:0:
368,288,79224,1,4,1:0:0:0:
436,45,81099,5,2,1:0:0:0:
366,102,81474,2,0,L|299:88,1,50,4|0,1:2|0:0,0:0:0:0:
273,80,81849,2,0,L|206:66,1,50,2|0,1:0|0:0,0:0:0:0:
180,58,82224,5,6,1:0:0:0:
96,92,82599,1,2,1:0:0:0:
90,136,82786,1,0,1:0:0:0:
76,224,83161,1,2,3:0:0:0:
70,269,83349,2,0,P|70:319|121:358,1,100,8|0,1:0|1:0,0:0:0:0:
148,355,83911,1,2,1:0:0:0:
192,347,84099,1,2,1:0:0:0:
264,294,84474,2,0,P|277:337|276:360,2,50,2|2|8,1:0|1:0|0:0,0:0:0:0:
269,249,85036,1,2,1:0:0:0:
286,207,85224,6,0,P|331:190|398:206,1,100,4|0,1:2|1:0,0:0:0:0:
455,249,85974,2,0,L|472:195,1,50,2|2,1:3|1:0,0:0:0:0:
481,157,86349,1,8,1:2:0:0:
492,113,86536,1,10,1:0:0:0:
501,68,86724,38,0,P|458:40|396:53,1,100,0|2,1:0|1:0,0:0:0:0:
323,64,87474,1,2,1:0:0:0:
234,46,87849,1,10,1:0:0:0:
142,26,88224,2,0,L|135:81,1,50,6|0,1:0|0:0,0:0:0:0:
132,120,88599,1,2,1:0:0:0:
200,178,88974,1,0,1:0:0:0:
244,170,89162,2,0,L|293:161,1,50,2|8,1:0|1:0,0:0:0:0:
364,210,89724,2,0,P|377:243|374:270,1,50,2|0,1:0|0:0,0:0:0:0:
365,300,90099,2,0,P|335:297|264:320,1,100,2|0,1:2|3:0,0:0:0:0:
189,359,90849,1,10,1:0:0:0:
122,298,91224,6,0,P|118:267|128:234,1,50,6|2,1:0|1:0,0:0:0:0:
136,206,91599,2,0,P|143:162|122:103,1,100,2|2,1:0|1:3,0:0:0:0:
102,72,92161,1,2,1:2:0:0:
235,52,92724,38,0,L|291:39,1,50,4|0,1:2|0:0,0:0:0:0:
327,31,93099,1,0,0:0:0:0:
416,34,93474,2,0,P|458:30|476:22,2,50,0|0|10,3:0|0:0|1:0,0:0:0:0:
399,75,94036,1,2,1:3:0:0:
408,119,94224,2,0,P|420:161|483:200,1,100,6|2,1:0|1:0,0:0:0:0:
477,284,94974,1,0,3:0:0:0:
433,293,95161,1,2,3:0:0:0:
389,302,95349,1,8,1:0:0:0:
317,357,95724,5,0,1:0:0:0:
300,315,95911,2,0,P|295:277|305:250,2,50,2|2|2,1:0|1:0|1:2,0:0:0:0:
255,305,96474,2,0,P|198:296|145:317,1,100,2|10,1:0|1:0,0:0:0:0:
70,328,97224,1,2,1:0:0:0:
16,251,97599,1,0,1:0:0:0:
57,171,97974,1,0,1:0:0:0:
57,126,98161,2,0,P|51:91|41:73,2,50,2|8|10,1:0|0:0|1:0,0:0:0:0:
99,111,98724,38,0,P|143:90|178:39,1,100,4|2,1:2|1:0,0:0:0:0:
262,36,99474,2,0,P|267:64|284:90,1,50,2|0,1:0|0:0,0:0:0:0:
315,105,99849,1,10,1:0:0:0:
298,193,100224,2,0,P|318:238|353:273,1,100,6|2,1:0|1:0,0:0:0:0:
437,304,100974,1,4,1:2:0:0:
488,230,101349,1,0,3:0:0:0:
479,185,101536,1,2,1:3:0:0:
469,140,101724,2,0,P|472:108|489:77,2,50,2|0|2,1:0|0:0|1:0,0:0:0:0:
379,151,102474,1,4,1:2:0:0:
335,161,102661,1,0,0:0:0:0:
291,173,102849,2,0,L|243:189,1,50,0|0,1:0|0:0,0:0:0:0:
201,204,103224,6,0,P|185:250|191:323,1,100,6|4,1:0|1:2,0:0:0:0:
264,342,103974,1,0,1:0:0:0:
308,333,104161,1,0,0:0:0:0:
351,321,104349,2,0,L|407:308,1,50,4|0,1:2|0:0,0:0:0:0:
256,192,104724,12,0,109224,0:0:0:0:
254,192,110349,5,2,0:0:0:0:
337,224,110724,2,0,L|452:214,1,100,0|0,1:0|0:0,0:0:0:0:
475,133,111474,1,0,0:0:0:0:
486,89,111661,1,2,0:0:0:0:
470,46,111849,1,0,3:0:0:0:
381,31,112224,6,0,L|266:41,1,100,0|0,1:0|3:0,0:0:0:0:
236,45,112786,2,0,L|185:49,2,50,2|0|0,0:0|1:0|3:0,0:0:0:0:
282,122,113536,1,2,0:0:0:0:
298,163,113724,2,0,P|305:221|299:277,1,100,0|0,1:0|0:0,0:0:0:0:
242,329,114474,1,0,0:0:0:0:
197,323,114661,1,0,3:0:0:0:
152,316,114849,2,0,L|95:310,1,50,2|0,0:0|3:0,0:0:0:0:
57,305,115224,37,0,1:0:0:0:
111,181,115786,1,2,0:0:0:0:
102,136,115974,1,0,1:0:0:0:
93,91,116161,1,0,3:0:0:0:
215,34,116724,5,0,1:0:0:0:
248,64,116911,2,0,P|306:75|354:58,1,100,0|0,1:0|0:0,0:0:0:0:
380,36,117474,1,2,0:0:0:0:
444,151,118224,37,0,1:0:0:0:
404,172,118411,2,0,P|348:178|295:155,1,100,0|0,1:0|0:0,0:0:0:0:
270,138,118974,1,2,0:0:0:0:
105,144,119724,5,0,1:0:0:0:
92,187,119911,2,0,P|77:234|83:293,1,100,0|0,1:0|1:0,0:0:0:0:
183,344,120661,2,0,L|245:335,2,50,0|2|2,1:0|0:0|0:0,0:0:0:0:
137,348,121224,38,0,P|112:296|131:247,1,100,4|0,1:2|0:0,0:0:0:0:
196,179,121974,1,2,0:0:0:0:
204,134,122161,1,0,1:0:0:0:
194,89,122349,2,0,P|181:55|155:37,1,50,0|2,1:0|0:0,0:0:0:0:
129,30,122724,5,0,1:0:0:0:
65,94,123099,1,0,1:0:0:0:
57,183,123474,2,0,P|60:227|71:253,1,50,2|0,0:0|0:0,0:0:0:0:
79,273,123849,1,2,0:0:0:0:
136,338,124224,1,0,1:0:0:0:
180,333,124417,38,0,L|245:325,1,50,2|0,0:0|1:0,0:0:0:0:
274,322,124804,1,0,1:0:0:0:
370,342,125194,1,0,3:0:0:0:
458,327,125588,1,0,0:0:0:0:
449,283,125784,6,0,P|444:243|483:176,1,100,4|2,1:2|0:0,0:0:0:0:
481,102,126584,2,0,L|368:88,1,100,2|2,0:0|0:0,0:0:0:0:
297,75,127397,1,0,1:0:0:0:
294,119,127611,1,0,1:0:0:0:
350,188,128039,1,2,0:0:0:0:
356,225,128254,1,0,1:0:0:0:
364,269,128501,1,2,0:0:0:0:
263,344,129245,38,0,L|160:356,1,100,4|0,1:2|0:0,0:0:0:0:
77,353,130270,2,0,L|20:345,2,50,0|2|0,1:0|0:0|1:0,0:0:0:0:
94,311,131153,1,2,0:0:0:0:
88,259,131502,6,0,P|75:217|92:155,1,100,0|2,1:0|0:0,0:0:0:0:
143,96,132714,2,0,P|196:86|248:104,1,100,0|0,1:0|1:0,0:0:0:0:
296,159,134082,1,4,1:2:0:0:
256,192,134482,12,4,137920,1:2:0:0:
