osu file format v14

[General]
AudioFilename: audio.mp3
AudioLeadIn: 0
PreviewTime: 80724
Countdown: 0
SampleSet: Soft
StackLeniency: 0.7
Mode: 0
LetterboxInBreaks: 0
WidescreenStoryboard: 1

[Editor]
Bookmarks: 32724,56724,68724,79224,94224,110724,122724,137920
DistanceSpacing: 0.7
BeatDivisor: 4
GridSize: 32
TimelineZoom: 3.099999

[Metadata]
Title:Piano Kyousoukyoku Ni-ban "Nageki no Mai"
TitleUnicode:ピアノ協奏曲二番 '嘆きの舞'
Artist:MiddleIsland
ArtistUnicode:MiddleIsland
Creator:kisata
Version:Collab Hard
Source:
Tags:apaffy pandahero concerto number no.2 2-ban mourning dance 現実否定 genjitsu hitei reality denial instrumental classical
BeatmapID:3112503
BeatmapSetID:1520799

[Difficulty]
HPDrainRate:4
CircleSize:3.8
OverallDifficulty:6
ApproachRate:7.5
SliderMultiplier:1.3
SliderTickRate:1

[Events]
//Background and Video events
0,0,"wallpaper-280120.jpg",0,0
//Break Periods
//Storyboard Layer 0 (Background)
//Storyboard Layer 1 (Fail)
//Storyboard Layer 2 (Pass)
//Storyboard Layer 3 (Foreground)
//Storyboard Layer 4 (Overlay)
//Storyboard Sound Samples

[TimingPoints]
1224,375,4,2,1,15,1,0
4974,-142.857142857143,4,2,1,10,0,0
5724,-142.857142857143,4,2,1,15,0,0
15849,-142.857142857143,4,2,1,25,0,0
16224,-142.857142857143,4,2,1,45,0,0
17349,-142.857142857143,4,2,1,55,0,0
17724,-100,4,2,1,65,0,0
23724,-100,4,2,1,70,0,0
27942,-100,4,2,1,5,0,0
28036,-100,4,2,1,70,0,0
28130,-100,4,2,1,5,0,0
28224,-100,4,2,1,70,0,0
29724,-100,4,2,1,60,0,0
29817,-100,4,2,1,50,0,0
30849,-100,4,2,1,40,0,0
31224,-100,4,2,1,5,0,0
31599,-100,4,2,1,30,0,0
32724,-142.857142857143,4,2,1,25,0,0
37505,-142.857142857143,4,2,1,5,0,0
37599,-142.857142857143,4,2,1,25,0,0
40036,-142.857142857143,4,2,1,30,0,0
40224,-142.857142857143,4,2,1,35,0,0
40505,-142.857142857143,4,2,1,5,0,0
40599,-142.857142857143,4,2,1,35,0,0
41724,-142.857142857143,4,2,1,40,0,0
43224,-142.857142857143,4,2,1,50,0,0
43692,-142.857142857143,4,2,1,5,0,0
43786,-142.857142857143,4,2,1,50,0,0
44724,-100,4,2,1,65,0,0
48005,-100,4,2,1,5,0,0
48099,-100,4,2,1,65,0,0
48380,-100,4,2,1,5,0,0
48474,-100,4,2,1,65,0,0
56724,-100,4,2,1,70,0,0
61505,-100,4,2,1,70,0,0
61599,-100,4,2,1,70,0,0
61880,-100,4,2,1,70,0,0
61974,-100,4,2,1,70,0,0
62255,-100,4,2,1,70,0,0
62349,-100,4,2,1,70,0,0
62630,-100,4,2,1,70,0,0
62724,-100,4,2,1,70,0,0
79224,-100,4,2,1,55,0,0
80724,-100,4,2,1,5,0,0
81005,-100,4,2,1,40,0,0
81380,-100,4,2,1,5,0,0
81474,-100,4,2,1,55,0,0
81849,-100,4,2,1,65,0,0
82224,-100,4,2,1,75,0,0
87005,-100,4,2,1,75,0,0
87099,-100,4,2,1,75,0,0
87380,-100,4,2,1,75,0,0
87474,-100,4,2,1,75,0,0
87755,-100,4,2,1,75,0,0
87849,-100,4,2,1,75,0,0
88130,-100,4,2,1,75,0,0
88224,-100,4,2,1,75,0,0
94224,-100,4,2,1,80,0,0
97880,-100,4,2,1,5,0,0
97974,-100,4,2,1,80,0,0
99099,-100,4,2,1,80,0,0
99474,-100,4,2,1,80,0,0
99755,-100,4,2,1,80,0,0
99849,-100,4,2,1,80,0,0
105599,-100,4,1,1,60,0,0
105661,-100,4,1,1,25,0,0
109224,-100,4,2,1,5,0,0
110349,-100,4,1,1,25,0,0
110724,-133.333333333333,4,2,1,15,0,0
118849,-133.333333333333,4,2,1,5,0,0
118911,-133.333333333333,4,2,1,15,0,0
119724,-133.333333333333,4,2,1,20,0,0
120849,-133.333333333333,4,2,1,35,0,0
121599,-133.333333333333,4,2,1,15,0,0
121786,-133.333333333333,4,2,1,25,0,0
122349,-133.333333333333,4,2,1,25,0,0
122724,-133.333333333333,4,2,1,20,0,0
124224,387.096774193548,4,2,1,20,1,0
124224,-133.333333333333,4,2,1,20,0,0
124998,393.44262295082,4,2,1,20,1,0
124998,-133.333333333333,4,2,1,20,0,0
125784,400,4,2,1,20,1,0
125784,-133.333333333333,4,2,1,20,0,0
126584,406.779661016949,4,2,1,20,1,0
126584,-133.333333333333,4,2,1,20,0,0
127397,428.571428571429,4,2,1,20,1,0
127397,-133.333333333333,4,2,1,20,0,0
128254,495.867768595041,4,2,1,20,1,0
128254,-133.333333333333,4,2,1,20,0,0
129245,512.820512820513,4,2,1,15,1,0
129245,-133.333333333333,4,2,1,15,0,0
130270,535.714285714286,4,2,1,15,1,0
130270,-133.333333333333,4,2,1,15,0,0
130805,697.674418604651,4,2,1,15,1,0
130805,-133.333333333333,4,2,1,15,0,0
131502,606.060606060606,4,2,1,15,1,0
131502,-133.333333333333,4,2,1,15,0,0
132714,625,4,2,1,15,1,0
132714,-133.333333333333,4,2,1,15,0,0
133339,705.882352941176,4,2,1,15,1,0
133339,-133.333333333333,4,2,1,15,0,0
133809,821.917808219178,4,2,1,15,1,0
133809,-133.333333333333,4,2,1,15,0,0
134082,800,4,2,1,15,1,0
134082,-133.333333333333,4,2,1,15,0,0
134882,839.160839160839,4,2,1,15,1,0
134882,-133.333333333333,4,2,1,15,0,0
135721,800,4,2,1,15,1,0
135721,-133.333333333333,4,2,1,15,0,0
135987,919.540229885057,4,2,1,15,1,0
135987,-133.333333333333,4,2,1,15,0,0
136599,937.5,4,2,1,15,1,0
136599,-133.333333333333,4,2,1,15,0,0
136911,1126.76056338028,4,2,1,15,1,0
136911,-133.333333333333,4,2,1,15,0,0
137286,1904.7619047619,4,2,1,20,1,0
137286,-133.333333333333,4,2,1,20,0,0
137920,1904.7619047619,4,2,1,15,1,0
137920,-133.333333333333,4,2,1,15,0,0
138039,-133.333333333333,4,2,1,5,0,0

[Colours]
Combo1 : 182,71,74
Combo2 : 218,218,218
Combo3 : 128,128,128
Combo4 : 216,156,157

[HitObjects]
75,292,4974,5,0,1:0:0:0:
75,292,5724,6,0,P|145:264|249:319,1,181.999994445801,4|0,0:0|1:0,0:0:0:0:
306,341,6661,2,0,L|360:328,2,45.4999986114502,0|2|0,0:0|0:0|3:0,0:0:0:0:
238,304,7224,2,0,P|233:254|242:196,1,90.9999972229005,0|0,1:0|0:0,0:0:0:0:
250,137,7786,2,0,L|255:118,3,15.1666662038167,2|0|0|0,0:0|0:0|0:0|1:0,0:0:0:0:
43,221,8536,1,2,0:0:0:0:
43,221,8630,1,0,0:0:0:0:
43,221,8724,2,0,P|105:195|125:82,1,181.999994445801,0|0,1:0|1:0,0:0:0:0:
66,44,9661,2,0,L|13:36,2,45.4999986114502,0|2|0,3:0|0:0|3:0,0:0:0:0:
128,90,10224,37,0,1:0:0:0:
205,92,10411,2,0,P|257:89|301:53,1,90.9999972229005,2|0,0:0|3:0,0:0:0:0:
344,14,10974,1,0,0:0:0:0:
344,14,11724,5,0,1:0:0:0:
413,48,11911,2,0,P|430:95|438:152,1,90.9999972229005,0|0,1:0|0:0,0:0:0:0:
439,212,12474,1,2,0:0:0:0:
439,212,13224,37,0,1:0:0:0:
372,251,13411,2,0,P|325:242|285:216,1,90.9999972229005,0|0,1:0|0:0,0:0:0:0:
238,160,13974,1,0,1:0:0:0:
238,160,14724,5,0,1:0:0:0:
184,215,14911,2,0,P|171:248|172:272,1,45.4999986114502,0|0,1:0|0:0,0:0:0:0:
223,314,15286,2,0,P|245:341|266:352,1,45.4999986114502,2|0,0:0|0:0,0:0:0:0:
329,332,15661,1,0,3:0:0:0:
402,306,15849,1,0,1:0:0:0:
424,304,15942,1,0,0:0:0:0:
445,310,16036,1,2,0:0:0:0:
462,324,16130,1,0,0:0:0:0:
475,342,16224,38,0,P|491:300|358:228,1,227.499993057251,4|0,1:2|0:0,0:0:0:0:
311,277,17349,2,0,L|302:339,1,45.4999986114502,4|0,1:2|0:0,0:0:0:0:
212,353,17724,6,0,L|83:335,1,130,4|2,1:0|1:3,0:0:0:0:
6,321,18286,1,0,1:0:0:0:
6,321,18380,1,0,0:0:0:0:
6,321,18474,1,0,0:0:0:0:
35,248,18661,1,2,0:0:0:0:
111,231,18849,2,0,P|93:194|67:171,1,65,0|0,3:0|0:0,0:0:0:0:
25,121,19130,1,0,1:0:0:0:
25,121,19224,38,0,P|56:59|121:48,1,130,0|0,1:0|0:0,0:0:0:0:
187,62,19786,1,0,1:0:0:0:
187,62,19880,1,0,0:0:0:0:
187,62,19974,1,2,0:0:0:0:
214,134,20161,1,0,1:0:0:0:
281,173,20349,2,0,P|316:147|326:110,1,65,2|0,1:3|0:0,0:0:0:0:
362,57,20630,1,0,1:0:0:0:
362,57,20724,6,0,B|457:44|457:44|445:93,1,130,4|2,1:2|1:3,0:0:0:0:
430,153,21286,1,0,1:0:0:0:
430,153,21380,1,0,0:0:0:0:
430,153,21474,1,0,0:0:0:0:
415,229,21661,1,2,1:3:0:0:
356,178,21849,2,0,P|321:174|282:182,1,65,2|0,1:3|0:0,0:0:0:0:
260,250,22130,1,0,1:0:0:0:
260,250,22224,38,0,L|254:290,3,32.5,4|0|0|0,1:2|0:0|0:0|0:0,0:0:0:0:
344,290,22599,2,0,L|350:330,3,32.5,2|0|0|0,1:3|0:0|0:0|0:0,0:0:0:0:
278,362,22974,2,0,P|231:364|171:335,1,97.5,0|2,1:0|0:0,0:0:0:0:
153,321,23349,1,2,1:3:0:0:
153,321,23724,6,0,P|96:308|14:356,1,130,4|2,1:0|1:3,0:0:0:0:
4,261,24286,2,0,P|38:237|52:192,1,65,2|0,0:0|0:0,0:0:0:0:
68,141,24661,1,0,3:0:0:0:
144,158,24849,2,0,P|192:182|211:214,1,65,2|0,1:2|0:0,0:0:0:0:
232,260,25130,1,0,1:0:0:0:
232,260,25224,38,0,P|271:256|364:235,1,130,4|2,1:2|1:3,0:0:0:0:
417,183,25786,1,0,1:0:0:0:
417,183,25880,1,0,0:0:0:0:
417,183,25974,1,0,1:0:0:0:
435,260,26161,1,2,0:0:0:0:
359,236,26349,2,0,P|337:188|346:157,1,65,2|0,1:3|0:0,0:0:0:0:
359,103,26630,1,0,1:0:0:0:
359,103,26724,6,0,P|366:64|344:4,1,97.5,4|0,1:2|0:0,0:0:0:0:
273,27,27099,2,0,L|159:37,1,97.5,2|0,1:3|0:0,0:0:0:0:
109,69,27474,2,0,P|102:108|124:168,2,97.5,2|2|2,1:2|0:0|1:2,0:0:0:0:
175,35,28224,37,4,1:2:0:0:
197,39,28317,1,0,0:0:0:0:
219,43,28411,1,0,0:0:0:0:
241,47,28505,1,0,0:0:0:0:
263,51,28599,2,0,L|275:93,3,32.5,2|0|0|0,1:3|3:0|1:0|0:0,0:0:0:0:
239,103,28974,6,0,L|235:129,6,21.6666666666667,2|0|0|0|0|0|2,1:2|3:0|3:0|0:0|0:0|0:0|1:3,0:0:0:0:
303,147,29536,1,0,0:0:0:0:
380,136,29724,1,4,0:0:0:0:
256,192,29817,12,0,31224,0:0:0:0:
283,254,31599,37,2,0:0:0:0:
194,275,31974,1,0,3:0:0:0:
104,257,32349,1,2,0:0:0:0:
15,278,32724,6,0,L|23:177,2,90.9999972229005,4|2|0,1:2|0:0|1:0,0:0:0:0:
157,45,34224,2,0,L|214:54,1,45.4999986114502,0|0,1:0|3:0,0:0:0:0:
254,108,34599,2,0,L|311:99,1,45.4999986114502,2|0,0:0|3:0,0:0:0:0:
368,134,34974,2,0,L|361:186,2,45.4999986114502,0|2|0,1:0|0:0|3:0,0:0:0:0:
434,94,35536,1,0,0:0:0:0:
483,153,35724,37,0,1:0:0:0:
400,284,36099,1,0,3:0:0:0:
258,218,36474,1,0,1:2:0:0:
270,294,36661,2,0,L|278:353,2,45.4999986114502,2|0|0,0:0|1:0|3:0,0:0:0:0:
195,269,37224,6,0,P|152:281|90:280,1,90.9999972229005,0|2,1:0|0:0,0:0:0:0:
28,147,37974,2,0,L|46:99,2,30.3333324076335,0|2|0,1:0|0:0|0:0,0:0:0:0:
40,174,38349,2,0,P|83:162|145:163,1,90.9999972229005,0|4,1:0|1:2,0:0:0:0:
283,146,39099,38,0,L|259:104,1,45.4999986114502,0|0,3:0|1:0,0:0:0:0:
321,59,39474,2,0,L|374:64,1,45.4999986114502,0|2,3:0|0:0,0:0:0:0:
403,131,39849,2,0,L|377:186,1,45.4999986114502,0|0,3:0|1:0,0:0:0:0:
349,242,40224,6,0,P|390:280|469:273,1,136.499995834351,0|2,1:0|0:0,0:0:0:0:
490,200,40974,2,0,L|483:141,1,45.4999986114502,0|0,0:0|3:0,0:0:0:0:
427,102,41349,1,2,0:0:0:0:
378,161,41536,1,0,1:0:0:0:
301,146,41724,38,0,L|200:124,1,90.9999972229005,4|2,1:2|0:0,0:0:0:0:
212,126,42286,1,0,1:0:0:0:
66,179,42661,1,2,0:0:0:0:
116,237,42849,2,0,L|146:231,2,30.3333324076335,0|2|0,1:0|0:0|0:0,0:0:0:0:
94,258,43224,6,2,L|89:348,1,90.9999972229005,4|0,1:2|0:0,0:0:0:0:
88,348,43786,1,0,1:0:0:0:
163,370,43974,1,0,1:0:0:0:
182,364,44067,1,0,0:0:0:0:
201,357,44161,1,0,3:0:0:0:
220,349,44255,1,0,3:0:0:0:
238,339,44349,2,0,L|236:304,3,22.7499993057251,0|0|2|0,3:0|3:0|3:0|3:0,0:0:0:0:
272,360,44724,38,2,B|313:333|313:333|405:353,1,130,4|2,1:0|1:3,0:0:0:0:
459,308,45286,1,0,1:0:0:0:
459,308,45380,1,0,0:0:0:0:
459,308,45474,2,0,L|443:235,1,65,0|2,3:0|0:0,0:0:0:0:
386,192,45849,2,0,L|359:261,1,65,2|2,0:3|0:0,0:0:0:0:
284,248,46224,6,0,P|232:217|244:136,1,130,0|2,1:0|1:3,0:0:0:0:
294,109,46786,1,0,1:0:0:0:
294,109,46880,1,2,0:0:0:0:
294,109,46974,1,2,0:0:0:0:
278,28,47161,1,0,3:0:0:0:
201,12,47349,1,2,1:3:0:0:
147,68,47536,1,2,0:0:0:0:
147,68,47630,1,2,0:0:0:0:
147,68,47724,38,0,L|39:60,1,97.5,4|0,1:2|0:0,0:0:0:0:
27,58,48099,2,0,L|40:133,1,65,2|0,1:3|0:0,0:0:0:0:
103,207,48474,2,0,L|116:132,1,65,2|0,1:2|0:0,0:0:0:0:
201,193,48849,2,0,L|199:306,1,97.5,2|0,1:3|0:0,0:0:0:0:
205,312,49224,6,2,L|276:290,2,65,4|0|2,1:2|0:0|1:3,0:0:0:0:
146,356,49786,1,0,1:0:0:0:
146,356,49880,1,0,0:0:0:0:
146,356,49974,2,0,L|61:349,1,65,2|0,0:0|0:0,0:0:0:0:
34,287,50349,1,2,1:3:0:0:
72,219,50536,1,2,0:0:0:0:
149,212,50724,37,4,1:0:0:0:
181,141,50911,2,0,L|144:125,2,32.5,0|2|2,0:0|0:0|1:3,0:0:0:0:
260,181,51286,1,0,1:0:0:0:
260,181,51380,1,0,0:0:0:0:
260,181,51474,2,0,P|301:187|336:187,1,65,0|0,0:0|3:0,0:0:0:0:
404,185,51849,1,0,0:0:0:0:
401,162,51942,1,0,0:0:0:0:
400,139,52036,1,2,0:0:0:0:
397,116,52130,1,0,0:0:0:0:
395,93,52224,6,0,L|403:13,2,65,0|0|2,1:0|1:0|1:3,0:0:0:0:
465,142,52786,1,0,1:0:0:0:
465,142,52880,1,0,0:0:0:0:
465,142,52974,2,0,P|471:193|478:256,1,97.5,2|0,0:0|0:0,0:0:0:0:
476,261,53349,2,0,P|421:243|369:242,1,97.5,2|0,1:3|3:0,0:0:0:0:
359,247,53724,37,4,1:2:0:0:
285,271,53911,1,2,0:0:0:0:
221,224,54099,1,2,1:3:0:0:
249,150,54286,2,0,L|280:114,2,32.5,0|0|0,1:0|0:0|0:0,0:0:0:0:
170,159,54661,1,2,1:3:0:0:
170,159,54755,1,0,0:0:0:0:
170,159,54849,2,0,P|126:140|95:97,1,97.5,2|2,0:0|0:0,0:0:0:0:
73,101,55224,6,2,L|3:104,1,65,4|0,1:2|0:0,0:0:0:0:
47,13,55599,2,0,L|117:16,1,65,2|0,1:3|1:0,0:0:0:0:
188,30,55974,2,0,P|172:72|183:133,1,97.5,2|0,0:0|3:0,0:0:0:0:
191,141,56349,1,2,1:3:0:0:
207,156,56442,1,0,0:0:0:0:
226,168,56536,1,2,1:2:0:0:
247,176,56630,1,0,1:0:0:0:
262,181,56724,38,0,P|305:176|355:174,1,65,4|2,1:0|1:2,0:0:0:0:
465,218,57099,2,0,P|427:199|405:182,1,65,2|0,1:3|1:0,0:0:0:0:
372,112,57474,2,0,P|339:142|330:214,1,97.5,2|0,0:0|0:0,0:0:0:0:
341,218,57849,2,0,P|358:261|345:323,1,97.5,2|0,1:3|0:0,0:0:0:0:
331,332,58224,6,0,L|252:325,1,65,0|0,1:0|0:0,0:0:0:0:
188,316,58599,1,2,1:3:0:0:
110,309,58786,1,0,1:0:0:0:
27,218,58974,38,0,L|105:211,1,65,0|2,1:0|0:0,0:0:0:0:
170,202,59349,1,2,1:3:0:0:
248,195,59536,1,0,0:0:0:0:
326,188,59724,6,0,P|340:148|328:109,1,65,4|0,1:2|0:0,0:0:0:0:
285,67,60099,1,2,1:3:0:0:
217,104,60286,1,0,1:0:0:0:
217,104,60380,1,0,0:0:0:0:
217,104,60474,1,2,0:0:0:0:
173,39,60661,2,0,L|153:7,2,32.5,0|0|2,3:0|0:0|1:3,0:0:0:0:
136,107,61036,1,2,0:0:0:0:
217,104,61224,38,0,P|262:88|294:29,1,97.5,4|0,1:2|0:0,0:0:0:0:
302,22,61599,2,0,P|328:59|387:73,1,97.5,2|0,1:3|0:0,0:0:0:0:
402,87,61974,2,0,P|373:138|321:149,1,97.5,0|0,1:0|0:0,0:0:0:0:
309,144,62349,2,0,P|339:172|354:250,1,97.5,2|0,1:3|3:0,0:0:0:0:
353,253,62724,5,4,1:0:0:0:
353,253,63099,2,0,P|406:226|485:247,1,130,2|0,1:3|1:0,0:0:0:0:
504,309,63661,1,2,1:3:0:0:
497,311,63755,1,0,3:0:0:0:
490,313,63849,1,0,3:0:0:0:
414,332,64036,1,0,1:0:0:0:
337,350,64224,38,0,P|310:311|331:220,1,130,0|2,1:0|1:3,0:0:0:0:
359,164,64786,1,0,1:0:0:0:
318,97,64974,1,2,0:0:0:0:
352,27,65161,1,0,3:0:0:0:
352,27,65255,1,0,0:0:0:0:
352,27,65349,2,0,L|421:21,1,65,2|0,1:3|0:0,0:0:0:0:
494,15,65724,5,4,1:0:0:0:
474,114,65911,1,0,0:0:0:0:
451,112,66005,1,0,3:0:0:0:
428,110,66099,1,2,1:3:0:0:
350,99,66286,2,0,L|294:92,2,32.5,2|0|0,1:2|3:0|1:0,0:0:0:0:
320,208,66661,37,0,3:0:0:0:
343,206,66755,1,0,3:0:0:0:
366,204,66849,1,2,1:2:0:0:
389,202,66942,1,0,3:0:0:0:
412,200,67036,2,0,L|468:193,2,32.5,2|0|2,0:0|3:0|1:2,0:0:0:0:
241,342,67599,5,2,1:3:0:0:
257,326,67692,1,0,0:0:0:0:
276,314,67786,1,0,1:0:0:0:
298,308,67880,1,0,0:0:0:0:
321,308,67974,2,0,L|333:355,3,32.5,2|0|2|0,0:0|3:0|0:0|3:0,0:0:0:0:
402,302,68349,2,0,L|413:348,3,32.5,2|0|0|0,1:3|3:0|3:0|3:0,0:0:0:0:
482,295,68724,37,4,1:0:0:0:
463,219,68911,1,2,0:0:0:0:
386,202,69099,2,0,L|301:214,1,65,2|0,1:3|1:0,0:0:0:0:
299,217,69380,1,2,0:0:0:0:
276,222,69474,1,0,1:0:0:0:
208,182,69661,2,0,L|228:132,2,32.5,0|0|2,3:0|3:0|1:3,0:0:0:0:
134,209,70036,1,0,1:0:0:0:
60,144,70224,6,0,L|51:70,1,65,0|0,1:0|1:0,0:0:0:0:
149,33,70599,2,0,L|140:107,1,65,2|0,1:3|1:0,0:0:0:0:
187,160,70974,1,2,0:0:0:0:
257,122,71161,1,0,3:0:0:0:
257,122,71255,1,0,0:0:0:0:
257,122,71349,1,2,1:3:0:0:
250,41,71536,1,0,0:0:0:0:
351,85,71724,38,2,P|404:81|432:36,1,97.5,4|2,1:0|0:0,0:0:0:0:
438,27,72099,2,0,P|480:33|525:35,1,65,2|0,1:3|0:0,0:0:0:0:
497,132,72474,2,2,P|461:172|453:233,1,97.5,4|2,1:2|0:0,0:0:0:0:
451,236,72849,2,0,P|409:230|364:228,1,65,2|0,1:3|0:0,0:0:0:0:
290,244,73224,5,4,1:0:0:0:
315,317,73411,2,0,L|332:357,2,32.5,2|0|2,1:3|0:0|0:0,0:0:0:0:
236,322,73786,1,0,0:0:0:0:
236,322,73974,2,0,P|170:318|129:333,1,97.5,2|0,0:0|3:0,0:0:0:0:
123,342,74349,2,0,L|43:331,1,65,2|0,1:3|0:0,0:0:0:0:
14,245,74724,37,0,1:0:0:0:
96,193,74911,1,2,1:2:0:0:
96,193,75005,1,0,1:0:0:0:
96,193,75099,2,0,P|107:140|107:104,1,65,4|0,1:0|0:0,0:0:0:0:
107,51,75474,2,0,P|70:54|35:69,2,65,2|2|2,1:3|0:0|0:0,0:0:0:0:
183,33,76036,1,2,0:0:0:0:
183,33,76130,1,0,0:0:0:0:
183,33,76224,6,0,B|237:17|222:66|295:49,1,97.5,4|0,1:0|0:0,0:0:0:0:
297,48,76599,1,2,1:3:0:0:
371,25,76786,1,0,0:0:0:0:
423,83,76974,1,2,0:0:0:0:
414,103,77067,1,0,0:0:0:0:
404,123,77161,1,0,0:0:0:0:
395,144,77255,1,0,0:0:0:0:
385,164,77349,2,0,L|343:154,3,32.5,2|0|0|0,1:3|0:0|0:0|0:0,0:0:0:0:
401,248,77724,38,0,B|449:251|449:251|496:226,2,86.6666666666667,4|2|0,1:0|1:2|0:0,0:0:0:0:
313,304,78474,2,0,B|265:301|265:301|218:326,2,86.6666666666667,2|2|2,1:0|1:0|1:0,0:0:0:0:
398,363,79224,1,4,1:0:0:0:
398,363,81099,6,0,B|318:370|318:370|326:339,1,97.5,2|0,1:0|0:0,0:0:0:0:
357,279,81474,2,0,B|390:206|390:206|413:228,1,97.5,4|0,1:2|0:0,0:0:0:0:
450,285,81849,2,0,B|496:350|496:350|465:359,1,97.5,2|0,1:0|0:0,0:0:0:0:
398,363,82224,6,0,P|362:346|297:362,1,97.5,6|2,1:0|1:0,0:0:0:0:
272,371,82599,1,2,1:0:0:0:
131,270,82786,1,0,1:0:0:0:
127,292,82880,1,0,0:0:0:0:
122,314,82974,1,0,1:0:0:0:
118,336,83067,1,0,3:0:0:0:
113,358,83161,2,0,P|76:367|55:357,4,32.5,2|0|8|0|8,3:0|3:0|1:0|3:0|1:2,0:0:0:0:
158,38,83911,5,2,1:0:0:0:
254,54,84099,1,2,1:0:0:0:
350,70,84286,1,2,1:2:0:0:
283,141,84474,37,2,1:0:0:0:
377,119,84661,1,2,1:0:0:0:
462,165,84849,1,8,0:0:0:0:
481,260,85036,1,2,1:0:0:0:
431,344,85224,6,0,P|393:316|299:348,2,130,4|0|2,1:2|1:0|1:3,0:0:0:0:
481,260,86161,1,2,1:0:0:0:
462,165,86349,1,8,1:2:0:0:
390,229,86536,1,10,1:0:0:0:
481,260,86724,38,0,P|473:210|495:148,1,97.5,0|0,1:0|1:0,0:0:0:0:
497,87,87099,2,0,P|454:117|387:110,1,97.5,2|0,1:0|1:0,0:0:0:0:
356,60,87474,2,0,P|380:103|364:171,1,97.5,2|0,1:0|1:0,0:0:0:0:
317,206,87849,2,0,L|207:191,1,97.5,10|0,1:0|1:0,0:0:0:0:
150,154,88224,6,0,P|139:200|171:261,1,97.5,6|2,1:0|1:0,0:0:0:0:
228,277,88599,1,2,1:0:0:0:
240,296,88692,1,0,0:0:0:0:
244,318,88786,1,0,1:0:0:0:
241,340,88880,1,0,0:0:0:0:
236,362,88974,2,0,L|290:368,3,32.5,0|0|2|0,1:0|3:0|1:0|3:0,0:0:0:0:
158,325,89349,1,8,1:0:0:0:
315,277,89536,2,0,L|341:271,2,16.25,8|0|0,0:0|0:0|0:0,0:0:0:0:
315,277,89724,38,0,P|301:239|308:210,1,65,2|0,1:0|0:0,0:0:0:0:
349,149,90005,1,0,0:0:0:0:
349,149,90099,2,0,P|359:87|321:25,1,130,2|0,1:2|3:0,0:0:0:0:
36,193,90849,5,10,1:0:0:0:
36,193,91224,2,0,P|70:189|101:182,1,65,6|2,1:0|1:0,0:0:0:0:
186,200,91505,1,2,1:2:0:0:
186,200,91599,2,0,P|143:202|91:278,1,130,2|2,1:0|1:3,0:0:0:0:
246,296,92161,2,0,P|238:233|185:199,1,130,2|2,1:2|1:3,0:0:0:0:
127,345,92724,38,0,L|122:372,2,21.6666666666667,4|2|0,1:2|0:0|0:0,0:0:0:0:
142,265,93005,2,0,L|153:198,1,65,8|0,0:0|3:0,0:0:0:0:
166,122,93286,2,0,L|171:90,1,32.5,2|0,3:0|0:0,0:0:0:0:
141,22,93474,6,0,P|107:50|96:98,1,65,0|0,3:0|0:0,0:0:0:0:
217,27,93849,2,0,P|243:61|240:108,1,65,10|2,1:0|1:3,0:0:0:0:
232,190,94224,38,0,L|243:305,1,97.5,6|2,1:0|1:0,0:0:0:0:
265,313,94599,1,2,1:0:0:0:
356,346,94786,1,2,1:3:0:0:
416,269,94974,1,0,3:0:0:0:
402,250,95067,1,0,3:0:0:0:
386,232,95161,1,2,3:0:0:0:
369,215,95255,1,0,3:0:0:0:
350,201,95349,2,0,L|308:211,3,32.5,8|0|8|0,1:0|3:0|0:0|3:0,0:0:0:0:
418,144,95724,5,0,1:0:0:0:
362,64,95911,1,2,1:0:0:0:
264,65,96099,1,2,1:0:0:0:
224,153,96286,1,2,1:2:0:0:
159,226,96474,2,0,L|75:213,1,65,2|2,1:0|0:0,0:0:0:0:
38,122,96849,2,0,L|122:135,1,65,10|2,1:0|1:0,0:0:0:0:
199,124,97224,38,0,P|176:77|170:12,1,97.5,2|0,1:0|0:0,0:0:0:0:
181,8,97599,1,0,1:0:0:0:
273,40,97786,1,0,0:0:0:0:
285,136,97974,2,0,L|270:220,1,65,0|2,1:0|1:0,0:0:0:0:
359,249,98349,2,0,L|374:165,1,65,8|10,0:0|1:0,0:0:0:0:
445,286,98724,5,4,1:2:0:0:
433,305,98817,1,0,0:0:0:0:
417,322,98911,1,0,0:0:0:0:
400,337,99005,1,0,0:0:0:0:
378,345,99099,2,0,L|328:338,3,32.5,2|0|0|0,1:0|0:0|0:0|0:0,0:0:0:0:
284,292,99474,2,0,P|252:296|224:312,1,65,2|0,1:0|0:0,0:0:0:0:
83,297,99849,2,0,P|120:268|133:206,1,97.5,10|0,1:0|1:0,0:0:0:0:
105,148,100224,38,0,L|10:176,1,97.5,6|2,1:0|1:0,0:0:0:0:
19,154,100599,2,0,L|34:87,1,65,2|0,1:0|0:0,0:0:0:0:
171,19,100974,2,0,L|180:128,1,97.5,4|0,1:2|0:0,0:0:0:0:
184,138,101349,1,0,3:0:0:0:
269,183,101536,1,2,1:3:0:0:
327,104,101724,6,0,L|293:48,2,43.3333333333333,2|0|2,1:0|1:0|1:2,0:0:0:0:
411,124,102099,2,0,L|412:58,2,43.3333333333333,2|0|2,1:0|1:0|1:2,0:0:0:0:
386,207,102474,38,0,L|387:250,2,43.3333333333333,4|2|0,1:2|1:0|1:0,0:0:0:0:
460,284,102849,2,0,L|437:321,2,43.3333333333333,0|2|2,1:0|1:0|1:0,0:0:0:0:
353,353,103224,6,0,B|312:326|312:326|264:333,1,97.5,6|0,1:0|0:0,0:0:0:0:
231,335,103599,2,0,L|247:256,1,65,4|0,1:2|0:0,0:0:0:0:
160,226,103974,2,0,B|114:240|114:240|68:220,1,97.5,0|0,1:0|0:0,0:0:0:0:
36,216,104349,2,0,L|50:138,1,65,4|0,1:2|0:0,0:0:0:0:
165,94,104724,37,0,1:0:0:0:
165,94,104849,2,0,B|203:113|203:113|273:104,1,86.6666666666667,2|2,1:0|1:0,0:0:0:0:
352,36,105349,2,0,B|314:17|314:17|244:26,1,86.6666666666667,2|6,1:0|1:0,0:0:0:0:
256,192,105661,12,0,109224,0:0:0:0:
64,304,110349,21,2,0:0:0:0:
64,304,110724,6,0,P|107:293|129:298,2,48.750001859665,0|0|0,1:0|3:0|0:0,0:0:0:0:
154,232,111286,2,0,P|185:263|191:285,2,48.750001859665,0|0|2,0:0|0:0|0:0,0:0:0:0:
262,236,111849,1,0,3:0:0:0:
323,291,112036,1,2,0:0:0:0:
400,321,112224,38,0,P|439:317|493:263,1,97.50000371933,0|0,1:0|3:0,0:0:0:0:
472,200,112786,6,0,L|469:182,3,16.2500006198883,2|0|0|0,0:0|3:0|3:0|1:0,0:0:0:0:
217,311,113536,1,2,0:0:0:0:
213,331,113630,1,0,0:0:0:0:
210,348,113724,38,0,P|171:332|98:328,2,97.50000371933,0|0|0,1:0|0:0|0:0,0:0:0:0:
291,359,114661,1,0,3:0:0:0:
338,291,114849,1,2,0:0:0:0:
307,214,115036,1,0,3:0:0:0:
276,136,115224,1,0,1:0:0:0:
305,58,115411,2,0,P|310:18|310:-2,1,48.750001859665,0|0,1:0|0:0,0:0:0:0:
229,31,115786,1,2,0:0:0:0:
226,45,115880,1,0,3:0:0:0:
223,59,115974,1,0,1:0:0:0:
223,59,116724,5,0,1:0:0:0:
275,122,116911,2,0,P|346:120|434:104,1,146.250005578995,0|2,1:0|0:0,0:0:0:0:
275,122,118224,37,0,1:0:0:0:
223,185,118411,2,0,P|152:183|64:167,1,146.250005578995,0|2,1:0|0:0,0:0:0:0:
223,185,119724,5,0,1:0:0:0:
275,248,119911,2,0,P|317:247|344:241,1,48.750001859665,0|2,1:0|0:0,0:0:0:0:
381,305,120286,2,0,P|401:268|409:241,1,48.750001859665,0|0,1:0|3:0,0:0:0:0:
486,255,120661,1,0,1:0:0:0:
489,171,120849,1,2,0:0:0:0:
470,166,120942,1,0,3:0:0:0:
450,168,121036,1,2,0:0:0:0:
432,175,121130,1,0,3:0:0:0:
416,187,121224,38,0,B|379:222|324:210|333:208|269:183|219:215,1,195.00000743866,4|2,1:2|0:0,0:0:0:0:
160,248,122161,1,0,1:0:0:0:
79,267,122349,1,0,1:0:0:0:
12,217,122536,1,2,0:0:0:0:
12,133,122724,5,0,1:0:0:0:
70,80,122911,1,2,0:0:0:0:
70,80,123005,1,0,3:0:0:0:
70,80,123099,2,0,L|126:95,1,48.750001859665,0|0,1:0|1:0,0:0:0:0:
175,26,123474,2,0,L|127:13,1,48.750001859665,2|0,0:0|0:0,0:0:0:0:
208,102,123849,1,2,0:0:0:0:
286,77,124036,1,0,3:0:0:0:
337,150,124224,37,0,1:0:0:0:
277,206,124417,1,2,0:0:0:0:
277,206,124514,1,0,3:0:0:0:
277,206,124611,2,0,L|286:266,1,48.750001859665,0|0,1:0|1:0,0:0:0:0:
364,293,124998,2,0,L|372:253,2,24.3750009298325,2|0|0,0:0|0:0|3:0,0:0:0:0:
302,359,125391,1,0,0:0:0:0:
302,359,125522,2,0,L|263:344,1,32.5000012397767,2|0,1:2|1:0,0:0:0:0:
231,317,125784,6,0,B|200:309|200:309|125:333,1,97.50000371933,4|2,1:2|0:0,0:0:0:0:
63,358,126384,1,0,1:0:0:0:
48,277,126584,2,0,L|28:215,1,48.750001859665,2|0,0:0|3:0,0:0:0:0:
93,174,126990,2,0,L|113:236,1,48.750001859665,2|0,0:0|3:0,0:0:0:0:
187,249,127397,37,0,1:0:0:0:
187,249,127611,2,0,L|297:238,1,97.50000371933,0|2,1:0|0:0,0:0:0:0:
305,250,128147,1,0,3:0:0:0:
323,259,128254,1,0,1:0:0:0:
401,260,128501,1,2,0:0:0:0:
401,260,128997,1,0,0:0:0:0:
451,200,129245,6,0,L|442:97,2,97.50000371933,4|0|0,1:2|0:0|1:0,0:0:0:0:
388,251,130537,1,2,0:0:0:0:
312,219,130805,1,0,1:0:0:0:
335,137,131153,1,2,0:0:0:0:
266,88,131502,38,0,L|156:102,1,97.50000371933,0|2,1:0|0:0,0:0:0:0:
97,137,132411,1,0,0:0:0:0:
97,137,132714,2,0,L|116:184,2,32.5000012397767,0|0|0,1:0|3:0|0:0,0:0:0:0:
47,219,133339,2,0,L|84:256,2,32.5000012397767,0|2|0,1:0|0:0|1:0,0:0:0:0:
58,327,134082,6,0,P|111:322|143:288,1,97.50000371933,4|2,1:2|0:0,0:0:0:0:
156,213,135301,1,0,3:0:0:0:
212,150,135721,37,2,0:0:0:0:
239,156,135987,1,0,0:0:0:0:
270,164,136293,1,0,0:0:0:0:
336,116,136599,5,0,1:0:0:0:
363,122,136911,1,0,0:0:0:0:
394,130,137286,1,0,1:0:0:0:
453,193,137920,5,4,1:2:0:0:
