osu file format v14

[General]
AudioFilename: audio.mp3
AudioLeadIn: 0
PreviewTime: 61613
Countdown: 0
SampleSet: Normal
StackLeniency: 0.7
Mode: 1
LetterboxInBreaks: 0
WidescreenStoryboard: 0

[Editor]
DistanceSpacing: 1.2
BeatDivisor: 4
GridSize: 4
TimelineZoom: 1.5

[Metadata]
Title:Piano Concerto No.1 "Scream"
TitleUnicode:ピアノ協奏曲第1番"悲鳴"
Artist:MiddleIsland
ArtistUnicode:中島岬
Creator:Nifty
Version:ahh
Source:
Tags:
BeatmapID:1976128
BeatmapSetID:946419

[Difficulty]
HPDrainRate:5
CircleSize:2
OverallDifficulty:6
ApproachRate:10
SliderMultiplier:1.4
SliderTickRate:1

[Events]
//Background and Video events
0,0,"04E25rF.jpg",0,60
//Break Periods
//Storyboard Layer 0 (Background)
//Storyboard Layer 1 (Fail)
//Storyboard Layer 2 (Pass)
//Storyboard Layer 3 (Foreground)
//Storyboard Sound Samples

[TimingPoints]
-23,363.636363636364,4,1,0,80,1,0
8704,-113.636363636364,4,1,0,40,0,0
9431,-125,4,1,0,20,0,0
20704,-121.951219512195,4,1,0,30,0,0
21067,-119.047619047619,4,1,0,40,0,0
21249,-117.647058823529,4,1,0,40,0,0
21431,-116.279069767442,4,1,0,40,0,0
21522,-114.942528735632,4,1,0,40,0,0
21613,-113.636363636364,4,1,0,40,0,0
21795,-111.111111111111,4,1,0,50,0,0
33613,-107.401233825374,4,1,0,50,0,0
33704,-105.637671238665,4,1,0,50,0,0
33795,-103.931089530398,4,1,0,50,0,0
33886,-102.278771018287,4,1,0,50,0,0
33977,-100.678168140595,4,1,0,50,0,0
34067,-99.126890349799,4,1,0,50,0,0
34158,-97.6226921995564,4,1,0,50,0,0
34249,-96.1634625000962,4,1,0,50,0,0
34340,-94.7472144318957,4,1,0,50,0,0
34431,-93.3720765202842,4,1,0,50,0,0
34522,-92.0362843847558,4,1,0,50,0,0
34613,-90.7380908524208,4,1,0,50,0,0
34704,-89.4760906464379,4,1,0,50,0,0
34795,-88.248713113141,4,1,0,50,0,0
34886,-87.0545527354717,4,1,0,50,0,0
35249,-90.9090909090909,4,1,0,50,0,0
35340,-92.2979229275424,4,1,0,50,0,0
35431,-93.7297602299004,4,1,0,50,0,0
35522,-95.2068129995382,4,1,0,50,0,0
35613,-96.7311637823046,4,1,0,50,0,0
35704,-98.3051214019097,4,1,0,50,0,0
35795,-99.9310475771717,4,1,0,50,0,0
35886,-101.611765829589,4,1,0,50,0,0
35977,-103.349986461152,4,1,0,50,0,0
36158,-107.011042469472,4,1,0,50,0,0
36340,-111.111111111111,4,1,0,50,0,0
36340,-110.941124654557,4,1,0,50,0,0
36431,-109.22467953479,4,1,0,50,0,0
36522,-107.401233825374,4,1,0,50,0,0
36613,-105.637671238665,4,1,0,50,0,0
36704,-103.931089530398,4,1,0,50,0,0
36795,-102.278771018287,4,1,0,50,0,0
36886,-100.678168140595,4,1,0,50,0,0
36977,-99.126890349799,4,1,0,50,0,0
37067,-97.6226921995564,4,1,0,50,0,0
37158,-96.1634625000962,4,1,0,50,0,0
37249,-94.7472144318957,4,1,0,50,0,0
37340,-93.3720765202842,4,1,0,50,0,0
37431,-92.0362843847558,4,1,0,50,0,0
37522,-90.7380908524208,4,1,0,50,0,0
37613,-89.4760906464379,4,1,0,50,0,0
37704,-88.248713113141,4,1,0,50,0,0
37795,-87.0545527354717,4,1,0,50,0,0
38158,-90.9090909090909,4,1,0,50,0,0
38249,-92.2979229275424,4,1,0,50,0,0
38340,-93.7297602299004,4,1,0,50,0,0
38431,-95.2068129995382,4,1,0,50,0,0
38522,-96.7311637823046,4,1,0,50,0,0
38613,-98.3051214019097,4,1,0,50,0,0
38704,-99.9310475771717,4,1,0,50,0,0
38795,-101.611765829589,4,1,0,50,0,0
38886,-103.349986461152,4,1,0,50,0,0
39067,-107.011042469472,4,1,0,50,0,0
39249,-111.111111111111,4,1,0,50,0,0
39431,-109.596847994652,4,1,0,50,0,0
39522,-108.855030136515,4,1,0,50,0,0
39613,-108.123303815671,4,1,0,50,0,0
39704,-107.401233825374,4,1,0,50,0,0
39795,-106.688744124117,4,1,0,50,0,0
39886,-105.985757633889,4,1,0,50,0,0
39977,-105.29186378181,4,1,0,50,0,0
40067,-104.606996743584,4,1,0,50,0,0
40158,-103.931089530398,4,1,0,50,0,0
40249,-103.263754215743,4,1,0,50,0,0
40340,-102.605039343902,4,1,0,50,0,0
40431,-101.954571082217,4,1,0,50,0,0
40522,-101.312298198566,4,1,0,50,0,0
40704,-100.051826846306,4,1,0,50,0,0
44583,-90.951920995523,4,1,0,60,0,0
44825,-83.3693210902706,4,1,0,60,0,0
45067,-76.9537400287191,4,1,0,60,0,0
46158,-90.9519209955234,4,1,0,60,0,0
55613,-90.9090909090909,4,1,0,60,0,0
55795,-89.5614355623383,4,1,0,60,0,0
55886,-88.9024810904423,4,1,0,60,0,0
55977,-88.2532302888616,4,1,0,60,0,0
56067,-87.6133168737115,4,1,0,60,0,0
56158,-86.9826165240877,4,1,0,60,0,0
56249,-86.3609316962755,4,1,0,60,0,0
56340,-85.7480704540446,4,1,0,60,0,0
56431,-85.1438462710827,4,1,0,60,0,0
56522,-84.5480778417243,4,1,0,60,0,0
56613,-83.9606593934346,4,1,0,60,0,0
56704,-83.3333333333333,4,1,0,60,0,0
56825,-84.6774466701441,4,1,0,60,0,0
56946,-86.0655561341074,4,1,0,60,0,0
57067,-87.5000109375014,4,1,0,60,0,0
57189,-88.983013142791,4,1,0,60,0,0
57310,-90.5172335761006,4,1,0,60,0,0
57431,-92.1052873961283,4,1,0,60,0,0
57552,-93.7499707031342,4,1,0,60,0,0
57673,-95.4545497933886,4,1,0,60,0,0
57795,-97.2222627314984,4,1,0,60,0,0
57916,-99.0565850836632,4,1,0,60,0,0
58037,-100.961557877223,4,1,0,60,0,0
58158,-102.941131055383,4,1,0,60,0,0
58280,-104.99999475,4,1,0,60,0,0
58401,-107.142895408177,4,1,0,60,0,0
58522,-109.374965820323,4,1,0,60,0,0
58643,-111.702139542781,4,1,0,60,0,0
58764,-114.130496810053,4,1,0,60,0,0
58886,-116.666647222225,4,1,0,60,0,0
59007,-119.318215715402,4,1,0,60,0,0
59128,-122.092966468388,4,1,0,60,0,0
59249,-125,4,1,0,60,0,0
59613,-125,4,1,0,60,0,0
59795,-115.445846085289,4,1,0,60,0,0
59886,-111.196361655047,4,1,0,60,0,0
59977,-107.248496912316,4,1,0,60,0,0
60067,-103.571454464292,4,1,0,60,0,0
60158,-100.138090426698,4,1,0,60,0,0
60249,-96.9251466477469,4,1,0,60,0,0
60340,-93.9118806041915,4,1,0,60,0,0
60431,-91.0804048706157,4,1,0,60,0,0
60522,-88.4146718843112,4,1,0,60,0,0
60613,-85.900468844759,4,1,0,60,0,0
60704,-83.5253720846513,4,1,0,60,0,0
61067,-66.7895148476431,4,1,0,60,0,0
61613,-105.263157894737,4,1,0,70,0,0
61795,-100,4,1,0,70,0,0
61977,-95.2380952380952,4,1,0,70,0,0
62158,-91.137680782982,4,1,0,70,0,1
84340,-91.137680782982,4,1,0,70,0,0
85795,-111.452775787108,4,1,0,60,0,0
87249,-143.422432128919,4,1,0,20,0,0
97431,-142.857142857143,4,1,0,22,0,0
97613,-138.312012536601,4,1,0,24,0,0
97795,-134.047179245207,4,1,0,26,0,0
97977,-130.037320711044,4,1,0,28,0,0
98158,-126.260553804041,4,1,0,30,0,0
98340,-122.696977728045,4,1,0,40,0,0
98522,-119.329036692486,4,1,0,50,0,0
98704,-116.141050983599,4,1,0,50,0,0
98795,-114.610027919003,4,1,0,50,0,0
98886,-113.118844920851,4,1,0,50,0,0
99067,-110.250058156906,4,1,0,50,0,0
99158,-108.86960687185,4,1,0,50,0,0
99249,-107.523181998039,4,1,0,60,0,0
99431,-104.927940736699,4,1,0,60,0,0
99613,-102.455027365738,4,1,0,60,0,0
99704,-101.261721044211,4,1,0,60,0,0
99795,-100.095891864406,4,1,0,70,0,0
107249,-100,4,1,0,70,0,0
107431,-98.7717730027113,4,1,0,70,0,0
107522,-98.1688563230069,4,1,0,70,0,0
107613,-97.5733507664387,4,1,0,70,0,0
107795,-96.4035684744906,4,1,0,70,0,0
107886,-95.8292246553262,4,1,0,70,0,0
107977,-95.261593097726,4,1,0,70,0,0
108067,-94.7006465213138,4,1,0,70,0,0
108158,-94.1463561594312,4,1,0,70,0,0
108249,-93.5984290439669,4,1,0,70,0,0
108340,-93.0569294377221,4,1,0,70,0,0
108431,-92.5215737179517,4,1,0,70,0,0
108522,-91.9923425574055,4,1,0,70,0,0
108613,-91.4692151209589,4,1,0,70,0,0
108704,-90.9519209955233,4,1,0,70,0,1
113249,-88.8991616809054,4,1,0,70,0,1
113340,-87.9270838279232,4,1,0,70,0,1
113431,-86.9761102717917,4,1,0,70,0,1
113522,-86.0454870862933,4,1,0,70,0,1
113613,-85.1345679548378,4,1,0,70,0,1
113704,-84.2426626746877,4,1,0,70,0,1
113795,-83.3693210902706,4,1,0,70,0,1
113916,-82.2326493221563,4,1,0,70,0,1
114037,-81.1265558045239,4,1,0,70,0,1
114158,-80.049758930151,4,1,0,70,0,1
114280,-79.0012347892998,4,1,0,70,0,1
114401,-77.9798235004675,4,1,0,70,0,1
114522,-76.9844275899871,4,1,0,70,0,1
114764,-71.4814677146803,4,1,0,70,0,1
114886,-71.4814677146803,4,1,0,70,0,0

[HitObjects]
260,168,1067,5,0,0:0:0:0:
260,168,1431,1,12,0:0:0:0:
272,168,2158,1,8,0:0:0:0:
272,168,3249,1,0,0:0:0:0:
272,168,3522,1,8,0:0:0:0:
272,168,3613,1,8,0:0:0:0:
276,160,3977,1,8,0:0:0:0:
272,160,4158,1,0,0:0:0:0:
280,152,4340,1,0,0:0:0:0:
280,156,4704,1,0,0:0:0:0:
280,152,4977,1,8,0:0:0:0:
280,152,5067,1,8,0:0:0:0:
280,156,5431,1,0,0:0:0:0:
280,156,5613,1,0,0:0:0:0:
280,152,5795,1,8,0:0:0:0:
280,156,6522,1,0,0:0:0:0:
280,156,7249,1,12,0:0:0:0:
276,160,9613,1,0,0:0:0:0:
276,160,9795,1,0,0:0:0:0:
276,160,9977,1,0,0:0:0:0:
276,160,10158,1,8,0:0:0:0:
278,145,10340,1,0,0:0:0:0:
278,145,10522,1,8,0:0:0:0:
278,145,10704,1,0,0:0:0:0:
276,160,10886,1,8,0:0:0:0:
275,141,11067,1,8,0:0:0:0:
276,160,11249,1,0,0:0:0:0:
279,150,11431,1,0,0:0:0:0:
279,150,11613,1,8,0:0:0:0:
279,150,11795,1,0,0:0:0:0:
279,150,11977,1,8,0:0:0:0:
285,144,12158,1,0,0:0:0:0:
276,160,12340,1,8,0:0:0:0:
276,160,12522,1,0,0:0:0:0:
276,160,12704,1,0,0:0:0:0:
276,160,12886,1,8,0:0:0:0:
276,160,13067,1,8,0:0:0:0:
278,148,13249,1,0,0:0:0:0:
276,160,13431,1,0,0:0:0:0:
276,160,13613,1,8,0:0:0:0:
276,160,13795,1,8,0:0:0:0:
276,160,13977,1,0,0:0:0:0:
276,160,14158,1,8,0:0:0:0:
276,160,14340,1,0,0:0:0:0:
280,152,14522,1,8,0:0:0:0:
277,164,14704,1,8,0:0:0:0:
277,164,14886,1,0,0:0:0:0:
276,152,15067,1,8,0:0:0:0:
280,152,15249,1,8,0:0:0:0:
277,164,15431,1,0,0:0:0:0:
276,152,15613,1,0,0:0:0:0:
276,152,15795,1,8,0:0:0:0:
276,152,15977,1,8,0:0:0:0:
278,163,16158,1,0,0:0:0:0:
276,152,16340,1,0,0:0:0:0:
278,164,16522,1,0,0:0:0:0:
276,152,16704,1,0,0:0:0:0:
276,152,16886,1,8,0:0:0:0:
276,152,17067,1,8,0:0:0:0:
276,152,17249,1,0,0:0:0:0:
278,166,17431,1,8,0:0:0:0:
278,166,17613,1,0,0:0:0:0:
278,166,17795,1,8,0:0:0:0:
278,166,17977,1,0,0:0:0:0:
276,152,18522,1,0,0:0:0:0:
284,148,18704,1,8,0:0:0:0:
284,148,18886,1,0,0:0:0:0:
286,161,19067,1,0,0:0:0:0:
277,144,19249,1,8,0:0:0:0:
277,144,19431,1,0,0:0:0:0:
284,148,19795,1,0,0:0:0:0:
284,148,19977,1,0,0:0:0:0:
284,148,20158,1,0,0:0:0:0:
272,140,20340,1,8,0:0:0:0:
284,148,20704,1,0,0:0:0:0:
284,148,21067,1,8,0:0:0:0:
288,136,21249,1,0,0:0:0:0:
288,136,21431,1,0,0:0:0:0:
284,148,21522,1,0,0:0:0:0:
288,144,21613,1,8,0:0:0:0:
288,144,21795,1,0,0:0:0:0:
284,144,22158,1,0,0:0:0:0:
288,136,22340,1,0,0:0:0:0:
284,148,22522,1,8,0:0:0:0:
284,144,22886,1,0,0:0:0:0:
284,144,23007,1,0,0:0:0:0:
292,132,23128,1,0,0:0:0:0:
288,136,23249,1,8,0:0:0:0:
288,132,23613,1,8,0:0:0:0:
288,136,23795,1,0,0:0:0:0:
288,136,23977,1,8,0:0:0:0:
288,132,24522,1,0,0:0:0:0:
296,128,24704,1,0,0:0:0:0:
296,128,25067,1,8,0:0:0:0:
292,120,25249,1,0,0:0:0:0:
304,132,25431,1,8,0:0:0:0:
308,128,25552,1,8,0:0:0:0:
312,132,25673,1,8,0:0:0:0:
316,136,25795,1,0,0:0:0:0:
316,136,25977,1,0,0:0:0:0:
316,136,26158,1,8,0:0:0:0:
320,136,26340,1,0,0:0:0:0:
316,144,26401,1,8,0:0:0:0:
312,144,26461,1,8,0:0:0:0:
312,144,26522,1,0,0:0:0:0:
304,140,26704,1,8,0:0:0:0:
316,136,26886,1,8,0:0:0:0:
308,140,27067,1,0,0:0:0:0:
320,136,27249,1,8,0:0:0:0:
320,120,27431,1,0,0:0:0:0:
320,128,27522,1,0,0:0:0:0:
320,120,27613,1,8,0:0:0:0:
304,128,27795,1,0,0:0:0:0:
304,124,27977,1,0,0:0:0:0:
304,124,28158,1,0,0:0:0:0:
304,124,28340,1,8,0:0:0:0:
304,124,28522,1,8,0:0:0:0:
304,128,28704,1,0,0:0:0:0:
304,124,28886,1,0,0:0:0:0:
304,124,29067,1,8,0:0:0:0:
304,124,29431,1,0,0:0:0:0:
304,124,29492,1,8,0:0:0:0:
304,124,29552,1,0,0:0:0:0:
304,128,29613,1,0,0:0:0:0:
296,120,29795,1,8,0:0:0:0:
296,120,29977,1,0,0:0:0:0:
296,120,30158,1,8,0:0:0:0:
296,120,30340,1,8,0:0:0:0:
296,120,30522,1,0,0:0:0:0:
296,120,31067,1,0,0:0:0:0:
296,120,31249,1,0,0:0:0:0:
296,120,31431,1,8,0:0:0:0:
296,120,31613,1,8,0:0:0:0:
296,120,31795,1,0,0:0:0:0:
296,120,31977,1,8,0:0:0:0:
296,120,32340,1,0,0:0:0:0:
296,120,32704,1,8,0:0:0:0:
292,128,33067,1,8,0:0:0:0:
296,120,33158,1,8,0:0:0:0:
296,120,33249,1,0,0:0:0:0:
296,120,33340,1,0,0:0:0:0:
296,120,33431,1,12,0:0:0:0:
308,120,33613,1,0,0:0:0:0:
308,120,33704,1,0,0:0:0:0:
308,120,33795,1,8,0:0:0:0:
308,120,33886,1,0,0:0:0:0:
308,120,33977,1,8,0:0:0:0:
308,120,34067,1,0,0:0:0:0:
308,116,34158,1,8,0:0:0:0:
308,116,34249,1,8,0:0:0:0:
304,116,34340,1,0,0:0:0:0:
304,116,34431,1,0,0:0:0:0:
308,120,34522,1,8,0:0:0:0:
308,120,34613,1,8,0:0:0:0:
308,120,34704,1,0,0:0:0:0:
308,120,34795,1,0,0:0:0:0:
308,120,34886,1,8,0:0:0:0:
308,116,35249,1,8,0:0:0:0:
312,116,35340,1,0,0:0:0:0:
304,116,35431,1,8,0:0:0:0:
308,120,35522,1,0,0:0:0:0:
308,120,35613,1,8,0:0:0:0:
304,112,35704,1,0,0:0:0:0:
304,112,35795,1,8,0:0:0:0:
308,120,35886,1,0,0:0:0:0:
308,116,35977,1,8,0:0:0:0:
308,116,36158,1,0,0:0:0:0:
312,116,36340,1,8,0:0:0:0:
312,116,36431,1,0,0:0:0:0:
308,120,36522,1,8,0:0:0:0:
308,120,36613,1,8,0:0:0:0:
312,116,36704,1,8,0:0:0:0:
312,116,36795,1,0,0:0:0:0:
308,120,36886,1,8,0:0:0:0:
308,116,36977,1,8,0:0:0:0:
308,116,37067,1,8,0:0:0:0:
320,120,37158,1,0,0:0:0:0:
316,120,37249,1,8,0:0:0:0:
316,120,37340,1,0,0:0:0:0:
64,108,37431,1,8,0:0:0:0:
308,120,37522,1,8,0:0:0:0:
308,120,37613,1,0,0:0:0:0:
312,116,37704,1,0,0:0:0:0:
312,116,37795,1,8,0:0:0:0:
272,116,38158,1,8,0:0:0:0:
280,120,38249,1,0,0:0:0:0:
280,120,38340,1,8,0:0:0:0:
280,120,38431,1,0,0:0:0:0:
280,120,38522,1,8,0:0:0:0:
280,120,38613,1,0,0:0:0:0:
280,120,38704,1,8,0:0:0:0:
280,120,38795,1,0,0:0:0:0:
280,120,38886,1,8,0:0:0:0:
296,116,39067,1,8,0:0:0:0:
288,116,39249,1,12,0:0:0:0:
288,124,39431,1,0,0:0:0:0:
292,120,39522,1,0,0:0:0:0:
292,116,39613,1,8,0:0:0:0:
292,116,39704,1,0,0:0:0:0:
292,116,39795,1,8,0:0:0:0:
292,116,39886,1,0,0:0:0:0:
296,116,39977,1,8,0:0:0:0:
296,116,40067,1,8,0:0:0:0:
288,116,40158,1,0,0:0:0:0:
288,116,40249,1,8,0:0:0:0:
288,116,40340,1,0,0:0:0:0:
288,124,40431,1,0,0:0:0:0:
292,120,40522,1,8,0:0:0:0:
292,116,40704,1,8,0:0:0:0:
280,112,40795,1,0,0:0:0:0:
284,116,40886,1,0,0:0:0:0:
280,112,40977,1,8,0:0:0:0:
288,116,41067,1,8,0:0:0:0:
288,116,41158,1,0,0:0:0:0:
288,116,41249,1,8,0:0:0:0:
300,108,41431,1,0,0:0:0:0:
296,108,41522,1,8,0:0:0:0:
296,108,41613,1,0,0:0:0:0:
296,108,41704,1,0,0:0:0:0:
296,108,41795,1,8,0:0:0:0:
296,108,41977,1,8,0:0:0:0:
296,108,42158,1,0,0:0:0:0:
296,108,42522,1,0,0:0:0:0:
296,108,42613,1,8,0:0:0:0:
296,108,42704,1,8,0:0:0:0:
296,108,42795,1,0,0:0:0:0:
296,108,42886,1,0,0:0:0:0:
296,108,43067,1,8,0:0:0:0:
296,108,43158,1,0,0:0:0:0:
296,108,43249,1,8,0:0:0:0:
296,108,43431,1,8,0:0:0:0:
296,108,43613,1,8,0:0:0:0:
272,128,43704,1,0,0:0:0:0:
304,104,43795,1,0,0:0:0:0:
304,100,43886,1,8,0:0:0:0:
300,100,43977,1,0,0:0:0:0:
304,104,44158,1,0,0:0:0:0:
304,104,44340,1,8,0:0:0:0:
308,88,44583,1,0,0:0:0:0:
304,88,44825,1,8,0:0:0:0:
304,88,45067,1,4,0:0:0:0:
300,100,46158,1,0,0:0:0:0:
300,100,46340,1,8,0:0:0:0:
300,100,46522,1,8,0:0:0:0:
300,100,46886,1,8,0:0:0:0:
300,100,47249,1,8,0:0:0:0:
300,100,47522,1,0,0:0:0:0:
300,100,47795,1,0,0:0:0:0:
288,108,47977,1,8,0:0:0:0:
288,104,48249,1,0,0:0:0:0:
288,104,48340,1,0,0:0:0:0:
288,100,48704,1,0,0:0:0:0:
288,108,48886,1,8,0:0:0:0:
288,104,49067,1,0,0:0:0:0:
288,104,49249,1,8,0:0:0:0:
288,100,49431,1,8,0:0:0:0:
280,100,49795,1,8,0:0:0:0:
288,104,49977,1,0,0:0:0:0:
288,104,50158,1,0,0:0:0:0:
280,100,50522,1,8,0:0:0:0:
236,144,50795,1,8,0:0:0:0:
236,144,50840,1,8,0:0:0:0:
256,140,50886,1,4,0:0:0:0:
264,120,51795,1,8,0:0:0:0:
272,128,51977,1,8,0:0:0:0:
272,124,52158,1,0,0:0:0:0:
280,128,52340,1,0,0:0:0:0:
280,128,52704,1,8,0:0:0:0:
284,124,53067,1,0,0:0:0:0:
280,128,53249,1,8,0:0:0:0:
280,128,53431,1,8,0:0:0:0:
280,128,53613,1,0,0:0:0:0:
284,124,53795,1,12,0:0:0:0:
284,124,54067,1,0,0:0:0:0:
280,128,54158,1,0,0:0:0:0:
280,128,54522,1,8,0:0:0:0:
284,124,54886,1,0,0:0:0:0:
284,124,55067,1,0,0:0:0:0:
288,124,55249,1,12,0:0:0:0:
288,124,55522,1,0,0:0:0:0:
284,124,55613,1,0,0:0:0:0:
284,124,55795,1,8,0:0:0:0:
284,124,55886,1,0,0:0:0:0:
284,124,55977,1,8,0:0:0:0:
284,124,56067,1,8,0:0:0:0:
288,124,56158,1,0,0:0:0:0:
288,124,56249,1,0,0:0:0:0:
288,124,56340,1,8,0:0:0:0:
288,124,56431,1,0,0:0:0:0:
288,124,56522,1,8,0:0:0:0:
292,120,56613,1,8,0:0:0:0:
288,112,56704,1,4,0:0:0:0:
300,108,56825,1,8,0:0:0:0:
292,104,56946,1,8,0:0:0:0:
292,108,57067,1,0,0:0:0:0:
292,108,57189,1,8,0:0:0:0:
292,108,57310,1,8,0:0:0:0:
296,104,57431,1,0,0:0:0:0:
296,104,57552,1,8,0:0:0:0:
296,104,57673,1,8,0:0:0:0:
300,108,57795,1,0,0:0:0:0:
292,104,57916,1,8,0:0:0:0:
292,108,58037,1,8,0:0:0:0:
292,108,58158,1,0,0:0:0:0:
292,108,58280,1,8,0:0:0:0:
296,104,58401,1,8,0:0:0:0:
296,104,58522,1,0,0:0:0:0:
296,104,58643,1,8,0:0:0:0:
288,108,58764,1,8,0:0:0:0:
296,96,58886,1,0,0:0:0:0:
296,100,59007,1,8,0:0:0:0:
296,100,59128,1,8,0:0:0:0:
296,100,59249,1,0,0:0:0:0:
296,104,59613,1,0,0:0:0:0:
288,104,59795,1,0,0:0:0:0:
288,100,59886,1,0,0:0:0:0:
288,104,59977,1,8,0:0:0:0:
304,92,60067,1,8,0:0:0:0:
304,92,60158,1,0,0:0:0:0:
304,96,60249,1,0,0:0:0:0:
304,96,60340,1,8,0:0:0:0:
304,88,60431,1,0,0:0:0:0:
304,88,60522,1,8,0:0:0:0:
304,88,60613,1,0,0:0:0:0:
304,88,60704,1,8,0:0:0:0:
304,92,61067,1,4,0:0:0:0:
304,88,61613,1,0,0:0:0:0:
308,84,61795,1,0,0:0:0:0:
308,84,61977,1,0,0:0:0:0:
312,88,62158,1,12,0:0:0:0:
304,88,62522,1,0,0:0:0:0:
308,84,62704,1,0,0:0:0:0:
308,84,62795,1,0,0:0:0:0:
308,84,62886,1,8,0:0:0:0:
312,88,63067,1,0,0:0:0:0:
312,88,63158,1,8,0:0:0:0:
304,88,63249,1,0,0:0:0:0:
284,144,63340,1,0,0:0:0:0:
304,88,63431,1,8,0:0:0:0:
304,88,63522,1,0,0:0:0:0:
308,84,63613,1,8,0:0:0:0:
308,84,63795,1,0,0:0:0:0:
312,88,63977,1,8,0:0:0:0:
312,88,64158,1,0,0:0:0:0:
312,84,64249,1,0,0:0:0:0:
300,76,64340,1,8,0:0:0:0:
312,84,64522,1,0,0:0:0:0:
308,84,64613,1,8,0:0:0:0:
308,84,64704,1,0,0:0:0:0:
308,84,64795,1,0,0:0:0:0:
312,88,64886,1,8,0:0:0:0:
312,88,64977,1,8,0:0:0:0:
312,88,65067,1,0,0:0:0:0:
308,96,65249,1,0,0:0:0:0:
308,96,65431,1,8,0:0:0:0:
316,92,65613,1,0,0:0:0:0:
320,92,65795,1,8,0:0:0:0:
312,88,65916,1,8,0:0:0:0:
312,88,66037,1,0,0:0:0:0:
312,88,66158,1,8,0:0:0:0:
316,96,66249,1,0,0:0:0:0:
316,96,66340,1,0,0:0:0:0:
316,96,66431,1,8,0:0:0:0:
316,92,66522,1,8,0:0:0:0:
248,124,66704,1,0,0:0:0:0:
248,124,66764,1,8,0:0:0:0:
248,124,66825,1,8,0:0:0:0:
248,124,66886,1,0,0:0:0:0:
264,160,67067,1,8,0:0:0:0:
264,160,67249,1,0,0:0:0:0:
252,152,67613,1,0,0:0:0:0:
252,152,67704,1,0,0:0:0:0:
256,152,67795,1,0,0:0:0:0:
252,152,67886,1,0,0:0:0:0:
252,152,67977,1,12,0:0:0:0:
264,160,68158,1,8,0:0:0:0:
264,160,68249,1,0,0:0:0:0:
260,156,68340,1,8,0:0:0:0:
260,156,68431,1,8,0:0:0:0:
260,156,68522,1,0,0:0:0:0:
260,156,68613,1,0,0:0:0:0:
260,156,68704,1,8,0:0:0:0:
264,152,68886,1,0,0:0:0:0:
252,152,68977,1,8,0:0:0:0:
264,160,69067,1,0,0:0:0:0:
264,160,69158,1,8,0:0:0:0:
264,160,69249,1,0,0:0:0:0:
260,156,69340,1,0,0:0:0:0:
260,156,69431,1,8,0:0:0:0:
256,148,69613,1,0,0:0:0:0:
264,152,69795,1,0,0:0:0:0:
256,144,69855,1,8,0:0:0:0:
256,144,69916,1,0,0:0:0:0:
256,144,69977,1,0,0:0:0:0:
256,152,70158,1,8,0:0:0:0:
264,148,70340,1,0,0:0:0:0:
264,148,70522,1,8,0:0:0:0:
264,148,70613,1,0,0:0:0:0:
264,152,70704,1,8,0:0:0:0:
264,152,70795,1,8,0:0:0:0:
264,148,70886,1,0,0:0:0:0:
272,152,71067,1,0,0:0:0:0:
272,152,71249,1,8,0:0:0:0:
272,152,71340,1,8,0:0:0:0:
272,152,71431,1,0,0:0:0:0:
272,152,71522,1,0,0:0:0:0:
272,152,71613,1,8,0:0:0:0:
284,144,71795,1,0,0:0:0:0:
284,152,71886,1,0,0:0:0:0:
284,152,71977,1,8,0:0:0:0:
288,152,72158,1,0,0:0:0:0:
288,152,72340,1,8,0:0:0:0:
280,152,72431,1,8,0:0:0:0:
280,148,72522,1,0,0:0:0:0:
284,148,72613,1,0,0:0:0:0:
284,144,72704,1,8,0:0:0:0:
284,144,72795,1,0,0:0:0:0:
284,152,72886,1,0,0:0:0:0:
284,144,72977,1,0,0:0:0:0:
284,144,73067,1,8,0:0:0:0:
284,144,73249,1,0,0:0:0:0:
288,152,73340,1,0,0:0:0:0:
280,152,73431,1,8,0:0:0:0:
288,144,73522,1,0,0:0:0:0:
284,148,73613,1,8,0:0:0:0:
284,144,73704,1,0,0:0:0:0:
284,144,73795,1,12,0:0:0:0:
284,152,74158,1,0,0:0:0:0:
288,152,74340,1,0,0:0:0:0:
284,136,74431,1,8,0:0:0:0:
284,136,74522,1,0,0:0:0:0:
300,136,74704,1,8,0:0:0:0:
284,136,74795,1,0,0:0:0:0:
284,136,74886,1,8,0:0:0:0:
296,152,74977,1,8,0:0:0:0:
296,148,75067,1,0,0:0:0:0:
296,152,75158,1,0,0:0:0:0:
296,152,75249,1,8,0:0:0:0:
296,152,75431,1,0,0:0:0:0:
296,152,75522,1,0,0:0:0:0:
296,152,75613,1,8,0:0:0:0:
296,144,75795,1,0,0:0:0:0:
296,144,75886,1,8,0:0:0:0:
296,144,75977,1,0,0:0:0:0:
296,148,76067,1,0,0:0:0:0:
296,152,76158,1,8,0:0:0:0:
296,152,76249,1,0,0:0:0:0:
296,152,76340,1,8,0:0:0:0:
296,144,76431,1,8,0:0:0:0:
296,144,76522,1,0,0:0:0:0:
296,144,76613,1,0,0:0:0:0:
304,144,76704,1,12,0:0:0:0:
296,132,76886,1,0,0:0:0:0:
296,148,77067,1,8,0:0:0:0:
296,132,77249,1,0,0:0:0:0:
300,120,77431,1,8,0:0:0:0:
304,120,77552,1,8,0:0:0:0:
296,128,77673,1,0,0:0:0:0:
296,132,77795,1,8,0:0:0:0:
288,124,77886,1,8,0:0:0:0:
288,124,77977,1,0,0:0:0:0:
288,124,78067,1,0,0:0:0:0:
288,124,78158,1,8,0:0:0:0:
300,120,78340,1,0,0:0:0:0:
288,104,78401,1,8,0:0:0:0:
300,104,78461,1,8,0:0:0:0:
300,112,78522,1,0,0:0:0:0:
320,112,78704,1,8,0:0:0:0:
312,108,78886,1,0,0:0:0:0:
304,112,79249,1,0,0:0:0:0:
300,112,79340,1,0,0:0:0:0:
316,104,79431,1,0,0:0:0:0:
316,104,79522,1,0,0:0:0:0:
316,104,79613,1,12,0:0:0:0:
320,120,79795,1,0,0:0:0:0:
304,108,79886,1,8,0:0:0:0:
304,112,79977,1,0,0:0:0:0:
304,112,80067,1,0,0:0:0:0:
304,112,80158,1,8,0:0:0:0:
304,112,80249,1,0,0:0:0:0:
300,112,80340,1,8,0:0:0:0:
304,112,80522,1,0,0:0:0:0:
304,112,80613,1,0,0:0:0:0:
304,112,80704,1,8,0:0:0:0:
304,112,80795,1,8,0:0:0:0:
304,108,80886,1,0,0:0:0:0:
304,112,80977,1,0,0:0:0:0:
304,112,81067,1,12,0:0:0:0:
304,112,81431,1,4,0:0:0:0:
304,112,81795,1,12,0:0:0:0:
304,112,82158,1,4,0:0:0:0:
304,112,82522,1,4,0:0:0:0:
304,112,82704,1,0,0:0:0:0:
304,112,82795,1,0,0:0:0:0:
304,112,82886,1,8,0:0:0:0:
304,112,83067,1,0,0:0:0:0:
304,112,83158,1,0,0:0:0:0:
304,112,83249,1,8,0:0:0:0:
304,112,83340,1,8,0:0:0:0:
312,120,83431,1,0,0:0:0:0:
304,112,83522,1,0,0:0:0:0:
304,112,83613,1,8,0:0:0:0:
312,120,83704,1,0,0:0:0:0:
304,112,83795,1,0,0:0:0:0:
304,112,83886,1,0,0:0:0:0:
312,120,83977,1,12,0:0:0:0:
312,120,84340,1,4,0:0:0:0:
248,132,87795,1,8,0:0:0:0:
248,132,87977,1,0,0:0:0:0:
248,132,88158,1,8,0:0:0:0:
248,132,88340,1,8,0:0:0:0:
248,132,89249,1,8,0:0:0:0:
248,132,89431,1,8,0:0:0:0:
248,132,89613,1,0,0:0:0:0:
248,132,89795,1,0,0:0:0:0:
248,132,90158,1,8,0:0:0:0:
244,120,91067,1,8,0:0:0:0:
244,120,91249,1,0,0:0:0:0:
244,120,91795,1,8,0:0:0:0:
244,120,91977,1,0,0:0:0:0:
244,120,92522,1,8,0:0:0:0:
244,120,92704,1,0,0:0:0:0:
244,120,93067,1,0,0:0:0:0:
252,116,93189,1,8,0:0:0:0:
240,108,93310,1,0,0:0:0:0:
240,108,93431,1,0,0:0:0:0:
260,104,93795,1,0,0:0:0:0:
260,104,93977,1,8,0:0:0:0:
260,104,94158,1,0,0:0:0:0:
284,108,95067,1,8,0:0:0:0:
284,108,95249,1,0,0:0:0:0:
284,108,95431,1,8,0:0:0:0:
284,108,95613,1,0,0:0:0:0:
284,96,96158,1,8,0:0:0:0:
280,96,96522,1,8,0:0:0:0:
284,96,96704,1,0,0:0:0:0:
284,96,96886,1,8,0:0:0:0:
284,96,97067,1,0,0:0:0:0:
288,100,97249,1,0,0:0:0:0:
288,100,97431,1,8,0:0:0:0:
284,96,97613,1,0,0:0:0:0:
284,96,97795,1,8,0:0:0:0:
284,96,97977,1,0,0:0:0:0:
288,100,98158,1,8,0:0:0:0:
288,100,98340,1,0,0:0:0:0:
284,96,98522,1,8,0:0:0:0:
284,96,98704,1,0,0:0:0:0:
284,96,98795,1,0,0:0:0:0:
284,96,98886,1,0,0:0:0:0:
284,92,99067,1,0,0:0:0:0:
284,92,99158,1,0,0:0:0:0:
284,92,99249,1,8,0:0:0:0:
284,96,99431,1,8,0:0:0:0:
284,88,99613,1,0,0:0:0:0:
284,88,99704,1,0,0:0:0:0:
284,88,99795,1,8,0:0:0:0:
272,84,99977,1,12,0:0:0:0:
272,92,100340,1,0,0:0:0:0:
284,88,100522,1,0,0:0:0:0:
284,88,100613,1,0,0:0:0:0:
284,88,100704,1,8,0:0:0:0:
284,88,100886,1,0,0:0:0:0:
280,88,101067,1,8,0:0:0:0:
280,88,101249,1,0,0:0:0:0:
280,88,101340,1,8,0:0:0:0:
284,88,101431,1,0,0:0:0:0:
280,96,101613,1,8,0:0:0:0:
280,88,101795,1,0,0:0:0:0:
288,84,101855,1,0,0:0:0:0:
288,84,101916,1,8,0:0:0:0:
288,84,101977,1,0,0:0:0:0:
280,88,102158,1,0,0:0:0:0:
284,80,102340,1,8,0:0:0:0:
284,80,102522,1,0,0:0:0:0:
284,80,102704,1,8,0:0:0:0:
288,84,102886,1,8,0:0:0:0:
288,72,103067,1,0,0:0:0:0:
284,80,103249,1,0,0:0:0:0:
284,80,103431,1,8,0:0:0:0:
284,80,103613,1,8,0:0:0:0:
288,84,103795,1,0,0:0:0:0:
288,84,103855,1,8,0:0:0:0:
288,84,103916,1,8,0:0:0:0:
284,88,103977,1,0,0:0:0:0:
284,80,104158,1,8,0:0:0:0:
284,80,104340,1,0,0:0:0:0:
284,80,104522,1,0,0:0:0:0:
288,84,104704,1,8,0:0:0:0:
288,84,104886,1,0,0:0:0:0:
280,72,104977,1,0,0:0:0:0:
280,72,105067,1,8,0:0:0:0:
284,72,105431,1,0,0:0:0:0:
280,68,105795,1,12,0:0:0:0:
296,88,106158,1,0,0:0:0:0:
296,88,106340,1,8,0:0:0:0:
280,68,106522,1,8,0:0:0:0:
296,80,106704,1,0,0:0:0:0:
296,80,106795,1,8,0:0:0:0:
296,80,106886,1,0,0:0:0:0:
288,72,106977,1,0,0:0:0:0:
288,72,107067,1,8,0:0:0:0:
288,72,107158,1,0,0:0:0:0:
288,72,107249,1,8,0:0:0:0:
292,72,107431,1,0,0:0:0:0:
292,72,107522,1,0,0:0:0:0:
292,72,107613,1,8,0:0:0:0:
296,80,107795,1,0,0:0:0:0:
296,80,107886,1,0,0:0:0:0:
296,80,107977,1,8,0:0:0:0:
296,80,108067,1,8,0:0:0:0:
296,80,108158,1,0,0:0:0:0:
296,80,108249,1,0,0:0:0:0:
296,80,108340,1,8,0:0:0:0:
296,80,108431,1,0,0:0:0:0:
292,72,108522,1,8,0:0:0:0:
296,80,108613,1,0,0:0:0:0:
292,72,108704,1,12,0:0:0:0:
296,80,108886,1,0,0:0:0:0:
296,80,108977,1,0,0:0:0:0:
296,80,109067,1,8,0:0:0:0:
296,80,109158,1,8,0:0:0:0:
296,80,109249,1,0,0:0:0:0:
296,80,109340,1,0,0:0:0:0:
296,80,109431,1,8,0:0:0:0:
292,72,109522,1,0,0:0:0:0:
296,80,109613,1,0,0:0:0:0:
292,72,109704,1,0,0:0:0:0:
296,80,109795,1,8,0:0:0:0:
296,80,109886,1,0,0:0:0:0:
296,80,109977,1,8,0:0:0:0:
296,80,110067,1,0,0:0:0:0:
296,80,110158,1,12,0:0:0:0:
296,80,110340,1,0,0:0:0:0:
296,80,110431,1,0,0:0:0:0:
300,76,110522,1,8,0:0:0:0:
296,80,110613,1,0,0:0:0:0:
300,76,110704,1,0,0:0:0:0:
296,80,110795,1,0,0:0:0:0:
296,80,110886,1,8,0:0:0:0:
296,80,110977,1,8,0:0:0:0:
296,80,111067,1,0,0:0:0:0:
296,80,111158,1,0,0:0:0:0:
296,80,111249,1,8,0:0:0:0:
300,72,111340,1,0,0:0:0:0:
300,72,111431,1,8,0:0:0:0:
300,76,111522,1,0,0:0:0:0:
300,72,111613,1,12,0:0:0:0:
312,72,111795,1,0,0:0:0:0:
304,72,111886,1,0,0:0:0:0:
304,68,111977,1,8,0:0:0:0:
308,80,112067,1,0,0:0:0:0:
308,80,112158,1,8,0:0:0:0:
308,76,112249,1,0,0:0:0:0:
308,76,112340,1,8,0:0:0:0:
308,76,112431,1,0,0:0:0:0:
308,76,112522,1,0,0:0:0:0:
308,76,112613,1,0,0:0:0:0:
312,72,112704,1,8,0:0:0:0:
312,72,112795,1,0,0:0:0:0:
308,80,112886,1,8,0:0:0:0:
308,80,112977,1,0,0:0:0:0:
308,80,113067,1,12,0:0:0:0:
308,76,113249,1,0,0:0:0:0:
304,68,113340,1,0,0:0:0:0:
304,68,113431,1,8,0:0:0:0:
304,68,113522,1,8,0:0:0:0:
304,68,113613,1,0,0:0:0:0:
304,68,113704,1,0,0:0:0:0:
304,64,113795,1,8,0:0:0:0:
308,80,113916,1,0,0:0:0:0:
308,80,114037,1,0,0:0:0:0:
308,76,114158,1,8,0:0:0:0:
308,76,114280,1,8,0:0:0:0:
304,72,114401,1,0,0:0:0:0:
308,76,114522,1,12,0:0:0:0:
300,76,114764,1,0,0:0:0:0:
300,76,114886,1,4,0:0:0:0:
