osu file format v14

[General]
AudioFilename: audio.mp3
AudioLeadIn: 0
PreviewTime: -1
Countdown: 0
SampleSet: Soft
StackLeniency: 0.7
Mode: 3
LetterboxInBreaks: 0
SpecialStyle: 0
WidescreenStoryboard: 0

[Editor]
Bookmarks: 49217,89944,107399,114671,137944
DistanceSpacing: 0.7
BeatDivisor: 4
GridSize: 4
TimelineZoom: 2.4

[Metadata]
Title:Magnetic Shift
TitleUnicode:Magnetic Shift
Artist:MiddleIsland
ArtistUnicode:弦奏無彩色
Creator:Level 51
Version:Superflux
Source:
Tags:
BeatmapID:989996
BeatmapSetID:462255

[Difficulty]
HPDrainRate:8
CircleSize:7
OverallDifficulty:9
ApproachRate:5
SliderMultiplier:1.4
SliderTickRate:1

[Events]
//Background and Video events
0,0,"magnetic shift.jpg",0,0
//Break Periods
//Storyboard Layer 0 (Background)
//Storyboard Layer 1 (Fail)
//Storyboard Layer 2 (Pass)
//Storyboard Layer 3 (Foreground)
//Storyboard Sound Samples

[TimingPoints]
-4601,363.636363636364,4,2,1,20,1,0
25944,-100,4,2,1,20,0,1
37580,-100,4,2,1,20,0,0
89217,-100,4,2,1,20,0,1
89308,-100,4,2,1,20,0,0
138308,-100,4,2,1,20,0,1
152399,-100,4,2,1,20,0,0
152489,-100,4,2,1,20,0,1
152580,-100,4,2,1,20,0,0

[HitObjects]
182,192,853,128,0,1217:0:0:0:0:
256,192,1126,1,0,0:0:0:0:
402,192,1217,1,0,0:0:0:0:
475,192,1217,1,0,0:0:0:0:
109,192,1217,1,0,0:0:0:0:
329,192,1217,1,0,0:0:0:0:
182,192,1580,1,0,0:0:0:0:
256,192,1762,1,0,0:0:0:0:
402,192,1944,1,0,0:0:0:0:
475,192,1944,1,0,0:0:0:0:
109,192,1944,1,0,0:0:0:0:
182,192,2126,1,0,0:0:0:0:
36,192,2126,1,0,0:0:0:0:
329,192,2217,1,0,0:0:0:0:
182,192,2399,1,0,0:0:0:0:
36,192,2399,1,0,0:0:0:0:
329,192,2489,1,0,0:0:0:0:
182,192,2671,1,0,0:0:0:0:
36,192,2671,1,0,0:0:0:0:
329,192,2762,1,0,0:0:0:0:
402,192,2808,1,0,0:0:0:0:
475,192,2853,1,0,0:0:0:0:
256,192,2853,1,0,0:0:0:0:
109,192,2853,1,0,0:0:0:0:
182,192,3217,1,0,0:0:0:0:
402,192,3217,1,0,0:0:0:0:
109,192,3399,1,0,0:0:0:0:
329,192,3399,1,0,0:0:0:0:
256,192,3489,1,0,0:0:0:0:
36,192,3580,1,0,0:0:0:0:
329,192,3671,1,0,0:0:0:0:
109,192,3762,1,0,0:0:0:0:
402,192,3853,1,0,0:0:0:0:
182,192,3944,1,0,0:0:0:0:
475,192,3944,1,0,0:0:0:0:
256,192,3944,1,0,0:0:0:0:
36,192,4126,1,0,0:0:0:0:
109,192,4126,1,0,0:0:0:0:
402,192,4126,1,0,0:0:0:0:
182,192,4308,1,0,0:0:0:0:
475,192,4308,1,0,0:0:0:0:
36,192,4489,1,0,0:0:0:0:
109,192,4580,1,0,0:0:0:0:
182,192,4671,1,0,0:0:0:0:
256,192,4762,1,0,0:0:0:0:
402,192,4762,1,0,0:0:0:0:
36,192,4853,1,0,0:0:0:0:
329,192,4853,1,0,0:0:0:0:
475,192,4853,1,0,0:0:0:0:
182,192,4914,1,0,0:0:0:0:
36,192,4974,1,0,0:0:0:0:
402,192,5035,1,0,0:0:0:0:
256,192,5095,1,0,0:0:0:0:
109,192,5156,1,0,0:0:0:0:
475,192,5217,1,0,0:0:0:0:
329,192,5277,1,0,0:0:0:0:
182,192,5338,1,0,0:0:0:0:
36,192,5399,1,0,0:0:0:0:
109,192,5459,1,0,0:0:0:0:
182,192,5520,1,0,0:0:0:0:
329,192,5580,1,0,0:0:0:0:
402,192,5580,1,0,0:0:0:0:
475,192,5580,1,0,0:0:0:0:
256,192,5580,1,0,0:0:0:0:
329,192,5944,1,0,0:0:0:0:
182,192,6126,1,0,0:0:0:0:
109,192,6217,1,0,0:0:0:0:
256,192,6489,1,0,0:0:0:0:
402,192,6671,1,0,0:0:0:0:
109,192,6762,1,0,0:0:0:0:
182,192,6853,1,0,0:0:0:0:
329,192,6944,1,0,0:0:0:0:
402,192,7035,1,0,0:0:0:0:
475,192,7035,1,0,0:0:0:0:
36,192,7035,1,0,0:0:0:0:
109,192,7035,1,0,0:0:0:0:
182,192,7399,1,0,0:0:0:0:
256,192,7580,1,0,0:0:0:0:
475,192,7762,1,0,0:0:0:0:
329,192,7762,1,0,0:0:0:0:
182,192,7853,1,0,0:0:0:0:
36,192,7944,1,0,0:0:0:0:
475,192,8035,1,0,0:0:0:0:
329,192,8035,1,0,0:0:0:0:
256,192,8126,1,0,0:0:0:0:
109,192,8217,1,0,0:0:0:0:
329,192,8308,1,0,0:0:0:0:
475,192,8308,1,0,0:0:0:0:
182,192,8399,1,0,0:0:0:0:
36,192,8489,1,0,0:0:0:0:
402,192,8489,1,0,0:0:0:0:
109,192,8611,1,0,0:0:0:0:
256,192,8671,1,0,0:0:0:0:
475,192,8671,1,0,0:0:0:0:
182,192,8853,1,0,0:0:0:0:
36,192,9035,1,0,0:0:0:0:
402,192,9035,1,0,0:0:0:0:
329,192,9217,1,0,0:0:0:0:
182,192,9308,1,0,0:0:0:0:
36,192,9399,1,0,0:0:0:0:
402,192,9399,1,0,0:0:0:0:
256,192,9489,1,0,0:0:0:0:
109,192,9580,1,0,0:0:0:0:
475,192,9580,1,0,0:0:0:0:
329,192,9671,1,0,0:0:0:0:
182,192,9762,1,0,0:0:0:0:
36,192,9762,1,0,0:0:0:0:
329,192,9944,1,0,0:0:0:0:
475,192,9944,1,0,0:0:0:0:
109,192,9944,128,0,10671:0:0:0:0:
182,192,10126,1,0,0:0:0:0:
36,192,10308,1,0,0:0:0:0:
329,192,10308,1,0,0:0:0:0:
402,192,10489,1,0,0:0:0:0:
182,192,10489,1,0,0:0:0:0:
475,192,10671,1,0,0:0:0:0:
256,192,10671,1,0,0:0:0:0:
402,192,10732,1,0,0:0:0:0:
329,192,10792,1,0,0:0:0:0:
182,192,10853,1,0,0:0:0:0:
475,192,10914,1,0,0:0:0:0:
402,192,10974,1,0,0:0:0:0:
256,192,11035,1,0,0:0:0:0:
182,192,11095,1,0,0:0:0:0:
36,192,11156,1,0,0:0:0:0:
109,192,11217,1,0,0:0:0:0:
329,192,11217,1,0,0:0:0:0:
182,192,11277,1,0,0:0:0:0:
256,192,11338,1,0,0:0:0:0:
402,192,11399,1,0,0:0:0:0:
475,192,11399,1,0,0:0:0:0:
329,192,11399,1,0,0:0:0:0:
36,192,11399,1,0,0:0:0:0:
182,192,11762,1,0,0:0:0:0:
329,192,11944,1,0,0:0:0:0:
402,192,12035,1,0,0:0:0:0:
182,192,12217,1,0,0:0:0:0:
109,192,12308,1,0,0:0:0:0:
402,192,12489,1,0,0:0:0:0:
475,192,12489,1,0,0:0:0:0:
182,192,12489,1,0,0:0:0:0:
329,192,12580,1,0,0:0:0:0:
256,192,12671,1,0,0:0:0:0:
182,192,12762,1,0,0:0:0:0:
109,192,12853,1,0,0:0:0:0:
36,192,12853,1,0,0:0:0:0:
329,192,12853,1,0,0:0:0:0:
402,192,12853,1,0,0:0:0:0:
475,192,12853,1,0,0:0:0:0:
182,192,13035,1,0,0:0:0:0:
256,192,13217,1,0,0:0:0:0:
329,192,13399,1,0,0:0:0:0:
109,192,13580,1,0,0:0:0:0:
402,192,13580,1,0,0:0:0:0:
182,192,13762,1,0,0:0:0:0:
36,192,13762,1,0,0:0:0:0:
475,192,13853,1,0,0:0:0:0:
329,192,13944,1,0,0:0:0:0:
182,192,14035,1,0,0:0:0:0:
36,192,14035,1,0,0:0:0:0:
475,192,14126,1,0,0:0:0:0:
329,192,14217,1,0,0:0:0:0:
36,192,14308,1,0,0:0:0:0:
256,192,14308,1,0,0:0:0:0:
329,192,14368,1,0,0:0:0:0:
402,192,14429,1,0,0:0:0:0:
475,192,14489,1,0,0:0:0:0:
109,192,14489,1,0,0:0:0:0:
182,192,14853,1,0,0:0:0:0:
402,192,14853,1,0,0:0:0:0:
109,192,15035,1,0,0:0:0:0:
329,192,15035,1,0,0:0:0:0:
36,192,15126,1,0,0:0:0:0:
256,192,15217,1,0,0:0:0:0:
402,192,15217,1,0,0:0:0:0:
109,192,15308,1,0,0:0:0:0:
329,192,15399,1,0,0:0:0:0:
475,192,15399,1,0,0:0:0:0:
182,192,15489,1,0,0:0:0:0:
402,192,15580,1,0,0:0:0:0:
36,192,15580,1,0,0:0:0:0:
256,192,15762,1,0,0:0:0:0:
182,192,15762,128,0,16126:0:0:0:0:
475,192,15762,1,0,0:0:0:0:
109,192,15762,1,0,0:0:0:0:
329,192,15944,1,0,0:0:0:0:
256,192,16126,128,0,16489:0:0:0:0:
36,192,16126,1,0,0:0:0:0:
475,192,16126,1,0,0:0:0:0:
402,192,16126,1,0,0:0:0:0:
109,192,16217,1,0,0:0:0:0:
182,192,16308,1,0,0:0:0:0:
329,192,16399,1,0,0:0:0:0:
475,192,16489,1,0,0:0:0:0:
36,192,16489,1,0,0:0:0:0:
109,192,16489,1,0,0:0:0:0:
329,192,16550,1,0,0:0:0:0:
182,192,16611,1,0,0:0:0:0:
36,192,16671,1,0,0:0:0:0:
256,192,16671,1,0,0:0:0:0:
475,192,16732,1,0,0:0:0:0:
329,192,16792,1,0,0:0:0:0:
182,192,16853,1,0,0:0:0:0:
256,192,16853,1,0,0:0:0:0:
36,192,16914,1,0,0:0:0:0:
475,192,16974,1,0,0:0:0:0:
329,192,17035,1,0,0:0:0:0:
256,192,17035,1,0,0:0:0:0:
182,192,17095,1,0,0:0:0:0:
36,192,17156,1,0,0:0:0:0:
109,192,17217,1,0,0:0:0:0:
256,192,17217,1,0,0:0:0:0:
402,192,17217,1,0,0:0:0:0:
475,192,17217,1,0,0:0:0:0:
182,192,17580,128,0,18399:0:0:0:0:
256,192,17762,128,0,18308:0:0:0:0:
475,192,17944,1,0,0:0:0:0:
329,192,17944,128,0,18217:0:0:0:0:
36,192,17944,1,0,0:0:0:0:
475,192,18126,1,0,0:0:0:0:
402,192,18217,1,0,0:0:0:0:
329,192,18308,1,0,0:0:0:0:
256,192,18399,1,0,0:0:0:0:
182,192,18489,1,0,0:0:0:0:
109,192,18580,1,0,0:0:0:0:
36,192,18671,1,0,0:0:0:0:
402,192,18671,1,0,0:0:0:0:
475,192,18671,128,0,20126:0:0:0:0:
329,192,18671,1,0,0:0:0:0:
182,192,18762,1,0,0:0:0:0:
256,192,18853,1,0,0:0:0:0:
109,192,18944,1,0,0:0:0:0:
36,192,19035,1,0,0:0:0:0:
402,192,19035,1,0,0:0:0:0:
182,192,19126,1,0,0:0:0:0:
329,192,19217,1,0,0:0:0:0:
256,192,19217,1,0,0:0:0:0:
402,192,19308,1,0,0:0:0:0:
109,192,19399,1,0,0:0:0:0:
182,192,19399,1,0,0:0:0:0:
256,192,19399,1,0,0:0:0:0:
329,192,19489,1,0,0:0:0:0:
109,192,19580,1,0,0:0:0:0:
182,192,19580,1,0,0:0:0:0:
402,192,19580,1,0,0:0:0:0:
256,192,19671,1,0,0:0:0:0:
109,192,19762,1,0,0:0:0:0:
182,192,19762,1,0,0:0:0:0:
329,192,19762,1,0,0:0:0:0:
402,192,19853,1,0,0:0:0:0:
109,192,19944,1,0,0:0:0:0:
182,192,19944,1,0,0:0:0:0:
256,192,19944,1,0,0:0:0:0:
329,192,20035,1,0,0:0:0:0:
109,192,20126,128,0,21580:0:0:0:0:
402,192,20126,1,0,0:0:0:0:
36,192,20126,1,0,0:0:0:0:
182,192,20126,1,0,0:0:0:0:
256,192,20217,1,0,0:0:0:0:
475,192,20308,1,0,0:0:0:0:
329,192,20399,1,0,0:0:0:0:
402,192,20489,1,0,0:0:0:0:
182,192,20489,1,0,0:0:0:0:
256,192,20580,1,0,0:0:0:0:
329,192,20671,1,0,0:0:0:0:
475,192,20671,1,0,0:0:0:0:
182,192,20762,1,0,0:0:0:0:
36,192,20853,1,0,0:0:0:0:
329,192,20853,1,0,0:0:0:0:
402,192,20853,1,0,0:0:0:0:
182,192,20944,1,0,0:0:0:0:
329,192,21035,1,0,0:0:0:0:
402,192,21035,1,0,0:0:0:0:
256,192,21035,1,0,0:0:0:0:
36,192,21126,1,0,0:0:0:0:
329,192,21217,1,0,0:0:0:0:
402,192,21217,1,0,0:0:0:0:
182,192,21217,1,0,0:0:0:0:
256,192,21308,1,0,0:0:0:0:
329,192,21399,1,0,0:0:0:0:
402,192,21399,1,0,0:0:0:0:
36,192,21399,1,0,0:0:0:0:
182,192,21489,1,0,0:0:0:0:
329,192,21580,1,0,0:0:0:0:
402,192,21580,1,0,0:0:0:0:
256,192,21580,1,0,0:0:0:0:
475,192,21580,128,0,23035:0:0:0:0:
182,192,21671,1,0,0:0:0:0:
109,192,21762,1,0,0:0:0:0:
256,192,21853,1,0,0:0:0:0:
36,192,21944,1,0,0:0:0:0:
402,192,21944,1,0,0:0:0:0:
182,192,22035,1,0,0:0:0:0:
109,192,22126,1,0,0:0:0:0:
329,192,22126,1,0,0:0:0:0:
402,192,22217,1,0,0:0:0:0:
182,192,22308,1,0,0:0:0:0:
36,192,22308,1,0,0:0:0:0:
256,192,22308,1,0,0:0:0:0:
329,192,22399,1,0,0:0:0:0:
182,192,22489,1,0,0:0:0:0:
36,192,22489,1,0,0:0:0:0:
402,192,22489,1,0,0:0:0:0:
256,192,22580,1,0,0:0:0:0:
182,192,22671,1,0,0:0:0:0:
36,192,22671,1,0,0:0:0:0:
329,192,22671,1,0,0:0:0:0:
402,192,22762,1,0,0:0:0:0:
182,192,22853,1,0,0:0:0:0:
36,192,22853,1,0,0:0:0:0:
256,192,22914,1,0,0:0:0:0:
329,192,22974,1,0,0:0:0:0:
109,192,23035,128,0,24489:0:0:0:0:
402,192,23035,1,0,0:0:0:0:
36,192,23035,1,0,0:0:0:0:
182,192,23035,1,0,0:0:0:0:
402,192,23399,128,0,24489:0:0:0:0:
256,192,23762,128,0,24489:0:0:0:0:
182,192,25035,1,0,0:0:0:0:
402,192,25217,1,0,0:0:0:0:
329,192,25239,1,0,0:0:0:0:
475,192,25308,1,0,0:0:0:0:
36,192,25399,1,0,0:0:0:0:
109,192,25421,1,0,0:0:0:0:
256,192,25489,1,0,0:0:0:0:
475,192,25580,1,0,0:0:0:0:
402,192,25603,1,0,0:0:0:0:
36,192,25671,1,0,0:0:0:0:
109,192,25762,1,0,0:0:0:0:
182,192,25785,1,0,0:0:0:0:
329,192,25853,1,0,0:0:0:0:
402,192,25944,1,0,0:0:0:0:
475,192,25944,1,0,0:0:0:0:
36,192,25944,1,0,0:0:0:0:
109,192,25944,1,0,0:0:0:0:
182,192,25944,1,0,0:0:0:0:
256,192,26035,1,0,0:0:0:0:
475,192,26126,1,0,0:0:0:0:
109,192,26126,1,0,0:0:0:0:
329,192,26126,1,0,0:0:0:0:
182,192,26171,1,0,0:0:0:0:
256,192,26217,1,0,0:0:0:0:
329,192,26262,1,0,0:0:0:0:
402,192,26308,1,0,0:0:0:0:
36,192,26308,1,0,0:0:0:0:
109,192,26399,1,0,0:0:0:0:
182,192,26489,1,0,0:0:0:0:
402,192,26489,1,0,0:0:0:0:
475,192,26489,1,0,0:0:0:0:
329,192,26580,1,0,0:0:0:0:
475,192,26671,1,0,0:0:0:0:
256,192,26671,1,0,0:0:0:0:
36,192,26671,1,0,0:0:0:0:
109,192,26762,1,0,0:0:0:0:
329,192,26762,1,0,0:0:0:0:
182,192,26853,1,0,0:0:0:0:
402,192,26853,1,0,0:0:0:0:
256,192,26944,1,0,0:0:0:0:
475,192,26944,1,0,0:0:0:0:
182,192,27035,1,0,0:0:0:0:
329,192,27035,1,0,0:0:0:0:
109,192,27156,1,0,0:0:0:0:
36,192,27217,1,0,0:0:0:0:
402,192,27217,1,0,0:0:0:0:
475,192,27217,1,0,0:0:0:0:
329,192,27308,1,0,0:0:0:0:
256,192,27399,1,0,0:0:0:0:
109,192,27399,1,0,0:0:0:0:
475,192,27399,1,0,0:0:0:0:
36,192,27489,1,0,0:0:0:0:
182,192,27580,1,0,0:0:0:0:
402,192,27580,1,0,0:0:0:0:
256,192,27671,1,0,0:0:0:0:
109,192,27762,1,0,0:0:0:0:
329,192,27762,1,0,0:0:0:0:
182,192,27853,1,0,0:0:0:0:
475,192,27944,1,0,0:0:0:0:
36,192,27944,1,0,0:0:0:0:
109,192,27989,1,0,0:0:0:0:
402,192,28035,1,0,0:0:0:0:
182,192,28035,1,0,0:0:0:0:
256,192,28080,1,0,0:0:0:0:
329,192,28126,1,0,0:0:0:0:
36,192,28126,1,0,0:0:0:0:
475,192,28217,1,0,0:0:0:0:
109,192,28308,1,0,0:0:0:0:
402,192,28308,1,0,0:0:0:0:
256,192,28308,1,0,0:0:0:0:
36,192,28399,1,0,0:0:0:0:
182,192,28489,1,0,0:0:0:0:
329,192,28489,1,0,0:0:0:0:
109,192,28580,1,0,0:0:0:0:
256,192,28671,1,0,0:0:0:0:
402,192,28671,1,0,0:0:0:0:
182,192,28762,1,0,0:0:0:0:
329,192,28762,1,0,0:0:0:0:
256,192,28853,1,0,0:0:0:0:
475,192,28853,1,0,0:0:0:0:
109,192,28853,1,0,0:0:0:0:
36,192,28944,1,0,0:0:0:0:
402,192,29035,1,0,0:0:0:0:
182,192,29035,1,0,0:0:0:0:
329,192,29126,1,0,0:0:0:0:
109,192,29217,1,0,0:0:0:0:
475,192,29217,1,0,0:0:0:0:
256,192,29308,1,0,0:0:0:0:
36,192,29399,1,0,0:0:0:0:
402,192,29399,1,0,0:0:0:0:
329,192,29399,1,0,0:0:0:0:
182,192,29489,1,0,0:0:0:0:
256,192,29580,1,0,0:0:0:0:
475,192,29580,1,0,0:0:0:0:
36,192,29671,1,0,0:0:0:0:
182,192,29762,1,0,0:0:0:0:
402,192,29762,1,0,0:0:0:0:
109,192,29853,1,0,0:0:0:0:
256,192,29944,1,0,0:0:0:0:
475,192,29944,1,0,0:0:0:0:
329,192,30035,1,0,0:0:0:0:
402,192,30126,1,0,0:0:0:0:
36,192,30126,1,0,0:0:0:0:
109,192,30171,1,0,0:0:0:0:
182,192,30217,1,0,0:0:0:0:
256,192,30262,1,0,0:0:0:0:
475,192,30308,1,0,0:0:0:0:
36,192,30308,1,0,0:0:0:0:
402,192,30308,1,0,0:0:0:0:
329,192,30399,1,0,0:0:0:0:
109,192,30489,1,0,0:0:0:0:
256,192,30489,1,0,0:0:0:0:
329,192,30580,1,0,0:0:0:0:
36,192,30671,1,0,0:0:0:0:
182,192,30671,1,0,0:0:0:0:
402,192,30671,1,0,0:0:0:0:
256,192,30762,1,0,0:0:0:0:
329,192,30853,1,0,0:0:0:0:
475,192,30853,1,0,0:0:0:0:
109,192,30853,1,0,0:0:0:0:
182,192,30944,1,0,0:0:0:0:
256,192,31035,1,0,0:0:0:0:
36,192,31035,1,0,0:0:0:0:
329,192,31126,1,0,0:0:0:0:
182,192,31217,1,0,0:0:0:0:
402,192,31217,1,0,0:0:0:0:
256,192,31308,1,0,0:0:0:0:
329,192,31399,1,0,0:0:0:0:
475,192,31399,1,0,0:0:0:0:
36,192,31489,1,0,0:0:0:0:
182,192,31489,1,0,0:0:0:0:
475,192,31580,1,0,0:0:0:0:
329,192,31580,1,0,0:0:0:0:
36,192,31671,1,0,0:0:0:0:
182,192,31671,1,0,0:0:0:0:
475,192,31762,1,0,0:0:0:0:
402,192,31762,1,0,0:0:0:0:
256,192,31762,1,0,0:0:0:0:
109,192,31853,1,0,0:0:0:0:
329,192,31944,1,0,0:0:0:0:
475,192,31944,1,0,0:0:0:0:
256,192,31989,1,0,0:0:0:0:
182,192,32035,1,0,0:0:0:0:
109,192,32080,1,0,0:0:0:0:
36,192,32126,1,0,0:0:0:0:
475,192,32126,1,0,0:0:0:0:
329,192,32126,1,0,0:0:0:0:
256,192,32217,1,0,0:0:0:0:
402,192,32217,1,0,0:0:0:0:
329,192,32308,1,0,0:0:0:0:
182,192,32308,1,0,0:0:0:0:
109,192,32399,1,0,0:0:0:0:
256,192,32399,1,0,0:0:0:0:
36,192,32489,1,0,0:0:0:0:
402,192,32489,1,0,0:0:0:0:
475,192,32489,1,0,0:0:0:0:
329,192,32580,1,0,0:0:0:0:
109,192,32626,1,0,0:0:0:0:
182,192,32671,1,0,0:0:0:0:
256,192,32717,1,0,0:0:0:0:
36,192,32853,1,0,0:0:0:0:
402,192,32853,1,0,0:0:0:0:
329,192,32944,1,0,0:0:0:0:
475,192,33035,1,0,0:0:0:0:
109,192,33035,1,0,0:0:0:0:
256,192,33126,1,0,0:0:0:0:
402,192,33217,1,0,0:0:0:0:
182,192,33217,1,0,0:0:0:0:
36,192,33217,1,0,0:0:0:0:
329,192,33308,1,0,0:0:0:0:
36,192,33399,1,0,0:0:0:0:
182,192,33399,1,0,0:0:0:0:
402,192,33399,1,0,0:0:0:0:
256,192,33489,1,0,0:0:0:0:
109,192,33580,1,0,0:0:0:0:
329,192,33580,1,0,0:0:0:0:
182,192,33671,1,0,0:0:0:0:
402,192,33671,1,0,0:0:0:0:
475,192,33762,1,0,0:0:0:0:
329,192,33762,1,0,0:0:0:0:
256,192,33808,1,0,0:0:0:0:
182,192,33853,1,0,0:0:0:0:
109,192,33899,1,0,0:0:0:0:
402,192,33944,1,0,0:0:0:0:
36,192,33944,1,0,0:0:0:0:
329,192,33944,1,0,0:0:0:0:
256,192,34035,1,0,0:0:0:0:
109,192,34126,1,0,0:0:0:0:
475,192,34126,1,0,0:0:0:0:
402,192,34126,1,0,0:0:0:0:
36,192,34217,1,0,0:0:0:0:
329,192,34308,1,0,0:0:0:0:
182,192,34308,1,0,0:0:0:0:
402,192,34399,1,0,0:0:0:0:
109,192,34489,1,0,0:0:0:0:
256,192,34489,1,0,0:0:0:0:
329,192,34580,1,0,0:0:0:0:
402,192,34671,1,0,0:0:0:0:
475,192,34671,1,0,0:0:0:0:
36,192,34671,1,0,0:0:0:0:
182,192,34762,1,0,0:0:0:0:
109,192,34853,1,0,0:0:0:0:
475,192,34853,1,0,0:0:0:0:
402,192,34899,1,0,0:0:0:0:
329,192,34944,1,0,0:0:0:0:
256,192,34989,1,0,0:0:0:0:
182,192,35035,1,0,0:0:0:0:
402,192,35035,1,0,0:0:0:0:
36,192,35035,1,0,0:0:0:0:
475,192,35126,1,0,0:0:0:0:
329,192,35217,1,0,0:0:0:0:
109,192,35217,1,0,0:0:0:0:
256,192,35217,1,0,0:0:0:0:
36,192,35308,1,0,0:0:0:0:
475,192,35399,1,0,0:0:0:0:
256,192,35399,1,0,0:0:0:0:
36,192,35444,1,0,0:0:0:0:
402,192,35459,1,0,0:0:0:0:
109,192,35489,1,0,0:0:0:0:
329,192,35520,1,0,0:0:0:0:
182,192,35535,1,0,0:0:0:0:
256,192,35580,1,0,0:0:0:0:
475,192,35580,1,0,0:0:0:0:
109,192,35671,1,0,0:0:0:0:
182,192,35762,1,0,0:0:0:0:
329,192,35762,1,0,0:0:0:0:
402,192,35853,1,0,0:0:0:0:
475,192,35944,1,0,0:0:0:0:
256,192,35944,1,0,0:0:0:0:
36,192,35944,1,0,0:0:0:0:
109,192,36126,1,0,0:0:0:0:
475,192,36126,1,0,0:0:0:0:
182,192,36126,1,0,0:0:0:0:
329,192,36217,1,0,0:0:0:0:
402,192,36217,1,0,0:0:0:0:
109,192,36308,1,0,0:0:0:0:
182,192,36308,1,0,0:0:0:0:
402,192,36399,1,0,0:0:0:0:
329,192,36399,1,0,0:0:0:0:
182,192,36489,1,0,0:0:0:0:
36,192,36489,1,0,0:0:0:0:
256,192,36489,1,0,0:0:0:0:
402,192,36580,1,0,0:0:0:0:
109,192,36671,1,0,0:0:0:0:
256,192,36671,1,0,0:0:0:0:
329,192,36762,1,0,0:0:0:0:
475,192,36762,1,0,0:0:0:0:
36,192,36853,1,0,0:0:0:0:
182,192,36853,1,0,0:0:0:0:
256,192,36944,1,0,0:0:0:0:
402,192,36944,1,0,0:0:0:0:
182,192,37035,1,0,0:0:0:0:
109,192,37035,1,0,0:0:0:0:
36,192,37035,1,0,0:0:0:0:
329,192,37126,1,0,0:0:0:0:
182,192,37217,1,0,0:0:0:0:
256,192,37217,1,0,0:0:0:0:
402,192,37308,1,0,0:0:0:0:
475,192,37308,1,0,0:0:0:0:
109,192,37399,1,0,0:0:0:0:
182,192,37399,1,0,0:0:0:0:
256,192,37489,1,0,0:0:0:0:
475,192,37580,1,0,0:0:0:0:
329,192,37580,1,0,0:0:0:0:
36,192,37580,1,0,0:0:0:0:
182,192,37671,1,0,0:0:0:0:
475,192,37762,1,0,0:0:0:0:
109,192,37762,1,0,0:0:0:0:
402,192,37808,1,0,0:0:0:0:
329,192,37853,1,0,0:0:0:0:
256,192,37899,1,0,0:0:0:0:
36,192,37944,1,0,0:0:0:0:
475,192,37944,1,0,0:0:0:0:
182,192,37944,1,0,0:0:0:0:
402,192,38035,1,0,0:0:0:0:
109,192,38126,1,0,0:0:0:0:
329,192,38126,1,0,0:0:0:0:
36,192,38126,1,0,0:0:0:0:
182,192,38217,1,0,0:0:0:0:
402,192,38308,1,0,0:0:0:0:
256,192,38308,1,0,0:0:0:0:
329,192,38399,1,0,0:0:0:0:
182,192,38399,1,0,0:0:0:0:
256,192,38489,1,0,0:0:0:0:
109,192,38489,1,0,0:0:0:0:
36,192,38580,1,0,0:0:0:0:
182,192,38580,1,0,0:0:0:0:
329,192,38671,1,0,0:0:0:0:
475,192,38671,1,0,0:0:0:0:
109,192,38671,1,0,0:0:0:0:
256,192,38732,1,0,0:0:0:0:
182,192,38792,1,0,0:0:0:0:
36,192,38853,1,0,0:0:0:0:
109,192,38853,1,0,0:0:0:0:
402,192,38853,1,0,0:0:0:0:
475,192,38944,1,0,0:0:0:0:
329,192,39035,1,0,0:0:0:0:
182,192,39035,1,0,0:0:0:0:
36,192,39035,1,0,0:0:0:0:
109,192,39126,1,0,0:0:0:0:
402,192,39217,1,0,0:0:0:0:
256,192,39217,1,0,0:0:0:0:
109,192,39308,1,0,0:0:0:0:
256,192,39399,1,0,0:0:0:0:
402,192,39399,1,0,0:0:0:0:
36,192,39399,1,0,0:0:0:0:
182,192,39489,1,0,0:0:0:0:
36,192,39580,1,0,0:0:0:0:
402,192,39580,1,0,0:0:0:0:
109,192,39626,1,0,0:0:0:0:
182,192,39671,1,0,0:0:0:0:
256,192,39717,1,0,0:0:0:0:
36,192,39762,1,0,0:0:0:0:
475,192,39762,1,0,0:0:0:0:
329,192,39762,1,0,0:0:0:0:
182,192,39853,1,0,0:0:0:0:
109,192,39944,1,0,0:0:0:0:
402,192,39944,1,0,0:0:0:0:
256,192,39944,1,0,0:0:0:0:
475,192,40035,1,0,0:0:0:0:
36,192,40126,1,0,0:0:0:0:
329,192,40126,1,0,0:0:0:0:
256,192,40217,1,0,0:0:0:0:
182,192,40308,1,0,0:0:0:0:
402,192,40308,1,0,0:0:0:0:
329,192,40399,1,0,0:0:0:0:
109,192,40489,1,0,0:0:0:0:
256,192,40489,1,0,0:0:0:0:
475,192,40489,1,0,0:0:0:0:
402,192,40580,1,0,0:0:0:0:
36,192,40671,1,0,0:0:0:0:
182,192,40694,1,0,0:0:0:0:
329,192,40762,1,0,0:0:0:0:
109,192,40853,1,0,0:0:0:0:
256,192,40876,1,0,0:0:0:0:
402,192,40944,1,0,0:0:0:0:
182,192,41035,1,0,0:0:0:0:
329,192,41035,1,0,0:0:0:0:
109,192,41126,1,0,0:0:0:0:
256,192,41217,1,0,0:0:0:0:
402,192,41217,1,0,0:0:0:0:
182,192,41308,1,0,0:0:0:0:
36,192,41399,1,0,0:0:0:0:
329,192,41399,1,0,0:0:0:0:
475,192,41399,1,0,0:0:0:0:
109,192,41489,1,0,0:0:0:0:
256,192,41489,1,0,0:0:0:0:
402,192,41489,1,0,0:0:0:0:
182,192,41580,1,0,0:0:0:0:
329,192,41671,1,0,0:0:0:0:
475,192,41762,1,0,0:0:0:0:
109,192,41762,1,0,0:0:0:0:
402,192,41808,1,0,0:0:0:0:
329,192,41853,1,0,0:0:0:0:
256,192,41899,1,0,0:0:0:0:
182,192,41944,1,0,0:0:0:0:
475,192,41944,1,0,0:0:0:0:
36,192,41944,1,0,0:0:0:0:
109,192,42035,1,0,0:0:0:0:
329,192,42035,1,0,0:0:0:0:
36,192,42126,1,0,0:0:0:0:
475,192,42126,1,0,0:0:0:0:
182,192,42217,1,0,0:0:0:0:
329,192,42217,1,0,0:0:0:0:
109,192,42308,1,0,0:0:0:0:
256,192,42308,1,0,0:0:0:0:
475,192,42308,1,0,0:0:0:0:
402,192,42399,1,0,0:0:0:0:
36,192,42489,1,0,0:0:0:0:
109,192,42489,1,0,0:0:0:0:
182,192,42489,1,0,0:0:0:0:
402,192,42580,1,0,0:0:0:0:
475,192,42580,1,0,0:0:0:0:
109,192,42671,1,0,0:0:0:0:
182,192,42671,1,0,0:0:0:0:
402,192,42762,1,0,0:0:0:0:
329,192,42762,1,0,0:0:0:0:
109,192,42853,1,0,0:0:0:0:
256,192,42853,1,0,0:0:0:0:
329,192,42944,1,0,0:0:0:0:
475,192,42944,1,0,0:0:0:0:
36,192,43035,1,0,0:0:0:0:
182,192,43035,1,0,0:0:0:0:
329,192,43126,1,0,0:0:0:0:
475,192,43126,1,0,0:0:0:0:
182,192,43217,1,0,0:0:0:0:
36,192,43217,1,0,0:0:0:0:
329,192,43308,1,0,0:0:0:0:
475,192,43308,1,0,0:0:0:0:
256,192,43399,128,0,43762:0:0:0:0:
109,192,43399,1,0,0:0:0:0:
182,192,43399,1,0,0:0:0:0:
475,192,43580,1,0,0:0:0:0:
402,192,43626,1,0,0:0:0:0:
329,192,43671,1,0,0:0:0:0:
182,192,43717,1,0,0:0:0:0:
109,192,43762,1,0,0:0:0:0:
36,192,43762,1,0,0:0:0:0:
402,192,43853,1,0,0:0:0:0:
475,192,43853,1,0,0:0:0:0:
182,192,43944,1,0,0:0:0:0:
109,192,43944,1,0,0:0:0:0:
329,192,44035,1,0,0:0:0:0:
402,192,44035,1,0,0:0:0:0:
36,192,44126,1,0,0:0:0:0:
109,192,44126,1,0,0:0:0:0:
402,192,44217,1,0,0:0:0:0:
475,192,44217,1,0,0:0:0:0:
329,192,44262,1,0,0:0:0:0:
256,192,44308,1,0,0:0:0:0:
109,192,44308,1,0,0:0:0:0:
36,192,44399,1,0,0:0:0:0:
182,192,44489,1,0,0:0:0:0:
109,192,44580,1,0,0:0:0:0:
256,192,44671,1,0,0:0:0:0:
402,192,44671,1,0,0:0:0:0:
182,192,44762,1,0,0:0:0:0:
36,192,44853,1,0,0:0:0:0:
329,192,44853,1,0,0:0:0:0:
475,192,44853,1,0,0:0:0:0:
256,192,44944,1,0,0:0:0:0:
109,192,45035,1,0,0:0:0:0:
402,192,45035,1,0,0:0:0:0:
329,192,45126,1,0,0:0:0:0:
182,192,45217,1,0,0:0:0:0:
475,192,45217,1,0,0:0:0:0:
256,192,45308,1,0,0:0:0:0:
402,192,45399,1,0,0:0:0:0:
109,192,45399,1,0,0:0:0:0:
182,192,45444,1,0,0:0:0:0:
256,192,45489,1,0,0:0:0:0:
329,192,45535,1,0,0:0:0:0:
36,192,45580,1,0,0:0:0:0:
402,192,45580,1,0,0:0:0:0:
109,192,45671,1,0,0:0:0:0:
475,192,45762,1,0,0:0:0:0:
182,192,45762,1,0,0:0:0:0:
329,192,45762,1,0,0:0:0:0:
402,192,45853,1,0,0:0:0:0:
36,192,45944,1,0,0:0:0:0:
329,192,45944,1,0,0:0:0:0:
182,192,46035,1,0,0:0:0:0:
256,192,46126,1,0,0:0:0:0:
402,192,46126,1,0,0:0:0:0:
36,192,46217,1,0,0:0:0:0:
109,192,46217,1,0,0:0:0:0:
182,192,46308,1,0,0:0:0:0:
329,192,46308,1,0,0:0:0:0:
475,192,46308,1,0,0:0:0:0:
109,192,46399,1,0,0:0:0:0:
402,192,46489,1,0,0:0:0:0:
36,192,46489,1,0,0:0:0:0:
329,192,46535,1,0,0:0:0:0:
256,192,46580,1,0,0:0:0:0:
182,192,46626,1,0,0:0:0:0:
109,192,46671,1,0,0:0:0:0:
475,192,46671,1,0,0:0:0:0:
402,192,46762,1,0,0:0:0:0:
329,192,46853,1,0,0:0:0:0:
36,192,46853,1,0,0:0:0:0:
109,192,46944,1,0,0:0:0:0:
256,192,46944,1,0,0:0:0:0:
475,192,47035,1,0,0:0:0:0:
182,192,47035,1,0,0:0:0:0:
329,192,47126,1,0,0:0:0:0:
182,192,47217,1,0,0:0:0:0:
36,192,47308,1,0,0:0:0:0:
329,192,47308,1,0,0:0:0:0:
182,192,47399,1,0,0:0:0:0:
329,192,47489,1,0,0:0:0:0:
182,192,47580,1,0,0:0:0:0:
475,192,47580,1,0,0:0:0:0:
256,192,47671,1,0,0:0:0:0:
329,192,47762,1,0,0:0:0:0:
475,192,47762,1,0,0:0:0:0:
36,192,47853,1,0,0:0:0:0:
182,192,47853,1,0,0:0:0:0:
402,192,47944,1,0,0:0:0:0:
256,192,47944,1,0,0:0:0:0:
109,192,48035,1,0,0:0:0:0:
475,192,48126,1,0,0:0:0:0:
329,192,48126,1,0,0:0:0:0:
182,192,48217,1,0,0:0:0:0:
36,192,48217,1,0,0:0:0:0:
402,192,48308,1,0,0:0:0:0:
109,192,48399,1,0,0:0:0:0:
256,192,48399,1,0,0:0:0:0:
329,192,48489,1,0,0:0:0:0:
475,192,48489,1,0,0:0:0:0:
36,192,48580,1,0,0:0:0:0:
182,192,48580,1,0,0:0:0:0:
256,192,48671,1,0,0:0:0:0:
402,192,48671,1,0,0:0:0:0:
109,192,48762,1,0,0:0:0:0:
329,192,48853,1,0,0:0:0:0:
475,192,48853,1,0,0:0:0:0:
36,192,48944,1,0,0:0:0:0:
182,192,48944,1,0,0:0:0:0:
402,192,49035,1,0,0:0:0:0:
109,192,49126,1,0,0:0:0:0:
256,192,49126,1,0,0:0:0:0:
36,192,49217,5,0,0:0:0:0:
475,192,49217,1,0,0:0:0:0:
182,192,49217,1,0,0:0:0:0:
329,192,49217,1,0,0:0:0:0:
329,192,49580,1,0,0:0:0:0:
36,192,49762,1,0,0:0:0:0:
109,192,49762,1,0,0:0:0:0:
182,192,49762,1,0,0:0:0:0:
329,192,49944,1,0,0:0:0:0:
475,192,49944,128,0,50671:0:0:0:0:
109,192,50671,1,0,0:0:0:0:
182,192,50671,1,0,0:0:0:0:
256,192,50671,1,0,0:0:0:0:
109,192,50853,1,0,0:0:0:0:
182,192,50853,1,0,0:0:0:0:
256,192,50853,1,0,0:0:0:0:
36,192,51217,1,0,0:0:0:0:
109,192,51217,1,0,0:0:0:0:
182,192,51217,1,0,0:0:0:0:
256,192,51399,128,0,51580:0:0:0:0:
329,192,51580,1,0,0:0:0:0:
475,192,51580,1,0,0:0:0:0:
182,192,51762,1,0,0:0:0:0:
402,192,51762,1,0,0:0:0:0:
36,192,51944,1,0,0:0:0:0:
109,192,52005,1,0,0:0:0:0:
182,192,52065,1,0,0:0:0:0:
329,192,52126,1,0,0:0:0:0:
402,192,52126,1,0,0:0:0:0:
475,192,52126,1,0,0:0:0:0:
256,192,52126,128,0,53580:0:0:0:0:
182,192,52308,128,0,53580:0:0:0:0:
329,192,52853,128,0,53580:0:0:0:0:
402,192,53580,1,0,0:0:0:0:
475,192,53580,1,0,0:0:0:0:
109,192,53580,1,0,0:0:0:0:
36,192,53671,1,0,0:0:0:0:
182,192,53762,1,0,0:0:0:0:
475,192,53762,1,0,0:0:0:0:
36,192,53853,1,0,0:0:0:0:
329,192,53944,1,0,0:0:0:0:
402,192,53944,1,0,0:0:0:0:
475,192,53944,1,0,0:0:0:0:
256,192,54035,1,0,0:0:0:0:
109,192,54126,1,0,0:0:0:0:
36,192,54126,1,0,0:0:0:0:
256,192,54217,1,0,0:0:0:0:
329,192,54308,1,0,0:0:0:0:
402,192,54308,1,0,0:0:0:0:
475,192,54308,1,0,0:0:0:0:
36,192,54399,1,0,0:0:0:0:
182,192,54489,1,0,0:0:0:0:
475,192,54489,1,0,0:0:0:0:
36,192,54580,1,0,0:0:0:0:
256,192,54671,1,0,0:0:0:0:
329,192,54671,1,0,0:0:0:0:
402,192,54671,1,0,0:0:0:0:
182,192,54717,1,0,0:0:0:0:
109,192,54762,1,0,0:0:0:0:
36,192,54808,1,0,0:0:0:0:
475,192,54853,1,0,0:0:0:0:
402,192,54853,1,0,0:0:0:0:
329,192,54899,1,0,0:0:0:0:
256,192,54944,1,0,0:0:0:0:
182,192,54989,1,0,0:0:0:0:
109,192,55035,1,0,0:0:0:0:
36,192,55035,1,0,0:0:0:0:
402,192,55035,1,0,0:0:0:0:
475,192,55035,1,0,0:0:0:0:
329,192,55126,1,0,0:0:0:0:
36,192,55217,1,0,0:0:0:0:
475,192,55217,1,0,0:0:0:0:
109,192,55262,1,0,0:0:0:0:
182,192,55308,1,0,0:0:0:0:
256,192,55353,1,0,0:0:0:0:
329,192,55399,1,0,0:0:0:0:
402,192,55399,1,0,0:0:0:0:
182,192,55489,1,0,0:0:0:0:
475,192,55580,1,0,0:0:0:0:
36,192,55580,1,0,0:0:0:0:
329,192,55671,1,0,0:0:0:0:
36,192,55762,1,0,0:0:0:0:
256,192,55762,1,0,0:0:0:0:
109,192,55853,1,0,0:0:0:0:
329,192,55853,1,0,0:0:0:0:
182,192,55944,1,0,0:0:0:0:
402,192,55944,1,0,0:0:0:0:
256,192,56035,1,0,0:0:0:0:
475,192,56035,1,0,0:0:0:0:
329,192,56126,1,0,0:0:0:0:
402,192,56217,1,0,0:0:0:0:
182,192,56217,1,0,0:0:0:0:
475,192,56308,1,0,0:0:0:0:
109,192,56308,1,0,0:0:0:0:
36,192,56399,1,0,0:0:0:0:
402,192,56489,1,0,0:0:0:0:
329,192,56489,1,0,0:0:0:0:
182,192,56580,1,0,0:0:0:0:
402,192,56671,1,0,0:0:0:0:
329,192,56671,1,0,0:0:0:0:
109,192,56762,1,0,0:0:0:0:
36,192,56853,1,0,0:0:0:0:
329,192,56853,1,0,0:0:0:0:
256,192,56944,1,0,0:0:0:0:
475,192,57035,1,0,0:0:0:0:
109,192,57035,1,0,0:0:0:0:
402,192,57080,1,0,0:0:0:0:
329,192,57126,1,0,0:0:0:0:
256,192,57171,1,0,0:0:0:0:
182,192,57217,1,0,0:0:0:0:
36,192,57217,1,0,0:0:0:0:
475,192,57308,1,0,0:0:0:0:
329,192,57399,1,0,0:0:0:0:
109,192,57399,1,0,0:0:0:0:
36,192,57399,1,0,0:0:0:0:
256,192,57489,1,0,0:0:0:0:
402,192,57580,1,0,0:0:0:0:
475,192,57580,1,0,0:0:0:0:
109,192,57671,1,0,0:0:0:0:
182,192,57762,1,0,0:0:0:0:
402,192,57762,1,0,0:0:0:0:
256,192,57853,1,0,0:0:0:0:
36,192,57944,1,0,0:0:0:0:
109,192,57944,1,0,0:0:0:0:
329,192,57944,1,0,0:0:0:0:
475,192,58035,1,0,0:0:0:0:
256,192,58126,1,0,0:0:0:0:
402,192,58126,1,0,0:0:0:0:
182,192,58217,1,0,0:0:0:0:
329,192,58217,1,0,0:0:0:0:
36,192,58308,1,0,0:0:0:0:
109,192,58308,1,0,0:0:0:0:
475,192,58308,1,0,0:0:0:0:
402,192,58399,1,0,0:0:0:0:
182,192,58489,1,0,0:0:0:0:
329,192,58489,1,0,0:0:0:0:
109,192,58580,1,0,0:0:0:0:
256,192,58671,1,0,0:0:0:0:
402,192,58671,1,0,0:0:0:0:
182,192,58762,1,0,0:0:0:0:
109,192,58853,1,0,0:0:0:0:
329,192,58853,1,0,0:0:0:0:
36,192,58944,1,0,0:0:0:0:
402,192,58944,1,0,0:0:0:0:
182,192,59035,1,0,0:0:0:0:
475,192,59035,1,0,0:0:0:0:
256,192,59035,1,0,0:0:0:0:
109,192,59126,1,0,0:0:0:0:
402,192,59217,1,0,0:0:0:0:
329,192,59262,1,0,0:0:0:0:
256,192,59308,1,0,0:0:0:0:
36,192,59308,1,0,0:0:0:0:
109,192,59353,1,0,0:0:0:0:
182,192,59399,1,0,0:0:0:0:
402,192,59399,1,0,0:0:0:0:
475,192,59399,1,0,0:0:0:0:
329,192,59489,1,0,0:0:0:0:
256,192,59580,1,0,0:0:0:0:
109,192,59580,1,0,0:0:0:0:
36,192,59671,1,0,0:0:0:0:
182,192,59762,1,0,0:0:0:0:
329,192,59762,1,0,0:0:0:0:
475,192,59762,1,0,0:0:0:0:
109,192,59853,1,0,0:0:0:0:
256,192,59853,1,0,0:0:0:0:
36,192,59944,1,0,0:0:0:0:
182,192,59944,1,0,0:0:0:0:
329,192,60035,1,0,0:0:0:0:
475,192,60035,1,0,0:0:0:0:
182,192,60126,1,0,0:0:0:0:
36,192,60126,1,0,0:0:0:0:
329,192,60217,1,0,0:0:0:0:
475,192,60217,1,0,0:0:0:0:
36,192,60308,1,0,0:0:0:0:
182,192,60308,1,0,0:0:0:0:
329,192,60399,1,0,0:0:0:0:
475,192,60399,1,0,0:0:0:0:
109,192,60489,1,0,0:0:0:0:
256,192,60489,1,0,0:0:0:0:
329,192,60580,1,0,0:0:0:0:
475,192,60580,1,0,0:0:0:0:
36,192,60671,1,0,0:0:0:0:
182,192,60671,1,0,0:0:0:0:
256,192,60762,1,0,0:0:0:0:
402,192,60762,1,0,0:0:0:0:
109,192,60853,1,0,0:0:0:0:
329,192,60853,1,0,0:0:0:0:
475,192,60853,1,0,0:0:0:0:
182,192,60944,1,0,0:0:0:0:
256,192,61035,1,0,0:0:0:0:
329,192,61080,1,0,0:0:0:0:
402,192,61126,1,0,0:0:0:0:
182,192,61126,1,0,0:0:0:0:
109,192,61171,1,0,0:0:0:0:
475,192,61217,1,0,0:0:0:0:
36,192,61217,1,0,0:0:0:0:
256,192,61217,1,0,0:0:0:0:
329,192,61308,1,0,0:0:0:0:
182,192,61308,1,0,0:0:0:0:
402,192,61399,1,0,0:0:0:0:
475,192,61399,1,0,0:0:0:0:
109,192,61489,1,0,0:0:0:0:
256,192,61489,1,0,0:0:0:0:
329,192,61580,1,0,0:0:0:0:
475,192,61580,1,0,0:0:0:0:
182,192,61671,1,0,0:0:0:0:
36,192,61671,1,0,0:0:0:0:
256,192,61762,1,0,0:0:0:0:
402,192,61762,1,0,0:0:0:0:
109,192,61853,1,0,0:0:0:0:
329,192,61853,1,0,0:0:0:0:
182,192,61944,1,0,0:0:0:0:
475,192,61944,1,0,0:0:0:0:
256,192,62035,1,0,0:0:0:0:
402,192,62035,1,0,0:0:0:0:
329,192,62126,1,0,0:0:0:0:
36,192,62126,1,0,0:0:0:0:
109,192,62217,1,0,0:0:0:0:
402,192,62308,1,0,0:0:0:0:
475,192,62308,1,0,0:0:0:0:
182,192,62308,1,0,0:0:0:0:
329,192,62399,1,0,0:0:0:0:
36,192,62399,1,0,0:0:0:0:
475,192,62489,1,0,0:0:0:0:
256,192,62489,1,0,0:0:0:0:
182,192,62489,1,0,0:0:0:0:
402,192,62580,1,0,0:0:0:0:
36,192,62580,1,0,0:0:0:0:
329,192,62671,1,0,0:0:0:0:
182,192,62671,1,0,0:0:0:0:
109,192,62671,1,0,0:0:0:0:
256,192,62762,1,0,0:0:0:0:
475,192,62762,1,0,0:0:0:0:
402,192,62762,1,0,0:0:0:0:
182,192,62853,1,0,0:0:0:0:
109,192,62899,1,0,0:0:0:0:
36,192,62944,1,0,0:0:0:0:
475,192,62944,1,0,0:0:0:0:
402,192,62989,1,0,0:0:0:0:
256,192,63035,1,0,0:0:0:0:
182,192,63035,1,0,0:0:0:0:
329,192,63035,1,0,0:0:0:0:
109,192,63126,1,0,0:0:0:0:
36,192,63217,1,0,0:0:0:0:
329,192,63217,1,0,0:0:0:0:
475,192,63217,1,0,0:0:0:0:
256,192,63308,1,0,0:0:0:0:
109,192,63399,1,0,0:0:0:0:
182,192,63399,1,0,0:0:0:0:
402,192,63399,1,0,0:0:0:0:
329,192,63489,1,0,0:0:0:0:
475,192,63580,1,0,0:0:0:0:
36,192,63580,1,0,0:0:0:0:
109,192,63671,1,0,0:0:0:0:
256,192,63671,1,0,0:0:0:0:
182,192,63762,1,0,0:0:0:0:
329,192,63762,1,0,0:0:0:0:
402,192,63762,1,0,0:0:0:0:
475,192,63853,1,0,0:0:0:0:
36,192,63944,1,0,0:0:0:0:
109,192,63989,1,0,0:0:0:0:
182,192,64035,1,0,0:0:0:0:
329,192,64035,1,0,0:0:0:0:
402,192,64080,1,0,0:0:0:0:
475,192,64126,1,0,0:0:0:0:
256,192,64126,1,0,0:0:0:0:
36,192,64126,1,0,0:0:0:0:
109,192,64217,1,0,0:0:0:0:
329,192,64217,1,0,0:0:0:0:
402,192,64308,1,0,0:0:0:0:
182,192,64308,1,0,0:0:0:0:
329,192,64399,1,0,0:0:0:0:
36,192,64489,1,0,0:0:0:0:
256,192,64489,1,0,0:0:0:0:
475,192,64489,1,0,0:0:0:0:
182,192,64535,1,0,0:0:0:0:
109,192,64580,1,0,0:0:0:0:
402,192,64580,1,0,0:0:0:0:
329,192,64626,1,0,0:0:0:0:
256,192,64671,1,0,0:0:0:0:
36,192,64671,1,0,0:0:0:0:
329,192,64762,5,0,0:0:0:0:
475,192,64762,1,0,0:0:0:0:
256,192,64853,1,0,0:0:0:0:
182,192,64914,1,0,0:0:0:0:
109,192,64974,1,0,0:0:0:0:
36,192,65035,1,0,0:0:0:0:
402,192,65035,1,0,0:0:0:0:
256,192,65126,1,0,0:0:0:0:
329,192,65126,1,0,0:0:0:0:
109,192,65217,1,0,0:0:0:0:
402,192,65217,1,0,0:0:0:0:
475,192,65217,1,0,0:0:0:0:
36,192,65217,1,0,0:0:0:0:
256,192,65308,1,0,0:0:0:0:
182,192,65308,1,0,0:0:0:0:
329,192,65399,1,0,0:0:0:0:
402,192,65399,1,0,0:0:0:0:
109,192,65489,1,0,0:0:0:0:
182,192,65489,1,0,0:0:0:0:
329,192,65580,1,0,0:0:0:0:
402,192,65580,1,0,0:0:0:0:
475,192,65580,1,0,0:0:0:0:
36,192,65580,1,0,0:0:0:0:
256,192,65671,1,0,0:0:0:0:
182,192,65671,1,0,0:0:0:0:
36,192,65762,1,0,0:0:0:0:
109,192,65762,1,0,0:0:0:0:
256,192,65853,1,0,0:0:0:0:
329,192,65853,1,0,0:0:0:0:
109,192,65944,5,0,0:0:0:0:
36,192,65944,1,0,0:0:0:0:
402,192,65944,1,0,0:0:0:0:
475,192,65944,1,0,0:0:0:0:
182,192,66035,1,0,0:0:0:0:
475,192,66126,1,0,0:0:0:0:
256,192,66126,1,0,0:0:0:0:
402,192,66186,1,0,0:0:0:0:
109,192,66186,1,0,0:0:0:0:
329,192,66247,1,0,0:0:0:0:
182,192,66247,1,0,0:0:0:0:
36,192,66308,1,0,0:0:0:0:
256,192,66308,1,0,0:0:0:0:
109,192,66368,1,0,0:0:0:0:
475,192,66368,1,0,0:0:0:0:
182,192,66429,1,0,0:0:0:0:
402,192,66429,1,0,0:0:0:0:
329,192,66489,1,0,0:0:0:0:
109,192,66671,1,0,0:0:0:0:
36,192,66671,1,0,0:0:0:0:
256,192,66671,1,0,0:0:0:0:
402,192,66671,1,0,0:0:0:0:
475,192,66671,1,0,0:0:0:0:
182,192,66762,1,0,0:0:0:0:
329,192,66853,1,0,0:0:0:0:
402,192,66899,1,0,0:0:0:0:
475,192,66944,1,0,0:0:0:0:
182,192,66944,1,0,0:0:0:0:
109,192,66989,1,0,0:0:0:0:
36,192,67035,1,0,0:0:0:0:
256,192,67035,1,0,0:0:0:0:
329,192,67035,1,0,0:0:0:0:
402,192,67126,1,0,0:0:0:0:
475,192,67217,1,0,0:0:0:0:
182,192,67217,1,0,0:0:0:0:
109,192,67217,1,0,0:0:0:0:
329,192,67308,1,0,0:0:0:0:
36,192,67399,1,0,0:0:0:0:
256,192,67399,1,0,0:0:0:0:
109,192,67489,1,0,0:0:0:0:
402,192,67489,1,0,0:0:0:0:
182,192,67580,1,0,0:0:0:0:
329,192,67580,1,0,0:0:0:0:
256,192,67671,1,0,0:0:0:0:
475,192,67671,1,0,0:0:0:0:
402,192,67762,1,0,0:0:0:0:
329,192,67853,1,0,0:0:0:0:
109,192,67853,1,0,0:0:0:0:
475,192,67944,1,0,0:0:0:0:
182,192,67944,1,0,0:0:0:0:
402,192,68035,1,0,0:0:0:0:
36,192,68126,1,0,0:0:0:0:
109,192,68126,1,0,0:0:0:0:
256,192,68126,1,0,0:0:0:0:
475,192,68217,1,0,0:0:0:0:
36,192,68308,1,0,0:0:0:0:
109,192,68308,1,0,0:0:0:0:
256,192,68308,1,0,0:0:0:0:
329,192,68399,1,0,0:0:0:0:
182,192,68489,1,0,0:0:0:0:
402,192,68489,1,0,0:0:0:0:
475,192,68489,1,0,0:0:0:0:
256,192,68580,1,0,0:0:0:0:
36,192,68671,1,0,0:0:0:0:
109,192,68717,1,0,0:0:0:0:
182,192,68762,1,0,0:0:0:0:
402,192,68762,1,0,0:0:0:0:
329,192,68808,1,0,0:0:0:0:
256,192,68853,1,0,0:0:0:0:
475,192,68853,1,0,0:0:0:0:
36,192,68853,1,0,0:0:0:0:
182,192,68944,1,0,0:0:0:0:
475,192,69035,1,0,0:0:0:0:
329,192,69035,1,0,0:0:0:0:
109,192,69035,1,0,0:0:0:0:
256,192,69126,1,0,0:0:0:0:
402,192,69126,1,0,0:0:0:0:
36,192,69217,1,0,0:0:0:0:
109,192,69308,1,0,0:0:0:0:
329,192,69308,1,0,0:0:0:0:
182,192,69399,1,0,0:0:0:0:
475,192,69399,1,0,0:0:0:0:
256,192,69489,1,0,0:0:0:0:
402,192,69489,1,0,0:0:0:0:
329,192,69580,1,0,0:0:0:0:
36,192,69580,1,0,0:0:0:0:
109,192,69580,1,0,0:0:0:0:
182,192,69671,1,0,0:0:0:0:
256,192,69762,1,0,0:0:0:0:
475,192,69762,1,0,0:0:0:0:
402,192,69853,1,0,0:0:0:0:
329,192,69944,1,0,0:0:0:0:
36,192,69944,1,0,0:0:0:0:
182,192,69944,1,0,0:0:0:0:
475,192,70035,1,0,0:0:0:0:
256,192,70126,1,0,0:0:0:0:
402,192,70126,1,0,0:0:0:0:
36,192,70126,1,0,0:0:0:0:
109,192,70217,1,0,0:0:0:0:
182,192,70308,1,0,0:0:0:0:
402,192,70308,1,0,0:0:0:0:
475,192,70308,1,0,0:0:0:0:
329,192,70399,1,0,0:0:0:0:
109,192,70489,1,0,0:0:0:0:
256,192,70489,1,0,0:0:0:0:
182,192,70580,1,0,0:0:0:0:
475,192,70580,1,0,0:0:0:0:
402,192,70671,1,0,0:0:0:0:
329,192,70762,1,0,0:0:0:0:
36,192,70853,1,0,0:0:0:0:
109,192,70899,1,0,0:0:0:0:
475,192,70944,1,0,0:0:0:0:
182,192,70944,1,0,0:0:0:0:
402,192,70989,1,0,0:0:0:0:
329,192,71035,1,0,0:0:0:0:
36,192,71035,1,0,0:0:0:0:
256,192,71035,1,0,0:0:0:0:
182,192,71126,1,0,0:0:0:0:
402,192,71126,1,0,0:0:0:0:
36,192,71217,1,0,0:0:0:0:
475,192,71217,1,0,0:0:0:0:
182,192,71308,1,0,0:0:0:0:
256,192,71308,1,0,0:0:0:0:
36,192,71399,1,0,0:0:0:0:
329,192,71399,1,0,0:0:0:0:
402,192,71399,1,0,0:0:0:0:
182,192,71489,1,0,0:0:0:0:
475,192,71489,1,0,0:0:0:0:
36,192,71580,1,0,0:0:0:0:
256,192,71580,1,0,0:0:0:0:
182,192,71671,1,0,0:0:0:0:
402,192,71671,1,0,0:0:0:0:
36,192,71762,1,0,0:0:0:0:
109,192,71762,1,0,0:0:0:0:
329,192,71762,1,0,0:0:0:0:
256,192,71853,1,0,0:0:0:0:
475,192,71853,1,0,0:0:0:0:
36,192,71944,1,0,0:0:0:0:
109,192,71944,1,0,0:0:0:0:
402,192,71944,1,0,0:0:0:0:
329,192,72035,1,0,0:0:0:0:
182,192,72035,1,0,0:0:0:0:
36,192,72126,1,0,0:0:0:0:
109,192,72126,1,0,0:0:0:0:
402,192,72217,1,0,0:0:0:0:
475,192,72217,1,0,0:0:0:0:
36,192,72308,1,0,0:0:0:0:
109,192,72308,1,0,0:0:0:0:
402,192,72399,1,0,0:0:0:0:
475,192,72399,1,0,0:0:0:0:
109,192,72489,1,0,0:0:0:0:
182,192,72489,1,0,0:0:0:0:
256,192,72489,1,0,0:0:0:0:
329,192,72580,1,0,0:0:0:0:
36,192,72671,1,0,0:0:0:0:
109,192,72717,1,0,0:0:0:0:
182,192,72762,1,0,0:0:0:0:
475,192,72762,1,0,0:0:0:0:
402,192,72808,1,0,0:0:0:0:
329,192,72853,1,0,0:0:0:0:
256,192,72853,1,0,0:0:0:0:
36,192,72853,1,0,0:0:0:0:
109,192,72944,1,0,0:0:0:0:
182,192,73035,1,0,0:0:0:0:
402,192,73035,1,0,0:0:0:0:
329,192,73126,1,0,0:0:0:0:
182,192,73171,1,0,0:0:0:0:
475,192,73217,1,0,0:0:0:0:
36,192,73217,1,0,0:0:0:0:
256,192,73217,1,0,0:0:0:0:
109,192,73308,1,0,0:0:0:0:
402,192,73308,1,0,0:0:0:0:
182,192,73399,1,0,0:0:0:0:
329,192,73399,1,0,0:0:0:0:
256,192,73489,1,0,0:0:0:0:
475,192,73489,1,0,0:0:0:0:
36,192,73580,1,0,0:0:0:0:
402,192,73580,1,0,0:0:0:0:
109,192,73671,1,0,0:0:0:0:
182,192,73762,1,0,0:0:0:0:
329,192,73762,1,0,0:0:0:0:
402,192,73853,1,0,0:0:0:0:
475,192,73944,1,0,0:0:0:0:
256,192,73944,1,0,0:0:0:0:
109,192,73944,1,0,0:0:0:0:
36,192,74035,1,0,0:0:0:0:
182,192,74126,1,0,0:0:0:0:
329,192,74126,1,0,0:0:0:0:
109,192,74217,1,0,0:0:0:0:
256,192,74308,1,0,0:0:0:0:
402,192,74308,1,0,0:0:0:0:
475,192,74308,1,0,0:0:0:0:
182,192,74399,1,0,0:0:0:0:
475,192,74489,1,0,0:0:0:0:
402,192,74535,1,0,0:0:0:0:
329,192,74580,1,0,0:0:0:0:
36,192,74580,1,0,0:0:0:0:
109,192,74626,1,0,0:0:0:0:
182,192,74671,1,0,0:0:0:0:
256,192,74671,1,0,0:0:0:0:
475,192,74671,1,0,0:0:0:0:
109,192,74762,1,0,0:0:0:0:
36,192,74853,1,0,0:0:0:0:
329,192,74853,1,0,0:0:0:0:
402,192,74853,1,0,0:0:0:0:
256,192,74944,1,0,0:0:0:0:
182,192,75035,1,0,0:0:0:0:
475,192,75035,1,0,0:0:0:0:
109,192,75126,1,0,0:0:0:0:
329,192,75217,1,0,0:0:0:0:
36,192,75217,1,0,0:0:0:0:
256,192,75308,1,0,0:0:0:0:
182,192,75399,1,0,0:0:0:0:
475,192,75399,1,0,0:0:0:0:
329,192,75489,1,0,0:0:0:0:
36,192,75580,1,0,0:0:0:0:
109,192,75626,1,0,0:0:0:0:
182,192,75671,1,0,0:0:0:0:
329,192,75671,1,0,0:0:0:0:
402,192,75717,1,0,0:0:0:0:
475,192,75762,1,0,0:0:0:0:
256,192,75762,1,0,0:0:0:0:
36,192,75762,1,0,0:0:0:0:
109,192,75853,1,0,0:0:0:0:
182,192,75944,1,0,0:0:0:0:
329,192,75944,1,0,0:0:0:0:
402,192,75944,1,0,0:0:0:0:
256,192,76035,1,0,0:0:0:0:
475,192,76126,1,0,0:0:0:0:
402,192,76126,1,0,0:0:0:0:
36,192,76126,1,0,0:0:0:0:
329,192,76171,1,0,0:0:0:0:
256,192,76217,1,0,0:0:0:0:
182,192,76217,1,0,0:0:0:0:
109,192,76262,1,0,0:0:0:0:
36,192,76308,1,0,0:0:0:0:
402,192,76308,1,0,0:0:0:0:
475,192,76399,5,0,0:0:0:0:
329,192,76399,1,0,0:0:0:0:
182,192,76399,1,0,0:0:0:0:
256,192,76489,1,0,0:0:0:0:
182,192,76580,1,0,0:0:0:0:
36,192,76671,5,0,0:0:0:0:
402,192,76671,1,0,0:0:0:0:
109,192,76671,1,0,0:0:0:0:
256,192,76762,1,0,0:0:0:0:
475,192,76853,5,0,0:0:0:0:
182,192,76853,1,0,0:0:0:0:
329,192,76944,1,0,0:0:0:0:
109,192,76944,1,0,0:0:0:0:
475,192,77035,1,0,0:0:0:0:
36,192,77035,1,0,0:0:0:0:
329,192,77126,1,0,0:0:0:0:
256,192,77126,1,0,0:0:0:0:
109,192,77217,1,0,0:0:0:0:
475,192,77217,1,0,0:0:0:0:
36,192,77217,1,0,0:0:0:0:
329,192,77308,1,0,0:0:0:0:
182,192,77308,1,0,0:0:0:0:
475,192,77399,1,0,0:0:0:0:
36,192,77399,1,0,0:0:0:0:
329,192,77489,1,0,0:0:0:0:
182,192,77489,1,0,0:0:0:0:
109,192,77580,5,0,0:0:0:0:
256,192,77580,1,0,0:0:0:0:
329,192,77670,5,0,0:0:0:0:
475,192,77670,1,0,0:0:0:0:
36,192,77761,1,0,0:0:0:0:
182,192,77761,1,0,0:0:0:0:
256,192,77852,1,0,0:0:0:0:
402,192,77852,1,0,0:0:0:0:
36,192,77944,1,0,0:0:0:0:
329,192,77944,1,0,0:0:0:0:
109,192,77989,1,0,0:0:0:0:
182,192,78035,1,0,0:0:0:0:
475,192,78080,1,0,0:0:0:0:
402,192,78126,1,0,0:0:0:0:
329,192,78171,1,0,0:0:0:0:
256,192,78217,1,0,0:0:0:0:
182,192,78262,1,0,0:0:0:0:
475,192,78308,5,0,0:0:0:0:
36,192,78308,1,0,0:0:0:0:
109,192,78308,1,0,0:0:0:0:
329,192,78308,1,0,0:0:0:0:
329,192,78489,1,0,0:0:0:0:
475,192,78489,1,0,0:0:0:0:
109,192,78671,1,0,0:0:0:0:
36,192,78671,1,0,0:0:0:0:
329,192,78671,1,0,0:0:0:0:
475,192,78671,1,0,0:0:0:0:
329,192,78853,1,0,0:0:0:0:
475,192,78853,1,0,0:0:0:0:
256,192,78853,1,0,0:0:0:0:
182,192,78853,1,0,0:0:0:0:
36,192,79035,1,0,0:0:0:0:
109,192,79080,1,0,0:0:0:0:
182,192,79126,1,0,0:0:0:0:
475,192,79126,1,0,0:0:0:0:
402,192,79171,1,0,0:0:0:0:
329,192,79217,1,0,0:0:0:0:
36,192,79217,1,0,0:0:0:0:
109,192,79262,1,0,0:0:0:0:
182,192,79308,1,0,0:0:0:0:
475,192,79308,1,0,0:0:0:0:
402,192,79353,1,0,0:0:0:0:
329,192,79399,1,0,0:0:0:0:
36,192,79399,1,0,0:0:0:0:
109,192,79444,1,0,0:0:0:0:
182,192,79489,1,0,0:0:0:0:
329,192,79580,1,0,0:0:0:0:
182,192,79671,1,0,0:0:0:0:
36,192,79762,1,0,0:0:0:0:
109,192,79762,1,0,0:0:0:0:
329,192,79762,1,0,0:0:0:0:
475,192,79762,1,0,0:0:0:0:
36,192,79944,1,0,0:0:0:0:
109,192,79944,1,0,0:0:0:0:
36,192,80126,1,0,0:0:0:0:
109,192,80126,1,0,0:0:0:0:
329,192,80126,1,0,0:0:0:0:
475,192,80126,1,0,0:0:0:0:
36,192,80308,1,0,0:0:0:0:
109,192,80308,1,0,0:0:0:0:
256,192,80308,1,0,0:0:0:0:
402,192,80308,1,0,0:0:0:0:
329,192,80489,1,0,0:0:0:0:
475,192,80489,1,0,0:0:0:0:
36,192,80580,1,0,0:0:0:0:
182,192,80580,1,0,0:0:0:0:
329,192,80671,1,0,0:0:0:0:
475,192,80671,1,0,0:0:0:0:
256,192,80671,128,0,81217:0:0:0:0:
36,192,81035,1,0,0:0:0:0:
475,192,81035,1,0,0:0:0:0:
109,192,81126,1,0,0:0:0:0:
402,192,81126,1,0,0:0:0:0:
182,192,81217,1,0,0:0:0:0:
329,192,81217,1,0,0:0:0:0:
36,192,81217,1,0,0:0:0:0:
475,192,81217,1,0,0:0:0:0:
182,192,81399,1,0,0:0:0:0:
329,192,81399,1,0,0:0:0:0:
182,192,81580,1,0,0:0:0:0:
329,192,81580,1,0,0:0:0:0:
36,192,81580,1,0,0:0:0:0:
475,192,81580,1,0,0:0:0:0:
182,192,81762,1,0,0:0:0:0:
329,192,81762,1,0,0:0:0:0:
109,192,81762,1,0,0:0:0:0:
402,192,81762,1,0,0:0:0:0:
36,192,81944,1,0,0:0:0:0:
475,192,81944,1,0,0:0:0:0:
182,192,82035,1,0,0:0:0:0:
329,192,82035,1,0,0:0:0:0:
109,192,82126,1,0,0:0:0:0:
402,192,82126,1,0,0:0:0:0:
256,192,82126,128,0,82671:0:0:0:0:
475,192,82489,1,0,0:0:0:0:
402,192,82580,1,0,0:0:0:0:
109,192,82671,1,0,0:0:0:0:
36,192,82671,1,0,0:0:0:0:
109,192,82853,1,0,0:0:0:0:
36,192,82853,1,0,0:0:0:0:
36,192,83035,1,0,0:0:0:0:
109,192,83035,1,0,0:0:0:0:
329,192,83035,1,0,0:0:0:0:
402,192,83080,1,0,0:0:0:0:
475,192,83126,1,0,0:0:0:0:
256,192,83171,1,0,0:0:0:0:
402,192,83399,1,0,0:0:0:0:
475,192,83399,1,0,0:0:0:0:
182,192,83399,1,0,0:0:0:0:
109,192,83444,1,0,0:0:0:0:
36,192,83489,1,0,0:0:0:0:
256,192,83535,1,0,0:0:0:0:
329,192,83580,1,0,0:0:0:0:
402,192,83626,1,0,0:0:0:0:
475,192,83671,1,0,0:0:0:0:
256,192,83717,1,0,0:0:0:0:
182,192,83762,1,0,0:0:0:0:
36,192,83762,1,0,0:0:0:0:
329,192,83853,1,0,0:0:0:0:
475,192,83944,1,0,0:0:0:0:
329,192,84035,1,0,0:0:0:0:
109,192,84126,1,0,0:0:0:0:
256,192,84126,1,0,0:0:0:0:
402,192,84126,1,0,0:0:0:0:
475,192,84126,1,0,0:0:0:0:
36,192,84126,1,0,0:0:0:0:
109,192,84308,1,0,0:0:0:0:
256,192,84308,1,0,0:0:0:0:
109,192,84489,1,0,0:0:0:0:
256,192,84489,1,0,0:0:0:0:
402,192,84489,1,0,0:0:0:0:
475,192,84489,1,0,0:0:0:0:
109,192,84671,1,0,0:0:0:0:
256,192,84671,1,0,0:0:0:0:
36,192,84671,1,0,0:0:0:0:
329,192,84671,1,0,0:0:0:0:
475,192,84853,1,0,0:0:0:0:
402,192,84899,1,0,0:0:0:0:
329,192,84944,1,0,0:0:0:0:
36,192,84989,1,0,0:0:0:0:
109,192,85035,1,0,0:0:0:0:
475,192,85080,1,0,0:0:0:0:
182,192,85080,1,0,0:0:0:0:
402,192,85126,1,0,0:0:0:0:
329,192,85171,1,0,0:0:0:0:
36,192,85217,1,0,0:0:0:0:
109,192,85262,1,0,0:0:0:0:
182,192,85308,1,0,0:0:0:0:
256,192,85353,1,0,0:0:0:0:
329,192,85399,1,0,0:0:0:0:
402,192,85444,1,0,0:0:0:0:
475,192,85489,1,0,0:0:0:0:
182,192,85489,1,0,0:0:0:0:
109,192,85535,1,0,0:0:0:0:
36,192,85580,1,0,0:0:0:0:
329,192,85580,1,0,0:0:0:0:
256,192,85580,1,0,0:0:0:0:
402,192,85580,1,0,0:0:0:0:
36,192,85762,1,0,0:0:0:0:
329,192,85762,1,0,0:0:0:0:
36,192,85944,1,0,0:0:0:0:
329,192,85944,1,0,0:0:0:0:
256,192,85944,1,0,0:0:0:0:
402,192,85944,1,0,0:0:0:0:
36,192,86126,1,0,0:0:0:0:
329,192,86126,1,0,0:0:0:0:
182,192,86126,1,0,0:0:0:0:
475,192,86126,1,0,0:0:0:0:
109,192,86308,1,0,0:0:0:0:
182,192,86308,1,0,0:0:0:0:
329,192,86399,1,0,0:0:0:0:
402,192,86399,1,0,0:0:0:0:
475,192,86489,128,0,87035:0:0:0:0:
109,192,86489,1,0,0:0:0:0:
182,192,86489,1,0,0:0:0:0:
256,192,86853,1,0,0:0:0:0:
329,192,86944,1,0,0:0:0:0:
109,192,87035,1,0,0:0:0:0:
182,192,87035,1,0,0:0:0:0:
109,192,87217,1,0,0:0:0:0:
182,192,87217,1,0,0:0:0:0:
475,192,87399,1,0,0:0:0:0:
109,192,87399,1,0,0:0:0:0:
182,192,87399,1,0,0:0:0:0:
109,192,87580,1,0,0:0:0:0:
182,192,87580,1,0,0:0:0:0:
475,192,87762,1,0,0:0:0:0:
182,192,87762,1,0,0:0:0:0:
109,192,87762,1,0,0:0:0:0:
402,192,87762,1,0,0:0:0:0:
109,192,87944,1,0,0:0:0:0:
182,192,87944,1,0,0:0:0:0:
329,192,88126,1,0,0:0:0:0:
475,192,88126,1,0,0:0:0:0:
182,192,88126,1,0,0:0:0:0:
109,192,88126,1,0,0:0:0:0:
402,192,88126,1,0,0:0:0:0:
109,192,88308,1,0,0:0:0:0:
182,192,88308,1,0,0:0:0:0:
36,192,88489,1,0,0:0:0:0:
109,192,88489,1,0,0:0:0:0:
36,192,88671,1,0,0:0:0:0:
182,192,88671,1,0,0:0:0:0:
109,192,88671,1,0,0:0:0:0:
36,192,88853,1,0,0:0:0:0:
182,192,88853,1,0,0:0:0:0:
329,192,88853,1,0,0:0:0:0:
109,192,88853,1,0,0:0:0:0:
36,192,89035,1,0,0:0:0:0:
182,192,89035,1,0,0:0:0:0:
402,192,89035,1,0,0:0:0:0:
329,192,89035,1,0,0:0:0:0:
109,192,89035,1,0,0:0:0:0:
36,192,89217,1,0,0:0:0:0:
182,192,89217,1,0,0:0:0:0:
329,192,89217,1,0,0:0:0:0:
402,192,89217,1,0,0:0:0:0:
475,192,89217,1,0,0:0:0:0:
109,192,89217,1,0,0:0:0:0:
256,192,89580,128,0,89944:0:0:0:0:
182,192,89762,1,0,0:0:0:0:
109,192,89853,1,0,0:0:0:0:
36,192,89944,1,0,0:0:0:0:
402,192,89944,1,0,0:0:0:0:
475,192,89944,1,0,0:0:0:0:
329,192,89944,1,0,0:0:0:0:
256,192,90308,128,0,90671:0:0:0:0:
182,192,90489,1,0,0:0:0:0:
109,192,90580,1,0,0:0:0:0:
36,192,90671,1,0,0:0:0:0:
475,192,90671,1,0,0:0:0:0:
329,192,90671,1,0,0:0:0:0:
182,192,90762,1,0,0:0:0:0:
36,192,90853,1,0,0:0:0:0:
329,192,90944,1,0,0:0:0:0:
475,192,90944,1,0,0:0:0:0:
182,192,91035,1,0,0:0:0:0:
36,192,91126,1,0,0:0:0:0:
329,192,91217,1,0,0:0:0:0:
475,192,91217,1,0,0:0:0:0:
182,192,91308,1,0,0:0:0:0:
36,192,91399,1,0,0:0:0:0:
256,192,91399,1,0,0:0:0:0:
402,192,91399,1,0,0:0:0:0:
182,192,91489,1,0,0:0:0:0:
109,192,91535,1,0,0:0:0:0:
329,192,91580,1,0,0:0:0:0:
475,192,91580,1,0,0:0:0:0:
36,192,91580,1,0,0:0:0:0:
182,192,91944,1,0,0:0:0:0:
402,192,91944,1,0,0:0:0:0:
329,192,92126,1,0,0:0:0:0:
182,192,92217,1,0,0:0:0:0:
36,192,92308,1,0,0:0:0:0:
402,192,92308,1,0,0:0:0:0:
256,192,92399,1,0,0:0:0:0:
109,192,92489,1,0,0:0:0:0:
475,192,92489,1,0,0:0:0:0:
329,192,92580,1,0,0:0:0:0:
182,192,92671,1,0,0:0:0:0:
402,192,92671,1,0,0:0:0:0:
36,192,92671,1,0,0:0:0:0:
109,192,92853,1,0,0:0:0:0:
256,192,92853,1,0,0:0:0:0:
475,192,92853,1,0,0:0:0:0:
182,192,93035,1,0,0:0:0:0:
329,192,93035,1,0,0:0:0:0:
36,192,93217,1,0,0:0:0:0:
109,192,93308,1,0,0:0:0:0:
182,192,93399,1,0,0:0:0:0:
256,192,93489,1,0,0:0:0:0:
402,192,93580,1,0,0:0:0:0:
475,192,93580,1,0,0:0:0:0:
329,192,93580,1,0,0:0:0:0:
182,192,93641,1,0,0:0:0:0:
36,192,93702,1,0,0:0:0:0:
402,192,93762,1,0,0:0:0:0:
256,192,93823,1,0,0:0:0:0:
109,192,93883,1,0,0:0:0:0:
475,192,93944,1,0,0:0:0:0:
329,192,94005,1,0,0:0:0:0:
182,192,94065,1,0,0:0:0:0:
36,192,94126,1,0,0:0:0:0:
402,192,94186,1,0,0:0:0:0:
256,192,94247,1,0,0:0:0:0:
109,192,94308,1,0,0:0:0:0:
329,192,94308,1,0,0:0:0:0:
475,192,94308,1,0,0:0:0:0:
36,192,94308,1,0,0:0:0:0:
182,192,94671,1,0,0:0:0:0:
402,192,94671,1,0,0:0:0:0:
109,192,94853,1,0,0:0:0:0:
475,192,94944,1,0,0:0:0:0:
256,192,94944,1,0,0:0:0:0:
402,192,95399,1,0,0:0:0:0:
256,192,95399,1,0,0:0:0:0:
36,192,95399,1,0,0:0:0:0:
109,192,95489,1,0,0:0:0:0:
182,192,95580,1,0,0:0:0:0:
329,192,95671,1,0,0:0:0:0:
109,192,95762,1,0,0:0:0:0:
402,192,95762,1,0,0:0:0:0:
36,192,95762,1,0,0:0:0:0:
475,192,95762,1,0,0:0:0:0:
36,192,96126,1,0,0:0:0:0:
182,192,96126,1,0,0:0:0:0:
109,192,96308,1,0,0:0:0:0:
256,192,96308,1,0,0:0:0:0:
402,192,96489,1,0,0:0:0:0:
475,192,96489,1,0,0:0:0:0:
256,192,96580,1,0,0:0:0:0:
109,192,96671,1,0,0:0:0:0:
402,192,96762,1,0,0:0:0:0:
475,192,96762,1,0,0:0:0:0:
256,192,96853,1,0,0:0:0:0:
109,192,96944,1,0,0:0:0:0:
402,192,97035,1,0,0:0:0:0:
475,192,97035,1,0,0:0:0:0:
256,192,97126,1,0,0:0:0:0:
109,192,97217,1,0,0:0:0:0:
329,192,97217,1,0,0:0:0:0:
36,192,97217,1,0,0:0:0:0:
182,192,97309,1,0,0:0:0:0:
256,192,97353,1,0,0:0:0:0:
329,192,97399,1,0,0:0:0:0:
475,192,97399,1,0,0:0:0:0:
182,192,97580,1,0,0:0:0:0:
36,192,97580,1,0,0:0:0:0:
329,192,97762,1,0,0:0:0:0:
475,192,97762,1,0,0:0:0:0:
182,192,97944,1,0,0:0:0:0:
329,192,98035,1,0,0:0:0:0:
475,192,98126,1,0,0:0:0:0:
109,192,98126,1,0,0:0:0:0:
256,192,98217,1,0,0:0:0:0:
402,192,98308,1,0,0:0:0:0:
36,192,98308,1,0,0:0:0:0:
182,192,98399,1,0,0:0:0:0:
329,192,98489,1,0,0:0:0:0:
475,192,98489,1,0,0:0:0:0:
109,192,98489,1,0,0:0:0:0:
36,192,98671,1,0,0:0:0:0:
256,192,98671,1,0,0:0:0:0:
182,192,98671,1,0,0:0:0:0:
109,192,98853,1,0,0:0:0:0:
329,192,98853,1,0,0:0:0:0:
402,192,98853,1,0,0:0:0:0:
475,192,99035,1,0,0:0:0:0:
329,192,99126,1,0,0:0:0:0:
182,192,99217,1,0,0:0:0:0:
36,192,99308,1,0,0:0:0:0:
402,192,99399,1,0,0:0:0:0:
182,192,99399,1,0,0:0:0:0:
475,192,99399,1,0,0:0:0:0:
256,192,99459,1,0,0:0:0:0:
109,192,99520,1,0,0:0:0:0:
475,192,99580,1,0,0:0:0:0:
329,192,99641,1,0,0:0:0:0:
182,192,99702,1,0,0:0:0:0:
36,192,99762,1,0,0:0:0:0:
402,192,99823,1,0,0:0:0:0:
256,192,99883,1,0,0:0:0:0:
109,192,99944,1,0,0:0:0:0:
182,192,100005,1,0,0:0:0:0:
329,192,100065,1,0,0:0:0:0:
402,192,100126,1,0,0:0:0:0:
475,192,100126,1,0,0:0:0:0:
36,192,100126,1,0,0:0:0:0:
109,192,100126,1,0,0:0:0:0:
109,192,100489,1,0,0:0:0:0:
182,192,100489,1,0,0:0:0:0:
256,192,100671,1,0,0:0:0:0:
329,192,100762,1,0,0:0:0:0:
402,192,100762,1,0,0:0:0:0:
475,192,101217,1,0,0:0:0:0:
256,192,101217,1,0,0:0:0:0:
109,192,101217,1,0,0:0:0:0:
402,192,101308,1,0,0:0:0:0:
329,192,101399,1,0,0:0:0:0:
182,192,101489,1,0,0:0:0:0:
36,192,101580,1,0,0:0:0:0:
109,192,101580,1,0,0:0:0:0:
402,192,101580,1,0,0:0:0:0:
475,192,101580,1,0,0:0:0:0:
36,192,101944,1,0,0:0:0:0:
329,192,101944,1,0,0:0:0:0:
256,192,102126,1,0,0:0:0:0:
475,192,102308,1,0,0:0:0:0:
182,192,102308,1,0,0:0:0:0:
329,192,102399,1,0,0:0:0:0:
36,192,102489,1,0,0:0:0:0:
182,192,102580,1,0,0:0:0:0:
475,192,102580,1,0,0:0:0:0:
329,192,102671,1,0,0:0:0:0:
36,192,102762,1,0,0:0:0:0:
182,192,102853,1,0,0:0:0:0:
475,192,102853,1,0,0:0:0:0:
36,192,103035,1,0,0:0:0:0:
182,192,103035,1,0,0:0:0:0:
402,192,103035,1,0,0:0:0:0:
256,192,103126,1,0,0:0:0:0:
329,192,103171,1,0,0:0:0:0:
475,192,103217,1,0,0:0:0:0:
402,192,103217,1,0,0:0:0:0:
109,192,103217,1,0,0:0:0:0:
182,192,103399,1,0,0:0:0:0:
256,192,103580,1,0,0:0:0:0:
109,192,103580,1,0,0:0:0:0:
475,192,103580,1,0,0:0:0:0:
182,192,103762,1,0,0:0:0:0:
329,192,103762,1,0,0:0:0:0:
109,192,103853,1,0,0:0:0:0:
36,192,103944,1,0,0:0:0:0:
256,192,104035,1,0,0:0:0:0:
402,192,104035,1,0,0:0:0:0:
182,192,104126,1,0,0:0:0:0:
109,192,104217,1,0,0:0:0:0:
329,192,104308,1,0,0:0:0:0:
475,192,104308,1,0,0:0:0:0:
36,192,104308,1,0,0:0:0:0:
256,192,104399,1,0,0:0:0:0:
109,192,104489,1,0,0:0:0:0:
182,192,104489,1,0,0:0:0:0:
402,192,104489,1,0,0:0:0:0:
329,192,104671,1,0,0:0:0:0:
475,192,104671,1,0,0:0:0:0:
36,192,104671,1,0,0:0:0:0:
256,192,104853,1,0,0:0:0:0:
402,192,104853,1,0,0:0:0:0:
109,192,104944,1,0,0:0:0:0:
329,192,105035,1,0,0:0:0:0:
182,192,105126,1,0,0:0:0:0:
402,192,105217,1,0,0:0:0:0:
36,192,105217,1,0,0:0:0:0:
256,192,105277,1,0,0:0:0:0:
109,192,105338,1,0,0:0:0:0:
329,192,105399,1,0,0:0:0:0:
182,192,105459,1,0,0:0:0:0:
36,192,105489,1,0,0:0:0:0:
402,192,105520,1,0,0:0:0:0:
256,192,105580,1,0,0:0:0:0:
109,192,105641,1,0,0:0:0:0:
475,192,105702,1,0,0:0:0:0:
329,192,105762,1,0,0:0:0:0:
36,192,105762,1,0,0:0:0:0:
182,192,105823,1,0,0:0:0:0:
402,192,105883,1,0,0:0:0:0:
256,192,105944,1,0,0:0:0:0:
109,192,105944,1,0,0:0:0:0:
475,192,105944,1,0,0:0:0:0:
36,192,105944,1,0,0:0:0:0:
182,192,106308,128,0,107126:0:0:0:0:
256,192,106489,128,0,107035:0:0:0:0:
329,192,106671,128,0,106944:0:0:0:0:
475,192,106671,1,0,0:0:0:0:
36,192,106671,1,0,0:0:0:0:
475,192,106853,1,0,0:0:0:0:
402,192,106944,1,0,0:0:0:0:
329,192,107035,1,0,0:0:0:0:
256,192,107126,1,0,0:0:0:0:
182,192,107217,1,0,0:0:0:0:
109,192,107308,1,0,0:0:0:0:
36,192,107399,1,0,0:0:0:0:
475,192,107399,128,0,108853:0:0:0:0:
402,192,107399,1,0,0:0:0:0:
256,192,107399,1,0,0:0:0:0:
182,192,107489,1,0,0:0:0:0:
329,192,107580,1,0,0:0:0:0:
256,192,107641,1,0,0:0:0:0:
182,192,107702,1,0,0:0:0:0:
402,192,107762,1,0,0:0:0:0:
36,192,107762,1,0,0:0:0:0:
256,192,107853,1,0,0:0:0:0:
329,192,107944,1,0,0:0:0:0:
109,192,107944,1,0,0:0:0:0:
402,192,108035,1,0,0:0:0:0:
36,192,108126,1,0,0:0:0:0:
256,192,108126,1,0,0:0:0:0:
182,192,108126,1,0,0:0:0:0:
329,192,108217,1,0,0:0:0:0:
402,192,108308,1,0,0:0:0:0:
182,192,108308,1,0,0:0:0:0:
36,192,108308,1,0,0:0:0:0:
256,192,108399,1,0,0:0:0:0:
36,192,108489,1,0,0:0:0:0:
182,192,108489,1,0,0:0:0:0:
329,192,108489,1,0,0:0:0:0:
402,192,108580,1,0,0:0:0:0:
256,192,108671,1,0,0:0:0:0:
36,192,108671,1,0,0:0:0:0:
182,192,108671,1,0,0:0:0:0:
329,192,108762,1,0,0:0:0:0:
402,192,108853,1,0,0:0:0:0:
36,192,108853,128,0,110308:0:0:0:0:
109,192,108853,1,0,0:0:0:0:
182,192,108853,1,0,0:0:0:0:
256,192,108944,1,0,0:0:0:0:
402,192,109035,1,0,0:0:0:0:
109,192,109126,1,0,0:0:0:0:
329,192,109217,1,0,0:0:0:0:
475,192,109217,1,0,0:0:0:0:
256,192,109308,1,0,0:0:0:0:
402,192,109399,1,0,0:0:0:0:
182,192,109399,1,0,0:0:0:0:
475,192,109489,1,0,0:0:0:0:
329,192,109580,1,0,0:0:0:0:
402,192,109580,1,0,0:0:0:0:
109,192,109580,1,0,0:0:0:0:
256,192,109671,1,0,0:0:0:0:
329,192,109762,1,0,0:0:0:0:
402,192,109762,1,0,0:0:0:0:
182,192,109762,1,0,0:0:0:0:
109,192,109853,1,0,0:0:0:0:
329,192,109944,1,0,0:0:0:0:
182,192,109944,1,0,0:0:0:0:
402,192,109944,1,0,0:0:0:0:
256,192,110035,1,0,0:0:0:0:
329,192,110126,1,0,0:0:0:0:
109,192,110126,1,0,0:0:0:0:
402,192,110126,1,0,0:0:0:0:
182,192,110217,1,0,0:0:0:0:
402,192,110308,128,0,111762:0:0:0:0:
475,192,110308,1,0,0:0:0:0:
329,192,110308,1,0,0:0:0:0:
256,192,110308,1,0,0:0:0:0:
109,192,110399,1,0,0:0:0:0:
182,192,110489,1,0,0:0:0:0:
256,192,110550,1,0,0:0:0:0:
329,192,110611,1,0,0:0:0:0:
475,192,110671,1,0,0:0:0:0:
36,192,110671,1,0,0:0:0:0:
109,192,110762,1,0,0:0:0:0:
329,192,110853,1,0,0:0:0:0:
182,192,110853,1,0,0:0:0:0:
256,192,110944,1,0,0:0:0:0:
475,192,111035,1,0,0:0:0:0:
36,192,111035,1,0,0:0:0:0:
109,192,111035,1,0,0:0:0:0:
329,192,111126,1,0,0:0:0:0:
109,192,111217,1,0,0:0:0:0:
36,192,111217,1,0,0:0:0:0:
182,192,111217,1,0,0:0:0:0:
475,192,111308,1,0,0:0:0:0:
329,192,111399,1,0,0:0:0:0:
109,192,111399,1,0,0:0:0:0:
36,192,111399,1,0,0:0:0:0:
182,192,111489,1,0,0:0:0:0:
109,192,111580,1,0,0:0:0:0:
36,192,111580,1,0,0:0:0:0:
329,192,111641,1,0,0:0:0:0:
256,192,111702,1,0,0:0:0:0:
109,192,111762,1,0,0:0:0:0:
182,192,111762,1,0,0:0:0:0:
475,192,111762,1,0,0:0:0:0:
36,192,111762,128,0,113217:0:0:0:0:
256,192,112126,128,0,113217:0:0:0:0:
475,192,112489,128,0,113217:0:0:0:0:
36,192,113762,1,0,0:0:0:0:
256,192,113762,1,0,0:0:0:0:
475,192,113762,1,0,0:0:0:0:
182,192,113853,1,0,0:0:0:0:
109,192,113944,1,0,0:0:0:0:
402,192,113944,1,0,0:0:0:0:
109,192,114126,1,0,0:0:0:0:
402,192,114126,1,0,0:0:0:0:
36,192,114308,1,0,0:0:0:0:
256,192,114308,1,0,0:0:0:0:
475,192,114308,1,0,0:0:0:0:
182,192,114489,1,0,0:0:0:0:
402,192,114489,1,0,0:0:0:0:
109,192,114671,1,0,0:0:0:0:
329,192,114671,1,0,0:0:0:0:
36,192,114671,1,0,0:0:0:0:
475,192,114671,1,0,0:0:0:0:
256,192,114671,1,0,0:0:0:0:
182,192,114853,1,0,0:0:0:0:
402,192,114853,1,0,0:0:0:0:
256,192,114944,1,0,0:0:0:0:
109,192,114944,1,0,0:0:0:0:
36,192,115035,1,0,0:0:0:0:
182,192,115035,1,0,0:0:0:0:
475,192,115035,1,0,0:0:0:0:
329,192,115126,1,0,0:0:0:0:
109,192,115217,1,0,0:0:0:0:
402,192,115217,1,0,0:0:0:0:
182,192,115308,1,0,0:0:0:0:
256,192,115399,1,0,0:0:0:0:
475,192,115399,1,0,0:0:0:0:
36,192,115399,1,0,0:0:0:0:
402,192,115489,1,0,0:0:0:0:
182,192,115489,1,0,0:0:0:0:
109,192,115580,1,0,0:0:0:0:
329,192,115580,1,0,0:0:0:0:
36,192,115671,1,0,0:0:0:0:
256,192,115671,1,0,0:0:0:0:
402,192,115762,1,0,0:0:0:0:
475,192,115762,1,0,0:0:0:0:
182,192,115762,1,0,0:0:0:0:
329,192,115853,1,0,0:0:0:0:
256,192,115899,1,0,0:0:0:0:
36,192,115944,1,0,0:0:0:0:
109,192,115944,1,0,0:0:0:0:
475,192,116126,1,0,0:0:0:0:
329,192,116126,1,0,0:0:0:0:
36,192,116217,1,0,0:0:0:0:
182,192,116217,1,0,0:0:0:0:
256,192,116308,1,0,0:0:0:0:
402,192,116308,1,0,0:0:0:0:
109,192,116399,1,0,0:0:0:0:
329,192,116489,1,0,0:0:0:0:
475,192,116489,1,0,0:0:0:0:
36,192,116580,1,0,0:0:0:0:
182,192,116580,1,0,0:0:0:0:
475,192,116671,1,0,0:0:0:0:
402,192,116717,1,0,0:0:0:0:
329,192,116762,1,0,0:0:0:0:
182,192,116762,1,0,0:0:0:0:
109,192,116808,1,0,0:0:0:0:
36,192,116853,1,0,0:0:0:0:
256,192,116853,1,0,0:0:0:0:
329,192,116944,1,0,0:0:0:0:
475,192,117035,1,0,0:0:0:0:
182,192,117035,1,0,0:0:0:0:
402,192,117035,1,0,0:0:0:0:
109,192,117126,1,0,0:0:0:0:
36,192,117217,1,0,0:0:0:0:
256,192,117217,1,0,0:0:0:0:
329,192,117308,1,0,0:0:0:0:
182,192,117399,1,0,0:0:0:0:
402,192,117399,1,0,0:0:0:0:
109,192,117489,1,0,0:0:0:0:
256,192,117489,1,0,0:0:0:0:
36,192,117580,1,0,0:0:0:0:
475,192,117580,1,0,0:0:0:0:
329,192,117580,1,0,0:0:0:0:
109,192,117702,1,0,0:0:0:0:
182,192,117702,1,0,0:0:0:0:
402,192,117702,1,0,0:0:0:0:
256,192,117823,1,0,0:0:0:0:
475,192,117823,1,0,0:0:0:0:
36,192,117944,1,0,0:0:0:0:
182,192,117944,1,0,0:0:0:0:
329,192,117944,1,0,0:0:0:0:
109,192,118065,1,0,0:0:0:0:
402,192,118065,1,0,0:0:0:0:
256,192,118065,1,0,0:0:0:0:
329,192,118186,1,0,0:0:0:0:
475,192,118186,1,0,0:0:0:0:
36,192,118308,1,0,0:0:0:0:
182,192,118308,1,0,0:0:0:0:
402,192,118308,1,0,0:0:0:0:
109,192,118429,1,0,0:0:0:0:
256,192,118429,1,0,0:0:0:0:
475,192,118429,1,0,0:0:0:0:
329,192,118550,1,0,0:0:0:0:
182,192,118550,1,0,0:0:0:0:
256,192,118671,1,0,0:0:0:0:
402,192,118671,1,0,0:0:0:0:
475,192,118671,1,0,0:0:0:0:
109,192,118792,1,0,0:0:0:0:
329,192,118792,1,0,0:0:0:0:
36,192,118792,1,0,0:0:0:0:
182,192,118914,1,0,0:0:0:0:
256,192,118914,1,0,0:0:0:0:
329,192,119035,1,0,0:0:0:0:
402,192,119035,1,0,0:0:0:0:
475,192,119035,1,0,0:0:0:0:
36,192,119035,1,0,0:0:0:0:
109,192,119126,1,0,0:0:0:0:
475,192,119217,1,0,0:0:0:0:
402,192,119217,1,0,0:0:0:0:
182,192,119217,1,0,0:0:0:0:
256,192,119308,1,0,0:0:0:0:
329,192,119399,1,0,0:0:0:0:
36,192,119399,1,0,0:0:0:0:
109,192,119399,1,0,0:0:0:0:
182,192,119489,1,0,0:0:0:0:
402,192,119489,1,0,0:0:0:0:
329,192,119580,1,0,0:0:0:0:
475,192,119580,1,0,0:0:0:0:
256,192,119580,1,0,0:0:0:0:
182,192,119671,1,0,0:0:0:0:
109,192,119762,1,0,0:0:0:0:
402,192,119762,1,0,0:0:0:0:
329,192,119853,1,0,0:0:0:0:
182,192,119944,1,0,0:0:0:0:
329,192,120035,1,0,0:0:0:0:
475,192,120126,1,0,0:0:0:0:
402,192,120126,1,0,0:0:0:0:
182,192,120217,1,0,0:0:0:0:
109,192,120217,1,0,0:0:0:0:
402,192,120308,1,0,0:0:0:0:
329,192,120308,1,0,0:0:0:0:
109,192,120399,1,0,0:0:0:0:
36,192,120399,1,0,0:0:0:0:
475,192,120489,1,0,0:0:0:0:
256,192,120489,1,0,0:0:0:0:
182,192,120489,1,0,0:0:0:0:
402,192,120671,1,0,0:0:0:0:
329,192,120717,1,0,0:0:0:0:
256,192,120762,1,0,0:0:0:0:
36,192,120762,1,0,0:0:0:0:
109,192,120808,1,0,0:0:0:0:
182,192,120853,1,0,0:0:0:0:
402,192,120853,1,0,0:0:0:0:
475,192,120853,1,0,0:0:0:0:
329,192,120944,1,0,0:0:0:0:
256,192,121035,1,0,0:0:0:0:
109,192,121035,1,0,0:0:0:0:
36,192,121126,1,0,0:0:0:0:
182,192,121217,1,0,0:0:0:0:
329,192,121217,1,0,0:0:0:0:
475,192,121217,1,0,0:0:0:0:
109,192,121308,1,0,0:0:0:0:
36,192,121399,1,0,0:0:0:0:
256,192,121399,1,0,0:0:0:0:
182,192,121489,1,0,0:0:0:0:
109,192,121580,1,0,0:0:0:0:
329,192,121580,1,0,0:0:0:0:
256,192,121671,1,0,0:0:0:0:
182,192,121762,1,0,0:0:0:0:
402,192,121762,1,0,0:0:0:0:
329,192,121853,1,0,0:0:0:0:
256,192,121944,1,0,0:0:0:0:
475,192,121944,1,0,0:0:0:0:
109,192,121944,1,0,0:0:0:0:
402,192,122035,1,0,0:0:0:0:
329,192,122126,1,0,0:0:0:0:
182,192,122126,1,0,0:0:0:0:
36,192,122126,1,0,0:0:0:0:
402,192,122217,1,0,0:0:0:0:
475,192,122308,1,0,0:0:0:0:
109,192,122308,1,0,0:0:0:0:
256,192,122308,1,0,0:0:0:0:
182,192,122399,1,0,0:0:0:0:
329,192,122399,1,0,0:0:0:0:
36,192,122489,1,0,0:0:0:0:
109,192,122535,1,0,0:0:0:0:
182,192,122580,1,0,0:0:0:0:
402,192,122580,1,0,0:0:0:0:
329,192,122626,1,0,0:0:0:0:
256,192,122671,1,0,0:0:0:0:
475,192,122671,1,0,0:0:0:0:
36,192,122671,1,0,0:0:0:0:
109,192,122762,1,0,0:0:0:0:
182,192,122853,1,0,0:0:0:0:
256,192,122944,1,0,0:0:0:0:
329,192,122944,1,0,0:0:0:0:
402,192,122944,1,0,0:0:0:0:
182,192,123035,1,0,0:0:0:0:
109,192,123126,1,0,0:0:0:0:
475,192,123126,1,0,0:0:0:0:
36,192,123126,1,0,0:0:0:0:
402,192,123217,1,0,0:0:0:0:
256,192,123308,1,0,0:0:0:0:
109,192,123399,1,0,0:0:0:0:
182,192,123399,1,0,0:0:0:0:
329,192,123399,1,0,0:0:0:0:
402,192,123489,1,0,0:0:0:0:
475,192,123580,1,0,0:0:0:0:
36,192,123580,1,0,0:0:0:0:
256,192,123580,1,0,0:0:0:0:
109,192,123626,1,0,0:0:0:0:
182,192,123671,1,0,0:0:0:0:
329,192,123671,1,0,0:0:0:0:
402,192,123717,1,0,0:0:0:0:
475,192,123762,1,0,0:0:0:0:
36,192,123762,1,0,0:0:0:0:
109,192,123853,1,0,0:0:0:0:
256,192,123853,1,0,0:0:0:0:
182,192,123944,1,0,0:0:0:0:
329,192,123944,1,0,0:0:0:0:
402,192,124035,1,0,0:0:0:0:
475,192,124126,1,0,0:0:0:0:
256,192,124126,1,0,0:0:0:0:
329,192,124217,1,0,0:0:0:0:
109,192,124217,1,0,0:0:0:0:
36,192,124308,1,0,0:0:0:0:
182,192,124308,1,0,0:0:0:0:
256,192,124399,1,0,0:0:0:0:
402,192,124399,1,0,0:0:0:0:
109,192,124489,1,0,0:0:0:0:
329,192,124489,1,0,0:0:0:0:
256,192,124580,1,0,0:0:0:0:
475,192,124580,1,0,0:0:0:0:
182,192,124671,1,0,0:0:0:0:
402,192,124671,1,0,0:0:0:0:
109,192,124762,1,0,0:0:0:0:
329,192,124762,1,0,0:0:0:0:
36,192,124853,1,0,0:0:0:0:
182,192,124853,1,0,0:0:0:0:
329,192,124944,1,0,0:0:0:0:
475,192,124944,1,0,0:0:0:0:
36,192,125035,1,0,0:0:0:0:
182,192,125035,1,0,0:0:0:0:
329,192,125126,1,0,0:0:0:0:
475,192,125126,1,0,0:0:0:0:
182,192,125217,1,0,0:0:0:0:
256,192,125217,1,0,0:0:0:0:
402,192,125217,1,0,0:0:0:0:
36,192,125308,1,0,0:0:0:0:
109,192,125308,1,0,0:0:0:0:
329,192,125399,1,0,0:0:0:0:
256,192,125399,1,0,0:0:0:0:
402,192,125459,1,0,0:0:0:0:
109,192,125489,1,0,0:0:0:0:
182,192,125489,1,0,0:0:0:0:
475,192,125520,1,0,0:0:0:0:
36,192,125580,1,0,0:0:0:0:
329,192,125580,1,0,0:0:0:0:
109,192,125641,1,0,0:0:0:0:
182,192,125702,1,0,0:0:0:0:
329,192,125762,1,0,0:0:0:0:
256,192,125762,1,0,0:0:0:0:
402,192,125823,1,0,0:0:0:0:
475,192,125883,1,0,0:0:0:0:
182,192,125944,1,0,0:0:0:0:
256,192,125944,1,0,0:0:0:0:
109,192,126005,1,0,0:0:0:0:
36,192,126065,1,0,0:0:0:0:
329,192,126126,1,0,0:0:0:0:
402,192,126126,1,0,0:0:0:0:
256,192,126186,1,0,0:0:0:0:
182,192,126247,1,0,0:0:0:0:
109,192,126308,1,0,0:0:0:0:
36,192,126308,1,0,0:0:0:0:
402,192,126308,1,0,0:0:0:0:
475,192,126308,1,0,0:0:0:0:
329,192,126399,1,0,0:0:0:0:
256,192,126489,1,0,0:0:0:0:
182,192,126489,1,0,0:0:0:0:
109,192,126580,1,0,0:0:0:0:
36,192,126671,1,0,0:0:0:0:
329,192,126671,1,0,0:0:0:0:
475,192,126671,1,0,0:0:0:0:
256,192,126762,1,0,0:0:0:0:
182,192,126853,1,0,0:0:0:0:
402,192,126853,1,0,0:0:0:0:
109,192,126853,1,0,0:0:0:0:
329,192,126944,1,0,0:0:0:0:
36,192,127035,1,0,0:0:0:0:
256,192,127035,1,0,0:0:0:0:
109,192,127126,1,0,0:0:0:0:
402,192,127126,1,0,0:0:0:0:
182,192,127217,1,0,0:0:0:0:
329,192,127217,1,0,0:0:0:0:
475,192,127308,1,0,0:0:0:0:
256,192,127308,1,0,0:0:0:0:
402,192,127399,1,0,0:0:0:0:
329,192,127489,1,0,0:0:0:0:
36,192,127580,1,0,0:0:0:0:
182,192,127580,1,0,0:0:0:0:
329,192,127671,1,0,0:0:0:0:
475,192,127762,1,0,0:0:0:0:
109,192,127762,1,0,0:0:0:0:
256,192,127762,1,0,0:0:0:0:
402,192,127853,1,0,0:0:0:0:
36,192,127944,1,0,0:0:0:0:
182,192,127944,1,0,0:0:0:0:
329,192,127944,1,0,0:0:0:0:
475,192,128035,1,0,0:0:0:0:
109,192,128126,1,0,0:0:0:0:
256,192,128126,1,0,0:0:0:0:
329,192,128217,1,0,0:0:0:0:
402,192,128308,1,0,0:0:0:0:
182,192,128308,1,0,0:0:0:0:
109,192,128353,1,0,0:0:0:0:
36,192,128399,1,0,0:0:0:0:
329,192,128399,1,0,0:0:0:0:
402,192,128444,1,0,0:0:0:0:
475,192,128489,1,0,0:0:0:0:
256,192,128489,1,0,0:0:0:0:
182,192,128580,1,0,0:0:0:0:
109,192,128671,1,0,0:0:0:0:
329,192,128671,1,0,0:0:0:0:
402,192,128671,1,0,0:0:0:0:
256,192,128762,1,0,0:0:0:0:
182,192,128853,1,0,0:0:0:0:
36,192,128853,1,0,0:0:0:0:
329,192,128944,1,0,0:0:0:0:
475,192,129035,1,0,0:0:0:0:
109,192,129035,1,0,0:0:0:0:
182,192,129126,1,0,0:0:0:0:
36,192,129217,1,0,0:0:0:0:
402,192,129217,1,0,0:0:0:0:
256,192,129217,1,0,0:0:0:0:
109,192,129308,1,0,0:0:0:0:
329,192,129399,1,0,0:0:0:0:
475,192,129399,1,0,0:0:0:0:
182,192,129489,1,0,0:0:0:0:
109,192,129535,1,0,0:0:0:0:
402,192,129580,1,0,0:0:0:0:
36,192,129580,1,0,0:0:0:0:
329,192,129671,1,0,0:0:0:0:
256,192,129762,1,0,0:0:0:0:
182,192,129762,1,0,0:0:0:0:
475,192,129762,1,0,0:0:0:0:
109,192,129853,1,0,0:0:0:0:
402,192,129944,1,0,0:0:0:0:
36,192,129944,1,0,0:0:0:0:
329,192,130035,1,0,0:0:0:0:
256,192,130126,1,0,0:0:0:0:
475,192,130126,1,0,0:0:0:0:
109,192,130126,1,0,0:0:0:0:
182,192,130217,1,0,0:0:0:0:
402,192,130217,1,0,0:0:0:0:
329,192,130308,1,0,0:0:0:0:
256,192,130399,1,0,0:0:0:0:
182,192,130489,1,0,0:0:0:0:
475,192,130489,1,0,0:0:0:0:
402,192,130535,1,0,0:0:0:0:
36,192,130580,1,0,0:0:0:0:
329,192,130580,1,0,0:0:0:0:
109,192,130626,1,0,0:0:0:0:
182,192,130671,1,0,0:0:0:0:
256,192,130671,1,0,0:0:0:0:
475,192,130671,1,0,0:0:0:0:
402,192,130762,1,0,0:0:0:0:
329,192,130853,1,0,0:0:0:0:
36,192,130853,1,0,0:0:0:0:
109,192,130944,1,0,0:0:0:0:
256,192,130944,1,0,0:0:0:0:
182,192,131035,1,0,0:0:0:0:
402,192,131035,1,0,0:0:0:0:
475,192,131035,1,0,0:0:0:0:
329,192,131126,1,0,0:0:0:0:
256,192,131217,1,0,0:0:0:0:
36,192,131217,1,0,0:0:0:0:
109,192,131217,1,0,0:0:0:0:
329,192,131308,1,0,0:0:0:0:
402,192,131399,1,0,0:0:0:0:
182,192,131399,1,0,0:0:0:0:
109,192,131489,1,0,0:0:0:0:
36,192,131580,1,0,0:0:0:0:
475,192,131580,1,0,0:0:0:0:
256,192,131580,1,0,0:0:0:0:
329,192,131671,1,0,0:0:0:0:
402,192,131762,1,0,0:0:0:0:
475,192,131762,1,0,0:0:0:0:
109,192,131853,1,0,0:0:0:0:
182,192,131853,1,0,0:0:0:0:
402,192,131944,1,0,0:0:0:0:
475,192,131944,1,0,0:0:0:0:
109,192,132035,1,0,0:0:0:0:
182,192,132035,1,0,0:0:0:0:
402,192,132126,1,0,0:0:0:0:
475,192,132126,1,0,0:0:0:0:
256,192,132126,1,0,0:0:0:0:
36,192,132308,1,0,0:0:0:0:
109,192,132308,1,0,0:0:0:0:
182,192,132353,1,0,0:0:0:0:
256,192,132399,1,0,0:0:0:0:
475,192,132399,1,0,0:0:0:0:
402,192,132444,1,0,0:0:0:0:
329,192,132489,1,0,0:0:0:0:
109,192,132489,1,0,0:0:0:0:
36,192,132580,1,0,0:0:0:0:
182,192,132671,1,0,0:0:0:0:
475,192,132671,1,0,0:0:0:0:
256,192,132762,1,0,0:0:0:0:
329,192,132853,1,0,0:0:0:0:
109,192,132853,1,0,0:0:0:0:
182,192,132944,1,0,0:0:0:0:
36,192,133035,1,0,0:0:0:0:
256,192,133035,1,0,0:0:0:0:
109,192,133126,1,0,0:0:0:0:
329,192,133126,1,0,0:0:0:0:
402,192,133217,1,0,0:0:0:0:
475,192,133217,1,0,0:0:0:0:
256,192,133308,1,0,0:0:0:0:
36,192,133399,1,0,0:0:0:0:
182,192,133399,1,0,0:0:0:0:
329,192,133489,1,0,0:0:0:0:
109,192,133580,1,0,0:0:0:0:
256,192,133580,1,0,0:0:0:0:
475,192,133580,1,0,0:0:0:0:
402,192,133671,1,0,0:0:0:0:
36,192,133762,1,0,0:0:0:0:
182,192,133762,1,0,0:0:0:0:
329,192,133762,1,0,0:0:0:0:
475,192,133853,1,0,0:0:0:0:
402,192,133944,1,0,0:0:0:0:
256,192,133944,1,0,0:0:0:0:
109,192,133944,1,0,0:0:0:0:
36,192,134035,1,0,0:0:0:0:
182,192,134126,1,0,0:0:0:0:
475,192,134126,1,0,0:0:0:0:
402,192,134126,1,0,0:0:0:0:
109,192,134171,1,0,0:0:0:0:
36,192,134217,1,0,0:0:0:0:
256,192,134217,1,0,0:0:0:0:
329,192,134262,1,0,0:0:0:0:
402,192,134308,1,0,0:0:0:0:
475,192,134308,1,0,0:0:0:0:
109,192,134489,1,0,0:0:0:0:
36,192,134489,1,0,0:0:0:0:
256,192,134489,1,0,0:0:0:0:
329,192,134550,1,0,0:0:0:0:
402,192,134611,1,0,0:0:0:0:
475,192,134671,1,0,0:0:0:0:
182,192,134671,1,0,0:0:0:0:
109,192,134762,1,0,0:0:0:0:
36,192,134853,1,0,0:0:0:0:
256,192,134853,1,0,0:0:0:0:
402,192,134853,1,0,0:0:0:0:
182,192,134944,5,0,0:0:0:0:
109,192,135035,1,0,0:0:0:0:
329,192,135035,1,0,0:0:0:0:
475,192,135035,1,0,0:0:0:0:
256,192,135126,1,0,0:0:0:0:
182,192,135217,1,0,0:0:0:0:
402,192,135217,1,0,0:0:0:0:
109,192,135262,1,0,0:0:0:0:
36,192,135308,1,0,0:0:0:0:
329,192,135308,1,0,0:0:0:0:
402,192,135353,1,0,0:0:0:0:
475,192,135399,1,0,0:0:0:0:
256,192,135399,1,0,0:0:0:0:
182,192,135489,1,0,0:0:0:0:
329,192,135580,1,0,0:0:0:0:
109,192,135580,1,0,0:0:0:0:
475,192,135580,1,0,0:0:0:0:
256,192,135671,1,0,0:0:0:0:
182,192,135762,1,0,0:0:0:0:
36,192,135762,1,0,0:0:0:0:
36,192,135853,1,0,0:0:0:0:
182,192,135853,1,0,0:0:0:0:
256,192,135944,1,0,0:0:0:0:
402,192,136035,1,0,0:0:0:0:
182,192,136126,5,0,0:0:0:0:
329,192,136126,1,0,0:0:0:0:
475,192,136126,1,0,0:0:0:0:
182,192,136217,1,0,0:0:0:0:
329,192,136217,1,0,0:0:0:0:
475,192,136217,1,0,0:0:0:0:
109,192,136308,1,0,0:0:0:0:
256,192,136399,1,0,0:0:0:0:
475,192,136399,1,0,0:0:0:0:
402,192,136489,1,0,0:0:0:0:
36,192,136489,1,0,0:0:0:0:
329,192,136580,1,0,0:0:0:0:
256,192,136671,1,0,0:0:0:0:
182,192,136671,1,0,0:0:0:0:
109,192,136762,1,0,0:0:0:0:
475,192,136853,1,0,0:0:0:0:
36,192,136853,1,0,0:0:0:0:
256,192,136944,1,0,0:0:0:0:
402,192,137035,1,0,0:0:0:0:
182,192,137035,1,0,0:0:0:0:
109,192,137126,1,0,0:0:0:0:
36,192,137126,1,0,0:0:0:0:
475,192,137217,1,0,0:0:0:0:
329,192,137217,1,0,0:0:0:0:
256,192,137308,1,0,0:0:0:0:
182,192,137308,1,0,0:0:0:0:
36,192,137399,1,0,0:0:0:0:
109,192,137399,1,0,0:0:0:0:
329,192,137489,1,0,0:0:0:0:
36,192,137580,1,0,0:0:0:0:
256,192,137580,1,0,0:0:0:0:
109,192,137626,1,0,0:0:0:0:
475,192,137671,1,0,0:0:0:0:
182,192,137671,1,0,0:0:0:0:
402,192,137717,1,0,0:0:0:0:
36,192,137762,1,0,0:0:0:0:
329,192,137762,1,0,0:0:0:0:
109,192,137808,1,0,0:0:0:0:
475,192,137853,1,0,0:0:0:0:
182,192,137853,1,0,0:0:0:0:
402,192,137899,1,0,0:0:0:0:
329,192,137944,1,0,0:0:0:0:
109,192,137944,1,0,0:0:0:0:
182,192,138035,1,0,0:0:0:0:
256,192,138126,1,0,0:0:0:0:
329,192,138217,1,0,0:0:0:0:
36,192,138308,1,0,0:0:0:0:
109,192,138308,1,0,0:0:0:0:
402,192,138308,1,0,0:0:0:0:
475,192,138308,1,0,0:0:0:0:
182,192,138308,1,0,0:0:0:0:
256,192,138580,5,0,0:0:0:0:
109,192,138580,1,0,0:0:0:0:
329,192,138671,1,0,0:0:0:0:
475,192,138671,1,0,0:0:0:0:
182,192,138671,1,0,0:0:0:0:
329,192,139035,1,0,0:0:0:0:
475,192,139035,1,0,0:0:0:0:
182,192,139035,1,0,0:0:0:0:
402,192,139399,1,0,0:0:0:0:
182,192,139399,1,0,0:0:0:0:
329,192,139489,1,0,0:0:0:0:
256,192,139580,1,0,0:0:0:0:
182,192,139671,1,0,0:0:0:0:
402,192,139762,1,0,0:0:0:0:
109,192,139762,1,0,0:0:0:0:
36,192,139762,1,0,0:0:0:0:
475,192,139762,1,0,0:0:0:0:
329,192,139762,1,0,0:0:0:0:
256,192,140035,1,0,0:0:0:0:
402,192,140035,1,0,0:0:0:0:
182,192,140126,1,0,0:0:0:0:
36,192,140126,1,0,0:0:0:0:
329,192,140126,1,0,0:0:0:0:
182,192,140489,1,0,0:0:0:0:
36,192,140489,1,0,0:0:0:0:
329,192,140489,1,0,0:0:0:0:
475,192,140853,1,0,0:0:0:0:
182,192,140853,1,0,0:0:0:0:
402,192,140944,1,0,0:0:0:0:
329,192,141035,1,0,0:0:0:0:
256,192,141126,1,0,0:0:0:0:
109,192,141217,1,0,0:0:0:0:
36,192,141217,1,0,0:0:0:0:
182,192,141217,1,0,0:0:0:0:
402,192,141217,1,0,0:0:0:0:
475,192,141217,1,0,0:0:0:0:
36,192,141489,1,0,0:0:0:0:
182,192,141489,1,0,0:0:0:0:
329,192,141489,1,0,0:0:0:0:
256,192,141580,1,0,0:0:0:0:
109,192,141580,1,0,0:0:0:0:
402,192,141580,1,0,0:0:0:0:
256,192,141944,1,0,0:0:0:0:
402,192,141944,1,0,0:0:0:0:
475,192,141944,1,0,0:0:0:0:
109,192,141944,1,0,0:0:0:0:
36,192,142308,1,0,0:0:0:0:
329,192,142308,1,0,0:0:0:0:
109,192,142399,1,0,0:0:0:0:
182,192,142489,1,0,0:0:0:0:
256,192,142580,1,0,0:0:0:0:
475,192,142671,1,0,0:0:0:0:
36,192,142671,1,0,0:0:0:0:
109,192,142671,1,0,0:0:0:0:
329,192,142671,1,0,0:0:0:0:
402,192,142671,1,0,0:0:0:0:
329,192,142944,1,0,0:0:0:0:
475,192,142944,1,0,0:0:0:0:
182,192,142944,1,0,0:0:0:0:
402,192,143035,1,0,0:0:0:0:
256,192,143035,1,0,0:0:0:0:
109,192,143035,1,0,0:0:0:0:
36,192,143399,1,0,0:0:0:0:
402,192,143399,1,0,0:0:0:0:
109,192,143399,1,0,0:0:0:0:
256,192,143399,1,0,0:0:0:0:
109,192,143762,1,0,0:0:0:0:
329,192,143762,1,0,0:0:0:0:
256,192,143853,1,0,0:0:0:0:
182,192,143944,1,0,0:0:0:0:
329,192,144035,1,0,0:0:0:0:
402,192,144126,1,0,0:0:0:0:
475,192,144126,1,0,0:0:0:0:
36,192,144126,1,0,0:0:0:0:
109,192,144126,1,0,0:0:0:0:
256,192,144126,1,0,0:0:0:0:
36,192,144399,1,0,0:0:0:0:
329,192,144399,1,0,0:0:0:0:
402,192,144399,1,0,0:0:0:0:
182,192,144489,1,0,0:0:0:0:
109,192,144489,1,0,0:0:0:0:
475,192,144489,1,0,0:0:0:0:
109,192,144853,1,0,0:0:0:0:
475,192,144853,1,0,0:0:0:0:
256,192,144853,1,0,0:0:0:0:
36,192,144853,1,0,0:0:0:0:
402,192,145217,1,0,0:0:0:0:
182,192,145217,1,0,0:0:0:0:
256,192,145308,1,0,0:0:0:0:
329,192,145399,1,0,0:0:0:0:
182,192,145489,1,0,0:0:0:0:
256,192,145580,1,0,0:0:0:0:
475,192,145580,1,0,0:0:0:0:
109,192,145580,1,0,0:0:0:0:
402,192,145580,1,0,0:0:0:0:
36,192,145580,1,0,0:0:0:0:
475,192,145853,1,0,0:0:0:0:
109,192,145853,1,0,0:0:0:0:
182,192,145853,1,0,0:0:0:0:
329,192,145944,1,0,0:0:0:0:
36,192,145944,1,0,0:0:0:0:
402,192,145944,1,0,0:0:0:0:
256,192,146308,1,0,0:0:0:0:
402,192,146308,1,0,0:0:0:0:
475,192,146308,1,0,0:0:0:0:
36,192,146308,1,0,0:0:0:0:
182,192,146671,1,0,0:0:0:0:
36,192,146671,1,0,0:0:0:0:
402,192,146671,1,0,0:0:0:0:
329,192,146762,1,0,0:0:0:0:
256,192,146853,1,0,0:0:0:0:
182,192,146944,1,0,0:0:0:0:
329,192,147035,1,0,0:0:0:0:
402,192,147035,1,0,0:0:0:0:
475,192,147035,1,0,0:0:0:0:
36,192,147035,1,0,0:0:0:0:
109,192,147035,1,0,0:0:0:0:
36,192,147308,1,0,0:0:0:0:
109,192,147308,1,0,0:0:0:0:
256,192,147399,1,0,0:0:0:0:
329,192,147399,1,0,0:0:0:0:
402,192,147399,1,0,0:0:0:0:
256,192,147762,1,0,0:0:0:0:
329,192,147762,1,0,0:0:0:0:
402,192,147762,1,0,0:0:0:0:
36,192,148126,1,0,0:0:0:0:
109,192,148126,1,0,0:0:0:0:
329,192,148126,1,0,0:0:0:0:
402,192,148126,1,0,0:0:0:0:
475,192,148126,1,0,0:0:0:0:
402,192,148399,1,0,0:0:0:0:
475,192,148399,1,0,0:0:0:0:
109,192,148490,1,0,0:0:0:0:
182,192,148490,1,0,0:0:0:0:
256,192,148490,1,0,0:0:0:0:
109,192,148853,1,0,0:0:0:0:
182,192,148853,1,0,0:0:0:0:
256,192,148853,1,0,0:0:0:0:
402,192,148853,1,0,0:0:0:0:
475,192,148853,1,0,0:0:0:0:
36,192,149217,1,0,0:0:0:0:
109,192,149217,1,0,0:0:0:0:
182,192,149217,1,0,0:0:0:0:
329,192,149217,1,0,0:0:0:0:
402,192,149217,1,0,0:0:0:0:
36,192,149580,1,0,0:0:0:0:
109,192,149580,1,0,0:0:0:0:
256,192,149580,1,0,0:0:0:0:
402,192,149580,1,0,0:0:0:0:
475,192,149580,1,0,0:0:0:0:
329,192,149944,1,0,0:0:0:0:
475,192,149944,1,0,0:0:0:0:
109,192,150035,1,0,0:0:0:0:
256,192,150126,1,0,0:0:0:0:
402,192,150126,1,0,0:0:0:0:
36,192,150126,1,0,0:0:0:0:
182,192,150217,1,0,0:0:0:0:
329,192,150217,1,0,0:0:0:0:
109,192,150308,1,0,0:0:0:0:
475,192,150308,1,0,0:0:0:0:
402,192,150308,1,0,0:0:0:0:
256,192,150399,1,0,0:0:0:0:
36,192,150489,1,0,0:0:0:0:
329,192,150489,1,0,0:0:0:0:
109,192,150580,1,0,0:0:0:0:
182,192,150671,1,0,0:0:0:0:
402,192,150671,1,0,0:0:0:0:
475,192,150671,1,0,0:0:0:0:
256,192,150762,1,0,0:0:0:0:
36,192,150762,1,0,0:0:0:0:
109,192,150853,1,0,0:0:0:0:
329,192,150853,1,0,0:0:0:0:
402,192,150853,1,0,0:0:0:0:
182,192,150944,1,0,0:0:0:0:
256,192,151035,1,0,0:0:0:0:
475,192,151035,1,0,0:0:0:0:
36,192,151035,1,0,0:0:0:0:
109,192,151126,1,0,0:0:0:0:
182,192,151217,1,0,0:0:0:0:
329,192,151217,1,0,0:0:0:0:
402,192,151217,1,0,0:0:0:0:
475,192,151308,1,0,0:0:0:0:
256,192,151399,1,0,0:0:0:0:
36,192,151399,1,0,0:0:0:0:
402,192,151399,1,0,0:0:0:0:
109,192,151489,1,0,0:0:0:0:
182,192,151580,1,0,0:0:0:0:
329,192,151580,1,0,0:0:0:0:
402,192,151671,1,0,0:0:0:0:
256,192,151762,5,0,0:0:0:0:
475,192,151762,1,0,0:0:0:0:
182,192,151808,1,0,0:0:0:0:
109,192,151853,1,0,0:0:0:0:
36,192,151899,1,0,0:0:0:0:
329,192,151944,1,0,0:0:0:0:
256,192,151989,1,0,0:0:0:0:
182,192,152035,1,0,0:0:0:0:
109,192,152080,1,0,0:0:0:0:
402,192,152126,1,0,0:0:0:0:
329,192,152171,1,0,0:0:0:0:
256,192,152217,1,0,0:0:0:0:
182,192,152262,1,0,0:0:0:0:
475,192,152308,1,0,0:0:0:0:
402,192,152353,1,0,0:0:0:0:
329,192,152399,1,0,0:0:0:0:
256,192,152444,1,0,0:0:0:0:
475,192,152489,1,0,0:0:0:0:
402,192,152489,1,0,0:0:0:0:
36,192,152489,1,0,0:0:0:0:
109,192,152489,1,0,0:0:0:0:
182,192,152489,1,0,0:0:0:0:
