osu file format v14

[General]
AudioFilename: Lilac.mp3
AudioLeadIn: 0
PreviewTime: 18094
Countdown: 0
SampleSet: Soft
StackLeniency: 0.7
Mode: 0
LetterboxInBreaks: 0
WidescreenStoryboard: 0

[Editor]
DistanceSpacing: 1.1
BeatDivisor: 16
GridSize: 4
TimelineZoom: 2.699999

[Metadata]
Title:Lilac
TitleUnicode:Lilac
Artist:MiddleIsland
ArtistUnicode:MiddleIsland
Creator:cmn_891127
Version:Hard
Source:
Tags:弦奏速鍵録 中島岬 Lan wings
BeatmapID:693954
BeatmapSetID:310500

[Difficulty]
HPDrainRate:5
CircleSize:4
OverallDifficulty:5
ApproachRate:8
SliderMultiplier:1.6
SliderTickRate:1

[Events]
//Background and Video events
0,0,"BG.jpg",0,0
//Break Periods
2,86451,95383
//Storyboard Layer 0 (Background)
//Storyboard Layer 1 (Fail)
//Storyboard Layer 2 (Pass)
//Storyboard Layer 3 (Foreground)
//Storyboard Sound Samples

[TimingPoints]
4369,352.941176470588,4,2,1,100,1,0
17780,-100,4,2,2,100,0,0
18133,-133.333333333333,4,2,1,100,0,0
29074,-100,4,2,1,100,0,0
121898,-200,4,2,1,100,0,0

[Colours]
Combo1 : 188,188,237
Combo2 : 237,188,213
Combo3 : 188,213,237

[HitObjects]
256,192,707,12,0,4369,0:0:0:0:
119,106,4721,5,0,0:0:0:0:
138,108,5074,1,0,0:0:0:0:
158,110,5427,1,0,0:0:0:0:
276,144,5780,5,0,0:0:0:0:
256,146,6133,1,0,0:0:0:0:
236,148,6486,1,0,0:0:0:0:
165,204,6663,6,0,P|131:218|85:208,2,80
249,240,7192,2,0,B|284:244|325:298|400:269,1,160
465,217,7721,1,0,0:0:0:0:
383,183,7898,2,0,P|394:146|383:102,2,80
311,142,8427,1,0,0:0:0:0:
291,142,8515,1,0,0:0:0:0:
271,142,8604,2,0,L|192:142,1,80
67,215,8957,6,0,L|146:215,1,80
167,215,9221,1,0,0:0:0:0:
187,216,9310,2,0,P|221:285|188:355,1,160
137,285,9839,2,0,L|110:314,2,40
186,216,10192,2,0,P|202:163|189:131,1,80
120,170,10545,2,0,P|119:107|199:58,1,160
268,100,11074,2,0,P|312:121|381:109,1,120
397,98,11427,6,0,L|336:150,1,80
451,160,11780,2,0,L|390:212,1,80
505,223,12133,2,0,L|444:275,1,80
361,332,12486,1,0,0:0:0:0:
347,318,12574,1,0,0:0:0:0:
329,311,12662,1,0,0:0:0:0:
310,310,12750,1,0,0:0:0:0:
290,311,12839,2,0,P|329:311|363:292,1,80
307,226,13192,5,0,0:0:0:0:
231,177,13368,1,0,0:0:0:0:
171,239,13545,2,0,B|115:260|79:226|53:230,2,120
206,318,14251,1,0,0:0:0:0:
291,311,14780,5,0,0:0:0:0:
311,309,14869,1,0,0:0:0:0:
331,307,14957,1,0,0:0:0:0:
256,192,15045,12,0,17780,0:0:0:0:
116,169,18133,5,0,0:0:0:0:
123,175,18486,2,0,P|178:194|233:175,1,120.000004577637
232,84,19016,2,0,P|176:64|121:83,1,120.000004577637
125,176,19545,1,0,0:0:0:0:
131,261,19721,2,0,L|134:346,1,60.0000022888184
208,207,20251,2,0,L|205:122,1,60.0000022888184
286,255,20780,2,0,L|289:340,1,60.0000022888184
371,281,21133,1,0,0:0:0:0:
442,326,21310,6,0,P|453:269|425:216,1,120.000004577637
317,345,22016,2,0,P|289:292|301:235,1,120.000004577637
389,112,22721,2,0,L|325:112,1,60.0000022888184
287,133,22986,1,0,0:0:0:0:
287,133,23074,2,0,L|209:132,1,60.0000022888184
210,132,23780,6,0,B|173:132|149:166|93:151,1,120.000004577637
249,204,24486,2,0,P|264:238|255:281,1,60.0000022888184
167,364,25016,2,0,P|158:305|185:253,1,120.000004577637
249,204,25545,2,0,P|258:171|251:135,1,60.0000022888184
251,125,25810,2,0,L|242:97,1,30.0000011444092
327,107,26074,1,0,0:0:0:0:
372,174,26251,1,0,0:0:0:0:
322,235,26427,1,0,0:0:0:0:
249,204,26604,1,0,0:0:0:0:
250,125,26780,1,0,0:0:0:0:
180,163,26957,6,0,B|138:166|121:198|63:179,1,120.000004577637
31,104,27486,2,0,L|22:78,2,20.0000007629395
36,120,27663,2,0,P|41:160|17:208,1,90.0000034332277
34,217,28016,2,0,P|26:244|31:279,1,60.0000022888185
110,253,28368,2,0,L|177:253,1,60.0000022888185
197,271,28633,1,0,0:0:0:0:
197,271,28721,2,0,L|257:271,1,60.0000022888185
379,293,29074,1,0,0:0:0:0:
307,344,29251,1,0,0:0:0:0:
333,219,29427,1,0,0:0:0:0:
322,204,29515,1,0,0:0:0:0:
311,189,29603,1,0,0:0:0:0:
299,174,29691,1,0,0:0:0:0:
287,159,29780,6,0,B|250:156|207:210|132:179,1,160
175,101,30310,1,0,0:0:0:0:
176,81,30398,1,0,0:0:0:0:
177,61,30486,1,0,0:0:0:0:
133,179,30663,2,0,P|99:167|51:168,2,80
206,227,31192,1,0,0:0:0:0:
248,150,31368,1,0,0:0:0:0:
175,101,31545,1,0,0:0:0:0:
292,225,31721,2,0,P|325:244|365:243,1,80
470,183,32074,2,0,P|482:180|511:183,1,40
485,150,32251,2,0,P|450:172|408:174,1,80
248,150,32604,6,0,P|285:139|327:145,1,80
366,275,32957,2,0,P|296:310|223:283,1,160
292,225,33486,1,0,0:0:0:0:
179,206,33663,1,0,0:0:0:0:
223,283,33839,1,0,0:0:0:0:
248,150,34016,2,0,P|259:119|252:65,1,80
246,54,34280,1,0,0:0:0:0:
232,39,34368,1,0,0:0:0:0:
99,115,34545,2,0,P|138:119|175:105,1,80
388,90,34898,2,0,P|408:91|427:87,1,40
409,122,35074,2,0,P|371:110|332:115,1,80
176,196,35427,6,0,P|125:224|56:211,1,120
48,206,35780,1,0,0:0:0:0:
48,206,35957,1,0,0:0:0:0:
48,206,36133,1,0,0:0:0:0:
212,119,36310,2,0,P|169:113|130:124,2,80
263,195,36839,1,0,0:0:0:0:
318,265,37016,2,0,L|344:265,2,26.6666666666667
373,230,37192,2,0,L|426:230,2,53.3333333333333
403,314,37545,2,0,P|442:315|479:301,1,80
450,144,37898,2,0,P|411:141|374:155,1,80
427,231,38251,5,0,0:0:0:0:
403,314,38427,1,0,0:0:0:0:
318,265,38604,1,0,0:0:0:0:
233,317,38780,2,0,L|219:285,1,26.6666666666667
194,286,38898,2,0,L|193:245,1,26.6666666666667
171,168,39133,2,0,P|194:166|215:169,1,40
154,133,39310,2,0,P|193:142|232:134,1,80
324,139,39663,6,0,B|288:143|242:194|172:169,1,160
206,91,40192,1,0,0:0:0:0:
291,214,40368,2,0,P|299:252|291:291,1,80
135,263,40721,5,0,0:0:0:0:
154,254,40809,1,0,0:0:0:0:
173,250,40897,1,0,0:0:0:0:
193,250,40985,1,0,0:0:0:0:
213,254,41073,1,0,0:0:0:0:
259,364,41251,1,0,0:0:0:0:
183,333,41427,1,0,0:0:0:0:
291,291,41604,2,0,B|330:293|371:342|447:315,1,160
485,238,42133,2,0,P|446:229|408:236,2,80
447,146,42663,5,0,0:0:0:0:
447,126,42751,1,0,0:0:0:0:
447,106,42839,1,0,0:0:0:0:
361,164,43016,2,0,P|323:174|284:168,1,80
201,149,43368,1,0,0:0:0:0:
191,68,43545,1,0,0:0:0:0:
268,35,43721,1,0,0:0:0:0:
323,95,43898,1,0,0:0:0:0:
283,167,44074,2,0,P|268:210|277:258,1,80
303,325,44427,2,0,B|272:323|220:372|149:343,1,160
386,299,44957,2,0,P|423:304|466:287,1,80
360,215,45310,5,0,0:0:0:0:
274,242,45486,2,0,P|257:253|242:269,1,40
228,303,45663,2,0,P|267:306|302:324,1,80
360,215,46016,1,0,0:0:0:0:
368,197,46104,1,0,0:0:0:0:
377,179,46192,1,0,0:0:0:0:
386,161,46280,1,0,0:0:0:0:
395,143,46368,1,0,0:0:0:0:
294,151,46545,2,0,P|297:126|276:75,1,80
133,132,46898,2,0,L|213:132,2,80
79,200,47427,5,0,0:0:0:0:
95,210,47515,1,0,0:0:0:0:
114,217,47603,1,0,0:0:0:0:
134,218,47691,1,0,0:0:0:0:
154,215,47780,2,0,B|115:215|70:289|0:254,1,160
229,265,48310,2,0,P|240:305|228:350,1,80
236,174,48663,2,0,P|225:134|237:89,1,80
310,226,49016,1,0,0:0:0:0:
397,250,49192,2,0,L|430:245,2,26.6666666666667
386,270,49368,2,0,P|379:297|392:353,1,80
467,305,49721,2,0,P|483:262|426:163,1,160
345,146,50251,5,0,0:0:0:0:
327,160,50339,1,0,0:0:0:0:
314,180,50427,1,0,0:0:0:0:
308,202,50515,1,0,0:0:0:0:
310,226,50604,2,0,P|326:183|269:84,1,160
238,169,51133,2,0,L|159:186,1,80
226,264,51486,2,0,L|173:278,1,53.3333333333333
232,293,51663,2,0,L|179:307,1,53.3333333333333
240,323,51839,2,0,B|200:329|156:388|85:356,1,160
36,286,52368,6,0,P|40:247|61:214,2,80
122,278,52898,2,0,B|167:281|217:328|278:292,1,160
427,102,53604,1,0,0:0:0:0:
424,121,53692,1,0,0:0:0:0:
421,141,53780,1,0,0:0:0:0:
350,195,53957,1,0,0:0:0:0:
347,214,54045,1,0,0:0:0:0:
344,234,54133,1,0,0:0:0:0:
275,293,54310,2,0,P|266:332|276:370,1,80
423,369,54663,2,0,P|432:330|422:292,1,80
350,332,55016,1,0,0:0:0:0:
350,332,55192,1,0,0:0:0:0:
256,192,55280,12,0,56604,0:0:0:0:
191,268,56957,6,0,P|220:196|188:125,1,160
169,124,57486,6,0,L|259:124,1,80
209,201,57839,2,0,L|289:201,1,80
251,275,58192,2,0,B|298:277|328:329|404:303,1,160
286,163,58898,1,0,0:0:0:0:
305,158,58986,1,0,0:0:0:0:
324,154,59074,1,0,0:0:0:0:
326,238,59251,1,0,0:0:0:0:
345,233,59339,1,0,0:0:0:0:
364,229,59427,1,0,0:0:0:0:
417,156,59604,2,0,P|408:124|416:75,1,80
493,115,59957,2,0,B|448:115|413:173|342:150,1,160
95,228,60663,2,0,P|104:260|96:309,1,80
256,192,60927,12,0,62251,0:0:0:0:
320,267,62604,6,0,P|292:195|324:124,1,160
344,124,63133,6,0,L|392:124,1,40
324,124,63310,2,0,B|279:129|245:188|173:158,1,160
133,84,63839,2,0,P|175:75|213:83,1,80
357,202,64192,2,0,P|417:237|502:214,2,160
345,186,64986,1,0,0:0:0:0:
336,168,65074,2,0,P|346:206|338:244,2,80
216,140,65604,2,0,P|183:211|220:278,2,160
265,208,66486,1,0,0:0:0:0:
256,192,66574,12,0,67898,0:0:0:0:
374,139,68251,5,0,0:0:0:0:
311,83,68427,2,0,L|315:40,2,40
237,126,68780,1,0,0:0:0:0:
255,212,68957,1,0,0:0:0:0:
344,220,69133,1,0,0:0:0:0:
374,139,69310,1,0,0:0:0:0:
310,83,69486,6,0,P|295:159|344:220,2,160
373,139,70368,2,0,B|404:139|424:157|463:147,1,80
472,148,70633,1,0,0:0:0:0:
492,147,70721,1,0,0:0:0:0:
423,236,70898,2,0,L|442:278,2,40
337,218,71251,2,0,B|292:219|250:266|182:246,1,160
350,130,71957,1,0,0:0:0:0:
438,147,72133,2,0,P|429:84|350:40,1,160
256,192,72574,12,0,73545,0:0:0:0:
325,225,73721,6,0,P|282:230|246:215,1,80
293,148,74074,1,0,0:0:0:0:
405,199,74251,2,0,P|410:218|408:238,2,40
372,118,74604,2,0,P|391:113|411:113,2,40
325,225,74956,5,0,0:0:0:0:
276,330,75134,1,0,0:0:0:0:
353,304,75310,1,0,0:0:0:0:
244,256,75487,2,0,B|205:258|164:307|88:280,1,160
50,203,76016,2,0,P|89:194|127:201,2,80
88,111,76546,5,0,0:0:0:0:
88,91,76634,1,0,0:0:0:0:
88,71,76722,1,0,0:0:0:0:
174,129,76899,2,0,P|212:139|251:133,1,80
336,119,77251,1,0,0:0:0:0:
347,38,77428,1,0,0:0:0:0:
273,1,77604,1,0,0:0:0:0:
215,59,77781,1,0,0:0:0:0:
251,132,77957,2,0,P|266:175|257:223,1,80
232,290,78310,2,0,B|263:288|315:337|386:308,1,160
149,264,78840,2,0,P|109:268|66:251,1,80
175,180,79193,5,0,0:0:0:0:
259,207,79368,2,0,P|276:217|291:233,1,40
306,268,79545,2,0,P|267:271|232:290,1,80
175,180,79899,1,0,0:0:0:0:
167,162,79987,1,0,0:0:0:0:
158,144,80075,1,0,0:0:0:0:
149,126,80163,1,0,0:0:0:0:
140,108,80251,1,0,0:0:0:0:
241,116,80428,2,0,P|238:91|259:40,1,80
402,97,80781,2,0,L|322:97,2,80
456,165,81310,5,0,0:0:0:0:
440,175,81398,1,0,0:0:0:0:
421,182,81486,1,0,0:0:0:0:
401,183,81574,1,0,0:0:0:0:
382,179,81663,2,0,P|421:186|452:210,1,80
380,268,82016,1,0,0:0:0:0:
365,282,82104,1,0,0:0:0:0:
356,300,82192,2,0,P|350:324|362:378,1,80
435,331,82545,5,0,0:0:0:0:
380,268,82721,1,0,0:0:0:0:
304,226,82898,1,0,0:0:0:0:
218,216,83075,2,0,L|188:216,2,26.6666666666667
200,232,83251,2,0,P|162:247|123:239,1,80
58,291,83604,2,0,P|44:215|94:156,1,160
183,136,84134,5,0,0:0:0:0:
201,150,84222,1,0,0:0:0:0:
214,170,84310,1,0,0:0:0:0:
220,192,84398,1,0,0:0:0:0:
218,216,84487,2,0,P|202:173|259:74,1,160
290,159,85016,2,0,L|369:176,1,80
302,254,85369,2,0,L|355:268,1,53.3333333333333
296,283,85546,2,0,L|349:297,1,53.3333333333333
288,313,85722,2,0,B|328:319|372:378|443:346,1,160
503,290,86251,1,0,0:0:0:0:
238,150,96133,6,0,L|317:150,1,80
349,182,96398,1,0,0:0:0:0:
349,182,96486,2,0,L|430:182,1,80
512,215,96839,1,0,0:0:0:0:
512,215,97016,1,0,0:0:0:0:
485,299,97192,1,0,0:0:0:0:
465,299,97280,1,0,0:0:0:0:
445,299,97368,1,0,0:0:0:0:
425,299,97456,1,0,0:0:0:0:
405,299,97545,6,0,B|368:300|318:359|254:331,1,160
208,229,98074,1,0,0:0:0:0:
201,248,98162,1,0,0:0:0:0:
195,267,98250,1,0,0:0:0:0:
277,177,98427,2,0,P|291:213|290:253,1,80
194,151,98780,1,0,0:0:0:0:
194,63,98957,1,0,0:0:0:0:
278,36,99133,1,0,0:0:0:0:
329,107,99310,2,0,L|321:147,1,40
277,177,99486,2,0,P|316:175|354:193,1,80
425,137,99839,1,0,0:0:0:0:
439,123,99927,1,0,0:0:0:0:
456,116,100015,1,0,0:0:0:0:
475,111,100103,1,0,0:0:0:0:
494,109,100192,2,0,P|453:112|419:92,1,80
328,107,100545,6,0,P|310:115|290:115,1,40
280,153,100721,2,0,P|241:146|203:155,1,80
286,241,101074,2,0,P|247:250|208:243,1,80
368,149,101427,1,0,0:0:0:0:
374,235,101604,1,0,0:0:0:0:
280,153,101781,2,0,P|266:123|270:69,1,80
274,58,102045,1,0,0:0:0:0:
287,42,102133,2,0,L|372:42,1,80
444,79,102486,2,0,P|466:82|505:69,2,53.3333333333333
460,161,102839,2,0,P|477:167|514:166,2,53.3333333333333
426,235,103192,6,0,P|387:251|347:245,1,80
303,136,103545,1,0,0:0:0:0:
379,168,103721,1,0,0:0:0:0:
271,214,103898,1,0,0:0:0:0:
196,248,104074,2,0,P|153:254|114:243,1,80
122,96,104427,2,0,P|165:90|204:101,1,80
159,172,104781,2,0,L|123:171,2,26.6666666666667
184,177,104957,2,0,P|210:179|236:172,2,53.3333333333333
220,263,105310,2,0,B|264:261|311:314|375:286,1,160
418,175,105839,5,0,0:0:0:0:
450,253,106016,1,0,0:0:0:0:
339,210,106192,2,0,P|332:174|346:129,1,80
389,57,106545,2,0,L|403:25,1,26.6666666666667
420,88,106663,2,0,L|421:47,1,26.6666666666667
417,175,106898,2,0,P|435:167|455:165,1,40
339,210,107075,2,0,P|292:217|262:207,1,80
303,136,107428,2,0,B|339:140|385:191|455:166,1,160
420,88,107957,1,0,0:0:0:0:
261,206,108133,2,0,P|253:254|265:292,1,80
338,245,108486,2,0,B|297:243|246:297|180:272,1,160
140,199,109016,2,0,P|133:172|146:122,2,80
293,134,109721,6,0,P|300:161|287:211,2,80
217,167,110251,1,0,0:0:0:0:
219,83,110427,2,0,L|199:48,1,40
182,12,110604,2,0,P|216:31|256:31,1,80
341,37,110957,1,0,0:0:0:0:
292,109,111133,1,0,0:0:0:0:
345,176,111310,1,0,0:0:0:0:
427,149,111486,1,0,0:0:0:0:
424,65,111663,1,0,0:0:0:0:
341,37,111839,2,0,B|305:38|262:99|190:70,1,160
229,242,112545,6,0,P|237:202|225:164,2,80
151,209,113074,1,0,0:0:0:0:
111,130,113251,2,0,L|61:130,1,40
91,96,113427,2,0,P|129:106|173:94,1,80
252,64,113780,2,0,L|282:36,2,40
326,110,114133,1,0,0:0:0:0:
344,117,114221,1,0,0:0:0:0:
363,121,114309,1,0,0:0:0:0:
383,121,114397,1,0,0:0:0:0:
403,116,114486,2,0,B|363:116|331:176|250:159,1,160
177,114,115016,6,0,L|145:89,2,40
120,177,115368,2,0,P|135:214|129:254,1,80
46,259,115721,2,0,P|31:222|37:182,1,80
118,215,116074,2,0,P|160:234|251:182,1,160
258,162,116516,1,0,0:0:0:0:
262,142,116604,2,0,P|254:168|265:221,1,80
347,215,116957,2,0,P|355:189|344:136,1,80
299,63,117310,5,0,0:0:0:0:
282,51,117398,1,0,0:0:0:0:
264,43,117486,2,0,P|240:36|218:37,2,40
226,124,117839,2,0,P|199:147|194:159,2,40
265,199,118192,2,0,P|273:237|265:276,1,80
191,235,118545,2,0,L|106:236,1,80
72,211,118810,1,0,0:0:0:0:
72,211,118898,2,0,L|28:210,2,40
136,156,119251,6,0,P|142:121|124:81,1,80
55,130,119604,2,0,P|14:129|-21:145,1,80
32,210,119957,1,0,0:0:0:0:
110,237,120133,5,0,0:0:0:0:
215,183,120368,2,0,L|245:163,2,26.6666666666667
188,266,120839,5,0,0:0:0:0:
293,213,121074,2,0,L|323:193,2,26.6666666666667
266,295,121545,5,0,0:0:0:0:
354,277,121898,2,0,L|419:277,1,60
