osu file format v14

[General]
AudioFilename: Lilac.mp3
AudioLeadIn: 0
PreviewTime: 18094
Countdown: 0
SampleSet: Soft
StackLeniency: 0.7
Mode: 0
LetterboxInBreaks: 0
WidescreenStoryboard: 1

[Editor]
DistanceSpacing: 1
BeatDivisor: 16
GridSize: 4
TimelineZoom: 1.9

[Metadata]
Title:Lilac
TitleUnicode:Lilac
Artist:MiddleIsland
ArtistUnicode:MiddleIsland
Creator:cmn_891127
Version:Easy
Source:
Tags:弦奏速鍵録 中島岬 Lan wings
BeatmapID:706781
BeatmapSetID:310500

[Difficulty]
HPDrainRate:1
CircleSize:3
OverallDifficulty:1
ApproachRate:6
SliderMultiplier:1
SliderTickRate:1

[Events]
//Background and Video events
0,0,"BG.jpg",0,0
//Break Periods
2,86451,95789
//Storyboard Layer 0 (Background)
//Storyboard Layer 1 (Fail)
//Storyboard Layer 2 (Pass)
//Storyboard Layer 3 (Foreground)
//Storyboard Sound Samples

[TimingPoints]
4369,352.941176470588,4,2,1,100,1,0
17780,-100,4,2,2,100,0,0
18486,-100,4,2,1,100,0,0

[Colours]
Combo1 : 188,188,237
Combo2 : 237,188,213
Combo3 : 188,213,237

[HitObjects]
256,192,707,12,0,4369,0:0:0:0:
200,165,6486,6,0,B|249:160|303:231|391:193,2,200
375,99,8604,2,0,P|308:169|328:263,2,200
414,290,10721,2,0,P|481:220|461:126,2,200
375,99,12839,2,0,B|319:108|277:186|189:143,2,200
256,192,14957,12,0,17780,0:0:0:0:
256,142,18486,6,0,B|316:276|452:276|452:104|312:104|256:244,2,400
227,338,22016,2,0,P|132:357|62:291,2,200
90,197,24133,2,0,P|184:177|255:242,2,200
217,78,26251,6,0,B|266:83|324:155|414:116,2,200
364,194,28368,2,0,P|345:58|476:72,1,300
406,119,29780,6,0,P|333:117|277:165,2,150
439,213,31192,2,0,P|383:261|309:259,2,150
353,176,32604,2,0,B|308:178|238:257|165:217,2,200
439,212,34413,2,0,P|430:123|350:82,1,187.5
271,133,35427,6,0,P|259:69|309:-3,2,150
350,82,36839,2,0,B|377:146|338:199|338:199|377:254|350:318,1,250
250,225,38251,2,0,B|217:223|167:283|104:249,2,150
256,192,39663,12,0,41074,0:0:0:0:
316,128,42486,6,0,B|307:84|355:43|402:97|402:97|471:74|492:133|462:167|454:198|366:232|366:232|349:215,1,400
196,128,45310,6,0,B|204:84|156:43|109:97|109:97|40:74|19:133|49:167|57:198|145:232|145:232|162:215,1,400
251,200,47074,6,0,B|305:203|356:277|440:235,1,200
392,159,48133,2,0,P|367:286|494:303,1,287.5
440,235,49545,6,0,B|395:236|337:311|251:280,2,200
273,147,51663,2,0,B|321:123|370:148|370:148|417:123|465:147,1,200
353,236,52898,6,0,B|294:236|294:236|365:210|386:125|330:79,2,250
256,192,55192,12,0,57310,0:0:0:0:
240,144,58016,5,0,0:0:0:0:
157,236,58545,2,0,B|216:236|216:236|145:210|124:125|180:79,2,250
256,192,60839,12,0,62957,0:0:0:0:
419,184,63663,6,0,B|428:149|395:116|399:81|399:81|363:218|363:218|310:187|257:218|307:267|357:243,1,400
299,123,65604,2,0,B|261:119|220:171|155:149,1,150
256,192,66486,12,0,68604,0:0:0:0:
92,184,69310,6,0,B|83:149|116:116|112:81|112:81|148:218|148:218|201:187|254:218|204:267|155:243,1,400
213,123,71251,2,0,B|251:119|292:171|357:149,1,150
256,192,72486,12,0,74957,0:0:0:0:
101,166,75839,6,0,P|139:139|237:158,1,150
172,226,76721,2,0,P|160:106|226:65,1,200
309,66,77780,2,0,B|354:69|392:115|454:98,2,150
315,164,79192,2,0,P|311:219|186:282,2,200
129,215,81310,2,0,P|133:160|258:97,2,200
256,192,83427,12,0,86251,0:0:0:0:
352,326,96839,6,0,P|300:269|345:158,1,200
193,202,98251,6,0,B|250:206|293:278|389:238,2,200
336,162,100368,2,0,B|391:22|531:22|531:194|395:194|335:60,2,400
193,119,103721,6,0,B|262:119|262:119|196:146|185:234|235:275,1,250
347,128,105310,2,0,P|378:199|310:292,2,200
256,192,107427,12,0,108839,0:0:0:0:
92,229,109721,6,0,P|151:270|223:258,1,150
242,164,110604,2,0,P|182:122|110:134,2,150
332,94,112192,6,0,P|301:134|315:235,1,150
385,171,113074,2,0,B|346:175|284:250|198:208,2,200
249,128,115192,6,0,P|257:76|237:28,2,100
119,260,116604,2,0,P|111:312|131:360,2,100
213,129,118016,6,0,P|252:217|202:300,2,200
107,292,120133,2,0,P|69:204|121:123,2,200
162,211,121898,2,0,L|245:211,1,75
