osu file format v14

[General]
AudioFilename: audio.mp3
AudioLeadIn: 0
PreviewTime: -1
Countdown: 1
SampleSet: None
StackLeniency: 0.7
Mode: 0
LetterboxInBreaks: 0
WidescreenStoryboard: 0

[Editor]
DistanceSpacing: 1.5
BeatDivisor: 4
GridSize: 8
TimelineZoom: 2.7

[Metadata]
Title:Frailness
TitleUnicode:Frailness
Artist:MiddleIsland
ArtistUnicode:MiddleIsland
Creator:Kyu96
Version:Cherry Blossom
Source:
Tags:
BeatmapID:1419840
BeatmapSetID:671536

[Difficulty]
HPDrainRate:9
CircleSize:6
OverallDifficulty:9.5
ApproachRate:9.4
SliderMultiplier:1.4
SliderTickRate:1

[Events]
//Background and Video events
0,0,"Wallpaper.jpg",0,0
//Break Periods
//Storyboard Layer 0 (Background)
//Storyboard Layer 1 (Fail)
//Storyboard Layer 2 (Pass)
//Storyboard Layer 3 (Foreground)
//Storyboard Sound Samples

[TimingPoints]
734,400,4,2,0,100,1,0

[HitObjects]
336,32,734,6,0,B|338:64|338:64|319:77|319:77|331:104|317:134,1,105,0|0,3:0|3:0,3:0:0:0:
368,240,1134,5,0,0:0:0:0:
344,256,1234,1,0,0:0:0:0:
320,232,1334,1,0,0:0:0:0:
296,248,1434,1,0,0:0:0:0:
272,176,1534,2,0,L|256:120,3,35
264,264,1934,5,0,0:0:0:0:
240,280,2034,1,0,0:0:0:0:
216,256,2134,1,0,0:0:0:0:
192,272,2234,1,0,0:0:0:0:
168,200,2334,2,0,L|152:144,3,35
168,288,2734,5,0,0:0:0:0:
144,304,2834,1,0,0:0:0:0:
120,280,2934,1,0,0:0:0:0:
96,296,3034,1,0,0:0:0:0:
72,224,3134,2,0,L|56:168,3,35
168,288,3534,5,0,0:0:0:0:
192,256,3634,1,0,0:0:0:0:
168,224,3734,1,0,0:0:0:0:
184,192,3834,1,0,0:0:0:0:
232,120,3934,2,0,B|264:72,3,35
264,264,4334,5,0,0:0:0:0:
288,232,4434,1,0,0:0:0:0:
264,200,4534,1,0,0:0:0:0:
280,168,4634,1,0,0:0:0:0:
328,96,4734,2,0,B|360:48,3,35
368,240,5134,5,0,0:0:0:0:
392,208,5234,1,0,0:0:0:0:
368,176,5334,1,0,0:0:0:0:
384,144,5434,1,0,0:0:0:0:
432,72,5534,2,0,B|464:24,3,35
328,72,5934,5,0,0:0:0:0:
304,104,6034,1,0,0:0:0:0:
256,96,6134,1,0,0:0:0:0:
232,128,6234,1,0,0:0:0:0:
160,152,6334,2,0,L|160:104,3,35
400,144,6734,5,0,0:0:0:0:
376,176,6834,1,0,0:0:0:0:
328,168,6934,1,0,0:0:0:0:
304,200,7034,1,0,0:0:0:0:
232,224,7134,2,0,L|232:176,3,35
472,224,7534,5,0,0:0:0:0:
448,256,7634,1,0,0:0:0:0:
400,248,7734,1,0,0:0:0:0:
376,280,7834,1,0,0:0:0:0:
304,304,7934,2,0,L|304:256,3,35
200,216,8334,5,0,0:0:0:0:
248,208,8434,1,0,0:0:0:0:
288,176,8534,1,0,0:0:0:0:
304,128,8634,1,0,0:0:0:0:
256,56,8734,6,0,L|200:56,1,35
336,32,8934,2,0,L|392:32,1,35
