osu file format v14

[General]
AudioFilename: audio.mp3
AudioLeadIn: 0
PreviewTime: 121358
Countdown: 0
SampleSet: Soft
StackLeniency: 0.7
Mode: 3
LetterboxInBreaks: 0
SpecialStyle: 0
WidescreenStoryboard: 1

[Editor]
Bookmarks: 37803,52025,68025,75136,89358,107136,121358,137358,144469,158692,174692,188914
DistanceSpacing: 1
BeatDivisor: 2
GridSize: 4
TimelineZoom: 1.999999

[Metadata]
Title:Delrio
TitleUnicode:Delrio
Artist:MiddleIsland
ArtistUnicode:MiddleIsland
Creator:Raveille
Version:Insane
Source:
Tags:弦奏無彩色 gensou musaishoku string achromatic instrumental nakajima misaki M3-29 M3-2012春 M3 2012 Spring MICD-0105 中島岬 ミドルアイランド violin accoustic guitar spanish guitar castanets piano celtic folk doujinshi 同人音樂 indie mwc21 mania world cup 2021 mwc 2021
BeatmapID:3280707
BeatmapSetID:1251408

[Difficulty]
HPDrainRate:7.8
CircleSize:4
OverallDifficulty:7.5
ApproachRate:5
SliderMultiplier:1.4
SliderTickRate:1

[Events]
//Background and Video events
0,0,"delrio.jpeg",0,0
//Break Periods
//Storyboard Layer 0 (Background)
//Storyboard Layer 1 (Fail)
//Storyboard Layer 2 (Pass)
//Storyboard Layer 3 (Foreground)
//Storyboard Layer 4 (Overlay)
//Storyboard Sound Samples

[TimingPoints]
2169,285.714285714286,4,2,1,25,1,0
2169,-77.5193798449612,4,2,1,25,0,0
3311,283.822138126774,4,2,1,25,1,0
3311,-78.125,4,2,1,25,0,0
4446,283.018867924528,4,2,1,25,1,0
4446,-78.740157480315,4,2,1,25,0,0
5578,288.461538461539,4,2,1,25,1,0
5578,-76.9230769230769,4,2,1,25,0,0
7885,295.566502463054,4,2,1,25,1,0
7885,-75.187969924812,4,2,1,25,0,0
13795,306.122448979592,4,2,1,25,1,0
13795,-72.463768115942,4,2,1,25,0,0
15019,326.086956521739,4,2,1,25,1,0
15019,-68.0272108843538,4,2,1,25,0,0
16323,301.507537688442,4,2,1,25,1,0
16323,-73.5294117647059,4,2,1,25,0,0
18735,298.507462686567,4,2,1,25,1,0
18735,-74.6268656716418,4,2,1,25,0,0
21123,315.789473684211,4,2,1,25,1,0
21123,-70.4225352112676,4,2,1,25,0,0
23120,230.769230769231,4,2,1,50,1,0
23120,-96.1538461538461,4,2,1,50,0,0
23581,222.222222222222,4,2,1,80,1,0
23581,-100,4,2,1,80,0,1
37803,-100,4,2,1,80,0,0
68025,-100,4,2,1,80,0,1
75136,-100,4,2,1,80,0,0
137358,-100,4,2,1,80,0,1
144469,-100,4,2,1,80,0,0
174692,-100,4,2,1,80,0,1
188914,-100,4,2,1,80,0,0

[HitObjects]
64,192,526,128,0,2169:0:0:0:0:
320,192,2169,1,0,0:0:0:0:
448,192,2169,128,0,2597:0:0:0:0:
64,192,2454,1,0,0:0:0:0:
192,192,2526,1,0,0:0:0:0:
320,192,2597,128,0,3026:0:0:0:0:
448,192,2883,128,0,3026:0:0:0:0:
64,192,3026,128,0,3169:0:0:0:0:
320,192,3169,128,0,3311:0:0:0:0:
64,192,3311,128,0,3878:0:0:0:0:
192,192,3311,1,0,0:0:0:0:
448,192,3594,1,0,0:0:0:0:
192,192,3736,1,0,0:0:0:0:
320,192,3878,128,0,4446:0:0:0:0:
448,192,3878,1,0,0:0:0:0:
192,192,4020,1,0,0:0:0:0:
64,192,4304,1,0,0:0:0:0:
448,192,4446,128,0,4870:0:0:0:0:
192,192,4446,1,0,0:0:0:0:
192,192,4729,1,0,0:0:0:0:
320,192,4799,1,0,0:0:0:0:
192,192,4870,1,0,0:0:0:0:
64,192,4870,128,0,5295:0:0:0:0:
448,192,5153,1,0,0:0:0:0:
320,192,5295,128,0,5578:0:0:0:0:
192,192,5295,1,0,0:0:0:0:
448,192,5436,1,0,0:0:0:0:
192,192,5578,128,0,6299:0:0:0:0:
64,192,5578,1,0,0:0:0:0:
320,192,5866,1,0,0:0:0:0:
448,192,6010,1,0,0:0:0:0:
64,192,6299,1,0,0:0:0:0:
320,192,6587,1,0,0:0:0:0:
64,192,6731,128,0,7164:0:0:0:0:
448,192,6731,1,0,0:0:0:0:
192,192,7020,1,0,0:0:0:0:
320,192,7092,1,0,0:0:0:0:
448,192,7164,128,0,7597:0:0:0:0:
64,192,7453,1,0,0:0:0:0:
320,192,7597,128,0,7885:0:0:0:0:
192,192,7885,128,0,8476:0:0:0:0:
448,192,7885,1,0,0:0:0:0:
64,192,8328,1,0,0:0:0:0:
320,192,8476,1,0,0:0:0:0:
448,192,8476,128,0,8771:0:0:0:0:
192,192,8623,1,0,0:0:0:0:
320,192,8771,128,0,8919:0:0:0:0:
192,192,8919,128,0,9067:0:0:0:0:
64,192,9067,128,0,10692:0:0:0:0:
320,192,9067,1,0,0:0:0:0:
192,192,9510,1,0,0:0:0:0:
448,192,9658,1,0,0:0:0:0:
192,192,9806,1,0,0:0:0:0:
448,192,9953,1,0,0:0:0:0:
192,192,10052,1,0,0:0:0:0:
448,192,10151,1,0,0:0:0:0:
192,192,10249,1,0,0:0:0:0:
448,192,10348,1,0,0:0:0:0:
192,192,10434,1,0,0:0:0:0:
448,192,10545,1,0,0:0:0:0:
320,192,10618,1,0,0:0:0:0:
192,192,10692,128,0,11136:0:0:0:0:
448,192,10988,1,0,0:0:0:0:
320,192,11136,128,0,11431:0:0:0:0:
192,192,11284,1,0,0:0:0:0:
64,192,11431,128,0,12614:0:0:0:0:
448,192,11431,1,0,0:0:0:0:
192,192,11875,1,0,0:0:0:0:
448,192,12170,1,0,0:0:0:0:
192,192,12614,128,0,13205:0:0:0:0:
320,192,12614,1,0,0:0:0:0:
320,192,13057,1,0,0:0:0:0:
448,192,13205,1,0,0:0:0:0:
320,192,13303,1,0,0:0:0:0:
192,192,13402,1,0,0:0:0:0:
64,192,13500,128,0,13795:0:0:0:0:
192,192,13648,1,0,0:0:0:0:
448,192,13795,128,0,14407:0:0:0:0:
320,192,13795,1,0,0:0:0:0:
192,192,14254,1,0,0:0:0:0:
64,192,14407,128,0,15019:0:0:0:0:
320,192,14713,128,0,15019:0:0:0:0:
448,192,15019,128,0,15997:0:0:0:0:
192,192,15019,1,0,0:0:0:0:
64,192,15453,1,0,0:0:0:0:
192,192,15997,1,0,0:0:0:0:
320,192,16160,1,0,0:0:0:0:
448,192,16323,128,0,16775:0:0:0:0:
64,192,16323,1,0,0:0:0:0:
64,192,16775,1,0,0:0:0:0:
192,192,16775,128,0,17227:0:0:0:0:
64,192,17076,1,0,0:0:0:0:
448,192,17227,128,0,17529:0:0:0:0:
320,192,17227,1,0,0:0:0:0:
64,192,17529,128,0,17981:0:0:0:0:
320,192,17529,1,0,0:0:0:0:
448,192,17981,128,0,18433:0:0:0:0:
320,192,17981,1,0,0:0:0:0:
64,192,18282,1,0,0:0:0:0:
320,192,18433,128,0,18735:0:0:0:0:
192,192,18433,1,0,0:0:0:0:
64,192,18735,128,0,19929:0:0:0:0:
192,192,18735,1,0,0:0:0:0:
192,192,19182,1,0,0:0:0:0:
448,192,19481,1,0,0:0:0:0:
192,192,19779,1,0,0:0:0:0:
448,192,19929,128,0,21123:0:0:0:0:
320,192,19929,1,0,0:0:0:0:
192,192,20227,1,0,0:0:0:0:
320,192,20376,1,0,0:0:0:0:
64,192,20675,1,0,0:0:0:0:
192,192,20973,1,0,0:0:0:0:
320,192,21048,1,0,0:0:0:0:
192,192,21123,128,0,21596:0:0:0:0:
64,192,21123,1,0,0:0:0:0:
320,192,21596,128,0,22070:0:0:0:0:
448,192,21596,1,0,0:0:0:0:
448,192,21912,1,0,0:0:0:0:
64,192,22070,128,0,22386:0:0:0:0:
192,192,22070,1,0,0:0:0:0:
448,192,22386,128,0,22701:0:0:0:0:
320,192,22386,1,0,0:0:0:0:
192,192,22386,1,0,0:0:0:0:
192,192,23120,1,0,0:0:0:0:
320,192,23196,1,0,0:0:0:0:
192,192,23273,1,0,0:0:0:0:
64,192,23350,1,0,0:0:0:0:
448,192,23466,1,0,0:0:0:0:
320,192,23581,128,0,23803:0:0:0:0:
64,192,23581,1,0,0:0:0:0:
192,192,23581,1,0,0:0:0:0:
64,192,23803,1,0,0:0:0:0:
192,192,23803,1,0,0:0:0:0:
192,192,23914,1,0,0:0:0:0:
320,192,23914,1,0,0:0:0:0:
448,192,24025,1,0,0:0:0:0:
64,192,24025,128,0,24247:0:0:0:0:
320,192,24136,1,0,0:0:0:0:
192,192,24247,1,0,0:0:0:0:
448,192,24247,128,0,24469:0:0:0:0:
320,192,24358,1,0,0:0:0:0:
192,192,24469,1,0,0:0:0:0:
64,192,24469,128,0,24692:0:0:0:0:
320,192,24581,1,0,0:0:0:0:
192,192,24692,128,0,24914:0:0:0:0:
448,192,24692,1,0,0:0:0:0:
64,192,24803,1,0,0:0:0:0:
320,192,24914,128,0,25136:0:0:0:0:
448,192,24914,1,0,0:0:0:0:
192,192,25025,1,0,0:0:0:0:
448,192,25136,128,0,25358:0:0:0:0:
64,192,25136,1,0,0:0:0:0:
192,192,25247,1,0,0:0:0:0:
320,192,25358,128,0,25580:0:0:0:0:
64,192,25358,1,0,0:0:0:0:
64,192,25580,1,0,0:0:0:0:
192,192,25580,1,0,0:0:0:0:
192,192,25692,1,0,0:0:0:0:
320,192,25692,1,0,0:0:0:0:
448,192,25803,1,0,0:0:0:0:
64,192,25803,128,0,26025:0:0:0:0:
320,192,25914,1,0,0:0:0:0:
192,192,26025,1,0,0:0:0:0:
448,192,26025,128,0,26247:0:0:0:0:
320,192,26136,1,0,0:0:0:0:
192,192,26247,1,0,0:0:0:0:
64,192,26247,128,0,26469:0:0:0:0:
320,192,26358,1,0,0:0:0:0:
192,192,26469,128,0,26692:0:0:0:0:
448,192,26469,1,0,0:0:0:0:
64,192,26580,1,0,0:0:0:0:
320,192,26692,128,0,26914:0:0:0:0:
448,192,26692,1,0,0:0:0:0:
192,192,26803,1,0,0:0:0:0:
448,192,26914,128,0,27136:0:0:0:0:
64,192,26914,1,0,0:0:0:0:
320,192,27025,1,0,0:0:0:0:
64,192,27136,1,0,0:0:0:0:
192,192,27136,128,0,27358:0:0:0:0:
320,192,27358,1,0,0:0:0:0:
448,192,27358,1,0,0:0:0:0:
192,192,27469,1,0,0:0:0:0:
320,192,27469,1,0,0:0:0:0:
448,192,27580,128,0,27803:0:0:0:0:
64,192,27580,1,0,0:0:0:0:
192,192,27692,1,0,0:0:0:0:
64,192,27803,128,0,28025:0:0:0:0:
320,192,27803,1,0,0:0:0:0:
192,192,27914,1,0,0:0:0:0:
448,192,28025,128,0,28247:0:0:0:0:
320,192,28025,1,0,0:0:0:0:
192,192,28136,1,0,0:0:0:0:
64,192,28247,1,0,0:0:0:0:
320,192,28247,128,0,28469:0:0:0:0:
448,192,28358,1,0,0:0:0:0:
64,192,28469,1,0,0:0:0:0:
192,192,28469,128,0,28692:0:0:0:0:
320,192,28580,1,0,0:0:0:0:
448,192,28692,1,0,0:0:0:0:
64,192,28692,128,0,28914:0:0:0:0:
320,192,28803,1,0,0:0:0:0:
192,192,28914,1,0,0:0:0:0:
320,192,28914,1,0,0:0:0:0:
448,192,28914,1,0,0:0:0:0:
64,192,29025,128,0,29247:0:0:0:0:
192,192,29025,128,0,29247:0:0:0:0:
448,192,29247,1,0,0:0:0:0:
320,192,29247,1,0,0:0:0:0:
192,192,29358,128,0,29580:0:0:0:0:
320,192,29358,128,0,29580:0:0:0:0:
64,192,29580,1,0,0:0:0:0:
448,192,29580,1,0,0:0:0:0:
448,192,29803,128,0,30247:0:0:0:0:
64,192,29803,1,0,0:0:0:0:
192,192,29803,1,0,0:0:0:0:
192,192,30247,1,0,0:0:0:0:
320,192,30247,1,0,0:0:0:0:
64,192,30247,128,0,30692:0:0:0:0:
192,192,30469,1,0,0:0:0:0:
320,192,30469,1,0,0:0:0:0:
320,192,30692,1,0,0:0:0:0:
448,192,30692,1,0,0:0:0:0:
192,192,30692,128,0,30914:0:0:0:0:
320,192,30914,1,0,0:0:0:0:
448,192,30914,1,0,0:0:0:0:
192,192,31025,1,0,0:0:0:0:
320,192,31025,1,0,0:0:0:0:
448,192,31136,128,0,31358:0:0:0:0:
64,192,31136,1,0,0:0:0:0:
192,192,31247,1,0,0:0:0:0:
64,192,31358,128,0,31580:0:0:0:0:
320,192,31358,1,0,0:0:0:0:
192,192,31469,1,0,0:0:0:0:
448,192,31580,128,0,31803:0:0:0:0:
320,192,31580,1,0,0:0:0:0:
192,192,31692,1,0,0:0:0:0:
64,192,31803,1,0,0:0:0:0:
320,192,31803,128,0,32025:0:0:0:0:
448,192,31914,1,0,0:0:0:0:
64,192,32025,1,0,0:0:0:0:
192,192,32025,128,0,32247:0:0:0:0:
320,192,32136,1,0,0:0:0:0:
448,192,32247,1,0,0:0:0:0:
64,192,32247,128,0,32469:0:0:0:0:
320,192,32358,1,0,0:0:0:0:
448,192,32469,1,0,0:0:0:0:
192,192,32469,128,0,32692:0:0:0:0:
320,192,32692,1,0,0:0:0:0:
448,192,32692,1,0,0:0:0:0:
192,192,32803,1,0,0:0:0:0:
320,192,32803,1,0,0:0:0:0:
448,192,32914,128,0,33136:0:0:0:0:
64,192,32914,1,0,0:0:0:0:
192,192,33025,1,0,0:0:0:0:
64,192,33136,128,0,33358:0:0:0:0:
320,192,33136,1,0,0:0:0:0:
192,192,33247,1,0,0:0:0:0:
448,192,33358,128,0,33580:0:0:0:0:
320,192,33358,1,0,0:0:0:0:
192,192,33469,1,0,0:0:0:0:
64,192,33580,1,0,0:0:0:0:
320,192,33580,128,0,33803:0:0:0:0:
448,192,33692,1,0,0:0:0:0:
64,192,33803,1,0,0:0:0:0:
192,192,33803,128,0,34025:0:0:0:0:
320,192,33914,1,0,0:0:0:0:
448,192,34025,1,0,0:0:0:0:
64,192,34025,128,0,34247:0:0:0:0:
192,192,34136,1,0,0:0:0:0:
320,192,34247,128,0,34469:0:0:0:0:
448,192,34247,1,0,0:0:0:0:
64,192,34469,1,0,0:0:0:0:
192,192,34469,1,0,0:0:0:0:
192,192,34580,1,0,0:0:0:0:
320,192,34580,1,0,0:0:0:0:
448,192,34692,1,0,0:0:0:0:
64,192,34692,128,0,34914:0:0:0:0:
320,192,34803,1,0,0:0:0:0:
192,192,34914,1,0,0:0:0:0:
448,192,34914,128,0,35136:0:0:0:0:
320,192,35025,1,0,0:0:0:0:
192,192,35136,1,0,0:0:0:0:
64,192,35136,128,0,35358:0:0:0:0:
320,192,35247,1,0,0:0:0:0:
192,192,35358,128,0,35580:0:0:0:0:
448,192,35358,1,0,0:0:0:0:
64,192,35469,1,0,0:0:0:0:
320,192,35580,128,0,35803:0:0:0:0:
448,192,35580,1,0,0:0:0:0:
192,192,35692,1,0,0:0:0:0:
448,192,35803,128,0,36025:0:0:0:0:
64,192,35803,1,0,0:0:0:0:
192,192,35914,1,0,0:0:0:0:
64,192,36025,1,0,0:0:0:0:
320,192,36025,128,0,36247:0:0:0:0:
448,192,36247,128,0,36358:0:0:0:0:
192,192,36358,1,0,0:0:0:0:
320,192,36358,128,0,36580:0:0:0:0:
64,192,36580,128,0,36692:0:0:0:0:
192,192,36692,128,0,36803:0:0:0:0:
448,192,36692,1,0,0:0:0:0:
320,192,36803,1,0,0:0:0:0:
64,192,36914,1,0,0:0:0:0:
448,192,36914,128,0,37025:0:0:0:0:
192,192,37025,1,0,0:0:0:0:
320,192,37062,1,0,0:0:0:0:
448,192,37099,1,0,0:0:0:0:
64,192,37136,128,0,37358:0:0:0:0:
192,192,37358,128,0,37692:0:0:0:0:
448,192,37692,1,0,0:0:0:0:
320,192,37729,1,0,0:0:0:0:
192,192,37766,1,0,0:0:0:0:
448,192,37803,128,0,38136:0:0:0:0:
64,192,37803,1,0,0:0:0:0:
64,192,38025,1,0,0:0:0:0:
192,192,38025,1,0,0:0:0:0:
320,192,38136,128,0,38469:0:0:0:0:
64,192,38247,1,0,0:0:0:0:
192,192,38247,1,0,0:0:0:0:
448,192,38469,128,0,38692:0:0:0:0:
192,192,38469,1,0,0:0:0:0:
64,192,38580,1,0,0:0:0:0:
320,192,38692,128,0,39025:0:0:0:0:
192,192,38692,1,0,0:0:0:0:
192,192,38914,1,0,0:0:0:0:
448,192,38914,1,0,0:0:0:0:
64,192,39025,1,0,0:0:0:0:
192,192,39062,1,0,0:0:0:0:
320,192,39099,1,0,0:0:0:0:
64,192,39136,128,0,39358:0:0:0:0:
448,192,39136,1,0,0:0:0:0:
192,192,39358,1,0,0:0:0:0:
320,192,39358,1,0,0:0:0:0:
448,192,39469,1,0,0:0:0:0:
320,192,39506,1,0,0:0:0:0:
192,192,39543,1,0,0:0:0:0:
448,192,39580,128,0,40025:0:0:0:0:
64,192,39580,1,0,0:0:0:0:
64,192,39803,1,0,0:0:0:0:
320,192,39803,1,0,0:0:0:0:
192,192,39914,1,0,0:0:0:0:
320,192,40025,128,0,40247:0:0:0:0:
64,192,40025,1,0,0:0:0:0:
448,192,40247,128,0,40469:0:0:0:0:
192,192,40247,1,0,0:0:0:0:
64,192,40358,1,0,0:0:0:0:
320,192,40469,128,0,40914:0:0:0:0:
192,192,40469,1,0,0:0:0:0:
64,192,40692,1,0,0:0:0:0:
448,192,40692,1,0,0:0:0:0:
192,192,40803,1,0,0:0:0:0:
64,192,40914,1,0,0:0:0:0:
448,192,40914,1,0,0:0:0:0:
320,192,41025,1,0,0:0:0:0:
192,192,41136,1,0,0:0:0:0:
64,192,41136,1,0,0:0:0:0:
320,192,41247,1,0,0:0:0:0:
448,192,41358,128,0,41580:0:0:0:0:
64,192,41358,1,0,0:0:0:0:
320,192,41580,128,0,41692:0:0:0:0:
64,192,41580,1,0,0:0:0:0:
192,192,41692,128,0,42025:0:0:0:0:
64,192,41803,1,0,0:0:0:0:
320,192,41803,1,0,0:0:0:0:
64,192,42025,128,0,42247:0:0:0:0:
448,192,42025,1,0,0:0:0:0:
320,192,42136,1,0,0:0:0:0:
192,192,42247,128,0,42692:0:0:0:0:
448,192,42247,1,0,0:0:0:0:
320,192,42469,1,0,0:0:0:0:
64,192,42469,1,0,0:0:0:0:
448,192,42580,1,0,0:0:0:0:
64,192,42692,128,0,42914:0:0:0:0:
320,192,42692,1,0,0:0:0:0:
448,192,42914,1,0,0:0:0:0:
192,192,42914,128,0,43025:0:0:0:0:
64,192,43025,128,0,43136:0:0:0:0:
192,192,43136,128,0,44469:0:0:0:0:
448,192,43136,1,0,0:0:0:0:
64,192,43358,1,0,0:0:0:0:
320,192,43358,1,0,0:0:0:0:
448,192,43469,1,0,0:0:0:0:
320,192,43580,1,0,0:0:0:0:
64,192,43580,1,0,0:0:0:0:
64,192,43803,1,0,0:0:0:0:
448,192,43803,1,0,0:0:0:0:
320,192,43914,1,0,0:0:0:0:
448,192,44025,1,0,0:0:0:0:
64,192,44025,1,0,0:0:0:0:
64,192,44247,1,0,0:0:0:0:
320,192,44247,1,0,0:0:0:0:
448,192,44358,1,0,0:0:0:0:
64,192,44469,128,0,44692:0:0:0:0:
320,192,44469,1,0,0:0:0:0:
192,192,44692,1,0,0:0:0:0:
448,192,44692,1,0,0:0:0:0:
320,192,44766,1,0,0:0:0:0:
448,192,44840,1,0,0:0:0:0:
64,192,44914,128,0,45803:0:0:0:0:
192,192,44914,1,0,0:0:0:0:
448,192,45136,1,0,0:0:0:0:
320,192,45136,1,0,0:0:0:0:
192,192,45247,1,0,0:0:0:0:
448,192,45358,1,0,0:0:0:0:
320,192,45358,1,0,0:0:0:0:
448,192,45580,1,0,0:0:0:0:
192,192,45580,1,0,0:0:0:0:
320,192,45692,1,0,0:0:0:0:
448,192,45803,128,0,46025:0:0:0:0:
192,192,45803,1,0,0:0:0:0:
192,192,46025,1,0,0:0:0:0:
320,192,46025,1,0,0:0:0:0:
64,192,46136,1,0,0:0:0:0:
320,192,46247,1,0,0:0:0:0:
192,192,46247,1,0,0:0:0:0:
64,192,46321,1,0,0:0:0:0:
192,192,46395,1,0,0:0:0:0:
448,192,46469,128,0,46692:0:0:0:0:
320,192,46469,1,0,0:0:0:0:
192,192,46580,1,0,0:0:0:0:
64,192,46692,128,0,47580:0:0:0:0:
320,192,46692,1,0,0:0:0:0:
320,192,46914,1,0,0:0:0:0:
192,192,46914,1,0,0:0:0:0:
448,192,47025,1,0,0:0:0:0:
320,192,47136,1,0,0:0:0:0:
192,192,47136,1,0,0:0:0:0:
448,192,47358,1,0,0:0:0:0:
192,192,47358,1,0,0:0:0:0:
320,192,47469,1,0,0:0:0:0:
192,192,47580,1,0,0:0:0:0:
448,192,47580,128,0,47803:0:0:0:0:
320,192,47803,1,0,0:0:0:0:
192,192,47858,1,0,0:0:0:0:
64,192,47914,1,0,0:0:0:0:
448,192,48025,128,0,48247:0:0:0:0:
320,192,48025,1,0,0:0:0:0:
64,192,48247,128,0,48469:0:0:0:0:
192,192,48247,1,0,0:0:0:0:
448,192,48469,128,0,48692:0:0:0:0:
192,192,48469,1,0,0:0:0:0:
64,192,48692,1,0,0:0:0:0:
192,192,48729,1,0,0:0:0:0:
320,192,48766,1,0,0:0:0:0:
448,192,48803,128,0,48914:0:0:0:0:
64,192,48914,128,0,49136:0:0:0:0:
192,192,48914,1,0,0:0:0:0:
192,192,49136,128,0,49358:0:0:0:0:
448,192,49136,1,0,0:0:0:0:
64,192,49247,1,0,0:0:0:0:
448,192,49358,128,0,49692:0:0:0:0:
320,192,49358,1,0,0:0:0:0:
320,192,49580,1,0,0:0:0:0:
192,192,49636,1,0,0:0:0:0:
64,192,49692,128,0,50025:0:0:0:0:
320,192,49747,1,0,0:0:0:0:
448,192,49803,1,0,0:0:0:0:
192,192,49858,1,0,0:0:0:0:
320,192,49914,1,0,0:0:0:0:
448,192,49969,1,0,0:0:0:0:
192,192,50025,128,0,50247:0:0:0:0:
448,192,50247,128,0,50580:0:0:0:0:
64,192,50247,1,0,0:0:0:0:
320,192,50247,1,0,0:0:0:0:
64,192,50580,128,0,50914:0:0:0:0:
192,192,50580,1,0,0:0:0:0:
320,192,50580,1,0,0:0:0:0:
448,192,50914,128,0,51136:0:0:0:0:
192,192,50914,1,0,0:0:0:0:
320,192,50914,1,0,0:0:0:0:
320,192,51136,1,0,0:0:0:0:
192,192,51136,1,0,0:0:0:0:
64,192,51136,1,0,0:0:0:0:
448,192,51580,1,0,0:0:0:0:
192,192,51580,1,0,0:0:0:0:
320,192,51580,128,0,52025:0:0:0:0:
192,192,51803,1,0,0:0:0:0:
192,192,51914,1,0,0:0:0:0:
64,192,52025,128,0,52358:0:0:0:0:
448,192,52025,1,0,0:0:0:0:
448,192,52247,1,0,0:0:0:0:
320,192,52247,1,0,0:0:0:0:
192,192,52358,128,0,52692:0:0:0:0:
448,192,52469,1,0,0:0:0:0:
320,192,52469,1,0,0:0:0:0:
64,192,52692,128,0,52914:0:0:0:0:
320,192,52692,1,0,0:0:0:0:
448,192,52803,1,0,0:0:0:0:
192,192,52914,128,0,53247:0:0:0:0:
320,192,52914,1,0,0:0:0:0:
320,192,53136,1,0,0:0:0:0:
64,192,53136,1,0,0:0:0:0:
448,192,53247,1,0,0:0:0:0:
320,192,53284,1,0,0:0:0:0:
192,192,53321,1,0,0:0:0:0:
448,192,53358,128,0,53580:0:0:0:0:
64,192,53358,1,0,0:0:0:0:
320,192,53580,1,0,0:0:0:0:
192,192,53580,1,0,0:0:0:0:
64,192,53692,1,0,0:0:0:0:
192,192,53729,1,0,0:0:0:0:
320,192,53766,1,0,0:0:0:0:
64,192,53803,128,0,54247:0:0:0:0:
448,192,53803,1,0,0:0:0:0:
448,192,54025,1,0,0:0:0:0:
192,192,54025,1,0,0:0:0:0:
320,192,54136,1,0,0:0:0:0:
192,192,54247,128,0,54469:0:0:0:0:
448,192,54247,1,0,0:0:0:0:
64,192,54469,128,0,54692:0:0:0:0:
320,192,54469,1,0,0:0:0:0:
448,192,54580,1,0,0:0:0:0:
192,192,54692,128,0,55136:0:0:0:0:
320,192,54692,1,0,0:0:0:0:
448,192,54914,1,0,0:0:0:0:
64,192,54914,1,0,0:0:0:0:
320,192,55025,1,0,0:0:0:0:
448,192,55136,1,0,0:0:0:0:
64,192,55136,1,0,0:0:0:0:
192,192,55247,1,0,0:0:0:0:
320,192,55358,1,0,0:0:0:0:
448,192,55358,1,0,0:0:0:0:
192,192,55469,1,0,0:0:0:0:
64,192,55580,128,0,55803:0:0:0:0:
448,192,55580,1,0,0:0:0:0:
192,192,55803,128,0,55914:0:0:0:0:
448,192,55803,1,0,0:0:0:0:
320,192,55914,128,0,56247:0:0:0:0:
448,192,56025,1,0,0:0:0:0:
64,192,56025,1,0,0:0:0:0:
448,192,56247,128,0,56469:0:0:0:0:
64,192,56247,1,0,0:0:0:0:
192,192,56358,1,0,0:0:0:0:
320,192,56469,128,0,56914:0:0:0:0:
64,192,56469,1,0,0:0:0:0:
192,192,56692,1,0,0:0:0:0:
448,192,56692,1,0,0:0:0:0:
64,192,56803,1,0,0:0:0:0:
448,192,56914,128,0,57136:0:0:0:0:
192,192,56914,1,0,0:0:0:0:
64,192,57136,1,0,0:0:0:0:
320,192,57136,128,0,57247:0:0:0:0:
448,192,57247,128,0,57358:0:0:0:0:
320,192,57358,128,0,58692:0:0:0:0:
64,192,57358,1,0,0:0:0:0:
448,192,57580,1,0,0:0:0:0:
192,192,57580,1,0,0:0:0:0:
64,192,57692,1,0,0:0:0:0:
192,192,57803,1,0,0:0:0:0:
448,192,57803,1,0,0:0:0:0:
448,192,58025,5,0,0:0:0:0:
64,192,58025,1,0,0:0:0:0:
192,192,58136,1,0,0:0:0:0:
64,192,58247,1,0,0:0:0:0:
448,192,58247,1,0,0:0:0:0:
448,192,58469,1,0,0:0:0:0:
192,192,58469,1,0,0:0:0:0:
64,192,58580,1,0,0:0:0:0:
448,192,58692,128,0,58914:0:0:0:0:
192,192,58692,1,0,0:0:0:0:
320,192,58914,1,0,0:0:0:0:
64,192,58914,1,0,0:0:0:0:
192,192,58988,1,0,0:0:0:0:
64,192,59062,1,0,0:0:0:0:
448,192,59136,128,0,60247:0:0:0:0:
320,192,59136,1,0,0:0:0:0:
64,192,59358,1,0,0:0:0:0:
320,192,59358,1,0,0:0:0:0:
192,192,59469,1,0,0:0:0:0:
320,192,59580,1,0,0:0:0:0:
64,192,59580,1,0,0:0:0:0:
64,192,59803,1,0,0:0:0:0:
192,192,59803,1,0,0:0:0:0:
320,192,59914,1,0,0:0:0:0:
192,192,60025,1,0,0:0:0:0:
64,192,60025,1,0,0:0:0:0:
320,192,60247,1,0,0:0:0:0:
64,192,60247,1,0,0:0:0:0:
192,192,60358,1,0,0:0:0:0:
64,192,60469,1,0,0:0:0:0:
192,192,60543,1,0,0:0:0:0:
320,192,60618,1,0,0:0:0:0:
64,192,60692,128,0,60914:0:0:0:0:
448,192,60692,1,0,0:0:0:0:
320,192,60803,1,0,0:0:0:0:
448,192,60914,128,0,61247:0:0:0:0:
192,192,60914,1,0,0:0:0:0:
320,192,61136,1,0,0:0:0:0:
192,192,61136,1,0,0:0:0:0:
64,192,61247,128,0,61580:0:0:0:0:
320,192,61358,1,0,0:0:0:0:
448,192,61358,1,0,0:0:0:0:
448,192,61580,128,0,61803:0:0:0:0:
192,192,61580,1,0,0:0:0:0:
320,192,61692,1,0,0:0:0:0:
64,192,61803,128,0,62247:0:0:0:0:
192,192,61803,1,0,0:0:0:0:
320,192,62025,1,0,0:0:0:0:
448,192,62025,1,0,0:0:0:0:
192,192,62136,1,0,0:0:0:0:
320,192,62247,1,0,0:0:0:0:
448,192,62247,1,0,0:0:0:0:
192,192,62469,1,0,0:0:0:0:
64,192,62469,128,0,62580:0:0:0:0:
320,192,62580,128,0,62692:0:0:0:0:
448,192,62692,128,0,63025:0:0:0:0:
192,192,62692,1,0,0:0:0:0:
64,192,62914,1,0,0:0:0:0:
320,192,62914,1,0,0:0:0:0:
192,192,63025,128,0,63358:0:0:0:0:
64,192,63136,1,0,0:0:0:0:
448,192,63136,1,0,0:0:0:0:
64,192,63358,128,0,63580:0:0:0:0:
448,192,63358,1,0,0:0:0:0:
192,192,63469,1,0,0:0:0:0:
320,192,63580,1,0,0:0:0:0:
448,192,63580,128,0,63803:0:0:0:0:
64,192,63803,1,0,0:0:0:0:
192,192,63803,1,0,0:0:0:0:
320,192,63914,128,0,64247:0:0:0:0:
64,192,64025,1,0,0:0:0:0:
192,192,64025,1,0,0:0:0:0:
192,192,64247,128,0,64469:0:0:0:0:
64,192,64247,1,0,0:0:0:0:
448,192,64469,128,0,64803:0:0:0:0:
320,192,64469,1,0,0:0:0:0:
64,192,64692,1,0,0:0:0:0:
192,192,64692,1,0,0:0:0:0:
320,192,64803,1,0,0:0:0:0:
64,192,64914,1,0,0:0:0:0:
448,192,64914,1,0,0:0:0:0:
192,192,64969,1,0,0:0:0:0:
320,192,65025,1,0,0:0:0:0:
448,192,65080,1,0,0:0:0:0:
64,192,65136,1,0,0:0:0:0:
192,192,65136,1,0,0:0:0:0:
320,192,65247,1,0,0:0:0:0:
448,192,65358,1,0,0:0:0:0:
64,192,65358,1,0,0:0:0:0:
64,192,65580,1,0,0:0:0:0:
192,192,65580,1,0,0:0:0:0:
320,192,65692,1,0,0:0:0:0:
192,192,65803,1,0,0:0:0:0:
448,192,65803,1,0,0:0:0:0:
320,192,65914,1,0,0:0:0:0:
64,192,66025,1,0,0:0:0:0:
192,192,66025,1,0,0:0:0:0:
320,192,66136,1,0,0:0:0:0:
64,192,66247,1,0,0:0:0:0:
448,192,66247,1,0,0:0:0:0:
192,192,66247,128,0,66358:0:0:0:0:
320,192,66358,1,0,0:0:0:0:
64,192,66580,1,0,0:0:0:0:
448,192,66580,1,0,0:0:0:0:
320,192,66580,128,0,66692:0:0:0:0:
64,192,66914,1,0,0:0:0:0:
448,192,66914,1,0,0:0:0:0:
192,192,66914,128,0,67025:0:0:0:0:
64,192,67136,128,0,67358:0:0:0:0:
448,192,67136,128,0,67358:0:0:0:0:
320,192,67136,1,0,0:0:0:0:
192,192,67136,1,0,0:0:0:0:
192,192,67580,1,0,0:0:0:0:
320,192,67655,1,0,0:0:0:0:
192,192,67729,1,0,0:0:0:0:
64,192,67803,1,0,0:0:0:0:
448,192,67914,1,0,0:0:0:0:
64,192,68025,1,0,0:0:0:0:
192,192,68025,1,0,0:0:0:0:
320,192,68025,128,0,68247:0:0:0:0:
192,192,68247,1,0,0:0:0:0:
64,192,68247,1,0,0:0:0:0:
320,192,68358,1,0,0:0:0:0:
192,192,68358,1,0,0:0:0:0:
64,192,68469,128,0,68692:0:0:0:0:
448,192,68469,1,0,0:0:0:0:
320,192,68580,1,0,0:0:0:0:
448,192,68692,128,0,68914:0:0:0:0:
192,192,68692,1,0,0:0:0:0:
320,192,68803,1,0,0:0:0:0:
64,192,68914,128,0,69136:0:0:0:0:
192,192,68914,1,0,0:0:0:0:
320,192,69025,1,0,0:0:0:0:
448,192,69136,1,0,0:0:0:0:
192,192,69136,128,0,69358:0:0:0:0:
64,192,69247,1,0,0:0:0:0:
448,192,69358,1,0,0:0:0:0:
320,192,69358,128,0,69580:0:0:0:0:
192,192,69469,1,0,0:0:0:0:
64,192,69580,1,0,0:0:0:0:
448,192,69580,128,0,69803:0:0:0:0:
192,192,69692,1,0,0:0:0:0:
64,192,69803,1,0,0:0:0:0:
320,192,69803,128,0,70025:0:0:0:0:
192,192,70025,1,0,0:0:0:0:
64,192,70025,1,0,0:0:0:0:
320,192,70136,1,0,0:0:0:0:
192,192,70136,1,0,0:0:0:0:
64,192,70247,128,0,70469:0:0:0:0:
448,192,70247,1,0,0:0:0:0:
320,192,70358,1,0,0:0:0:0:
448,192,70469,128,0,70692:0:0:0:0:
192,192,70469,1,0,0:0:0:0:
320,192,70580,1,0,0:0:0:0:
64,192,70692,128,0,70914:0:0:0:0:
192,192,70692,1,0,0:0:0:0:
320,192,70803,1,0,0:0:0:0:
448,192,70914,1,0,0:0:0:0:
192,192,70914,128,0,71136:0:0:0:0:
64,192,71025,1,0,0:0:0:0:
448,192,71136,1,0,0:0:0:0:
320,192,71136,128,0,71358:0:0:0:0:
192,192,71247,1,0,0:0:0:0:
64,192,71358,1,0,0:0:0:0:
448,192,71358,128,0,71580:0:0:0:0:
320,192,71469,1,0,0:0:0:0:
192,192,71580,128,0,71803:0:0:0:0:
64,192,71580,1,0,0:0:0:0:
448,192,71803,1,0,0:0:0:0:
320,192,71803,1,0,0:0:0:0:
320,192,71914,1,0,0:0:0:0:
192,192,71914,1,0,0:0:0:0:
64,192,72025,1,0,0:0:0:0:
448,192,72025,128,0,72247:0:0:0:0:
192,192,72136,1,0,0:0:0:0:
320,192,72247,1,0,0:0:0:0:
64,192,72247,128,0,72469:0:0:0:0:
192,192,72358,1,0,0:0:0:0:
320,192,72469,1,0,0:0:0:0:
448,192,72469,128,0,72692:0:0:0:0:
192,192,72580,1,0,0:0:0:0:
320,192,72692,128,0,72914:0:0:0:0:
64,192,72692,1,0,0:0:0:0:
448,192,72803,1,0,0:0:0:0:
192,192,72914,128,0,73136:0:0:0:0:
64,192,72914,1,0,0:0:0:0:
320,192,73025,1,0,0:0:0:0:
64,192,73136,128,0,73358:0:0:0:0:
448,192,73136,1,0,0:0:0:0:
320,192,73247,1,0,0:0:0:0:
448,192,73358,1,0,0:0:0:0:
192,192,73358,128,0,73580:0:0:0:0:
64,192,73580,128,0,73692:0:0:0:0:
320,192,73692,1,0,0:0:0:0:
192,192,73692,128,0,73914:0:0:0:0:
448,192,73914,128,0,74025:0:0:0:0:
320,192,74025,128,0,74136:0:0:0:0:
64,192,74025,1,0,0:0:0:0:
192,192,74136,1,0,0:0:0:0:
448,192,74247,1,0,0:0:0:0:
64,192,74247,128,0,74358:0:0:0:0:
320,192,74358,1,0,0:0:0:0:
192,192,74395,1,0,0:0:0:0:
64,192,74432,1,0,0:0:0:0:
448,192,74469,128,0,74692:0:0:0:0:
320,192,74692,128,0,75136:0:0:0:0:
192,192,75136,128,0,75803:0:0:0:0:
64,192,75136,1,0,0:0:0:0:
64,192,75358,1,0,0:0:0:0:
320,192,75358,1,0,0:0:0:0:
448,192,75469,1,0,0:0:0:0:
64,192,75580,1,0,0:0:0:0:
320,192,75580,1,0,0:0:0:0:
448,192,75803,128,0,77580:0:0:0:0:
64,192,75803,1,0,0:0:0:0:
192,192,75914,1,0,0:0:0:0:
64,192,76025,1,0,0:0:0:0:
320,192,76025,1,0,0:0:0:0:
64,192,76247,1,0,0:0:0:0:
192,192,76247,1,0,0:0:0:0:
320,192,76358,1,0,0:0:0:0:
192,192,76469,1,0,0:0:0:0:
64,192,76469,1,0,0:0:0:0:
192,192,76692,1,0,0:0:0:0:
320,192,76692,1,0,0:0:0:0:
64,192,76803,1,0,0:0:0:0:
192,192,76914,1,0,0:0:0:0:
320,192,76914,1,0,0:0:0:0:
320,192,77136,1,0,0:0:0:0:
64,192,77136,1,0,0:0:0:0:
192,192,77247,1,0,0:0:0:0:
64,192,77358,1,0,0:0:0:0:
320,192,77358,1,0,0:0:0:0:
64,192,77580,1,0,0:0:0:0:
192,192,77636,1,0,0:0:0:0:
320,192,77692,1,0,0:0:0:0:
448,192,77747,1,0,0:0:0:0:
64,192,77803,128,0,78136:0:0:0:0:
192,192,77803,1,0,0:0:0:0:
448,192,78025,1,0,0:0:0:0:
192,192,78025,1,0,0:0:0:0:
320,192,78136,128,0,78469:0:0:0:0:
192,192,78247,1,0,0:0:0:0:
64,192,78247,1,0,0:0:0:0:
448,192,78469,128,0,78692:0:0:0:0:
64,192,78469,1,0,0:0:0:0:
192,192,78580,1,0,0:0:0:0:
320,192,78692,128,0,79136:0:0:0:0:
64,192,78692,1,0,0:0:0:0:
192,192,78914,1,0,0:0:0:0:
448,192,78914,1,0,0:0:0:0:
64,192,79025,1,0,0:0:0:0:
192,192,79136,128,0,79247:0:0:0:0:
448,192,79136,1,0,0:0:0:0:
64,192,79247,128,0,79358:0:0:0:0:
320,192,79358,128,0,79469:0:0:0:0:
448,192,79358,1,0,0:0:0:0:
64,192,79469,128,0,79580:0:0:0:0:
448,192,79580,128,0,79803:0:0:0:0:
320,192,79580,1,0,0:0:0:0:
192,192,79655,1,0,0:0:0:0:
64,192,79729,1,0,0:0:0:0:
192,192,79803,1,0,0:0:0:0:
448,192,79877,1,0,0:0:0:0:
64,192,79951,1,0,0:0:0:0:
320,192,80025,1,0,0:0:0:0:
448,192,80025,128,0,80469:0:0:0:0:
192,192,80247,1,0,0:0:0:0:
64,192,80247,1,0,0:0:0:0:
320,192,80358,1,0,0:0:0:0:
64,192,80469,128,0,80803:0:0:0:0:
192,192,80469,1,0,0:0:0:0:
320,192,80692,1,0,0:0:0:0:
448,192,80692,1,0,0:0:0:0:
192,192,80803,128,0,81136:0:0:0:0:
320,192,80914,1,0,0:0:0:0:
448,192,80914,1,0,0:0:0:0:
320,192,81136,128,0,81358:0:0:0:0:
64,192,81136,1,0,0:0:0:0:
448,192,81358,128,0,81803:0:0:0:0:
192,192,81358,1,0,0:0:0:0:
64,192,81580,1,0,0:0:0:0:
192,192,81580,1,0,0:0:0:0:
320,192,81692,1,0,0:0:0:0:
64,192,81803,1,0,0:0:0:0:
192,192,81803,1,0,0:0:0:0:
320,192,82025,128,0,82136:0:0:0:0:
448,192,82025,1,0,0:0:0:0:
64,192,82136,1,0,0:0:0:0:
192,192,82192,1,0,0:0:0:0:
320,192,82247,1,0,0:0:0:0:
448,192,82247,128,0,82914:0:0:0:0:
64,192,82469,1,0,0:0:0:0:
320,192,82469,1,0,0:0:0:0:
192,192,82580,1,0,0:0:0:0:
64,192,82692,1,0,0:0:0:0:
320,192,82692,1,0,0:0:0:0:
64,192,82914,128,0,83136:0:0:0:0:
320,192,82914,1,0,0:0:0:0:
192,192,83025,1,0,0:0:0:0:
320,192,83136,128,0,83803:0:0:0:0:
448,192,83136,1,0,0:0:0:0:
192,192,83358,1,0,0:0:0:0:
64,192,83358,1,0,0:0:0:0:
448,192,83469,1,0,0:0:0:0:
64,192,83580,1,0,0:0:0:0:
192,192,83580,1,0,0:0:0:0:
448,192,83803,128,0,84025:0:0:0:0:
64,192,83803,1,0,0:0:0:0:
192,192,83877,1,0,0:0:0:0:
320,192,83951,1,0,0:0:0:0:
192,192,84025,128,0,84692:0:0:0:0:
64,192,84025,1,0,0:0:0:0:
320,192,84247,1,0,0:0:0:0:
448,192,84247,1,0,0:0:0:0:
64,192,84358,1,0,0:0:0:0:
320,192,84469,1,0,0:0:0:0:
448,192,84469,1,0,0:0:0:0:
448,192,84692,128,0,84914:0:0:0:0:
64,192,84692,1,0,0:0:0:0:
192,192,84803,1,0,0:0:0:0:
64,192,84914,128,0,86025:0:0:0:0:
320,192,84914,1,0,0:0:0:0:
192,192,85136,1,0,0:0:0:0:
448,192,85136,1,0,0:0:0:0:
320,192,85247,1,0,0:0:0:0:
192,192,85358,1,0,0:0:0:0:
448,192,85358,1,0,0:0:0:0:
320,192,85580,1,0,0:0:0:0:
192,192,85580,1,0,0:0:0:0:
448,192,85692,1,0,0:0:0:0:
320,192,85803,1,0,0:0:0:0:
192,192,85803,1,0,0:0:0:0:
320,192,86025,1,0,0:0:0:0:
448,192,86025,1,0,0:0:0:0:
192,192,86136,1,0,0:0:0:0:
320,192,86247,128,0,86469:0:0:0:0:
448,192,86247,1,0,0:0:0:0:
64,192,86469,128,0,86692:0:0:0:0:
192,192,86469,1,0,0:0:0:0:
448,192,86580,1,0,0:0:0:0:
320,192,86692,128,0,86803:0:0:0:0:
192,192,86692,1,0,0:0:0:0:
64,192,86803,1,0,0:0:0:0:
192,192,86858,1,0,0:0:0:0:
448,192,86914,1,0,0:0:0:0:
320,192,86914,128,0,87358:0:0:0:0:
64,192,87025,1,0,0:0:0:0:
192,192,87136,1,0,0:0:0:0:
448,192,87136,1,0,0:0:0:0:
64,192,87358,128,0,87580:0:0:0:0:
192,192,87358,1,0,0:0:0:0:
448,192,87469,1,0,0:0:0:0:
320,192,87580,1,0,0:0:0:0:
192,192,87580,128,0,87692:0:0:0:0:
448,192,87692,1,0,0:0:0:0:
64,192,87747,1,0,0:0:0:0:
448,192,87803,128,0,88803:0:0:0:0:
320,192,87803,1,0,0:0:0:0:
64,192,87914,1,0,0:0:0:0:
192,192,88025,1,0,0:0:0:0:
320,192,88025,1,0,0:0:0:0:
192,192,88247,1,0,0:0:0:0:
64,192,88247,1,0,0:0:0:0:
320,192,88358,1,0,0:0:0:0:
192,192,88469,1,0,0:0:0:0:
64,192,88469,1,0,0:0:0:0:
320,192,88692,1,0,0:0:0:0:
192,192,88692,1,0,0:0:0:0:
64,192,88803,1,0,0:0:0:0:
192,192,88914,128,0,89136:0:0:0:0:
448,192,88914,1,0,0:0:0:0:
64,192,89136,128,0,89358:0:0:0:0:
448,192,89136,1,0,0:0:0:0:
192,192,89247,1,0,0:0:0:0:
448,192,89358,1,0,0:0:0:0:
320,192,89358,128,0,90025:0:0:0:0:
192,192,89580,1,0,0:0:0:0:
64,192,89580,1,0,0:0:0:0:
448,192,89692,1,0,0:0:0:0:
192,192,89803,1,0,0:0:0:0:
64,192,89803,1,0,0:0:0:0:
64,192,90025,128,0,90469:0:0:0:0:
448,192,90025,1,0,0:0:0:0:
320,192,90136,1,0,0:0:0:0:
192,192,90247,1,0,0:0:0:0:
448,192,90247,1,0,0:0:0:0:
448,192,90469,128,0,90692:0:0:0:0:
192,192,90469,1,0,0:0:0:0:
64,192,90580,1,0,0:0:0:0:
320,192,90692,128,0,90914:0:0:0:0:
192,192,90692,1,0,0:0:0:0:
64,192,90914,128,0,91136:0:0:0:0:
448,192,90914,1,0,0:0:0:0:
320,192,91025,1,0,0:0:0:0:
192,192,91136,128,0,91803:0:0:0:0:
448,192,91136,1,0,0:0:0:0:
320,192,91358,1,0,0:0:0:0:
64,192,91358,1,0,0:0:0:0:
448,192,91469,1,0,0:0:0:0:
320,192,91580,1,0,0:0:0:0:
64,192,91580,1,0,0:0:0:0:
64,192,91803,1,0,0:0:0:0:
192,192,91858,1,0,0:0:0:0:
448,192,91914,1,0,0:0:0:0:
320,192,91969,1,0,0:0:0:0:
192,192,92025,128,0,92358:0:0:0:0:
64,192,92025,1,0,0:0:0:0:
64,192,92247,1,0,0:0:0:0:
448,192,92247,1,0,0:0:0:0:
320,192,92358,128,0,92692:0:0:0:0:
192,192,92469,1,0,0:0:0:0:
64,192,92469,1,0,0:0:0:0:
64,192,92692,128,0,92914:0:0:0:0:
448,192,92692,1,0,0:0:0:0:
320,192,92803,1,0,0:0:0:0:
192,192,92914,128,0,93358:0:0:0:0:
448,192,92914,1,0,0:0:0:0:
320,192,93136,1,0,0:0:0:0:
448,192,93136,1,0,0:0:0:0:
64,192,93247,1,0,0:0:0:0:
448,192,93358,1,0,0:0:0:0:
320,192,93358,128,0,93469:0:0:0:0:
192,192,93469,128,0,93580:0:0:0:0:
448,192,93580,1,0,0:0:0:0:
64,192,93580,128,0,93655:0:0:0:0:
192,192,93655,128,0,93729:0:0:0:0:
320,192,93729,128,0,93803:0:0:0:0:
64,192,93803,128,0,94025:0:0:0:0:
448,192,93803,1,0,0:0:0:0:
192,192,93914,1,0,0:0:0:0:
320,192,93969,1,0,0:0:0:0:
448,192,94025,1,0,0:0:0:0:
192,192,94080,1,0,0:0:0:0:
64,192,94136,1,0,0:0:0:0:
448,192,94192,1,0,0:0:0:0:
192,192,94247,128,0,94692:0:0:0:0:
320,192,94247,1,0,0:0:0:0:
64,192,94469,1,0,0:0:0:0:
320,192,94469,1,0,0:0:0:0:
448,192,94580,1,0,0:0:0:0:
64,192,94692,128,0,95025:0:0:0:0:
320,192,94692,1,0,0:0:0:0:
320,192,94914,1,0,0:0:0:0:
448,192,94914,1,0,0:0:0:0:
192,192,95025,128,0,95358:0:0:0:0:
320,192,95136,1,0,0:0:0:0:
448,192,95136,1,0,0:0:0:0:
64,192,95358,1,0,0:0:0:0:
320,192,95358,128,0,95580:0:0:0:0:
448,192,95469,1,0,0:0:0:0:
64,192,95580,128,0,96136:0:0:0:0:
192,192,95580,1,0,0:0:0:0:
320,192,95803,1,0,0:0:0:0:
448,192,95803,1,0,0:0:0:0:
192,192,95914,1,0,0:0:0:0:
320,192,96025,1,0,0:0:0:0:
448,192,96025,1,0,0:0:0:0:
192,192,96136,128,0,96247:0:0:0:0:
320,192,96247,128,0,96358:0:0:0:0:
448,192,96247,1,0,0:0:0:0:
192,192,96358,128,0,96469:0:0:0:0:
64,192,96469,128,0,97136:0:0:0:0:
448,192,96469,1,0,0:0:0:0:
192,192,96692,1,0,0:0:0:0:
448,192,96692,1,0,0:0:0:0:
320,192,96803,1,0,0:0:0:0:
192,192,96914,1,0,0:0:0:0:
448,192,96914,1,0,0:0:0:0:
448,192,97136,128,0,97358:0:0:0:0:
320,192,97136,1,0,0:0:0:0:
192,192,97247,1,0,0:0:0:0:
64,192,97358,1,0,0:0:0:0:
320,192,97358,128,0,97469:0:0:0:0:
192,192,97469,1,0,0:0:0:0:
320,192,97525,1,0,0:0:0:0:
64,192,97580,128,0,97803:0:0:0:0:
448,192,97580,1,0,0:0:0:0:
192,192,97692,1,0,0:0:0:0:
320,192,97803,128,0,98025:0:0:0:0:
448,192,97803,1,0,0:0:0:0:
64,192,98025,128,0,98247:0:0:0:0:
448,192,98025,1,0,0:0:0:0:
192,192,98136,1,0,0:0:0:0:
320,192,98247,128,0,98914:0:0:0:0:
448,192,98247,1,0,0:0:0:0:
192,192,98469,1,0,0:0:0:0:
64,192,98469,1,0,0:0:0:0:
448,192,98580,1,0,0:0:0:0:
192,192,98692,1,0,0:0:0:0:
64,192,98692,1,0,0:0:0:0:
192,192,98914,1,0,0:0:0:0:
64,192,98914,128,0,99136:0:0:0:0:
320,192,99025,1,0,0:0:0:0:
448,192,99136,128,0,100358:0:0:0:0:
192,192,99136,1,0,0:0:0:0:
64,192,99358,1,0,0:0:0:0:
320,192,99358,1,0,0:0:0:0:
192,192,99469,1,0,0:0:0:0:
64,192,99580,1,0,0:0:0:0:
320,192,99580,1,0,0:0:0:0:
320,192,99803,1,0,0:0:0:0:
192,192,99803,1,0,0:0:0:0:
64,192,99914,1,0,0:0:0:0:
192,192,100025,1,0,0:0:0:0:
320,192,100025,1,0,0:0:0:0:
64,192,100247,1,0,0:0:0:0:
192,192,100247,1,0,0:0:0:0:
320,192,100358,1,0,0:0:0:0:
192,192,100469,128,0,100692:0:0:0:0:
64,192,100469,1,0,0:0:0:0:
448,192,100692,128,0,100914:0:0:0:0:
320,192,100692,1,0,0:0:0:0:
64,192,100803,1,0,0:0:0:0:
320,192,100914,128,0,100988:0:0:0:0:
192,192,100988,128,0,101062:0:0:0:0:
64,192,101062,128,0,101136:0:0:0:0:
320,192,101136,128,0,101580:0:0:0:0:
448,192,101247,1,0,0:0:0:0:
64,192,101358,1,0,0:0:0:0:
192,192,101358,1,0,0:0:0:0:
448,192,101580,128,0,101692:0:0:0:0:
64,192,101580,1,0,0:0:0:0:
192,192,101692,1,0,0:0:0:0:
320,192,101803,1,0,0:0:0:0:
448,192,101803,1,0,0:0:0:0:
64,192,101803,128,0,102136:0:0:0:0:
192,192,102136,128,0,102469:0:0:0:0:
320,192,102136,1,0,0:0:0:0:
448,192,102136,1,0,0:0:0:0:
320,192,102469,128,0,102692:0:0:0:0:
64,192,102469,1,0,0:0:0:0:
448,192,102469,1,0,0:0:0:0:
448,192,102692,128,0,103025:0:0:0:0:
192,192,102692,1,0,0:0:0:0:
64,192,102692,1,0,0:0:0:0:
64,192,103136,1,0,0:0:0:0:
64,192,103247,1,0,0:0:0:0:
448,192,103358,1,0,0:0:0:0:
448,192,103469,1,0,0:0:0:0:
192,192,103580,1,0,0:0:0:0:
320,192,103580,1,0,0:0:0:0:
448,192,103580,128,0,103914:0:0:0:0:
320,192,103914,128,0,104247:0:0:0:0:
192,192,103914,1,0,0:0:0:0:
64,192,103914,1,0,0:0:0:0:
192,192,104247,128,0,104469:0:0:0:0:
64,192,104247,1,0,0:0:0:0:
448,192,104247,1,0,0:0:0:0:
64,192,104469,128,0,104914:0:0:0:0:
320,192,104469,1,0,0:0:0:0:
448,192,104469,1,0,0:0:0:0:
192,192,105210,1,0,0:0:0:0:
320,192,105284,1,0,0:0:0:0:
448,192,105358,1,0,0:0:0:0:
192,192,105506,1,0,0:0:0:0:
320,192,105655,1,0,0:0:0:0:
64,192,105803,1,0,0:0:0:0:
192,192,105951,1,0,0:0:0:0:
448,192,106099,1,0,0:0:0:0:
192,192,106247,128,0,106840:0:0:0:0:
320,192,106247,128,0,106988:0:0:0:0:
64,192,106840,1,0,0:0:0:0:
192,192,106988,1,0,0:0:0:0:
448,192,107136,128,0,107358:0:0:0:0:
64,192,107136,1,0,0:0:0:0:
192,192,107358,128,0,107469:0:0:0:0:
448,192,107469,128,0,107692:0:0:0:0:
320,192,107469,1,0,0:0:0:0:
192,192,107692,128,0,107803:0:0:0:0:
64,192,107803,1,0,0:0:0:0:
320,192,108025,1,0,0:0:0:0:
192,192,108025,128,0,108469:0:0:0:0:
448,192,108136,1,0,0:0:0:0:
320,192,108247,1,0,0:0:0:0:
64,192,108469,1,0,0:0:0:0:
448,192,108469,128,0,108914:0:0:0:0:
192,192,108580,1,0,0:0:0:0:
64,192,108692,1,0,0:0:0:0:
320,192,108914,1,0,0:0:0:0:
192,192,108914,128,0,109247:0:0:0:0:
320,192,109136,1,0,0:0:0:0:
64,192,109247,1,0,0:0:0:0:
448,192,109247,128,0,109580:0:0:0:0:
192,192,109469,1,0,0:0:0:0:
64,192,109580,1,0,0:0:0:0:
320,192,109580,128,0,109803:0:0:0:0:
192,192,109803,128,0,110025:0:0:0:0:
64,192,109803,1,0,0:0:0:0:
320,192,110025,1,0,0:0:0:0:
448,192,110025,1,0,0:0:0:0:
64,192,110247,1,0,0:0:0:0:
192,192,110247,1,0,0:0:0:0:
320,192,110358,1,0,0:0:0:0:
192,192,110469,1,0,0:0:0:0:
448,192,110469,1,0,0:0:0:0:
64,192,110692,128,0,111025:0:0:0:0:
448,192,110692,1,0,0:0:0:0:
320,192,110914,1,0,0:0:0:0:
192,192,111025,128,0,111358:0:0:0:0:
448,192,111025,1,0,0:0:0:0:
320,192,111247,1,0,0:0:0:0:
64,192,111358,1,0,0:0:0:0:
448,192,111580,1,0,0:0:0:0:
192,192,111580,128,0,112025:0:0:0:0:
448,192,111803,1,0,0:0:0:0:
320,192,111803,1,0,0:0:0:0:
64,192,112025,128,0,112247:0:0:0:0:
320,192,112025,1,0,0:0:0:0:
448,192,112136,1,0,0:0:0:0:
320,192,112247,128,0,112358:0:0:0:0:
64,192,112358,128,0,112469:0:0:0:0:
448,192,112469,128,0,112914:0:0:0:0:
192,192,112469,1,0,0:0:0:0:
320,192,112469,1,0,0:0:0:0:
320,192,112692,1,0,0:0:0:0:
192,192,112803,1,0,0:0:0:0:
320,192,112914,128,0,113358:0:0:0:0:
64,192,112914,1,0,0:0:0:0:
192,192,112914,1,0,0:0:0:0:
64,192,113136,1,0,0:0:0:0:
448,192,113247,1,0,0:0:0:0:
192,192,113358,128,0,113803:0:0:0:0:
448,192,113358,1,0,0:0:0:0:
64,192,113358,1,0,0:0:0:0:
448,192,113580,1,0,0:0:0:0:
320,192,113692,1,0,0:0:0:0:
448,192,113803,1,0,0:0:0:0:
64,192,113803,128,0,114247:0:0:0:0:
320,192,113803,1,0,0:0:0:0:
320,192,114247,1,0,0:0:0:0:
448,192,114247,128,0,115136:0:0:0:0:
64,192,114469,1,0,0:0:0:0:
192,192,114469,1,0,0:0:0:0:
320,192,114580,1,0,0:0:0:0:
64,192,114692,1,0,0:0:0:0:
192,192,114692,1,0,0:0:0:0:
64,192,114914,1,0,0:0:0:0:
320,192,114914,1,0,0:0:0:0:
192,192,115025,1,0,0:0:0:0:
320,192,115136,1,0,0:0:0:0:
64,192,115136,128,0,115580:0:0:0:0:
320,192,115358,1,0,0:0:0:0:
192,192,115358,1,0,0:0:0:0:
448,192,115469,1,0,0:0:0:0:
192,192,115580,1,0,0:0:0:0:
320,192,115655,1,0,0:0:0:0:
448,192,115729,1,0,0:0:0:0:
192,192,115803,1,0,0:0:0:0:
64,192,115803,128,0,116025:0:0:0:0:
320,192,115914,1,0,0:0:0:0:
192,192,116025,1,0,0:0:0:0:
448,192,116025,128,0,116914:0:0:0:0:
320,192,116247,1,0,0:0:0:0:
192,192,116247,1,0,0:0:0:0:
64,192,116358,1,0,0:0:0:0:
320,192,116469,1,0,0:0:0:0:
192,192,116469,1,0,0:0:0:0:
64,192,116692,1,0,0:0:0:0:
320,192,116692,1,0,0:0:0:0:
192,192,116803,1,0,0:0:0:0:
64,192,116914,128,0,117136:0:0:0:0:
320,192,116914,1,0,0:0:0:0:
192,192,117136,1,0,0:0:0:0:
320,192,117192,1,0,0:0:0:0:
448,192,117247,1,0,0:0:0:0:
192,192,117358,1,0,0:0:0:0:
64,192,117358,128,0,117580:0:0:0:0:
320,192,117580,1,0,0:0:0:0:
448,192,117580,128,0,117803:0:0:0:0:
320,192,117803,1,0,0:0:0:0:
64,192,117803,128,0,118025:0:0:0:0:
448,192,118025,1,0,0:0:0:0:
320,192,118062,1,0,0:0:0:0:
192,192,118099,1,0,0:0:0:0:
64,192,118136,128,0,118247:0:0:0:0:
448,192,118247,128,0,118469:0:0:0:0:
320,192,118247,1,0,0:0:0:0:
64,192,118469,1,0,0:0:0:0:
320,192,118469,128,0,118692:0:0:0:0:
448,192,118580,1,0,0:0:0:0:
192,192,118692,1,0,0:0:0:0:
64,192,118692,128,0,119025:0:0:0:0:
192,192,118914,1,0,0:0:0:0:
320,192,118969,1,0,0:0:0:0:
448,192,119025,128,0,119358:0:0:0:0:
192,192,119080,1,0,0:0:0:0:
64,192,119136,1,0,0:0:0:0:
320,192,119192,1,0,0:0:0:0:
192,192,119247,1,0,0:0:0:0:
64,192,119303,1,0,0:0:0:0:
320,192,119358,128,0,119580:0:0:0:0:
192,192,119580,1,0,0:0:0:0:
64,192,119580,128,0,119914:0:0:0:0:
448,192,119580,1,0,0:0:0:0:
192,192,119914,1,0,0:0:0:0:
320,192,119914,1,0,0:0:0:0:
448,192,119914,128,0,120247:0:0:0:0:
192,192,120247,1,0,0:0:0:0:
320,192,120247,1,0,0:0:0:0:
64,192,120247,128,0,120469:0:0:0:0:
320,192,120469,1,0,0:0:0:0:
192,192,120469,1,0,0:0:0:0:
448,192,120469,1,0,0:0:0:0:
192,192,120914,128,0,121358:0:0:0:0:
320,192,120914,1,0,0:0:0:0:
64,192,120914,1,0,0:0:0:0:
320,192,121136,1,0,0:0:0:0:
320,192,121247,1,0,0:0:0:0:
64,192,121358,1,0,0:0:0:0:
448,192,121358,128,0,121692:0:0:0:0:
64,192,121580,1,0,0:0:0:0:
192,192,121692,1,0,0:0:0:0:
320,192,121692,128,0,122025:0:0:0:0:
64,192,121803,1,0,0:0:0:0:
192,192,122025,1,0,0:0:0:0:
448,192,122025,128,0,122247:0:0:0:0:
64,192,122136,1,0,0:0:0:0:
192,192,122247,1,0,0:0:0:0:
320,192,122247,128,0,122580:0:0:0:0:
192,192,122469,1,0,0:0:0:0:
448,192,122469,1,0,0:0:0:0:
64,192,122580,1,0,0:0:0:0:
192,192,122618,1,0,0:0:0:0:
320,192,122655,1,0,0:0:0:0:
448,192,122692,1,0,0:0:0:0:
64,192,122692,128,0,122914:0:0:0:0:
192,192,122914,1,0,0:0:0:0:
320,192,122914,1,0,0:0:0:0:
448,192,123025,1,0,0:0:0:0:
320,192,123062,1,0,0:0:0:0:
192,192,123099,1,0,0:0:0:0:
64,192,123136,1,0,0:0:0:0:
448,192,123136,128,0,123580:0:0:0:0:
64,192,123358,1,0,0:0:0:0:
320,192,123358,1,0,0:0:0:0:
192,192,123469,1,0,0:0:0:0:
64,192,123580,1,0,0:0:0:0:
320,192,123580,128,0,123803:0:0:0:0:
192,192,123803,1,0,0:0:0:0:
448,192,123803,128,0,124025:0:0:0:0:
64,192,123914,1,0,0:0:0:0:
192,192,124025,1,0,0:0:0:0:
320,192,124025,128,0,124469:0:0:0:0:
64,192,124247,1,0,0:0:0:0:
448,192,124247,1,0,0:0:0:0:
192,192,124358,1,0,0:0:0:0:
448,192,124469,1,0,0:0:0:0:
64,192,124469,1,0,0:0:0:0:
320,192,124580,1,0,0:0:0:0:
192,192,124692,1,0,0:0:0:0:
64,192,124692,1,0,0:0:0:0:
320,192,124803,1,0,0:0:0:0:
64,192,124914,1,0,0:0:0:0:
448,192,124914,128,0,125136:0:0:0:0:
320,192,125136,128,0,125247:0:0:0:0:
64,192,125136,1,0,0:0:0:0:
192,192,125247,128,0,125580:0:0:0:0:
64,192,125358,1,0,0:0:0:0:
448,192,125358,1,0,0:0:0:0:
448,192,125580,1,0,0:0:0:0:
64,192,125580,128,0,125803:0:0:0:0:
320,192,125692,1,0,0:0:0:0:
448,192,125803,1,0,0:0:0:0:
192,192,125803,128,0,126247:0:0:0:0:
320,192,126025,1,0,0:0:0:0:
64,192,126025,1,0,0:0:0:0:
448,192,126136,1,0,0:0:0:0:
320,192,126247,1,0,0:0:0:0:
64,192,126247,128,0,126469:0:0:0:0:
192,192,126469,128,0,126580:0:0:0:0:
448,192,126469,1,0,0:0:0:0:
64,192,126580,128,0,126692:0:0:0:0:
448,192,126692,1,0,0:0:0:0:
192,192,126692,128,0,128025:0:0:0:0:
320,192,126914,1,0,0:0:0:0:
64,192,126914,1,0,0:0:0:0:
448,192,127025,1,0,0:0:0:0:
64,192,127136,1,0,0:0:0:0:
320,192,127136,1,0,0:0:0:0:
64,192,127358,5,0,0:0:0:0:
448,192,127358,1,0,0:0:0:0:
320,192,127469,1,0,0:0:0:0:
64,192,127580,1,0,0:0:0:0:
448,192,127580,1,0,0:0:0:0:
320,192,127803,1,0,0:0:0:0:
64,192,127803,1,0,0:0:0:0:
448,192,127914,1,0,0:0:0:0:
320,192,128025,1,0,0:0:0:0:
64,192,128025,128,0,128247:0:0:0:0:
192,192,128247,1,0,0:0:0:0:
448,192,128247,1,0,0:0:0:0:
320,192,128321,1,0,0:0:0:0:
448,192,128395,1,0,0:0:0:0:
192,192,128469,1,0,0:0:0:0:
64,192,128469,128,0,129580:0:0:0:0:
192,192,128692,1,0,0:0:0:0:
448,192,128692,1,0,0:0:0:0:
320,192,128803,1,0,0:0:0:0:
448,192,128914,1,0,0:0:0:0:
192,192,128914,1,0,0:0:0:0:
320,192,129136,1,0,0:0:0:0:
448,192,129136,1,0,0:0:0:0:
192,192,129247,1,0,0:0:0:0:
448,192,129358,1,0,0:0:0:0:
320,192,129358,1,0,0:0:0:0:
192,192,129580,1,0,0:0:0:0:
448,192,129580,1,0,0:0:0:0:
320,192,129692,1,0,0:0:0:0:
448,192,129803,1,0,0:0:0:0:
64,192,129803,1,0,0:0:0:0:
320,192,129877,1,0,0:0:0:0:
192,192,129951,1,0,0:0:0:0:
64,192,130025,1,0,0:0:0:0:
448,192,130025,128,0,130247:0:0:0:0:
192,192,130136,1,0,0:0:0:0:
320,192,130247,1,0,0:0:0:0:
64,192,130247,128,0,130580:0:0:0:0:
192,192,130469,1,0,0:0:0:0:
320,192,130469,1,0,0:0:0:0:
448,192,130580,128,0,130914:0:0:0:0:
192,192,130692,1,0,0:0:0:0:
320,192,130692,1,0,0:0:0:0:
320,192,130914,1,0,0:0:0:0:
64,192,130914,128,0,131136:0:0:0:0:
192,192,131025,1,0,0:0:0:0:
320,192,131136,1,0,0:0:0:0:
448,192,131136,128,0,131580:0:0:0:0:
64,192,131358,1,0,0:0:0:0:
192,192,131358,1,0,0:0:0:0:
320,192,131469,1,0,0:0:0:0:
64,192,131580,1,0,0:0:0:0:
192,192,131580,1,0,0:0:0:0:
448,192,131803,128,0,131914:0:0:0:0:
320,192,131803,1,0,0:0:0:0:
192,192,131914,128,0,132025:0:0:0:0:
320,192,132025,1,0,0:0:0:0:
64,192,132025,128,0,132358:0:0:0:0:
448,192,132247,1,0,0:0:0:0:
192,192,132247,1,0,0:0:0:0:
320,192,132358,128,0,132692:0:0:0:0:
64,192,132469,1,0,0:0:0:0:
448,192,132469,1,0,0:0:0:0:
64,192,132692,1,0,0:0:0:0:
448,192,132692,128,0,132914:0:0:0:0:
320,192,132803,1,0,0:0:0:0:
192,192,132914,1,0,0:0:0:0:
64,192,132914,128,0,133247:0:0:0:0:
448,192,133136,1,0,0:0:0:0:
320,192,133136,1,0,0:0:0:0:
192,192,133247,128,0,133580:0:0:0:0:
320,192,133358,1,0,0:0:0:0:
448,192,133358,1,0,0:0:0:0:
448,192,133580,1,0,0:0:0:0:
320,192,133580,128,0,133803:0:0:0:0:
192,192,133692,1,0,0:0:0:0:
64,192,133803,128,0,134136:0:0:0:0:
448,192,133803,1,0,0:0:0:0:
448,192,134025,1,0,0:0:0:0:
320,192,134025,1,0,0:0:0:0:
192,192,134136,1,0,0:0:0:0:
448,192,134247,1,0,0:0:0:0:
64,192,134247,1,0,0:0:0:0:
320,192,134303,1,0,0:0:0:0:
192,192,134358,1,0,0:0:0:0:
64,192,134414,1,0,0:0:0:0:
448,192,134469,1,0,0:0:0:0:
320,192,134469,1,0,0:0:0:0:
192,192,134580,1,0,0:0:0:0:
64,192,134692,1,0,0:0:0:0:
448,192,134692,1,0,0:0:0:0:
448,192,134914,1,0,0:0:0:0:
320,192,134914,1,0,0:0:0:0:
192,192,135025,1,0,0:0:0:0:
448,192,135136,1,0,0:0:0:0:
64,192,135136,1,0,0:0:0:0:
192,192,135247,1,0,0:0:0:0:
320,192,135358,1,0,0:0:0:0:
448,192,135358,1,0,0:0:0:0:
192,192,135469,1,0,0:0:0:0:
320,192,135580,128,0,135692:0:0:0:0:
64,192,135580,1,0,0:0:0:0:
448,192,135580,1,0,0:0:0:0:
192,192,135692,1,0,0:0:0:0:
192,192,135914,128,0,136025:0:0:0:0:
64,192,135914,1,0,0:0:0:0:
448,192,135914,1,0,0:0:0:0:
64,192,136247,1,0,0:0:0:0:
448,192,136247,1,0,0:0:0:0:
320,192,136247,128,0,136358:0:0:0:0:
192,192,136469,1,0,0:0:0:0:
320,192,136469,1,0,0:0:0:0:
448,192,136469,128,0,136692:0:0:0:0:
64,192,136469,128,0,136692:0:0:0:0:
320,192,136914,1,0,0:0:0:0:
192,192,136988,1,0,0:0:0:0:
320,192,137062,1,0,0:0:0:0:
448,192,137136,1,0,0:0:0:0:
64,192,137247,1,0,0:0:0:0:
192,192,137358,128,0,137580:0:0:0:0:
320,192,137358,1,0,0:0:0:0:
448,192,137358,1,0,0:0:0:0:
448,192,137580,1,0,0:0:0:0:
320,192,137580,1,0,0:0:0:0:
320,192,137692,1,0,0:0:0:0:
192,192,137692,1,0,0:0:0:0:
64,192,137803,1,0,0:0:0:0:
448,192,137803,128,0,138025:0:0:0:0:
192,192,137914,1,0,0:0:0:0:
320,192,138025,1,0,0:0:0:0:
64,192,138025,128,0,138247:0:0:0:0:
192,192,138136,1,0,0:0:0:0:
320,192,138247,1,0,0:0:0:0:
448,192,138247,128,0,138469:0:0:0:0:
192,192,138358,1,0,0:0:0:0:
320,192,138469,128,0,138692:0:0:0:0:
64,192,138469,1,0,0:0:0:0:
448,192,138580,1,0,0:0:0:0:
192,192,138692,128,0,138914:0:0:0:0:
64,192,138692,1,0,0:0:0:0:
320,192,138803,1,0,0:0:0:0:
64,192,138914,128,0,139136:0:0:0:0:
448,192,138914,1,0,0:0:0:0:
320,192,139025,1,0,0:0:0:0:
192,192,139136,128,0,139358:0:0:0:0:
448,192,139136,1,0,0:0:0:0:
448,192,139358,1,0,0:0:0:0:
320,192,139358,1,0,0:0:0:0:
320,192,139469,1,0,0:0:0:0:
192,192,139469,1,0,0:0:0:0:
64,192,139580,1,0,0:0:0:0:
448,192,139580,128,0,139803:0:0:0:0:
192,192,139692,1,0,0:0:0:0:
320,192,139803,1,0,0:0:0:0:
64,192,139803,128,0,140025:0:0:0:0:
192,192,139914,1,0,0:0:0:0:
320,192,140025,1,0,0:0:0:0:
448,192,140025,128,0,140247:0:0:0:0:
192,192,140136,1,0,0:0:0:0:
320,192,140247,128,0,140469:0:0:0:0:
64,192,140247,1,0,0:0:0:0:
448,192,140358,1,0,0:0:0:0:
192,192,140469,128,0,140692:0:0:0:0:
64,192,140469,1,0,0:0:0:0:
320,192,140580,1,0,0:0:0:0:
64,192,140692,128,0,140914:0:0:0:0:
448,192,140692,1,0,0:0:0:0:
192,192,140803,1,0,0:0:0:0:
448,192,140914,1,0,0:0:0:0:
320,192,140914,128,0,141136:0:0:0:0:
192,192,141136,1,0,0:0:0:0:
64,192,141136,1,0,0:0:0:0:
320,192,141247,1,0,0:0:0:0:
192,192,141247,1,0,0:0:0:0:
64,192,141358,128,0,141580:0:0:0:0:
448,192,141358,1,0,0:0:0:0:
320,192,141469,1,0,0:0:0:0:
448,192,141580,128,0,141803:0:0:0:0:
192,192,141580,1,0,0:0:0:0:
320,192,141692,1,0,0:0:0:0:
64,192,141803,128,0,142025:0:0:0:0:
192,192,141803,1,0,0:0:0:0:
320,192,141914,1,0,0:0:0:0:
448,192,142025,1,0,0:0:0:0:
192,192,142025,128,0,142247:0:0:0:0:
64,192,142136,1,0,0:0:0:0:
448,192,142247,1,0,0:0:0:0:
320,192,142247,128,0,142469:0:0:0:0:
192,192,142358,1,0,0:0:0:0:
64,192,142469,1,0,0:0:0:0:
448,192,142469,128,0,142692:0:0:0:0:
192,192,142580,1,0,0:0:0:0:
320,192,142692,128,0,142914:0:0:0:0:
64,192,142692,1,0,0:0:0:0:
448,192,142914,128,0,143025:0:0:0:0:
320,192,143025,128,0,143247:0:0:0:0:
192,192,143025,1,0,0:0:0:0:
64,192,143247,128,0,143358:0:0:0:0:
448,192,143358,5,0,0:0:0:0:
192,192,143358,128,0,143580:0:0:0:0:
320,192,143469,1,0,0:0:0:0:
448,192,143580,128,0,143803:0:0:0:0:
64,192,143580,1,0,0:0:0:0:
64,192,143803,128,0,143877:0:0:0:0:
192,192,143877,128,0,143951:0:0:0:0:
320,192,143951,128,0,144025:0:0:0:0:
448,192,144025,128,0,144099:0:0:0:0:
64,192,144099,128,0,144173:0:0:0:0:
192,192,144173,128,0,144247:0:0:0:0:
320,192,144247,128,0,144321:0:0:0:0:
448,192,144321,128,0,144395:0:0:0:0:
320,192,144395,128,0,144469:0:0:0:0:
192,192,144469,1,0,0:0:0:0:
64,192,144469,128,0,144914:0:0:0:0:
448,192,144692,1,0,0:0:0:0:
320,192,144692,1,0,0:0:0:0:
192,192,144803,1,0,0:0:0:0:
448,192,144914,1,0,0:0:0:0:
320,192,144914,128,0,145358:0:0:0:0:
192,192,145136,1,0,0:0:0:0:
64,192,145136,1,0,0:0:0:0:
448,192,145247,1,0,0:0:0:0:
192,192,145358,1,0,0:0:0:0:
64,192,145358,1,0,0:0:0:0:
320,192,145469,128,0,145580:0:0:0:0:
64,192,145580,128,0,145692:0:0:0:0:
192,192,145580,1,0,0:0:0:0:
448,192,145692,128,0,145803:0:0:0:0:
192,192,145803,128,0,145914:0:0:0:0:
320,192,145803,1,0,0:0:0:0:
64,192,145914,128,0,146025:0:0:0:0:
320,192,146025,128,0,146136:0:0:0:0:
192,192,146025,1,0,0:0:0:0:
448,192,146136,128,0,146247:0:0:0:0:
192,192,146247,128,0,146358:0:0:0:0:
64,192,146247,1,0,0:0:0:0:
320,192,146358,128,0,146469:0:0:0:0:
64,192,146469,128,0,146580:0:0:0:0:
448,192,146469,1,0,0:0:0:0:
192,192,146580,128,0,146692:0:0:0:0:
448,192,146692,128,0,146803:0:0:0:0:
320,192,146692,1,0,0:0:0:0:
64,192,146803,128,0,146914:0:0:0:0:
320,192,146914,128,0,147025:0:0:0:0:
448,192,146914,1,0,0:0:0:0:
192,192,147025,128,0,147136:0:0:0:0:
64,192,147136,128,0,147580:0:0:0:0:
448,192,147136,1,0,0:0:0:0:
192,192,147358,1,0,0:0:0:0:
448,192,147358,1,0,0:0:0:0:
320,192,147469,1,0,0:0:0:0:
192,192,147580,128,0,147692:0:0:0:0:
448,192,147580,1,0,0:0:0:0:
320,192,147692,128,0,147803:0:0:0:0:
448,192,147803,128,0,147914:0:0:0:0:
192,192,147803,1,0,0:0:0:0:
64,192,147914,128,0,148025:0:0:0:0:
320,192,148025,128,0,148136:0:0:0:0:
448,192,148025,1,0,0:0:0:0:
192,192,148136,128,0,148247:0:0:0:0:
448,192,148247,128,0,148358:0:0:0:0:
320,192,148247,1,0,0:0:0:0:
64,192,148358,128,0,148469:0:0:0:0:
192,192,148469,128,0,148580:0:0:0:0:
320,192,148469,1,0,0:0:0:0:
448,192,148580,128,0,148692:0:0:0:0:
64,192,148692,128,0,148803:0:0:0:0:
192,192,148692,1,0,0:0:0:0:
320,192,148803,128,0,148914:0:0:0:0:
448,192,148914,128,0,149025:0:0:0:0:
64,192,148914,1,0,0:0:0:0:
192,192,149025,128,0,149136:0:0:0:0:
64,192,149136,128,0,149247:0:0:0:0:
448,192,149136,1,0,0:0:0:0:
320,192,149247,128,0,149358:0:0:0:0:
64,192,149358,128,0,149580:0:0:0:0:
192,192,149358,1,0,0:0:0:0:
320,192,149469,1,0,0:0:0:0:
448,192,149580,128,0,149803:0:0:0:0:
192,192,149580,1,0,0:0:0:0:
64,192,149692,1,0,0:0:0:0:
320,192,149803,128,0,150247:0:0:0:0:
192,192,149803,1,0,0:0:0:0:
448,192,150025,1,0,0:0:0:0:
192,192,150025,1,0,0:0:0:0:
64,192,150136,1,0,0:0:0:0:
192,192,150247,1,0,0:0:0:0:
448,192,150247,1,0,0:0:0:0:
64,192,150358,128,0,150469:0:0:0:0:
320,192,150469,128,0,150580:0:0:0:0:
448,192,150469,1,0,0:0:0:0:
192,192,150580,128,0,150692:0:0:0:0:
448,192,150692,128,0,150803:0:0:0:0:
320,192,150692,1,0,0:0:0:0:
64,192,150803,128,0,150914:0:0:0:0:
320,192,150914,128,0,151025:0:0:0:0:
448,192,150914,1,0,0:0:0:0:
192,192,151025,128,0,151247:0:0:0:0:
320,192,151136,1,0,0:0:0:0:
448,192,151136,1,0,0:0:0:0:
64,192,151247,128,0,151358:0:0:0:0:
320,192,151358,128,0,151469:0:0:0:0:
192,192,151358,1,0,0:0:0:0:
448,192,151469,128,0,151580:0:0:0:0:
192,192,151580,1,0,0:0:0:0:
64,192,151580,128,0,152025:0:0:0:0:
320,192,151803,1,0,0:0:0:0:
448,192,151803,1,0,0:0:0:0:
192,192,151914,1,0,0:0:0:0:
320,192,152025,128,0,152692:0:0:0:0:
448,192,152025,1,0,0:0:0:0:
192,192,152247,1,0,0:0:0:0:
64,192,152247,1,0,0:0:0:0:
448,192,152358,1,0,0:0:0:0:
192,192,152469,1,0,0:0:0:0:
64,192,152469,1,0,0:0:0:0:
448,192,152692,128,0,152914:0:0:0:0:
64,192,152692,1,0,0:0:0:0:
192,192,152803,1,0,0:0:0:0:
64,192,152914,128,0,153136:0:0:0:0:
320,192,152914,1,0,0:0:0:0:
192,192,153136,128,0,153358:0:0:0:0:
448,192,153136,1,0,0:0:0:0:
64,192,153247,1,0,0:0:0:0:
448,192,153358,128,0,153803:0:0:0:0:
320,192,153358,1,0,0:0:0:0:
320,192,153580,1,0,0:0:0:0:
64,192,153580,1,0,0:0:0:0:
192,192,153692,1,0,0:0:0:0:
320,192,153803,128,0,154025:0:0:0:0:
64,192,153803,1,0,0:0:0:0:
64,192,154025,1,0,0:0:0:0:
192,192,154025,128,0,154136:0:0:0:0:
448,192,154136,128,0,154247:0:0:0:0:
320,192,154247,1,0,0:0:0:0:
64,192,154247,128,0,154914:0:0:0:0:
192,192,154469,1,0,0:0:0:0:
448,192,154469,1,0,0:0:0:0:
320,192,154580,1,0,0:0:0:0:
192,192,154692,1,0,0:0:0:0:
448,192,154692,1,0,0:0:0:0:
320,192,154914,1,0,0:0:0:0:
448,192,154914,1,0,0:0:0:0:
192,192,155025,1,0,0:0:0:0:
64,192,155136,1,0,0:0:0:0:
448,192,155136,1,0,0:0:0:0:
448,192,155247,1,0,0:0:0:0:
320,192,155284,1,0,0:0:0:0:
192,192,155321,1,0,0:0:0:0:
64,192,155358,1,0,0:0:0:0:
192,192,155469,1,0,0:0:0:0:
320,192,155469,1,0,0:0:0:0:
64,192,155580,1,0,0:0:0:0:
192,192,155618,1,0,0:0:0:0:
320,192,155655,1,0,0:0:0:0:
448,192,155692,1,0,0:0:0:0:
192,192,155803,128,0,156025:0:0:0:0:
448,192,155803,1,0,0:0:0:0:
320,192,155914,1,0,0:0:0:0:
64,192,156025,1,0,0:0:0:0:
448,192,156025,1,0,0:0:0:0:
320,192,156099,1,0,0:0:0:0:
192,192,156173,1,0,0:0:0:0:
64,192,156247,1,0,0:0:0:0:
320,192,156321,1,0,0:0:0:0:
192,192,156395,1,0,0:0:0:0:
448,192,156469,1,0,0:0:0:0:
64,192,156543,1,0,0:0:0:0:
192,192,156618,1,0,0:0:0:0:
448,192,156692,1,0,0:0:0:0:
320,192,156766,1,0,0:0:0:0:
192,192,156840,1,0,0:0:0:0:
448,192,156914,1,0,0:0:0:0:
64,192,156914,128,0,157247:0:0:0:0:
320,192,156914,1,0,0:0:0:0:
448,192,157247,128,0,157580:0:0:0:0:
320,192,157247,1,0,0:0:0:0:
192,192,157247,1,0,0:0:0:0:
64,192,157580,1,0,0:0:0:0:
192,192,157580,1,0,0:0:0:0:
320,192,157580,128,0,157803:0:0:0:0:
192,192,157803,1,0,0:0:0:0:
448,192,157803,1,0,0:0:0:0:
64,192,157803,128,0,158247:0:0:0:0:
192,192,158247,1,0,0:0:0:0:
320,192,158247,1,0,0:0:0:0:
448,192,158247,128,0,158692:0:0:0:0:
192,192,158469,1,0,0:0:0:0:
192,192,158580,1,0,0:0:0:0:
64,192,158692,1,0,0:0:0:0:
320,192,158692,1,0,0:0:0:0:
192,192,158766,1,0,0:0:0:0:
320,192,158840,1,0,0:0:0:0:
192,192,158914,1,0,0:0:0:0:
64,192,158914,1,0,0:0:0:0:
320,192,158988,1,0,0:0:0:0:
448,192,159062,1,0,0:0:0:0:
64,192,159136,1,0,0:0:0:0:
192,192,159210,1,0,0:0:0:0:
320,192,159284,1,0,0:0:0:0:
192,192,159358,1,0,0:0:0:0:
64,192,159358,1,0,0:0:0:0:
320,192,159432,1,0,0:0:0:0:
448,192,159506,1,0,0:0:0:0:
64,192,159580,1,0,0:0:0:0:
192,192,159655,1,0,0:0:0:0:
320,192,159729,1,0,0:0:0:0:
192,192,159803,1,0,0:0:0:0:
64,192,159803,1,0,0:0:0:0:
320,192,159877,1,0,0:0:0:0:
448,192,159951,1,0,0:0:0:0:
64,192,160025,1,0,0:0:0:0:
192,192,160099,1,0,0:0:0:0:
320,192,160173,1,0,0:0:0:0:
192,192,160247,1,0,0:0:0:0:
64,192,160247,1,0,0:0:0:0:
320,192,160321,1,0,0:0:0:0:
448,192,160395,1,0,0:0:0:0:
192,192,160469,1,0,0:0:0:0:
64,192,160469,128,0,160914:0:0:0:0:
192,192,160692,1,0,0:0:0:0:
448,192,160692,1,0,0:0:0:0:
320,192,160803,1,0,0:0:0:0:
448,192,160914,1,0,0:0:0:0:
192,192,160914,1,0,0:0:0:0:
320,192,160969,1,0,0:0:0:0:
192,192,161025,1,0,0:0:0:0:
64,192,161080,1,0,0:0:0:0:
320,192,161136,1,0,0:0:0:0:
448,192,161136,128,0,161247:0:0:0:0:
192,192,161247,128,0,161358:0:0:0:0:
448,192,161358,128,0,161469:0:0:0:0:
320,192,161358,1,0,0:0:0:0:
64,192,161469,128,0,161580:0:0:0:0:
320,192,161580,128,0,161692:0:0:0:0:
192,192,161580,1,0,0:0:0:0:
64,192,161692,128,0,161803:0:0:0:0:
192,192,161803,128,0,161914:0:0:0:0:
320,192,161803,1,0,0:0:0:0:
448,192,161914,128,0,162025:0:0:0:0:
64,192,162025,128,0,162247:0:0:0:0:
192,192,162025,1,0,0:0:0:0:
448,192,162247,128,0,162543:0:0:0:0:
192,192,162247,1,0,0:0:0:0:
192,192,162395,1,0,0:0:0:0:
64,192,162395,1,0,0:0:0:0:
320,192,162543,1,0,0:0:0:0:
448,192,162692,128,0,162988:0:0:0:0:
192,192,162692,1,0,0:0:0:0:
64,192,162840,1,0,0:0:0:0:
320,192,162840,1,0,0:0:0:0:
192,192,162988,1,0,0:0:0:0:
64,192,163136,128,0,163284:0:0:0:0:
320,192,163136,1,0,0:0:0:0:
192,192,163284,128,0,163432:0:0:0:0:
448,192,163284,1,0,0:0:0:0:
320,192,163432,128,0,163580:0:0:0:0:
64,192,163432,1,0,0:0:0:0:
448,192,163580,128,0,163729:0:0:0:0:
192,192,163580,1,0,0:0:0:0:
320,192,163729,128,0,163877:0:0:0:0:
64,192,163729,1,0,0:0:0:0:
192,192,163877,128,0,164025:0:0:0:0:
448,192,163877,1,0,0:0:0:0:
64,192,164025,128,0,164358:0:0:0:0:
320,192,164247,1,0,0:0:0:0:
448,192,164247,1,0,0:0:0:0:
192,192,164358,128,0,165136:0:0:0:0:
320,192,164469,1,0,0:0:0:0:
448,192,164469,1,0,0:0:0:0:
64,192,164692,1,0,0:0:0:0:
320,192,164692,1,0,0:0:0:0:
448,192,164803,1,0,0:0:0:0:
320,192,164914,1,0,0:0:0:0:
64,192,164914,1,0,0:0:0:0:
64,192,165136,1,0,0:0:0:0:
448,192,165136,128,0,165247:0:0:0:0:
320,192,165247,1,0,0:0:0:0:
192,192,165358,1,0,0:0:0:0:
64,192,165469,1,0,0:0:0:0:
320,192,165580,128,0,165803:0:0:0:0:
192,192,165580,1,0,0:0:0:0:
448,192,165803,1,0,0:0:0:0:
64,192,165803,128,0,166692:0:0:0:0:
192,192,166025,1,0,0:0:0:0:
320,192,166025,1,0,0:0:0:0:
448,192,166136,1,0,0:0:0:0:
192,192,166247,1,0,0:0:0:0:
320,192,166247,1,0,0:0:0:0:
192,192,166469,1,0,0:0:0:0:
448,192,166469,1,0,0:0:0:0:
320,192,166580,1,0,0:0:0:0:
192,192,166692,1,0,0:0:0:0:
448,192,166692,1,0,0:0:0:0:
320,192,166766,1,0,0:0:0:0:
192,192,166840,1,0,0:0:0:0:
64,192,166914,1,0,0:0:0:0:
448,192,166914,1,0,0:0:0:0:
320,192,166988,1,0,0:0:0:0:
192,192,167062,1,0,0:0:0:0:
448,192,167136,1,0,0:0:0:0:
320,192,167210,1,0,0:0:0:0:
192,192,167284,1,0,0:0:0:0:
64,192,167358,1,0,0:0:0:0:
448,192,167358,1,0,0:0:0:0:
320,192,167414,1,0,0:0:0:0:
192,192,167469,1,0,0:0:0:0:
64,192,167580,1,0,0:0:0:0:
320,192,167580,128,0,167692:0:0:0:0:
448,192,167692,128,0,167914:0:0:0:0:
64,192,167803,1,0,0:0:0:0:
320,192,167803,1,0,0:0:0:0:
192,192,167914,128,0,168025:0:0:0:0:
64,192,168025,128,0,168247:0:0:0:0:
320,192,168025,1,0,0:0:0:0:
448,192,168136,1,0,0:0:0:0:
192,192,168247,128,0,168358:0:0:0:0:
320,192,168247,1,0,0:0:0:0:
448,192,168358,128,0,168469:0:0:0:0:
192,192,168469,1,0,0:0:0:0:
64,192,168469,128,0,169136:0:0:0:0:
192,192,168692,1,0,0:0:0:0:
320,192,168692,1,0,0:0:0:0:
448,192,168803,1,0,0:0:0:0:
192,192,168914,1,0,0:0:0:0:
320,192,168914,1,0,0:0:0:0:
448,192,169136,1,0,0:0:0:0:
320,192,169136,128,0,169247:0:0:0:0:
64,192,169247,128,0,169358:0:0:0:0:
192,192,169358,1,0,0:0:0:0:
448,192,169358,128,0,169469:0:0:0:0:
320,192,169469,128,0,169580:0:0:0:0:
64,192,169580,128,0,169692:0:0:0:0:
448,192,169580,1,0,0:0:0:0:
192,192,169692,128,0,169803:0:0:0:0:
320,192,169803,128,0,169914:0:0:0:0:
448,192,169803,1,0,0:0:0:0:
64,192,169914,128,0,170025:0:0:0:0:
448,192,170025,128,0,170136:0:0:0:0:
192,192,170025,1,0,0:0:0:0:
320,192,170136,128,0,170247:0:0:0:0:
192,192,170247,1,0,0:0:0:0:
64,192,170247,128,0,170414:0:0:0:0:
192,192,170414,128,0,170580:0:0:0:0:
448,192,170469,1,0,0:0:0:0:
320,192,170469,1,0,0:0:0:0:
64,192,170580,128,0,170692:0:0:0:0:
448,192,170692,128,0,170858:0:0:0:0:
320,192,170692,1,0,0:0:0:0:
64,192,170858,128,0,171025:0:0:0:0:
320,192,170914,1,0,0:0:0:0:
448,192,170914,1,0,0:0:0:0:
192,192,171025,128,0,171136:0:0:0:0:
64,192,171136,128,0,172914:0:0:0:0:
448,192,171136,1,0,0:0:0:0:
320,192,171358,1,0,0:0:0:0:
448,192,171358,1,0,0:0:0:0:
192,192,171469,1,0,0:0:0:0:
320,192,171580,1,0,0:0:0:0:
448,192,171580,1,0,0:0:0:0:
320,192,171803,1,0,0:0:0:0:
192,192,171803,1,0,0:0:0:0:
448,192,171914,1,0,0:0:0:0:
320,192,172025,1,0,0:0:0:0:
192,192,172025,1,0,0:0:0:0:
320,192,172247,1,0,0:0:0:0:
448,192,172247,1,0,0:0:0:0:
192,192,172358,1,0,0:0:0:0:
320,192,172469,1,0,0:0:0:0:
448,192,172469,1,0,0:0:0:0:
320,192,172692,1,0,0:0:0:0:
192,192,172692,1,0,0:0:0:0:
448,192,172803,1,0,0:0:0:0:
192,192,172914,128,0,173247:0:0:0:0:
320,192,172914,1,0,0:0:0:0:
448,192,172914,1,0,0:0:0:0:
320,192,173247,128,0,173580:0:0:0:0:
64,192,173247,1,0,0:0:0:0:
448,192,173247,1,0,0:0:0:0:
448,192,173580,128,0,173803:0:0:0:0:
192,192,173580,1,0,0:0:0:0:
64,192,173580,1,0,0:0:0:0:
64,192,173803,128,0,174136:0:0:0:0:
192,192,173803,1,0,0:0:0:0:
320,192,173803,1,0,0:0:0:0:
320,192,174692,128,0,174914:0:0:0:0:
64,192,174692,1,0,0:0:0:0:
192,192,174692,1,0,0:0:0:0:
64,192,174914,1,0,0:0:0:0:
192,192,174914,1,0,0:0:0:0:
192,192,175025,1,0,0:0:0:0:
320,192,175025,1,0,0:0:0:0:
448,192,175136,1,0,0:0:0:0:
64,192,175136,128,0,175358:0:0:0:0:
320,192,175247,1,0,0:0:0:0:
192,192,175358,1,0,0:0:0:0:
448,192,175358,128,0,175580:0:0:0:0:
320,192,175469,1,0,0:0:0:0:
192,192,175580,1,0,0:0:0:0:
64,192,175580,128,0,175803:0:0:0:0:
320,192,175692,1,0,0:0:0:0:
192,192,175803,128,0,176025:0:0:0:0:
448,192,175803,1,0,0:0:0:0:
64,192,175914,1,0,0:0:0:0:
320,192,176025,128,0,176247:0:0:0:0:
448,192,176025,1,0,0:0:0:0:
192,192,176136,1,0,0:0:0:0:
448,192,176247,128,0,176469:0:0:0:0:
64,192,176247,1,0,0:0:0:0:
192,192,176358,1,0,0:0:0:0:
320,192,176469,128,0,176692:0:0:0:0:
64,192,176469,1,0,0:0:0:0:
64,192,176692,1,0,0:0:0:0:
192,192,176692,1,0,0:0:0:0:
192,192,176803,1,0,0:0:0:0:
320,192,176803,1,0,0:0:0:0:
448,192,176914,1,0,0:0:0:0:
64,192,176914,128,0,177136:0:0:0:0:
320,192,177025,1,0,0:0:0:0:
192,192,177136,1,0,0:0:0:0:
448,192,177136,128,0,177358:0:0:0:0:
320,192,177247,1,0,0:0:0:0:
192,192,177358,1,0,0:0:0:0:
64,192,177358,128,0,177580:0:0:0:0:
320,192,177469,1,0,0:0:0:0:
192,192,177580,128,0,177803:0:0:0:0:
448,192,177580,1,0,0:0:0:0:
64,192,177692,1,0,0:0:0:0:
320,192,177803,128,0,178025:0:0:0:0:
448,192,177803,1,0,0:0:0:0:
192,192,177914,1,0,0:0:0:0:
448,192,178025,128,0,178247:0:0:0:0:
64,192,178025,1,0,0:0:0:0:
320,192,178136,1,0,0:0:0:0:
64,192,178247,1,0,0:0:0:0:
192,192,178247,128,0,178469:0:0:0:0:
320,192,178469,1,0,0:0:0:0:
448,192,178469,1,0,0:0:0:0:
192,192,178580,1,0,0:0:0:0:
320,192,178580,1,0,0:0:0:0:
448,192,178692,128,0,178914:0:0:0:0:
64,192,178692,1,0,0:0:0:0:
192,192,178803,1,0,0:0:0:0:
64,192,178914,128,0,179136:0:0:0:0:
320,192,178914,1,0,0:0:0:0:
192,192,179025,1,0,0:0:0:0:
448,192,179136,128,0,179358:0:0:0:0:
320,192,179136,1,0,0:0:0:0:
192,192,179247,1,0,0:0:0:0:
64,192,179358,1,0,0:0:0:0:
320,192,179358,128,0,179580:0:0:0:0:
448,192,179469,1,0,0:0:0:0:
64,192,179580,1,0,0:0:0:0:
192,192,179580,128,0,179803:0:0:0:0:
320,192,179692,1,0,0:0:0:0:
448,192,179803,1,0,0:0:0:0:
64,192,179803,128,0,180025:0:0:0:0:
320,192,179914,1,0,0:0:0:0:
192,192,180025,1,0,0:0:0:0:
320,192,180025,1,0,0:0:0:0:
448,192,180025,1,0,0:0:0:0:
192,192,180136,128,0,180358:0:0:0:0:
64,192,180136,128,0,180358:0:0:0:0:
320,192,180358,1,0,0:0:0:0:
448,192,180358,1,0,0:0:0:0:
192,192,180469,128,0,180692:0:0:0:0:
320,192,180469,128,0,180692:0:0:0:0:
64,192,180692,1,0,0:0:0:0:
448,192,180692,1,0,0:0:0:0:
448,192,180914,128,0,181358:0:0:0:0:
64,192,180914,1,0,0:0:0:0:
192,192,180914,1,0,0:0:0:0:
192,192,181358,1,0,0:0:0:0:
320,192,181358,1,0,0:0:0:0:
64,192,181358,128,0,181803:0:0:0:0:
192,192,181580,1,0,0:0:0:0:
320,192,181580,1,0,0:0:0:0:
320,192,181803,1,0,0:0:0:0:
448,192,181803,1,0,0:0:0:0:
192,192,181803,128,0,182025:0:0:0:0:
320,192,182025,1,0,0:0:0:0:
448,192,182025,1,0,0:0:0:0:
192,192,182136,1,0,0:0:0:0:
320,192,182136,1,0,0:0:0:0:
448,192,182247,128,0,182469:0:0:0:0:
64,192,182247,1,0,0:0:0:0:
192,192,182358,1,0,0:0:0:0:
64,192,182469,128,0,182692:0:0:0:0:
320,192,182469,1,0,0:0:0:0:
192,192,182580,1,0,0:0:0:0:
448,192,182692,128,0,182914:0:0:0:0:
320,192,182692,1,0,0:0:0:0:
192,192,182803,1,0,0:0:0:0:
64,192,182914,1,0,0:0:0:0:
320,192,182914,128,0,183136:0:0:0:0:
448,192,183025,1,0,0:0:0:0:
64,192,183136,1,0,0:0:0:0:
192,192,183136,128,0,183358:0:0:0:0:
320,192,183247,1,0,0:0:0:0:
448,192,183358,1,0,0:0:0:0:
64,192,183358,128,0,183580:0:0:0:0:
320,192,183469,1,0,0:0:0:0:
448,192,183580,1,0,0:0:0:0:
192,192,183580,128,0,183803:0:0:0:0:
320,192,183803,1,0,0:0:0:0:
448,192,183803,1,0,0:0:0:0:
192,192,183914,1,0,0:0:0:0:
320,192,183914,1,0,0:0:0:0:
448,192,184025,128,0,184247:0:0:0:0:
64,192,184025,1,0,0:0:0:0:
192,192,184136,1,0,0:0:0:0:
64,192,184247,128,0,184469:0:0:0:0:
320,192,184247,1,0,0:0:0:0:
192,192,184358,1,0,0:0:0:0:
448,192,184469,128,0,184692:0:0:0:0:
320,192,184469,1,0,0:0:0:0:
192,192,184580,1,0,0:0:0:0:
64,192,184692,1,0,0:0:0:0:
320,192,184692,128,0,184914:0:0:0:0:
448,192,184803,1,0,0:0:0:0:
64,192,184914,1,0,0:0:0:0:
192,192,184914,128,0,185136:0:0:0:0:
320,192,185025,1,0,0:0:0:0:
448,192,185136,1,0,0:0:0:0:
64,192,185136,128,0,185358:0:0:0:0:
192,192,185247,1,0,0:0:0:0:
320,192,185358,128,0,185580:0:0:0:0:
448,192,185358,1,0,0:0:0:0:
64,192,185580,1,0,0:0:0:0:
192,192,185580,1,0,0:0:0:0:
192,192,185692,1,0,0:0:0:0:
320,192,185692,1,0,0:0:0:0:
448,192,185803,1,0,0:0:0:0:
64,192,185803,128,0,186025:0:0:0:0:
320,192,185914,1,0,0:0:0:0:
192,192,186025,1,0,0:0:0:0:
448,192,186025,128,0,186247:0:0:0:0:
320,192,186136,1,0,0:0:0:0:
192,192,186247,1,0,0:0:0:0:
64,192,186247,128,0,186469:0:0:0:0:
320,192,186358,1,0,0:0:0:0:
192,192,186469,128,0,186692:0:0:0:0:
448,192,186469,1,0,0:0:0:0:
64,192,186580,1,0,0:0:0:0:
320,192,186692,128,0,186914:0:0:0:0:
448,192,186692,1,0,0:0:0:0:
192,192,186803,1,0,0:0:0:0:
448,192,186914,128,0,187136:0:0:0:0:
64,192,186914,1,0,0:0:0:0:
192,192,187025,1,0,0:0:0:0:
64,192,187136,1,0,0:0:0:0:
320,192,187136,128,0,187358:0:0:0:0:
448,192,187358,128,0,187469:0:0:0:0:
192,192,187469,1,0,0:0:0:0:
320,192,187469,128,0,187692:0:0:0:0:
64,192,187692,128,0,187803:0:0:0:0:
192,192,187803,128,0,187914:0:0:0:0:
448,192,187803,1,0,0:0:0:0:
320,192,187914,1,0,0:0:0:0:
64,192,188025,1,0,0:0:0:0:
448,192,188025,128,0,188136:0:0:0:0:
192,192,188136,1,0,0:0:0:0:
320,192,188173,1,0,0:0:0:0:
448,192,188210,1,0,0:0:0:0:
64,192,188247,128,0,188469:0:0:0:0:
192,192,188469,128,0,188803:0:0:0:0:
320,192,188469,1,0,0:0:0:0:
448,192,188803,1,0,0:0:0:0:
320,192,188840,1,0,0:0:0:0:
192,192,188877,1,0,0:0:0:0:
448,192,188914,128,0,189192:0:0:0:0:
64,192,188914,1,0,0:0:0:0:
64,192,189233,1,0,0:0:0:0:
192,192,189303,1,0,0:0:0:0:
320,192,189358,1,0,0:0:0:0:
192,192,189432,1,0,0:0:0:0:
64,192,189506,1,0,0:0:0:0:
448,192,189580,1,0,0:0:0:0:
320,192,189655,1,0,0:0:0:0:
192,192,189729,1,0,0:0:0:0:
64,192,189803,1,0,0:0:0:0:
320,192,189877,1,0,0:0:0:0:
192,192,189951,1,0,0:0:0:0:
448,192,190025,1,0,0:0:0:0:
192,192,190099,1,0,0:0:0:0:
320,192,190173,1,0,0:0:0:0:
64,192,190247,1,0,0:0:0:0:
320,192,190321,1,0,0:0:0:0:
192,192,190395,1,0,0:0:0:0:
448,192,190469,1,0,0:0:0:0:
320,192,190543,1,0,0:0:0:0:
64,192,190618,1,0,0:0:0:0:
320,192,190692,128,0,190914:0:0:0:0:
192,192,190692,1,0,0:0:0:0:
448,192,190692,1,0,0:0:0:0:
448,192,190914,128,0,191025:0:0:0:0:
192,192,191025,1,0,0:0:0:0:
320,192,191025,128,0,191247:0:0:0:0:
64,192,191025,1,0,0:0:0:0:
64,192,191247,128,0,191358:0:0:0:0:
448,192,191358,1,0,0:0:0:0:
192,192,191358,128,0,191580:0:0:0:0:
320,192,191358,1,0,0:0:0:0:
64,192,191580,1,0,0:0:0:0:
320,192,191580,1,0,0:0:0:0:
448,192,191580,128,0,191692:0:0:0:0:
192,192,191692,1,0,0:0:0:0:
320,192,191729,1,0,0:0:0:0:
448,192,191766,1,0,0:0:0:0:
64,192,191803,128,0,191914:0:0:0:0:
192,192,192025,128,0,192469:0:0:0:0:
320,192,192025,1,0,0:0:0:0:
448,192,192025,1,0,0:0:0:0:
