osu file format v14

[General]
AudioFilename: Delrio.mp3
AudioLeadIn: 0
PreviewTime: 66025
Countdown: 0
SampleSet: Soft
StackLeniency: 0.2
Mode: 0
LetterboxInBreaks: 1
WidescreenStoryboard: 0

[Editor]
Bookmarks: 37803,52025,108126,109904,111126,111682
DistanceSpacing: 1
BeatDivisor: 4
GridSize: 4
TimelineZoom: 2.2

[Metadata]
Title:Delrio
TitleUnicode:Delrio
Artist:MiddleIsland
ArtistUnicode:MiddleIsland
Creator:Dustice
Version:From the River
Source:
Tags:弦奏無彩色 String Achromatic Instrumental Nakajima Misaki
BeatmapID:335041
BeatmapSetID:133440

[Difficulty]
HPDrainRate:5
CircleSize:4
OverallDifficulty:8.5
ApproachRate:9.8
SliderMultiplier:1.4
SliderTickRate:1

[Events]
//Background and Video events
0,0,"04 - AbadonBane NA.jpg",0,0
//Break Periods
2,68241,72854
2,104660,106353
2,137569,142182
//Storyboard Layer 0 (Background)
//Storyboard Layer 1 (Fail)
//Storyboard Layer 2 (Pass)
//Storyboard Layer 3 (Foreground)
//Storyboard Sound Samples

[TimingPoints]
2169,285.714285714286,4,2,1,25,1,0
2464,-133.333333333333,4,2,1,25,0,0
3311,283.822138126774,4,2,1,25,1,0
4446,283.018867924528,4,2,1,25,1,0
4446,-133.333333333333,4,2,1,25,0,0
5578,288.461538461539,4,2,1,25,1,0
6731,-133.333333333333,4,2,1,25,0,0
7885,295.566502463054,4,2,1,25,1,0
11431,295.566502463054,4,2,1,25,1,0
13795,306.122448979592,4,2,1,25,1,0
15019,326.086956521739,4,2,1,25,1,0
16323,301.507537688442,4,2,1,25,1,0
18735,298.507462686567,4,2,1,25,1,0
21123,315.789473684211,4,2,1,25,1,0
23120,230.769230769231,4,2,1,50,1,0
23581,222.222222222222,4,2,1,80,1,0
23581,-76.9230769230769,4,2,29,80,0,0
23636,-76.9230769230769,4,2,9,80,0,0
28914,-76.9230769230769,4,2,29,80,0,0
29803,-153.846153846154,4,2,29,80,0,0
30803,-76.9230769230769,4,2,9,80,0,0
36025,-76.9230769230769,4,2,29,80,0,0
37358,-100,4,2,9,80,0,0
37803,-100,4,2,29,80,0,0
37858,-100,4,2,59,80,0,0
42469,-100,4,2,39,80,0,0
42525,-100,4,2,59,80,0,0
50247,-100,4,2,29,80,0,0
51580,-200,4,2,1,80,0,0
52025,-100,4,2,29,80,0,0
52080,-100,4,2,49,80,0,0
54914,-100,4,2,19,80,0,0
55358,-100,4,2,49,80,0,0
56692,-100,4,2,99,80,0,0
56747,-100,4,2,49,80,0,0
59136,-100,4,2,29,80,0,0
59192,-100,4,2,49,80,0,0
63580,-133.333333333333,4,2,49,80,0,0
63803,-133.333333333333,4,2,99,80,0,0
64025,-133.333333333333,4,2,49,80,0,0
64247,-133.333333333333,4,2,9,80,0,0
66247,-133.333333333333,4,2,29,80,0,0
67580,230.769230769231,4,2,1,80,1,0
67680,-100,4,2,29,80,0,0
73349,222.222222222222,4,2,29,80,1,0
75349,-100,4,2,49,80,0,0
82237,-100,4,2,29,80,0,0
82293,-100,4,2,49,80,0,0
89348,-100,4,2,29,80,0,0
89404,-100,4,2,49,80,0,0
96460,-100,4,2,29,80,0,0
96515,-100,4,2,49,80,0,0
97348,-100,4,2,19,80,0,0
98237,-100,4,2,49,80,0,0
101793,-100,4,2,29,80,0,0
103126,-100,4,2,39,80,0,0
103571,-100,4,2,29,80,0,0
107126,-166.666666666667,4,2,39,80,0,0
110904,-166.666666666667,4,2,1,80,0,0
111015,-166.666666666667,4,2,39,80,0,0
111793,-166.666666666667,4,2,69,80,0,0
111904,-166.666666666667,4,2,39,80,0,0
114015,-166.666666666667,4,2,1,80,0,0
114126,-166.666666666667,4,2,39,80,0,0
114460,-166.666666666667,4,2,39,80,0,0
114515,-166.666666666667,4,2,39,80,0,0
115348,-166.666666666667,4,2,39,80,0,0
115404,-166.666666666667,4,2,39,80,0,0
117348,-166.666666666667,4,2,59,80,0,0
119571,-166.666666666667,4,2,29,80,0,0
120904,-200,4,2,29,80,0,0
121348,-100,4,2,29,80,0,0
121404,-100,4,2,49,80,0,0
124237,-100,4,2,19,80,0,0
124904,-100,4,2,49,80,0,0
126015,-100,4,2,99,80,0,0
126071,-100,4,2,49,80,0,0
128460,-100,4,2,29,80,0,0
128515,-100,4,2,49,80,0,0
132904,-133.333333333333,4,2,49,80,0,0
133126,-133.333333333333,4,2,99,80,0,0
133348,-133.333333333333,4,2,49,80,0,0
133571,-133.333333333333,4,2,9,80,0,0
135571,-133.333333333333,4,2,29,80,0,0
136908,230.769230769231,4,2,29,80,1,0
142677,222.222222222222,4,2,29,80,1,0
144454,-100,4,2,29,80,0,0
144510,-100,4,2,49,80,0,0
151565,-100,4,2,29,80,0,0
151621,-100,4,2,49,80,0,0
152677,-100,4,2,19,80,0,0
153343,-100,4,2,49,80,0,0
156899,-100,4,2,29,80,0,0
158676,-100,4,2,29,60,0,0
158732,-100,4,2,49,80,0,0
160676,-100,4,2,99,80,0,0
160732,-100,4,2,49,80,0,0
165788,-100,4,2,29,80,0,0
165843,-100,4,2,49,80,0,0
172899,-100,4,2,29,80,0,0
172954,-100,4,2,49,80,0,0
173232,-100,4,2,29,80,0,0
173288,-100,4,2,49,80,0,0
173565,-100,4,2,29,80,0,0
173788,-1000,4,2,29,80,0,0
173843,-1000,4,2,1,5,0,0
174399,-76.9230769230769,4,2,1,5,0,0
174676,-76.9230769230769,4,2,29,80,0,0
174732,-76.9230769230769,4,2,49,80,0,0
180010,-76.9230769230769,4,2,29,80,0,0
180899,-153.846153846153,4,2,29,80,0,0
181788,-76.9230769230769,4,2,29,80,0,0
181843,-76.9230769230769,4,2,49,80,0,0
187121,-76.9230769230769,4,2,29,80,0,0
188676,-76.9230769230769,4,2,39,80,0,0
188899,-76.9230769230769,4,2,29,80,0,0

[Colours]
Combo1 : 56,82,120
Combo2 : 255,123,60
Combo3 : 3,148,130

[HitObjects]
236,168,2169,5,0,0:0:0:0:
232,180,2455,1,0,0:0:0:0:
228,192,2526,1,0,0:0:0:0:
224,204,2597,2,0,L|248:320,1,105.000004005432
264,320,3026,2,0,P|328:296|372:312,1,105.000004005432
436,240,3878,5,0,0:0:0:0:
440,228,4446,5,0,0:0:0:0:
444,216,4729,1,0,0:0:0:0:
448,204,4800,1,0,0:0:0:0:
452,192,4870,2,0,L|428:76,1,105.000004005432
412,76,5295,2,0,P|348:100|304:84,1,105.000004005432
216,128,6731,5,0,0:0:0:0:
160,208,7020,1,0,0:0:0:0:
156,220,7092,1,0,0:0:0:0:
152,232,7164,2,0,L|244:304|244:304,1,105.000004005432
316,272,7597,2,0,L|224:200|224:200,1,105.000004005432
216,128,8476,5,0,0:0:0:0:
308,202,8771,2,0,L|316:276,2,70
308,202,11136,6,0,P|348:142|428:146,1,140
396,224,11874,6,0,P|356:284|276:280,1,140
293,288,12613,1,0,0:0:0:0:
293,288,13204,6,0,L|237:296,4,35
295,270,13795,5,0,0:0:0:0:
295,252,14407,1,0,0:0:0:0:
296,234,15019,1,0,0:0:0:0:
296,216,15997,5,0,0:0:0:0:
296,216,16160,1,0,0:0:0:0:
296,216,16323,2,0,P|239:268|111:233,1,210
199,166,17227,2,0,L|220:25|220:25,1,140
233,24,17981,2,0,P|307:88|427:49,1,210
487,130,18735,5,0,0:0:0:0:
500,144,19182,2,0,L|491:289|491:289,2,140
396,172,19929,2,0,B|335:254|247:201|247:201,2,140
308,116,20675,1,0,0:0:0:0:
272,211,20973,6,0,L|252:163,1,35
265,157,21123,2,0,P|242:278|157:303,1,210
172,200,22070,2,0,L|144:40,1,140
147,62,23120,5,0,0:0:0:0:
181,64,23177,1,0,0:0:0:0:
214,73,23235,1,0,0:0:0:0:
242,94,23293,1,0,0:0:0:0:
262,122,23350,2,0,L|241:194,1,70
297,267,23581,2,0,P|228:286|150:216,1,181.999991668702,6|8,0:0|0:0,0:0:0:0:
107,138,23914,1,8,0:0:0:0:
193,108,24025,2,0,P|262:89|340:159,1,181.999991668702,2|8,0:0|0:0,0:0:0:0:
396,226,24358,5,0,0:0:0:0:
306,240,24469,2,0,P|300:296|307:367,1,90.9999958343508,2|0,0:0|0:0,0:0:0:0:
207,237,24692,2,0,P|148:228|86:237,1,90.9999958343508,8|0,0:0|0:0,0:0:0:0:
206,144,24914,2,8,P|212:84|205:17,1,90.9999958343508,2|0,0:0|0:0,0:0:0:0:
305,147,25136,2,0,P|360:156|426:147,1,90.9999958343508,8|0,0:0|0:0,0:0:0:0:
306,240,25358,5,0,0:0:0:0:
306,240,25414,1,0,0:0:0:0:
306,240,25469,1,0,0:0:0:0:
238,300,25580,1,8,0:0:0:0:
165,244,25692,1,8,0:0:0:0:
76,221,25803,2,0,P|98:152|81:101,1,90.9999958343508,2|0,0:0|0:0,0:0:0:0:
143,57,26025,5,8,0:0:0:0:
164,65,26080,1,0,0:0:0:0:
185,71,26136,1,0,0:0:0:0:
207,76,26192,1,0,0:0:0:0:
229,79,26247,2,0,L|329:76,1,90.9999958343508,2|0,0:0|0:0,0:0:0:0:
190,171,26469,2,0,L|90:174,1,90.9999958343508,8|0,0:0|0:0,0:0:0:0:
283,158,26692,5,0,0:0:0:0:
338,230,26803,1,0,0:0:0:0:
264,282,26914,1,8,0:0:0:0:
346,320,27025,1,0,0:0:0:0:
346,320,27080,1,0,0:0:0:0:
346,320,27136,2,0,P|411:284|410:176,1,181.999991668702,0|8,0:0|0:0,0:0:0:0:
395,96,27469,1,8,0:0:0:0:
310,130,27580,2,0,P|245:166|246:274,2,181.999991668702,2|8|0,0:0|0:0|0:0,0:0:0:0:
381,187,28136,2,0,L|387:316,2,90.9999958343508,0|8|0,0:0|0:0|0:0,0:0:0:0:
310,130,28469,6,8,P|245:166|246:274,1,181.999991668702,2|10,0:0|0:0,0:0:0:0:
310,130,28914,1,6,0:0:0:0:
381,187,29025,1,2,0:0:0:0:
151,180,29247,5,6,0:0:0:0:
105,258,29358,1,2,0:0:0:0:
279,310,29580,1,6,0:0:0:0:
310,130,29803,6,0,P|240:121|135:220,2,181.999991668702,6|6|6,0:0|0:0|0:0,0:0:0:0:
366,202,30803,1,0,0:0:0:0:
309,273,30914,1,8,0:0:0:0:
229,229,31025,1,8,0:0:0:0:
138,227,31136,2,0,P|39:236|24:224,1,90.9999958343508,2|0,0:0|0:0,0:0:0:0:
82,157,31358,5,8,0:0:0:0:
82,157,31414,1,0,0:0:0:0:
82,157,31469,1,0,0:0:0:0:
203,146,31580,2,0,L|175:48,1,90.9999958343508,2|0,0:0|0:0,0:0:0:0:
320,203,31803,2,0,L|363:116,1,90.9999958343508,8|0,0:0|0:0,0:0:0:0:
170,238,32025,2,8,L|107:164,1,90.9999958343508,2|0,0:0|0:0,0:0:0:0:
331,301,32247,2,0,L|420:244,1,90.9999958343508,10|0,0:0|0:0,0:0:0:0:
320,203,32469,5,2,0:0:0:0:
320,203,32525,1,0,0:0:0:0:
320,203,32580,1,0,0:0:0:0:
269,126,32692,1,8,0:0:0:0:
191,172,32803,1,8,0:0:0:0:
101,157,32914,2,0,P|116:225|162:256,1,90.9999958343508,2|0,0:0|0:0,0:0:0:0:
191,172,33136,1,8,0:0:0:0:
191,172,33192,1,0,0:0:0:0:
191,172,33247,1,0,0:0:0:0:
269,126,33358,6,0,L|300:33,1,90.9999958343508,2|0,0:0|0:0,0:0:0:0:
320,203,33580,2,0,L|422:242,1,90.9999958343508,8|0,0:0|0:0,0:0:0:0:
241,249,33803,2,8,L|210:342,1,90.9999958343508,2|0,0:0|0:0,0:0:0:0:
190,172,34025,2,0,L|88:133,1,90.9999958343508,8|0,0:0|0:0,0:0:0:0:
101,230,34247,1,0,0:0:0:0:
114,248,34303,1,0,0:0:0:0:
129,264,34358,1,0,0:0:0:0:
148,276,34414,1,0,0:0:0:0:
168,284,34469,2,0,L|249:348,1,90.9999958343508,8|8,0:0|0:0,0:0:0:0:
318,293,34692,5,2,0:0:0:0:
395,340,34803,1,0,0:0:0:0:
470,289,34914,1,8,0:0:0:0:
470,289,34969,1,0,0:0:0:0:
470,289,35025,1,0,0:0:0:0:
470,198,35136,2,8,P|406:173|380:62,2,181.999991668702,10|8|2,0:0|0:0|0:0,0:0:0:0:
470,289,35803,2,0,P|368:304|272:256,1,181.999991668702,10|6,0:0|0:0,0:0:0:0:
302,105,36247,5,0,0:0:0:0:
292,196,36359,1,6,0:0:0:0:
164,288,36580,5,0,0:0:0:0:
158,197,36691,1,6,0:0:0:0:
414,240,36914,1,6,0:0:0:0:
402,259,36969,1,0,0:0:0:0:
383,272,37025,1,0,0:0:0:0:
362,282,37080,1,0,0:0:0:0:
340,289,37136,1,0,0:0:0:0:
317,290,37192,1,0,0:0:0:0:
294,288,37247,1,0,0:0:0:0:
271,282,37303,1,0,0:0:0:0:
256,272,37358,6,0,P|132:249|118:153,1,210
176,116,37803,2,0,P|239:72|317:96,1,140,6|8,0:0|0:0,0:0:0:0:
305,172,38136,1,8,0:0:0:0:
339,256,38247,2,0,P|276:300|198:276,1,140,2|0,0:0|0:0,0:0:0:0:
133,324,38580,1,0,0:0:0:0:
85,245,38692,1,2,0:0:0:0:
127,164,38803,1,0,0:0:0:0:
87,82,38914,1,8,0:0:0:0:
87,82,39136,5,10,0:0:0:0:
104,79,39192,1,0,0:0:0:0:
121,78,39247,1,0,0:0:0:0:
138,79,39303,1,0,0:0:0:0:
154,83,39358,1,0,0:0:0:0:
170,89,39414,1,0,0:0:0:0:
184,97,39469,1,0,0:0:0:0:
197,108,39525,1,0,0:0:0:0:
209,119,39580,2,0,P|275:163|345:153,1,140,10|8,0:0|0:0,0:0:0:0:
399,95,39914,5,8,0:0:0:0:
416,184,40025,2,0,P|432:249|395:314,1,140,2|0,0:0|0:0,0:0:0:0:
313,341,40358,1,0,0:0:0:0:
289,253,40469,1,2,0:0:0:0:
208,294,40580,1,0,0:0:0:0:
198,202,40692,1,0,0:0:0:0:
117,244,40803,1,0,0:0:0:0:
104,153,40914,1,10,0:0:0:0:
104,153,41136,5,0,0:0:0:0:
104,153,41358,1,2,0:0:0:0:
116,140,41414,1,0,0:0:0:0:
129,129,41469,1,0,0:0:0:0:
144,120,41525,1,0,0:0:0:0:
160,114,41580,1,8,0:0:0:0:
177,109,41636,1,0,0:0:0:0:
194,107,41692,1,8,0:0:0:0:
211,107,41747,1,0,0:0:0:0:
228,108,41803,2,0,P|306:61|362:68,1,140,2|0,0:0|0:0,0:0:0:0:
442,143,42247,6,0,P|418:264|339:297,1,210,2|0,0:0|0:0,0:0:0:0:
284,229,42692,2,0,P|232:190|150:203,1,140,10|0,0:0|0:0,0:0:0:0:
69,198,43025,1,0,0:0:0:0:
117,120,43136,2,0,P|174:108|234:43,1,140,2|8,0:0|0:0,0:0:0:0:
302,106,43469,1,8,0:0:0:0:
369,45,43580,2,0,P|416:105|498:116,1,140,2|0,0:0|0:0,0:0:0:0:
432,200,43914,1,0,0:0:0:0:
480,276,44025,2,0,P|413:294|373:350,1,140,2|0,0:0|0:0,0:0:0:0:
305,290,44358,1,0,0:0:0:0:
223,330,44469,5,10,0:0:0:0:
212,315,44525,1,0,0:0:0:0:
202,300,44580,1,0,0:0:0:0:
191,285,44636,1,0,0:0:0:0:
180,270,44692,1,0,0:0:0:0:
170,255,44747,1,0,0:0:0:0:
159,240,44803,1,0,0:0:0:0:
149,225,44858,1,0,0:0:0:0:
139,210,44914,2,0,P|119:128|165:90,1,140,2|8,0:0|0:0,0:0:0:0:
227,133,45247,5,8,0:0:0:0:
299,90,45358,2,0,P|338:143|313:205,1,140,2|0,0:0|0:0,0:0:0:0:
311,290,45692,1,0,0:0:0:0:
235,253,45803,2,0,L|141:253,1,70,2|0,0:0|0:0,0:0:0:0:
311,290,46025,2,0,L|405:290,1,70,0|0,0:0|0:0,0:0:0:0:
235,253,46247,5,10,0:0:0:0:
228,240,46303,1,0,0:0:0:0:
221,227,46358,1,0,0:0:0:0:
214,214,46414,1,0,0:0:0:0:
208,201,46469,1,0,0:0:0:0:
201,188,46525,1,0,0:0:0:0:
195,175,46580,1,0,0:0:0:0:
188,162,46636,1,0,0:0:0:0:
182,149,46692,2,0,P|158:86|211:59,1,140,2|8,0:0|0:0,0:0:0:0:
275,113,47025,5,8,0:0:0:0:
341,61,47136,2,0,P|416:58|466:102,1,140,2|0,0:0|0:0,0:0:0:0:
423,171,47469,1,0,0:0:0:0:
469,240,47580,2,0,P|414:281|346:276,1,140,2|0,0:0|0:0,0:0:0:0:
334,268,47858,1,0,0:0:0:0:
322,260,47914,1,0,0:0:0:0:
310,252,47969,1,0,0:0:0:0:
298,243,48025,2,0,P|203:260|150:235,1,140,10|0,0:0|0:0,0:0:0:0:
118,126,48469,6,0,P|172:84|240:89,1,140,2|8,0:0|0:0,0:0:0:0:
253,98,48747,1,0,0:0:0:0:
265,106,48803,1,8,0:0:0:0:
277,114,48858,1,0,0:0:0:0:
289,123,48914,2,0,P|384:106|437:131,1,140,2|0,0:0|0:0,0:0:0:0:
435,246,49358,6,0,P|401:297|304:293,1,140,2|0,0:0|0:0,0:0:0:0:
314,299,49636,1,0,0:0:0:0:
301,291,49692,1,0,0:0:0:0:
289,283,49747,1,0,0:0:0:0:
276,275,49803,1,10,0:0:0:0:
264,267,49858,1,0,0:0:0:0:
251,259,49914,1,0,0:0:0:0:
239,252,49969,1,0,0:0:0:0:
226,244,50025,1,2,0:0:0:0:
213,237,50080,1,0,0:0:0:0:
200,229,50136,1,0,0:0:0:0:
187,221,50192,1,0,0:0:0:0:
174,214,50247,1,6,0:0:0:0:
366,151,50580,5,6,0:0:0:0:
85,133,50914,1,6,0:0:0:0:
443,225,51136,1,6,0:0:0:0:
443,225,51580,2,0,L|335:225,1,105
281,284,52025,6,0,P|235:292|148:219,1,140,6|10,0:0|0:0,0:0:0:0:
197,170,52358,1,10,0:0:0:0:
156,96,52469,2,0,P|209:53|278:57,1,140,2|8,0:0|0:0,0:0:0:0:
309,135,52803,1,0,0:0:0:0:
383,172,52914,2,0,L|471:147,1,70,2|0,0:0|0:0,0:0:0:0:
347,61,53136,2,0,L|277:57,1,70,8|0,0:0|0:0,0:0:0:0:
156,96,53358,5,2,0:0:0:0:
153,113,53414,1,0,0:0:0:0:
150,130,53469,1,0,0:0:0:0:
147,147,53525,1,0,0:0:0:0:
144,164,53580,1,8,0:0:0:0:
141,181,53636,1,0,0:0:0:0:
138,198,53692,1,0,0:0:0:0:
135,215,53747,1,0,0:0:0:0:
132,232,53803,2,0,P|151:302|215:308,1,140,2|10,0:0|0:0,0:0:0:0:
283,256,54136,5,10,0:0:0:0:
358,304,54247,2,0,P|443:304|463:244,1,140,2|8,0:0|0:0,0:0:0:0:
416,193,54580,1,0,0:0:0:0:
360,128,54692,2,0,L|410:72,1,70,2|0,0:0|0:0,0:0:0:0:
201,253,54914,2,0,L|154:305,1,70,10|0,0:0|0:0,0:0:0:0:
291,95,55136,2,0,L|291:25,1,70,2|0,0:0|0:0,0:0:0:0:
268,285,55358,2,0,L|268:372,1,70,10|0,0:0|0:0,0:0:0:0:
275,190,55580,5,2,0:0:0:0:
263,176,55636,1,0,0:0:0:0:
249,164,55692,1,0,0:0:0:0:
234,153,55747,1,0,0:0:0:0:
218,145,55803,1,10,0:0:0:0:
201,138,55858,1,0,0:0:0:0:
184,132,55914,1,10,0:0:0:0:
167,128,55969,1,0,0:0:0:0:
149,127,56025,2,0,B|86:169|86:169|87:248,1,140,2|8,0:0|0:0,0:0:0:0:
186,325,56469,6,0,B|284:280|284:280|294:164,1,210,2|0,0:0|0:0,0:0:0:0:
332,103,56914,2,0,B|401:100|401:100|442:159,1,140,2|8,0:0|0:0,0:0:0:0:
381,217,57247,1,0,0:0:0:0:
440,275,57358,2,0,B|399:334|399:334|330:331,1,140,2|10,0:0|0:0,0:0:0:0:
262,280,57692,5,10,0:0:0:0:
192,327,57803,2,0,L|104:338,1,70,2|0,0:0|0:0,0:0:0:0:
54,240,58025,2,0,L|142:240,1,70,8|0,0:0|0:0,0:0:0:0:
179,177,58247,1,2,0:0:0:0:
179,177,58469,5,8,0:0:0:0:
262,177,58580,1,0,0:0:0:0:
291,97,58692,2,0,L|360:61,1,70,2|0,0:0|0:0,0:0:0:0:
293,254,58914,2,0,L|355:286,1,70,8|0,0:0|0:0,0:0:0:0:
378,293,59080,1,0,0:0:0:0:
402,288,59136,2,0,P|455:257|439:175,1,140,6|10,0:0|0:0,0:0:0:0:
370,158,59469,5,10,0:0:0:0:
312,96,59580,2,0,P|257:57|205:101,1,140,2|8,0:0|0:0,0:0:0:0:
146,155,59914,1,0,0:0:0:0:
69,189,60025,2,0,P|61:255|116:291,1,140,2|8,0:0|0:0,0:0:0:0:
189,249,60358,5,0,0:0:0:0:
251,304,60469,1,2,0:0:0:0:
268,308,60525,1,0,0:0:0:0:
284,312,60580,1,0,0:0:0:0:
301,316,60636,1,0,0:0:0:0:
317,320,60692,2,0,P|385:322|397:309,1,70,8|0,0:0|0:0,0:0:0:0:
352,245,60914,6,0,P|391:210|384:113,1,140,2|10,0:0|0:0,0:0:0:0:
312,100,61247,2,0,P|273:135|280:232,1,140,10|0,0:0|0:0,0:0:0:0:
301,316,61580,2,0,L|224:327,1,70,8|0,0:0|0:0,0:0:0:0:
352,245,61803,2,0,P|391:210|384:113,1,140,2|8,0:0|0:0,0:0:0:0:
313,100,62136,5,0,0:0:0:0:
235,133,62247,2,0,P|171:116|113:158,1,140,2|8,0:0|0:0,0:0:0:0:
152,230,62580,1,0,0:0:0:0:
115,306,62692,2,0,P|170:345|235:328,1,140,2|10,0:0|0:0,0:0:0:0:
398,282,63025,2,0,P|342:242|277:259,1,140,10|0,0:0|0:0,0:0:0:0:
115,306,63358,2,0,L|96:236,1,70,8|0,0:0|0:0,0:0:0:0:
115,306,63580,2,0,P|170:345|256:324,2,157.500006008148,2|0|8,0:0|0:0|0:0,0:0:0:0:
256,192,64469,12,0,66025,0:0:0:0:
331,70,66136,5,0,0:0:0:0:
332,83,66192,1,0,0:0:0:0:
333,95,66247,1,6,0:0:0:0:
48,152,66580,5,6,0:0:0:0:
440,208,66914,1,6,0:0:0:0:
48,152,67136,1,6,0:0:0:0:
205,305,67580,5,0,0:0:0:0:
231,311,67637,1,0,0:0:0:0:
259,310,67695,1,0,0:0:0:0:
285,300,67753,1,0,0:0:0:0:
306,282,67810,2,0,L|391:300,1,70
360,192,68041,1,6,0:0:0:0:
256,192,73349,5,6,0:0:0:0:
234,94,73571,2,0,P|152:80|145:76,1,70,2|6,0:0|0:0,0:0:0:0:
278,290,73904,2,0,P|360:304|367:308,1,70,2|6,0:0|0:0,0:0:0:0:
256,192,74238,1,6,0:0:0:0:
236,186,74293,1,0,0:0:0:0:
214,183,74349,1,0,0:0:0:0:
193,184,74404,1,0,0:0:0:0:
172,189,74460,2,0,P|116:231|53:201,1,140
57,206,75126,5,6,0:0:0:0:
86,127,75238,1,0,0:0:0:0:
154,78,75349,1,10,0:0:0:0:
237,66,75460,1,10,0:0:0:0:
319,80,75571,1,2,0:0:0:0:
381,136,75682,2,0,L|449:115,1,70,0|8,0:0|0:0,0:0:0:0:
326,239,75904,2,0,L|341:308,2,70,0|2|0,0:0|0:0|0:0,0:0:0:0:
266,139,76237,2,0,L|181:139,1,70,8|0,0:0|0:0,0:0:0:0:
194,223,76460,5,2,0:0:0:0:
144,289,76571,1,0,0:0:0:0:
213,335,76682,1,8,0:0:0:0:
262,268,76793,1,0,0:0:0:0:
340,237,76904,2,0,L|416:218,1,70,2|0,0:0|0:0,0:0:0:0:
266,139,77126,2,0,L|201:78,1,70,10|10,0:0|0:0,0:0:0:0:
185,170,77349,5,2,0:0:0:0:
135,236,77460,1,0,0:0:0:0:
204,282,77571,1,8,0:0:0:0:
253,215,77682,1,0,0:0:0:0:
333,238,77793,2,0,P|415:238|447:173,1,140,2|8,0:0|0:0,0:0:0:0:
441,111,78126,2,0,P|396:60|329:68,1,140
266,139,78460,2,0,P|184:139|152:74,1,140,8|0,0:0|0:0,0:0:0:0:
88,44,78793,5,0,0:0:0:0:
59,122,78904,1,10,0:0:0:0:
102,193,79015,1,10,0:0:0:0:
59,265,79126,2,0,P|50:308|75:355,1,70,2|0,0:0|0:0,0:0:0:0:
134,298,79349,6,0,P|142:260|127:221,1,70,8|0,0:0|0:0,0:0:0:0:
67,178,79571,1,2,0:0:0:0:
72,161,79626,1,0,0:0:0:0:
80,145,79682,1,0,0:0:0:0:
91,132,79737,1,0,0:0:0:0:
103,120,79793,1,8,0:0:0:0:
118,110,79848,1,0,0:0:0:0:
134,103,79904,1,0,0:0:0:0:
151,99,79959,1,0,0:0:0:0:
168,100,80015,1,2,0:0:0:0:
181,111,80070,1,0,0:0:0:0:
194,122,80126,1,0,0:0:0:0:
208,133,80181,1,0,0:0:0:0:
221,144,80237,1,8,0:0:0:0:
235,156,80292,1,0,0:0:0:0:
248,167,80348,1,0,0:0:0:0:
262,178,80403,1,0,0:0:0:0:
274,190,80460,2,0,P|343:203|397:137,1,140,2|10,0:0|0:0,0:0:0:0:
475,159,80793,5,10,0:0:0:0:
437,234,80904,2,0,L|387:378,1,140,2|8,0:0|0:0,0:0:0:0:
307,356,81237,1,0,0:0:0:0:
246,297,81348,2,0,P|184:261|166:184,1,140,2|8,0:0|0:0,0:0:0:0:
175,114,81682,1,0,0:0:0:0:
258,106,81793,2,0,L|326:58,1,70,2|0,0:0|0:0,0:0:0:0:
246,297,82015,2,0,L|178:345,1,70,8|0,0:0|0:0,0:0:0:0:
171,334,82182,1,0,0:0:0:0:
154,330,82237,2,0,P|49:298|41:270,1,140,6|10,0:0|0:0,0:0:0:0:
99,218,82571,5,10,0:0:0:0:
60,143,82682,2,0,P|103:91|171:94,1,140,2|8,0:0|0:0,0:0:0:0:
233,150,83015,1,0,0:0:0:0:
293,91,83126,2,0,P|398:123|406:151,1,140,2|8,0:0|0:0,0:0:0:0:
356,209,83460,1,0,0:0:0:0:
366,292,83571,2,0,L|442:314,1,70,2|0,0:0|0:0,0:0:0:0:
146,92,83793,2,0,L|70:70,1,70,8|0,0:0|0:0,0:0:0:0:
65,88,83960,1,0,0:0:0:0:
63,108,84015,2,0,L|205:148,1,140,2|10,0:0|0:0,0:0:0:0:
256,192,84348,5,10,0:0:0:0:
308,134,84460,2,0,L|355:73,1,70,2|0,0:0|0:0,0:0:0:0:
204,250,84682,2,0,L|157:311,1,70,8|0,0:0|0:0,0:0:0:0:
256,192,84904,1,0,0:0:0:0:
256,192,85126,5,8,0:0:0:0:
256,192,85237,1,0,0:0:0:0:
204,134,85348,2,0,L|157:73,1,70,2|0,0:0|0:0,0:0:0:0:
308,250,85571,2,0,L|355:311,1,70,8|0,0:0|0:0,0:0:0:0:
257,193,85793,1,2,0:0:0:0:
256,192,86237,2,0,P|284:150|389:151,1,140,2|8,0:0|0:0,0:0:0:0:
419,238,86682,1,2,0:0:0:0:
416,258,86737,1,0,0:0:0:0:
414,279,86793,2,0,P|370:313|332:306,1,70,0|8,0:0|0:0,0:0:0:0:
283,274,87015,1,0,0:0:0:0:
256,192,87126,6,0,P|284:150|389:151,1,140,2|8,0:0|0:0,0:0:0:0:
449,159,87460,1,0,0:0:0:0:
419,238,87571,1,2,0:0:0:0:
416,258,87626,1,0,0:0:0:0:
414,279,87682,2,0,P|370:313|280:300,1,140,0|10,0:0|0:0,0:0:0:0:
206,290,88015,2,0,L|153:347,1,70,2|0,0:0|0:0,0:0:0:0:
306,94,88237,2,0,L|359:37,1,70,8|0,0:0|0:0,0:0:0:0:
256,192,88460,2,0,P|198:137|123:155,1,140,2|8,0:0|0:0,0:0:0:0:
64,111,88793,1,0,0:0:0:0:
81,193,88904,5,2,0:0:0:0:
84,210,88960,1,0,0:0:0:0:
87,226,89015,1,0,0:0:0:0:
91,243,89071,1,0,0:0:0:0:
94,259,89126,1,8,0:0:0:0:
98,276,89182,1,0,0:0:0:0:
102,292,89237,1,0,0:0:0:0:
106,309,89293,1,0,0:0:0:0:
110,325,89348,2,0,P|189:342|278:326,1,140,6|10,0:0|0:0,0:0:0:0:
299,268,89682,5,10,0:0:0:0:
345,337,89793,2,0,P|411:271|400:204,1,140,2|8,0:0|0:0,0:0:0:0:
346,175,90126,1,0,0:0:0:0:
409,120,90237,2,0,L|473:73,1,70,2|0,0:0|0:0,0:0:0:0:
360,56,90460,2,0,P|288:48|196:68,1,140,8|2,0:0|0:0,0:0:0:0:
216,75,90737,1,0,0:0:0:0:
210,91,90793,1,0,0:0:0:0:
204,107,90848,1,0,0:0:0:0:
198,123,90904,1,8,0:0:0:0:
192,139,90960,1,0,0:0:0:0:
187,155,91015,1,0,0:0:0:0:
182,171,91071,1,0,0:0:0:0:
176,187,91126,5,2,0:0:0:0:
170,203,91181,1,0,0:0:0:0:
168,220,91237,1,0,0:0:0:0:
169,238,91292,1,0,0:0:0:0:
173,255,91348,1,10,0:0:0:0:
181,271,91403,1,0,0:0:0:0:
191,285,91460,1,10,0:0:0:0:
204,297,91514,1,0,0:0:0:0:
219,306,91570,1,2,0:0:0:0:
235,312,91626,1,0,0:0:0:0:
252,315,91681,1,0,0:0:0:0:
270,315,91737,1,0,0:0:0:0:
287,312,91792,1,8,0:0:0:0:
303,305,91848,1,0,0:0:0:0:
318,296,91903,1,0,0:0:0:0:
330,284,91959,1,0,0:0:0:0:
341,271,92015,6,0,P|376:248|396:156,1,140,2|8,0:0|0:0,0:0:0:0:
352,85,92348,2,0,P|317:108|297:200,1,140
341,270,92682,2,0,L|384:340,1,70,8|0,0:0|0:0,0:0:0:0:
296,198,92904,2,0,P|301:130|352:85,1,140,2|10,0:0|0:0,0:0:0:0:
281,39,93237,1,10,0:0:0:0:
205,75,93348,5,2,0:0:0:0:
194,88,93404,1,0,0:0:0:0:
183,101,93460,1,0,0:0:0:0:
172,114,93515,1,0,0:0:0:0:
155,120,93571,5,8,0:0:0:0:
157,137,93626,1,0,0:0:0:0:
159,154,93682,1,0,0:0:0:0:
161,171,93737,1,0,0:0:0:0:
174,182,93793,5,2,0:0:0:0:
170,198,93848,1,0,0:0:0:0:
167,215,93904,1,0,0:0:0:0:
168,232,93960,1,0,0:0:0:0:
171,248,94015,1,8,0:0:0:0:
178,264,94071,1,0,0:0:0:0:
186,278,94126,1,0,0:0:0:0:
197,291,94182,1,0,0:0:0:0:
210,301,94237,6,0,P|280:293|345:328,1,140,2|8,0:0|0:0,0:0:0:0:
419,292,94571,1,0,0:0:0:0:
411,208,94682,2,0,P|341:216|276:181,1,140,2|10,0:0|0:0,0:0:0:0:
341,127,95015,1,10,0:0:0:0:
260,102,95126,2,0,P|198:71|129:79,1,140,2|8,0:0|0:0,0:0:0:0:
134,164,95460,1,0,0:0:0:0:
65,213,95571,6,0,L|141:369,1,140,2|8,0:0|0:0,0:0:0:0:
201,301,95904,1,0,0:0:0:0:
279,330,96015,2,0,L|279:234,1,70,2|0,0:0|0:0,0:0:0:0:
233,54,96237,2,0,L|233:150,1,70,8|0,0:0|0:0,0:0:0:0:
210,205,96460,2,0,P|126:251|72:210,1,140,6|10,0:0|0:0,0:0:0:0:
101,152,96793,1,10,0:0:0:0:
37,96,96904,2,0,P|121:50|175:91,1,140,2|8,0:0|0:0,0:0:0:0:
236,53,97237,1,0,0:0:0:0:
311,90,97348,6,0,L|390:69,1,70,2|0,0:0|0:0,0:0:0:0:
201,294,97571,2,0,L|122:315,1,70,10|0,0:0|0:0,0:0:0:0:
330,101,97793,2,0,L|409:80,1,70,2|0,0:0|0:0,0:0:0:0:
220,305,98015,2,0,L|141:326,1,70,10|0,0:0|0:0,0:0:0:0:
105,254,98237,1,0,0:0:0:0:
96,238,98293,1,0,0:0:0:0:
89,221,98348,1,0,0:0:0:0:
85,203,98404,1,0,0:0:0:0:
83,185,98460,1,10,0:0:0:0:
84,167,98515,1,0,0:0:0:0:
88,150,98571,1,10,0:0:0:0:
93,133,98626,1,0,0:0:0:0:
101,117,98682,1,2,0:0:0:0:
111,103,98737,1,0,0:0:0:0:
123,90,98793,1,0,0:0:0:0:
137,80,98848,1,0,0:0:0:0:
152,71,98904,6,0,L|221:45,1,70,8|0,0:0|0:0,0:0:0:0:
317,218,99126,2,0,P|293:269|197:303,1,140,2|8,0:0|0:0,0:0:0:0:
198,222,99460,1,0,0:0:0:0:
127,267,99571,2,0,L|80:324,1,70,2|0,0:0|0:0,0:0:0:0:
385,117,99793,2,0,L|432:60,1,70,8|0,0:0|0:0,0:0:0:0:
256,192,100015,1,2,0:0:0:0:
256,192,100460,6,0,P|216:120|144:124,1,140,2|8,0:0|0:0,0:0:0:0:
99,188,100904,1,0,0:0:0:0:
99,205,100959,1,0,0:0:0:0:
99,222,101015,2,0,P|126:290|180:330,1,140
273,330,101348,2,0,P|323:295|353:205,1,140,2|8,0:0|0:0,0:0:0:0:
352,223,101793,5,6,0:0:0:0:
161,164,102126,1,6,0:0:0:0:
352,223,102460,1,6,0:0:0:0:
161,164,102682,1,6,0:0:0:0:
352,223,103126,6,8,L|377:303,1,70
161,164,103348,2,8,L|136:84,1,70
256,192,103571,5,6,0:0:0:0:
256,192,103904,1,6,0:0:0:0:
256,192,104237,1,6,0:0:0:0:
256,192,104460,1,6,0:0:0:0:
256,192,106848,5,0,0:0:0:0:
256,192,107126,2,0,L|168:157|168:157,1,83.9999974365235
115,197,107460,1,0,0:0:0:0:
114,125,107571,2,0,P|139:97|195:92,1,83.9999974365235,2|0,0:0|0:0,0:0:0:0:
276,44,108015,5,0,0:0:0:0:
356,112,108237,1,0,0:0:0:0:
354,132,108348,1,0,0:0:0:0:
352,153,108460,1,0,0:0:0:0:
288,230,108682,1,0,0:0:0:0:
288,230,108904,1,0,0:0:0:0:
288,230,109126,6,0,L|274:178,1,41.9999987182618
224,280,109348,2,0,L|216:336,1,41.9999987182618,2|0,0:0|0:0,0:0:0:0:
168,224,109571,2,0,L|172:152|172:152,1,62.9999980773926
164,144,109793,2,0,P|104:144|80:128,1,83.9999974365235,0|2,0:0|0:0,0:0:0:0:
134,76,110126,1,0,0:0:0:0:
206,82,110237,2,0,L|302:102,1,83.9999974365235,2|0,0:0|0:0,0:0:0:0:
288,99,110682,6,0,P|311:169|286:228,1,125.999996154785
208,164,111348,1,0,0:0:0:0:
123,218,111571,2,0,L|152:349,1,125.999996154785
236,356,112015,1,2,0:0:0:0:
320,301,112237,1,0,0:0:0:0:
411,344,112460,5,0,0:0:0:0:
420,338,112515,1,0,0:0:0:0:
428,332,112571,1,0,0:0:0:0:
435,325,112626,1,0,0:0:0:0:
442,316,112682,1,0,0:0:0:0:
447,307,112737,1,0,0:0:0:0:
451,298,112793,2,0,L|472:278,1,20.9999993591309
407,232,112904,5,2,0:0:0:0:
403,222,112959,1,0,0:0:0:0:
401,211,113015,1,0,0:0:0:0:
400,201,113070,1,0,0:0:0:0:
400,190,113126,1,0,0:0:0:0:
401,180,113181,1,0,0:0:0:0:
404,170,113237,2,0,L|387:137,1,20.9999993591309
462,120,113348,5,0,0:0:0:0:
466,110,113403,1,0,0:0:0:0:
469,100,113460,1,2,0:0:0:0:
470,90,113514,1,0,0:0:0:0:
470,79,113570,1,2,0:0:0:0:
469,69,113625,1,0,0:0:0:0:
466,59,113681,1,0,0:0:0:0:
461,49,113736,1,0,0:0:0:0:
456,40,113793,2,0,L|316:44,1,125.999996154785,2|0,0:0|0:0,0:0:0:0:
316,36,114237,6,0,P|306:101|255:130,1,125.999996154785,8|8,0:0|0:0,0:0:0:0:
205,78,114682,2,0,L|217:35,1,41.9999987182618,8|0,0:0|0:0,0:0:0:0:
188,148,114904,2,0,L|143:186,1,41.9999987182618,8|0,0:0|0:0,0:0:0:0:
257,129,115126,2,0,L|397:149,1,125.999996154785,8|0,0:0|0:0,0:0:0:0:
422,218,115571,5,8,0:0:0:0:
408,227,115626,1,0,0:0:0:0:
394,236,115682,1,0,0:0:0:0:
380,245,115737,1,0,0:0:0:0:
366,255,115793,1,8,0:0:0:0:
353,265,115848,1,0,0:0:0:0:
339,275,115904,1,0,0:0:0:0:
325,285,115960,1,0,0:0:0:0:
311,294,116015,6,0,P|262:330|222:325,1,83.9999974365235,8|8,0:0|0:0,0:0:0:0:
164,320,116348,2,0,L|112:332,1,41.9999987182618,8|0,0:0|0:0,0:0:0:0:
72,252,116571,2,0,L|120:252,1,41.9999987182618,0|8,0:0|0:0,0:0:0:0:
182,197,116793,1,0,0:0:0:0:
182,197,116904,2,0,L|96:146|96:146,1,83.9999974365235,8|8,0:0|0:0,0:0:0:0:
143,84,117237,1,0,0:0:0:0:
159,84,117293,1,0,0:0:0:0:
175,84,117348,2,0,P|221:96|270:77,1,83.9999974365235,10|10,0:0|0:0,0:0:0:0:
423,174,117793,6,0,P|377:162|328:181,1,83.9999974365235,10|8,0:0|0:0,0:0:0:0:
328,181,118071,1,0,0:0:0:0:
314,190,118126,1,8,0:0:0:0:
300,199,118182,1,0,0:0:0:0:
286,208,118237,2,0,P|240:220|191:201,1,83.9999974365235,10|8,0:0|0:0,0:0:0:0:
100,312,118682,6,0,L|184:312,1,83.9999974365235,10|0,0:0|0:0,0:0:0:0:
199,304,118960,1,0,0:0:0:0:
213,296,119015,1,0,0:0:0:0:
228,290,119071,1,0,0:0:0:0:
244,287,119126,1,10,0:0:0:0:
260,287,119182,1,0,0:0:0:0:
276,289,119237,1,0,0:0:0:0:
292,293,119293,1,0,0:0:0:0:
307,299,119348,1,10,0:0:0:0:
322,306,119404,1,0,0:0:0:0:
337,311,119460,1,0,0:0:0:0:
353,314,119515,1,0,0:0:0:0:
369,315,119571,5,6,0:0:0:0:
132,192,119904,1,6,0:0:0:0:
404,192,120237,1,6,0:0:0:0:
404,192,120460,1,6,0:0:0:0:
404,192,120904,2,0,L|284:192,1,105,6|0,0:0|0:0,0:0:0:0:
281,100,121348,2,0,P|235:92|148:165,1,140,6|10,0:0|0:0,0:0:0:0:
197,214,121682,1,10,0:0:0:0:
156,288,121792,2,0,P|209:331|278:327,1,140,2|8,0:0|0:0,0:0:0:0:
309,249,122126,1,0,0:0:0:0:
383,212,122237,2,0,L|471:237,1,70,2|0,0:0|0:0,0:0:0:0:
347,323,122459,2,0,L|263:327,1,70,8|0,0:0|0:0,0:0:0:0:
156,288,122682,5,2,0:0:0:0:
153,271,122738,1,0,0:0:0:0:
150,254,122793,1,0,0:0:0:0:
147,237,122849,1,0,0:0:0:0:
144,220,122904,1,8,0:0:0:0:
141,203,122960,1,0,0:0:0:0:
138,186,123016,1,0,0:0:0:0:
135,169,123071,1,0,0:0:0:0:
132,152,123127,2,0,P|151:82|215:76,1,140,2|10,0:0|0:0,0:0:0:0:
283,128,123460,5,10,0:0:0:0:
358,80,123570,2,0,P|443:80|463:140,1,140,2|8,0:0|0:0,0:0:0:0:
416,191,123903,1,0,0:0:0:0:
360,256,124015,2,0,L|410:312,1,70,2|0,0:0|0:0,0:0:0:0:
201,131,124237,2,0,L|154:79,1,70,10|0,0:0|0:0,0:0:0:0:
291,289,124459,2,0,L|291:359,1,70,2|0,0:0|0:0,0:0:0:0:
268,99,124681,2,0,L|268:12,1,70,10|0,0:0|0:0,0:0:0:0:
275,194,124903,5,0,0:0:0:0:
263,208,124959,1,0,0:0:0:0:
249,220,125015,1,0,0:0:0:0:
234,231,125070,1,0,0:0:0:0:
218,239,125126,1,10,0:0:0:0:
201,246,125181,1,0,0:0:0:0:
184,252,125237,1,10,0:0:0:0:
167,256,125292,1,0,0:0:0:0:
149,257,125348,2,0,B|86:215|86:215|87:136,1,140,2|8,0:0|0:0,0:0:0:0:
186,59,125792,6,0,B|276:100|276:100|294:220,1,210,2|0,0:0|0:0,0:0:0:0:
332,281,126237,2,0,B|401:284|401:284|442:225,1,140,2|8,0:0|0:0,0:0:0:0:
381,167,126570,1,0,0:0:0:0:
440,109,126681,2,0,B|399:50|399:50|330:53,1,140,2|10,0:0|0:0,0:0:0:0:
262,104,127015,5,10,0:0:0:0:
192,57,127126,2,0,L|104:46,1,70,2|0,0:0|0:0,0:0:0:0:
54,144,127348,2,0,L|142:144,1,70,8|0,0:0|0:0,0:0:0:0:
179,207,127571,1,2,0:0:0:0:
179,207,127793,5,8,0:0:0:0:
262,207,127904,1,0,0:0:0:0:
291,287,128015,2,0,L|360:323,1,70,2|0,0:0|0:0,0:0:0:0:
293,130,128237,2,0,L|355:98,1,70,8|0,0:0|0:0,0:0:0:0:
378,91,128403,1,0,0:0:0:0:
402,96,128459,2,0,P|455:127|439:209,1,140,6|10,0:0|0:0,0:0:0:0:
370,226,128792,5,10,0:0:0:0:
312,288,128903,2,0,P|257:327|205:283,1,140,2|8,0:0|0:0,0:0:0:0:
146,229,129237,1,0,0:0:0:0:
69,195,129348,2,0,P|61:129|116:93,1,140,2|8,0:0|0:0,0:0:0:0:
189,135,129681,5,0,0:0:0:0:
251,80,129792,1,2,0:0:0:0:
268,76,129848,1,0,0:0:0:0:
284,72,129903,1,0,0:0:0:0:
301,68,129959,1,0,0:0:0:0:
317,64,130015,2,0,P|385:62|397:75,1,70,8|0,0:0|0:0,0:0:0:0:
352,139,130237,6,0,P|391:174|384:271,1,140,2|10,0:0|0:0,0:0:0:0:
312,284,130571,2,0,P|273:249|280:152,1,140,10|0,0:0|0:0,0:0:0:0:
301,68,130903,2,0,L|224:57,1,70,8|0,0:0|0:0,0:0:0:0:
352,139,131126,2,0,P|391:174|384:271,1,140,2|8,0:0|0:0,0:0:0:0:
313,284,131459,5,0,0:0:0:0:
235,251,131570,2,0,P|171:268|113:226,1,140,2|8,0:0|0:0,0:0:0:0:
152,154,131903,1,0,0:0:0:0:
115,78,132015,2,0,P|170:39|235:56,1,140,2|10,0:0|0:0,0:0:0:0:
398,102,132348,2,0,P|342:142|277:125,1,140,10|0,0:0|0:0,0:0:0:0:
115,78,132681,2,0,L|96:152,1,70,8|0,0:0|0:0,0:0:0:0:
115,78,132904,2,0,P|170:39|256:60,2,157.500006008148,2|0|8,0:0|0:0|0:0,0:0:0:0:
256,192,133792,12,0,135348,0:0:0:0:
364,304,135459,5,0,0:0:0:0:
365,291,135515,1,0,0:0:0:0:
366,279,135570,1,6,0:0:0:0:
64,224,135903,5,6,0:0:0:0:
448,152,136237,1,6,0:0:0:0:
64,224,136460,1,6,0:0:0:0:
205,79,136908,5,0,0:0:0:0:
231,73,136965,1,0,0:0:0:0:
259,74,137023,1,0,0:0:0:0:
285,84,137081,1,0,0:0:0:0:
306,102,137138,2,0,L|391:84,1,70
360,192,137369,1,6,0:0:0:0:
256,192,142677,5,6,0:0:0:0:
208,88,142899,2,0,P|164:84|144:64,1,70,2|6,0:0|0:0,0:0:0:0:
304,296,143232,2,0,P|348:300|368:320,1,70,2|6,0:0|0:0,0:0:0:0:
256,192,143566,1,6,0:0:0:0:
167,78,143788,5,0,0:0:0:0:
180,81,143843,1,0,0:0:0:0:
193,86,143899,1,0,0:0:0:0:
205,92,143955,1,0,0:0:0:0:
216,99,144010,1,0,0:0:0:0:
227,107,144066,1,0,0:0:0:0:
237,115,144121,1,0,0:0:0:0:
246,125,144177,1,0,0:0:0:0:
254,135,144232,1,0,0:0:0:0:
262,146,144288,1,0,0:0:0:0:
269,157,144343,1,0,0:0:0:0:
275,169,144399,1,0,0:0:0:0:
281,181,144455,6,0,L|317:249,1,70,6|0,0:0|0:0,0:0:0:0:
439,273,144677,2,0,L|398:202,1,70,10|10,0:0|0:0,0:0:0:0:
281,181,144899,2,0,L|245:249,1,70,2|0,0:0|0:0,0:0:0:0:
123,273,145121,2,0,L|164:202,1,70,8|0,0:0|0:0,0:0:0:0:
281,181,145343,5,2,0:0:0:0:
392,137,145455,1,0,0:0:0:0:
392,137,145510,1,0,0:0:0:0:
392,137,145566,1,8,0:0:0:0:
377,255,145677,2,0,P|339:289|292:297,1,70,0|2,0:0|0:0,0:0:0:0:
281,181,145899,1,0,0:0:0:0:
202,270,146010,5,8,0:0:0:0:
118,97,146121,1,0,0:0:0:0:
85,287,146232,1,2,0:0:0:0:
223,153,146343,1,0,0:0:0:0:
32,180,146454,1,10,0:0:0:0:
202,270,146565,1,10,0:0:0:0:
281,181,146677,6,0,L|364:159,1,70,2|0,0:0|0:0,0:0:0:0:
410,61,146899,2,0,L|292:55,1,70,8|0,0:0|0:0,0:0:0:0:
223,82,147121,2,0,P|159:161|186:221,1,140,2|8,0:0|0:0,0:0:0:0:
220,296,147454,2,0,L|285:263,1,70,0|2,0:0|0:0,0:0:0:0:
401,271,147677,2,0,L|352:343,2,70,0|8|0,0:0|0:0|0:0,0:0:0:0:
360,159,148010,5,2,0:0:0:0:
253,211,148121,1,0,0:0:0:0:
184,113,148232,1,10,0:0:0:0:
65,115,148343,1,10,0:0:0:0:
65,115,148399,1,0,0:0:0:0:
65,115,148455,1,2,0:0:0:0:
125,12,148566,1,0,0:0:0:0:
256,59,148677,1,8,0:0:0:0:
387,12,148788,1,0,0:0:0:0:
365,150,148899,6,0,L|392:229,1,70,2|0,0:0|0:0,0:0:0:0:
248,203,149121,2,0,L|241:299,1,70,8|0,0:0|0:0,0:0:0:0:
114,217,149343,1,2,0:0:0:0:
112,202,149399,1,0,0:0:0:0:
111,188,149454,2,0,L|79:130,1,35
104,68,149565,1,8,0:0:0:0:
117,69,149621,1,0,0:0:0:0:
130,71,149677,2,0,L|188:60,1,35
250,93,149788,5,2,0:0:0:0:
263,93,149843,1,0,0:0:0:0:
277,96,149899,1,0,0:0:0:0:
290,101,149954,1,0,0:0:0:0:
303,107,150010,1,10,0:0:0:0:
314,115,150065,1,0,0:0:0:0:
324,125,150121,1,10,0:0:0:0:
332,136,150176,1,0,0:0:0:0:
339,149,150232,2,0,L|325:240,1,70,2|0,0:0|0:0,0:0:0:0:
235,292,150454,6,0,L|224:222,1,70,8|0,0:0|0:0,0:0:0:0:
155,353,150678,1,2,0:0:0:0:
204,185,150788,1,0,0:0:0:0:
328,312,150899,1,8,0:0:0:0:
127,330,151010,2,0,P|81:266|81:254,1,70,0|2,0:0|0:0,0:0:0:0:
85,180,151232,2,0,L|85:103,1,70,0|8,0:0|0:0,0:0:0:0:
162,48,151455,1,0,0:0:0:0:
256,74,151565,6,0,P|311:68|388:131,1,140,6|10,0:0|0:0,0:0:0:0:
295,164,151898,1,10,0:0:0:0:
377,217,152010,2,0,P|322:258|254:256,1,140,2|8,0:0|0:0,0:0:0:0:
295,164,152342,1,0,0:0:0:0:
256,74,152454,2,0,P|311:68|388:131,1,140,2|10,0:0|0:0,0:0:0:0:
462,163,152787,1,0,0:0:0:0:
377,217,152899,2,0,L|403:285,1,70,2|0,0:0|0:0,0:0:0:0:
295,164,153121,2,0,L|212:173,1,70,10|0,0:0|0:0,0:0:0:0:
166,93,153342,6,0,P|109:126|87:218,1,140,2|10,0:0|0:0,0:0:0:0:
162,252,153676,1,10,0:0:0:0:
202,340,153788,2,0,L|359:340|355:340,1,140,2|8,0:0|0:0,0:0:0:0:
420,281,154121,1,0,0:0:0:0:
417,183,154232,5,2,0:0:0:0:
408,167,154288,1,0,0:0:0:0:
396,154,154343,1,0,0:0:0:0:
381,143,154399,1,0,0:0:0:0:
364,135,154455,1,8,0:0:0:0:
347,129,154510,1,0,0:0:0:0:
329,127,154566,1,0,0:0:0:0:
311,128,154621,1,0,0:0:0:0:
293,131,154677,1,2,0:0:0:0:
276,135,154732,1,0,0:0:0:0:
258,137,154788,1,0,0:0:0:0:
240,139,154843,1,0,0:0:0:0:
222,139,154899,1,8,0:0:0:0:
204,137,154955,1,0,0:0:0:0:
187,132,155010,1,0,0:0:0:0:
170,126,155066,1,0,0:0:0:0:
155,116,155121,1,0,0:0:0:0:
141,104,155177,1,0,0:0:0:0:
129,91,155232,6,0,P|78:137|99:225,1,140,0|10,0:0|0:0,0:0:0:0:
152,282,155565,2,0,P|203:236|182:148,1,140,2|8,0:0|0:0,0:0:0:0:
129,91,155899,1,0,0:0:0:0:
229,61,156010,5,2,0:0:0:0:
245,56,156066,1,0,0:0:0:0:
262,55,156121,1,0,0:0:0:0:
279,56,156177,1,0,0:0:0:0:
296,58,156232,1,8,0:0:0:0:
312,63,156288,1,0,0:0:0:0:
327,70,156343,1,0,0:0:0:0:
341,80,156399,1,0,0:0:0:0:
353,91,156455,1,2,0:0:0:0:
364,104,156510,1,0,0:0:0:0:
373,118,156566,1,0,0:0:0:0:
380,133,156621,1,0,0:0:0:0:
385,149,156677,1,8,0:0:0:0:
388,165,156732,1,0,0:0:0:0:
388,182,156788,1,0,0:0:0:0:
386,199,156843,1,0,0:0:0:0:
382,216,156899,5,6,0:0:0:0:
91,250,157232,1,6,0:0:0:0:
257,118,157565,1,6,0:0:0:0:
257,118,157787,1,6,0:0:0:0:
91,250,158232,1,6,0:0:0:0:
91,250,158676,5,6,0:0:0:0:
93,267,158731,1,0,0:0:0:0:
98,284,158787,1,0,0:0:0:0:
106,299,158843,1,0,0:0:0:0:
117,312,158899,1,10,0:0:0:0:
131,324,158953,1,0,0:0:0:0:
146,332,159009,1,10,0:0:0:0:
163,337,159064,1,0,0:0:0:0:
180,339,159120,1,2,0:0:0:0:
197,338,159176,1,0,0:0:0:0:
214,333,159231,1,0,0:0:0:0:
230,325,159287,1,0,0:0:0:0:
244,315,159342,1,8,0:0:0:0:
255,302,159398,1,0,0:0:0:0:
264,287,159453,1,0,0:0:0:0:
271,270,159510,1,0,0:0:0:0:
273,252,159565,5,2,0:0:0:0:
275,269,159620,1,0,0:0:0:0:
281,285,159676,1,0,0:0:0:0:
291,300,159731,1,0,0:0:0:0:
303,311,159787,1,8,0:0:0:0:
319,320,159842,1,0,0:0:0:0:
335,325,159898,1,0,0:0:0:0:
353,326,159953,1,0,0:0:0:0:
370,323,160009,1,2,0:0:0:0:
386,316,160065,1,0,0:0:0:0:
400,306,160120,1,0,0:0:0:0:
411,292,160176,1,0,0:0:0:0:
419,277,160231,1,8,0:0:0:0:
423,260,160287,1,0,0:0:0:0:
424,242,160342,1,0,0:0:0:0:
420,225,160398,1,0,0:0:0:0:
413,211,160454,6,0,B|321:215|304:132|304:132|273:136|273:136|259:108|227:104,1,210,2|8,0:0|0:0,0:0:0:0:
137,79,160899,1,2,0:0:0:0:
134,96,160955,1,0,0:0:0:0:
131,113,161010,1,0,0:0:0:0:
128,130,161066,1,0,0:0:0:0:
133,146,161121,2,0,L|111:222,1,70,8|0,0:0|0:0,0:0:0:0:
276,296,161343,2,0,L|260:216,1,70,2|0,0:0|0:0,0:0:0:0:
343,109,161566,5,8,0:0:0:0:
468,107,161677,1,0,0:0:0:0:
365,34,161788,1,2,0:0:0:0:
406,152,161899,1,0,0:0:0:0:
442,33,162010,2,0,P|396:32|356:12,1,70,8|0,0:0|0:0,0:0:0:0:
343,111,162232,2,0,P|285:113|231:190,1,140,2|10,0:0|0:0,0:0:0:0:
316,191,162565,1,10,0:0:0:0:
396,215,162676,6,0,P|351:267|270:261,1,140,0|8,0:0|0:0,0:0:0:0:
238,339,163010,1,0,0:0:0:0:
155,324,163121,1,10,0:0:0:0:
67,254,163269,5,8,0:0:0:0:
172,217,163417,5,8,0:0:0:0:
77,332,163565,5,10,0:0:0:0:
101,183,163714,5,8,0:0:0:0:
222,278,163862,5,8,0:0:0:0:
101,183,164010,5,10,0:0:0:0:
103,165,164065,1,0,0:0:0:0:
106,148,164121,1,0,0:0:0:0:
108,131,164176,1,0,0:0:0:0:
111,113,164232,1,10,0:0:0:0:
113,96,164287,1,0,0:0:0:0:
116,79,164343,2,0,L|145:33,1,35,10|0,0:0|0:0,0:0:0:0:
214,51,164454,5,2,0:0:0:0:
216,68,164509,1,0,0:0:0:0:
218,85,164565,1,0,0:0:0:0:
220,103,164620,1,0,0:0:0:0:
222,120,164676,1,8,0:0:0:0:
224,137,164731,1,0,0:0:0:0:
226,155,164787,1,0,0:0:0:0:
228,172,164842,1,0,0:0:0:0:
230,190,164898,1,2,0:0:0:0:
232,207,164954,1,0,0:0:0:0:
234,224,165009,1,0,0:0:0:0:
237,242,165065,1,0,0:0:0:0:
238,261,165121,6,0,P|177:275|163:296,1,70,8|0,0:0|0:0,0:0:0:0:
304,57,165454,2,0,P|365:43|379:22,1,70,0|8,0:0|0:0,0:0:0:0:
238,261,165788,1,6,0:0:0:0:
220,258,165843,1,0,0:0:0:0:
204,252,165899,1,0,0:0:0:0:
189,243,165954,1,0,0:0:0:0:
175,232,166010,1,10,0:0:0:0:
164,219,166065,1,0,0:0:0:0:
155,204,166121,1,10,0:0:0:0:
150,187,166176,1,0,0:0:0:0:
147,170,166232,1,2,0:0:0:0:
147,152,166288,1,0,0:0:0:0:
151,135,166343,1,0,0:0:0:0:
157,119,166399,1,0,0:0:0:0:
167,104,166454,1,8,0:0:0:0:
179,91,166510,1,0,0:0:0:0:
193,82,166565,2,0,L|198:35,1,35
278,74,166676,5,2,0:0:0:0:
290,85,166731,1,0,0:0:0:0:
282,101,166787,1,0,0:0:0:0:
295,112,166842,1,0,0:0:0:0:
292,129,166898,1,8,0:0:0:0:
307,137,166954,1,0,0:0:0:0:
300,152,167009,1,0,0:0:0:0:
314,161,167065,1,0,0:0:0:0:
311,178,167120,1,2,0:0:0:0:
323,190,167176,1,0,0:0:0:0:
318,206,167231,1,0,0:0:0:0:
330,217,167287,1,0,0:0:0:0:
324,233,167342,1,8,0:0:0:0:
338,242,167398,1,0,0:0:0:0:
333,258,167454,1,0,0:0:0:0:
344,270,167509,1,0,0:0:0:0:
341,287,167565,6,0,L|396:352,1,70,2|0,0:0|0:0,0:0:0:0:
171,97,167899,2,0,L|116:32,1,70,10|2,0:0|0:0,0:0:0:0:
341,287,168231,2,0,L|396:352,1,70,8|0,0:0|0:0,0:0:0:0:
333,258,168454,2,0,P|285:275|205:223,1,140,2|8,0:0|0:0,0:0:0:0:
140,188,168787,1,0,0:0:0:0:
213,146,168898,2,0,P|268:107|335:122,1,140,2|8,0:0|0:0,0:0:0:0:
418,119,169231,1,0,0:0:0:0:
377,192,169342,5,2,0:0:0:0:
379,198,169454,1,0,0:0:0:0:
381,204,169565,1,10,0:0:0:0:
256,263,169676,5,10,0:0:0:0:
256,256,169787,1,2,0:0:0:0:
256,248,169899,1,0,0:0:0:0:
135,192,170010,5,8,0:0:0:0:
128,188,170122,1,0,0:0:0:0:
154,111,170232,2,0,P|204:66|249:26,1,105,2|0,0:0|0:0,0:0:0:0:
235,12,170454,2,0,P|299:35|347:13,1,105,8|0,0:0|0:0,0:0:0:0:
420,69,170676,2,0,L|367:183|367:183,1,105,2|0,0:0|0:0,0:0:0:0:
377,192,170898,2,0,P|313:169|265:191,1,105,8|0,0:0|0:0,0:0:0:0:
319,266,171121,5,2,0:0:0:0:
314,282,171176,1,0,0:0:0:0:
306,298,171232,1,0,0:0:0:0:
297,313,171287,1,0,0:0:0:0:
285,326,171343,1,10,0:0:0:0:
272,337,171398,1,0,0:0:0:0:
257,346,171454,1,10,0:0:0:0:
241,354,171509,1,0,0:0:0:0:
224,358,171565,1,0,0:0:0:0:
207,360,171621,1,0,0:0:0:0:
189,360,171676,1,0,0:0:0:0:
172,357,171732,1,0,0:0:0:0:
155,351,171787,1,8,0:0:0:0:
140,344,171843,1,0,0:0:0:0:
125,334,171898,1,0,0:0:0:0:
113,322,171954,1,0,0:0:0:0:
102,308,172009,1,2,0:0:0:0:
93,293,172065,1,0,0:0:0:0:
86,277,172121,1,0,0:0:0:0:
82,260,172176,1,0,0:0:0:0:
80,243,172232,1,8,0:0:0:0:
81,225,172287,1,0,0:0:0:0:
85,208,172343,1,0,0:0:0:0:
91,191,172398,1,0,0:0:0:0:
99,176,172454,1,2,0:0:0:0:
109,162,172509,1,0,0:0:0:0:
121,149,172565,1,0,0:0:0:0:
135,138,172621,1,0,0:0:0:0:
148,127,172676,1,8,0:0:0:0:
160,115,172732,1,0,0:0:0:0:
171,101,172788,1,0,0:0:0:0:
180,86,172843,1,0,0:0:0:0:
187,70,172899,5,6,0:0:0:0:
198,102,172954,1,0,0:0:0:0:
220,129,173010,1,0,0:0:0:0:
250,146,173065,1,0,0:0:0:0:
285,150,173121,1,10,0:0:0:0:
319,144,173176,1,0,0:0:0:0:
353,141,173231,5,14,0:0:0:0:
387,151,173287,1,0,0:0:0:0:
415,171,173342,1,2,0:0:0:0:
434,201,173398,1,0,0:0:0:0:
441,235,173453,1,0,0:0:0:0:
436,269,173509,1,0,0:0:0:0:
420,300,173564,5,14,0:0:0:0:
393,323,173620,1,0,0:0:0:0:
361,335,173676,1,0,0:0:0:0:
326,335,173731,1,0,0:0:0:0:
293,323,173788,6,0,L|251:329,1,42,6|0,0:0|0:0,0:0:0:0:
242,342,174676,2,0,L|442:320,1,181.999991668702,6|10,0:0|0:0,0:0:0:0:
442,213,175010,1,10,0:0:0:0:
353,149,175121,2,0,P|287:211|186:210,1,181.999991668702,2|8,0:0|0:0,0:0:0:0:
116,158,175454,5,0,0:0:0:0:
198,50,175565,2,0,P|183:102|193:148,1,90.9999958343508,2|0,0:0|0:0,0:0:0:0:
353,149,175788,2,0,P|300:134|254:144,1,90.9999958343508,8|0,0:0|0:0,0:0:0:0:
250,302,176010,2,0,P|263:258|258:214,1,90.9999958343508,2|0,0:0|0:0,0:0:0:0:
95,203,176233,2,0,P|138:216|182:211,1,90.9999958343508,8|0,0:0|0:0,0:0:0:0:
246,153,176453,5,2,0:0:0:0:
246,153,176509,1,0,0:0:0:0:
246,153,176564,1,0,0:0:0:0:
314,93,176675,1,10,0:0:0:0:
387,149,176788,1,10,0:0:0:0:
476,172,176898,2,0,P|454:241|471:292,1,90.9999958343508,2|0,0:0|0:0,0:0:0:0:
409,336,177120,5,8,0:0:0:0:
388,328,177175,1,0,0:0:0:0:
367,322,177231,1,0,0:0:0:0:
345,317,177287,1,0,0:0:0:0:
323,314,177342,2,0,L|223:317,1,90.9999958343508,2|0,0:0|0:0,0:0:0:0:
362,222,177564,2,0,L|462:219,1,90.9999958343508,8|0,0:0|0:0,0:0:0:0:
269,235,177787,5,2,0:0:0:0:
214,163,177898,1,0,0:0:0:0:
288,111,178009,1,8,0:0:0:0:
206,73,178120,1,0,0:0:0:0:
206,73,178175,1,0,0:0:0:0:
206,73,178231,2,0,P|141:109|142:217,1,181.999991668702,2|10,0:0|0:0,0:0:0:0:
157,297,178564,1,10,0:0:0:0:
242,263,178676,2,0,P|307:227|306:119,2,181.999991668702,2|8|0,0:0|0:0|0:0,0:0:0:0:
171,206,179231,2,0,L|165:77,2,90.9999958343508,0|8|0,0:0|0:0|0:0,0:0:0:0:
242,263,179565,6,0,P|307:227|306:119,1,181.999991668702,2|8,0:0|0:0,0:0:0:0:
242,263,180009,1,6,0:0:0:0:
171,206,180120,1,2,0:0:0:0:
401,213,180343,5,6,0:0:0:0:
447,135,180453,1,2,0:0:0:0:
273,83,180675,1,6,0:0:0:0:
242,263,180899,6,0,P|312:272|417:173,2,181.999991668702,6|6|6,0:0|0:0|0:0,0:0:0:0:
299,170,181898,5,0,0:0:0:0:
239,78,182009,1,10,0:0:0:0:
239,78,182120,1,10,0:0:0:0:
178,166,182231,2,0,P|79:157|64:169,1,90.9999958343508,2|0,0:0|0:0,0:0:0:0:
122,236,182453,5,8,0:0:0:0:
122,236,182509,1,0,0:0:0:0:
122,236,182564,1,0,0:0:0:0:
243,247,182676,2,0,L|215:345,1,90.9999958343508,2|0,0:0|0:0,0:0:0:0:
360,190,182898,2,0,L|403:277,1,90.9999958343508,8|0,0:0|0:0,0:0:0:0:
210,155,183120,2,0,L|147:229,1,90.9999958343508,2|0,0:0|0:0,0:0:0:0:
371,92,183342,2,0,L|460:149,1,90.9999958343508,8|0,0:0|0:0,0:0:0:0:
360,190,183564,5,2,0:0:0:0:
360,190,183620,1,0,0:0:0:0:
360,190,183675,1,0,0:0:0:0:
309,267,183787,1,8,0:0:0:0:
231,221,183899,1,10,0:0:0:0:
141,236,184009,2,0,P|156:168|202:137,1,90.9999958343508,2|0,0:0|0:0,0:0:0:0:
231,221,184231,1,8,0:0:0:0:
231,221,184287,1,0,0:0:0:0:
231,221,184342,1,0,0:0:0:0:
309,267,184453,6,0,L|340:360,1,90.9999958343508,2|0,0:0|0:0,0:0:0:0:
360,190,184676,2,0,L|462:151,1,90.9999958343508,8|0,0:0|0:0,0:0:0:0:
281,144,184898,2,0,L|250:51,1,90.9999958343508,2|0,0:0|0:0,0:0:0:0:
230,221,185120,2,0,L|128:260,1,90.9999958343508,8|0,0:0|0:0,0:0:0:0:
141,163,185343,1,2,0:0:0:0:
154,145,185398,1,0,0:0:0:0:
169,129,185453,1,0,0:0:0:0:
188,117,185509,1,0,0:0:0:0:
208,109,185564,2,0,L|289:45,1,90.9999958343508,10|10,0:0|0:0,0:0:0:0:
358,100,185787,5,2,0:0:0:0:
435,53,185898,1,0,0:0:0:0:
510,104,186009,1,8,0:0:0:0:
510,104,186064,1,0,0:0:0:0:
510,104,186120,1,0,0:0:0:0:
510,195,186232,2,0,P|446:220|420:331,2,181.999991668702,2|8|2,0:0|0:0|0:0,0:0:0:0:
510,104,186899,2,0,P|410:99|308:157,1,181.999991668702,8|6,0:0|0:0,0:0:0:0:
146,248,187343,5,2,0:0:0:0:
252,273,187454,1,6,0:0:0:0:
372,122,187676,5,2,0:0:0:0:
263,140,187788,1,6,0:0:0:0:
252,273,188010,1,6,0:0:0:0:
274,271,188065,1,0,0:0:0:0:
297,270,188121,1,0,0:0:0:0:
320,269,188176,1,0,0:0:0:0:
342,268,188232,1,0,0:0:0:0:
365,267,188287,1,0,0:0:0:0:
388,266,188343,1,0,0:0:0:0:
411,265,188399,1,0,0:0:0:0:
433,264,188454,2,0,P|389:206|400:83,1,181.999991668702,6|8,0:0|0:0,0:0:0:0:
256,57,188899,5,6,0:0:0:0:
220,59,188973,5,0,0:0:0:0:
185,69,189047,5,0,0:0:0:0:
153,85,189121,5,0,0:0:0:0:
127,110,189195,5,0,0:0:0:0:
108,141,189269,5,0,0:0:0:0:
97,176,189343,5,0,0:0:0:0:
96,213,189417,5,0,0:0:0:0:
105,249,189491,5,0,0:0:0:0:
123,281,189565,5,0,0:0:0:0:
150,306,189639,5,0,0:0:0:0:
182,325,189714,5,0,0:0:0:0:
218,335,189788,5,0,0:0:0:0:
256,337,189862,5,0,0:0:0:0:
294,335,189936,5,0,0:0:0:0:
330,325,190010,5,0,0:0:0:0:
362,306,190085,5,0,0:0:0:0:
389,281,190159,5,0,0:0:0:0:
407,249,190233,5,0,0:0:0:0:
416,213,190307,5,0,0:0:0:0:
415,176,190381,5,0,0:0:0:0:
404,141,190455,5,0,0:0:0:0:
385,110,190529,5,0,0:0:0:0:
359,85,190603,5,0,0:0:0:0:
328,69,190676,6,0,P|308:117|261:155,1,90.9999958343508,6|2,0:0|0:0,0:0:0:0:
332,288,190899,5,0,0:0:0:0:
326,315,191010,2,0,P|297:280|285:237,1,90.9999958343508,6|2,0:0|0:0,0:0:0:0:
134,209,191232,5,0,0:0:0:0:
113,191,191343,2,0,P|165:184|221:206,1,90.9999958343508,6|2,0:0|0:0,0:0:0:0:
366,199,191565,6,0,P|416:196|438:184,4,45.4999979171754,6|0|0|0|0,0:0|0:0|0:0|0:0|0:0,0:0:0:0:
468,137,192010,5,6,0:0:0:0:
