osu file format v14

[General]
AudioFilename: audio.mp3
AudioLeadIn: 0
PreviewTime: 384494
Countdown: 0
SampleSet: Soft
StackLeniency: 0.3
Mode: 0
LetterboxInBreaks: 0
WidescreenStoryboard: 1

[Editor]
Bookmarks: 120700,232184,272150,358218,467460,516743,599029,657315,698458,739601
DistanceSpacing: 0.3
BeatDivisor: 4
GridSize: 32
TimelineZoom: 2.7

[Metadata]
Title:Aquaphobia EP
TitleUnicode:Aquaphobia EP
Artist:MiddleIsland
ArtistUnicode:MiddleIsland
Creator:Cassu2
Version:3
Source:
Tags:aquaphobi cube drop orchestral piano instrumental
BeatmapID:1315709
BeatmapSetID:622998

[Difficulty]
HPDrainRate:5
CircleSize:4.2
OverallDifficulty:8.5
ApproachRate:9.4
SliderMultiplier:2
SliderTickRate:1

[Events]
//Background and Video events
0,0,"yande.re 383169 sample dress smile_(qd4nsvik) wallpaper.jpg",0,0
//Break Periods
//Storyboard Layer 0 (Background)
//Storyboard Layer 1 (Fail)
//Storyboard Layer 2 (Pass)
//Storyboard Layer 3 (Foreground)
//Storyboard Sound Samples

[TimingPoints]
700,387.096774193548,4,2,0,75,1,0
893,-200,4,2,0,30,0,0
1378,-200,4,2,0,5,0,0
1475,387.096774193548,4,2,0,75,1,0
1475,-100,4,2,0,75,0,0
2442,-200,4,2,0,30,0,0
2926,-200,4,2,0,5,0,0
3023,-100,4,2,0,75,0,0
3991,-200,4,2,0,30,0,0
4474,-200,4,2,0,5,0,0
4571,-100,4,2,0,75,0,0
5152,-125,4,2,0,75,0,0
6120,-100,4,2,0,75,0,0
6410,-100,4,2,0,5,0,0
6507,-111.111111111111,4,2,0,75,0,0
6797,-111.111111111111,4,2,0,5,0,0
6894,-125,4,2,0,75,0,0
7087,-125,4,2,0,5,0,0
7281,-200,4,2,0,30,0,0
7571,-200,4,2,0,5,0,0
7668,-100,4,2,0,75,0,0
8636,-200,4,2,0,30,0,0
9120,-200,4,2,0,5,0,0
9216,-100,4,2,0,75,0,0
10184,-200,4,2,0,30,0,0
10668,-200,4,2,0,5,0,0
10765,-100,4,2,0,75,0,0
11345,-111.111111111111,4,2,0,75,0,0
12313,-90.9090909090908,4,2,0,75,0,0
13862,-83.3333333333333,4,2,0,85,0,0
14442,-100,4,2,0,85,0,0
15023,-83.3333333333333,4,2,0,85,0,0
15604,-100,4,2,0,85,0,0
16184,-83.3333333333333,4,2,0,85,0,0
17539,-100,4,2,0,85,0,0
18120,-83.3333333333333,4,2,0,85,0,0
18700,-100,4,2,0,85,0,0
20055,-83.3333333333333,4,2,0,85,0,0
20636,-100,4,2,0,85,0,0
21216,-83.3333333333333,4,2,0,85,0,0
21797,-100,4,2,0,85,0,0
22378,-83.3333333333333,4,2,0,85,0,0
23733,-100,4,2,0,85,0,0
24313,-83.3333333333333,4,2,0,85,0,0
24894,-100,4,2,0,85,0,0
25474,-83.3333333333333,4,2,0,85,0,0
25765,-83.3333333333333,4,2,0,5,0,0
25862,-166.666666666667,4,2,0,85,0,0
26152,-166.666666666667,4,2,0,5,0,0
26249,-83.3333333333333,4,2,0,85,0,0
26829,-100,4,2,0,85,0,0
27410,-83.3333333333333,4,2,0,85,0,0
27991,-100,4,2,0,85,0,0
28571,-83.3333333333333,4,2,0,85,0,0
29926,-100,4,2,0,85,0,0
30507,-83.3333333333333,4,2,0,85,0,0
31087,-100,4,2,0,85,0,0
31474,-90.9090909090909,4,2,0,85,0,0
31668,-100,4,2,0,85,0,0
32055,-90.9090909090909,4,2,0,85,0,0
32442,-83.3333333333333,4,2,0,85,0,0
33023,-100,4,2,0,85,0,0
33604,-83.3333333333333,4,2,0,85,0,0
34184,-100,4,2,0,85,0,0
34765,-90.9090909090909,4,2,0,85,0,0
35152,-83.3333333333333,4,2,0,85,0,0
36120,-100,4,2,0,85,0,0
36700,-83.3333333333333,4,2,0,85,0,0
37281,-100,4,2,0,85,0,0
37862,-83.3333333333333,4,2,0,85,0,0
39216,-200,4,2,0,85,0,0
40087,-200,4,2,0,5,0,0
40184,-100,4,2,0,85,0,0
42507,-111.111111111111,4,2,0,85,0,0
58765,-105.263157894737,4,2,0,85,0,0
64958,-100,4,2,0,85,0,0
67668,-125,4,2,0,85,0,0
67958,-125,4,2,0,5,0,0
68055,-83.3333333333333,4,2,0,85,0,0
68442,-100,4,2,0,85,0,0
69216,-83.3333333333333,4,2,0,85,0,0
69604,-100,4,2,0,85,0,0
73862,-125,4,2,0,85,0,0
74152,-125,4,2,0,5,0,0
74249,-83.3333333333333,4,2,0,85,0,0
74636,-100,4,2,0,85,0,0
76958,-125,4,2,0,85,0,0
77249,-125,4,2,0,5,0,0
77345,-100,4,2,0,85,0,0
79571,-100,4,2,0,5,0,0
79668,-100,4,2,0,85,0,0
79958,-100,4,2,0,5,0,0
80055,-90.9090909090908,4,2,0,85,0,0
80442,-83.3333333333333,4,2,0,85,0,0
82378,-100,4,2,0,85,0,0
82765,-90.9090909090909,4,2,0,85,0,0
83152,-83.3333333333333,4,2,0,85,0,0
83539,-125,4,2,0,85,0,0
83926,-100,4,2,0,85,0,0
85087,-125,4,2,0,85,0,0
85668,-100,4,2,0,85,0,0
86636,-83.3333333333333,4,2,0,85,0,0
88184,-133.333333333333,4,2,0,85,0,0
88668,-133.333333333333,4,2,0,5,0,0
88765,-83.3333333333333,4,2,0,85,0,0
89733,-76.9230769230769,4,2,0,85,0,0
94668,-76.9230769230769,4,2,0,5,0,0
94765,-76.9230769230769,4,2,0,55,0,0
95539,-90.9090909090909,4,2,0,65,0,0
95829,-90.9090909090909,4,2,0,5,0,0
95926,-76.9230769230769,4,2,0,85,0,0
101345,-62.5,4,2,0,85,0,0
101636,-62.5,4,2,0,5,0,0
101733,-100,4,2,0,40,0,0
102120,-76.9230769230769,4,2,0,85,0,0
106765,-78.7401574803149,4,2,0,85,0,0
107055,-78.7401574803149,4,2,0,5,0,0
107152,-100,4,2,0,85,0,0
107442,-100,4,2,0,5,0,0
107539,-100,4,2,0,85,0,0
107829,-100,4,2,0,5,0,0
107926,-90.9090909090909,4,2,0,85,0,0
108313,-76.9230769230769,4,2,0,85,0,0
119152,-100,4,2,0,85,0,0
119733,-100,4,2,0,5,0,0
272150,413.793103448276,4,2,0,85,1,0
516743,428.571428571429,4,2,0,85,1,0
516743,-100,4,2,0,85,0,0
530457,-83.3333333333333,4,2,0,85,0,0
544171,-100,4,2,0,85,0,0
544493,-100,4,2,0,5,0,0
544600,-100,4,2,0,60,0,0

[Colours]
Combo1 : 88,153,57
Combo2 : 5,162,207

[HitObjects]
135,211,516743,6,0,L|250:208,1,100,0|2,3:0|0:0,0:0:0:0:
370,63,517171,1,2,0:0:0:0:
347,73,517385,6,0,L|352:134,1,50
370,319,517600,1,0,0:0:0:0:
375,304,517707,1,0,0:0:0:0:
380,289,517814,1,0,0:0:0:0:
385,274,517921,1,0,0:0:0:0:
390,259,518028,1,0,0:0:0:0:
318,226,518135,5,0,0:0:0:0:
312,240,518243,1,0,0:0:0:0:
445,152,518457,6,0,L|440:41,1,100,0|2,3:0|0:0,0:0:0:0:
367,349,518885,1,2,0:0:0:0:
378,332,519100,6,0,L|311:336,1,50
168,254,519314,1,0,0:0:0:0:
180,246,519421,1,0,0:0:0:0:
194,241,519528,1,0,0:0:0:0:
208,239,519635,1,0,0:0:0:0:
223,239,519743,1,0,0:0:0:0:
220,328,519850,5,0,0:0:0:0:
215,313,519957,1,0,0:0:0:0:
231,139,520171,6,0,L|221:258,1,100,0|2,3:0|0:0,0:0:0:0:
47,50,520600,1,2,0:0:0:0:
66,46,520814,6,0,L|73:111,1,50
127,267,521028,1,0,0:0:0:0:
130,257,521135,1,0,0:0:0:0:
204,218,521243,1,0,0:0:0:0:
201,228,521350,1,0,0:0:0:0:
270,279,521457,1,0,0:0:0:0:
273,269,521564,1,0,0:0:0:0:
341,227,521671,5,0,0:0:0:0:
136,356,521885,6,0,L|128:225,1,100,0|2,3:0|0:0,0:0:0:0:
429,70,522314,1,2,0:0:0:0:
436,88,522528,6,0,L|431:146,1,50
230,112,522743,1,0,0:0:0:0:
239,110,522850,1,0,0:0:0:0:
295,160,522957,1,0,0:0:0:0:
304,158,523064,1,0,0:0:0:0:
339,92,523171,5,0,3:0:0:0:
369,117,523278,1,0,3:0:0:0:
380,155,523385,1,0,3:0:0:0:
370,194,523493,1,0,3:0:0:0:
305,238,523600,6,0,L|191:229,1,100,4|0,3:0|0:0,0:0:0:0:
291,341,523921,1,0,0:0:0:0:
300,339,524028,1,2,0:0:0:0:
143,314,524243,5,0,0:0:0:0:
134,312,524350,1,0,0:0:0:0:
60,288,524457,5,0,3:0:0:0:
59,268,524564,1,0,0:0:0:0:
58,248,524671,1,0,0:0:0:0:
57,228,524778,1,0,0:0:0:0:
128,198,524885,5,0,3:0:0:0:
126,173,524993,1,0,3:0:0:0:
125,148,525100,1,0,3:0:0:0:
79,88,525207,1,0,0:0:0:0:
33,28,525314,6,0,P|83:42|134:30,1,100,0|2,3:0|0:0,0:0:0:0:
258,77,525635,1,0,0:0:0:0:
242,89,525743,2,0,P|211:95|177:75,1,50,2|0,0:0|0:0,0:0:0:0:
42,146,525957,1,0,3:0:0:0:
42,146,526171,5,0,3:0:0:0:
80,154,526278,1,0,0:0:0:0:
118,162,526385,1,0,0:0:0:0:
156,170,526493,1,0,0:0:0:0:
223,227,526600,5,0,3:0:0:0:
261,219,526707,1,0,3:0:0:0:
299,211,526814,1,0,3:0:0:0:
373,219,526921,1,0,3:0:0:0:
447,227,527028,6,0,L|431:336,1,100,0|2,3:0|0:0,0:0:0:0:
385,141,527350,1,0,0:0:0:0:
386,170,527457,2,0,L|370:229,1,50,2|0,0:0|0:0,0:0:0:0:
492,133,527671,1,0,3:0:0:0:
492,133,527885,5,0,3:0:0:0:
467,127,527993,1,0,0:0:0:0:
369,88,528100,5,0,0:0:0:0:
394,82,528208,1,0,0:0:0:0:
467,33,528314,5,0,3:0:0:0:
483,80,528421,1,0,3:0:0:0:
467,127,528528,2,0,L|483:186,1,50,0|0,3:0|0:0,0:0:0:0:
293,65,528743,6,0,L|176:68,1,100,0|2,3:0|0:0,0:0:0:0:
35,73,529064,1,0,0:0:0:0:
39,102,529171,2,0,L|119:100,1,50,2|0,0:0|0:0,0:0:0:0:
353,14,529385,1,0,3:0:0:0:
353,14,529600,5,0,3:0:0:0:
374,58,529707,1,0,3:0:0:0:
364,106,529814,1,0,3:0:0:0:
326,137,529921,1,0,3:0:0:0:
264,179,530028,5,0,3:0:0:0:
232,242,530135,1,0,3:0:0:0:
246,312,530242,1,0,3:0:0:0:
301,356,530349,1,0,3:0:0:0:
433,261,530457,6,0,B|375:248|375:248|314:261,1,119.999996337891,4|0,3:0|0:0,0:0:0:0:
174,291,530778,1,8,0:0:0:0:
100,265,530885,6,0,L|112:157,1,59.9999981689454,0|0,3:0|0:0,0:0:0:0:
301,356,531100,1,8,0:0:0:0:
426,141,531314,6,0,L|433:261,1,119.999996337891,0|0,3:0|0:0,0:0:0:0:
312,97,531635,1,0,0:0:0:0:
369,43,531743,5,8,0:0:0:0:
392,46,531850,1,8,0:0:0:0:
415,49,531957,2,0,L|502:41,1,59.9999981689454,8|8,0:0|0:0,0:0:0:0:
324,179,532171,2,0,B|272:170|272:170|251:154|251:154|184:143,1,119.999996337891,0|8,3:0|0:0,0:0:0:0:
70,198,532493,1,8,0:0:0:0:
139,234,532600,6,0,L|226:226,1,59.9999981689454,8|0,0:0|0:0,0:0:0:0:
77,65,532814,2,0,L|40:144,1,59.9999981689454,8|0,0:0|0:0,0:0:0:0:
121,314,533028,2,0,L|240:303,1,119.999996337891,0|2,3:0|0:0,0:0:0:0:
240,302,533457,5,8,0:0:0:0:
312,274,533564,1,8,0:0:0:0:
383,303,533671,1,8,0:0:0:0:
454,274,533778,1,8,0:0:0:0:
483,203,533885,6,0,L|472:143,1,59.9999981689454,4|0,3:0|3:0,0:0:0:0:
240,302,534100,2,0,L|229:361,1,59.9999981689454,0|0,3:0|0:0,0:0:0:0:
383,214,534314,5,8,0:0:0:0:
340,155,534421,1,0,0:0:0:0:
327,84,534528,1,8,0:0:0:0:
333,12,534635,1,0,0:0:0:0:
444,63,534743,6,0,B|386:80|386:80|309:85,1,119.999996337891,0|2,0:0|0:0,0:0:0:0:
124,52,535064,1,0,0:0:0:0:
187,85,535171,6,0,L|182:149,1,59.9999981689454,8|8,0:0|0:0,0:0:0:0:
448,122,535385,2,0,L|443:62,1,59.9999981689454,8|8,0:0|0:0,0:0:0:0:
306,257,535600,2,0,B|364:275|364:275|431:261,1,119.999996337891,0|0,3:0|0:0,0:0:0:0:
284,354,535921,1,0,0:0:0:0:
261,345,536028,1,8,0:0:0:0:
368,166,536243,1,8,0:0:0:0:
261,345,536457,5,8,0:0:0:0:
192,324,536564,1,8,0:0:0:0:
120,318,536671,1,8,0:0:0:0:
51,340,536778,1,8,0:0:0:0:
122,289,536885,5,8,0:0:0:0:
115,216,536993,1,8,0:0:0:0:
108,143,537100,1,8,0:0:0:0:
101,70,537207,1,8,0:0:0:0:
184,135,537314,6,0,L|281:141,2,59.9999981689454,4|0|0,3:0|3:0|3:0,0:0:0:0:
236,258,537635,1,0,3:0:0:0:
264,269,537743,2,0,L|384:262,1,119.999996337891,0|10,3:0|0:0,0:0:0:0:
383,262,538171,6,0,L|387:197,1,59.9999981689454
313,34,538385,1,0,0:0:0:0:
316,64,538493,1,0,0:0:0:0:
322,141,538600,5,8,0:0:0:0:
388,114,538707,1,8,0:0:0:0:
454,87,538814,2,0,L|456:146,1,59.9999981689454,8|0,0:0|0:0,0:0:0:0:
250,108,539028,6,0,L|130:101,1,119.999996337891,0|10,3:0|0:0,0:0:0:0:
78,270,539350,1,0,0:0:0:0:
138,308,539457,2,0,P|148:274|144:246,1,59.9999981689454,8|0,0:0|0:0,0:0:0:0:
39,57,539671,1,0,3:0:0:0:
39,57,539885,6,0,P|102:83|162:64,1,119.999996337891,0|2,0:0|0:0,0:0:0:0:
150,71,540314,6,0,L|214:76,1,59.9999981689454,8|8,0:0|0:0,0:0:0:0:
382,110,540528,2,0,L|318:114,1,59.9999981689454,8|0,0:0|0:0,0:0:0:0:
155,183,540743,6,0,P|134:127|149:70,1,119.999996337891,4|8,3:0|0:0,0:0:0:0:
322,114,541064,1,8,0:0:0:0:
240,152,541171,5,8,0:0:0:0:
245,223,541278,1,8,0:0:0:0:
250,294,541385,1,8,0:0:0:0:
255,365,541493,1,8,0:0:0:0:
186,335,541600,6,0,L|66:323,1,119.999996337891,0|2,3:0|0:0,0:0:0:0:
308,182,542028,5,8,0:0:0:0:
379,185,542135,1,8,0:0:0:0:
450,188,542243,2,0,L|441:120,1,59.9999981689454,8|8,0:0|0:0,0:0:0:0:
169,217,542457,2,0,B|167:277|167:277|192:353,1,119.999996337891,4|8,3:0|0:0,0:0:0:0:
370,286,542778,1,8,0:0:0:0:
303,259,542885,2,0,L|243:266,1,59.9999981689454,8|0,0:0|0:0,0:0:0:0:
35,197,543100,2,0,L|94:204,1,59.9999981689454,8|0,0:0|0:0,0:0:0:0:
440,310,543314,6,0,B|446:265|446:265|428:234|428:234|439:152,1,119.999996337891,8|2,0:0|0:0,0:0:0:0:
303,259,543635,1,0,0:0:0:0:
310,331,543743,2,0,L|369:323,1,59.9999981689454,0|0,3:0|0:0,0:0:0:0:
230,97,543957,2,0,L|207:152,1,59.9999981689454,0|0,3:0|0:0,0:0:0:0:
443,177,544171,6,0,B|434:77|434:77|385:133,1,150,0|0,3:0|0:0,0:0:0:0:
401,114,544600,1,0,3:0:0:0:
296,192,544814,1,0,0:0:0:0:
296,192,544921,1,0,0:0:0:0:
296,192,545028,1,0,3:0:0:0:
204,89,545243,2,0,L|140:100,1,50
79,114,545457,6,0,P|128:141|149:199,1,100,0|0,3:0|0:0,0:0:0:0:
0,259,545885,2,0,P|24:216|68:194,1,100,0|0,3:0|0:0,0:0:0:0:
80,274,546207,1,0,0:0:0:0:
80,274,546314,1,0,3:0:0:0:
179,266,546528,1,0,0:0:0:0:
179,266,546743,6,0,L|79:273,1,100,0|0,3:0|0:0,0:0:0:0:
260,135,547171,2,0,L|160:127,1,100,0|0,3:0|0:0,0:0:0:0:
333,329,547600,2,0,P|352:278|340:226,1,100,0|0,3:0|0:0,0:0:0:0:
222,266,548028,6,0,L|283:271,2,50,0|0|0,3:0|0:0|0:0,0:0:0:0:
261,175,548350,1,0,0:0:0:0:
269,187,548457,6,0,B|318:201|318:201|384:185,1,100,0|0,3:0|0:0,0:0:0:0:
437,314,548778,1,0,0:0:0:0:
429,326,548885,6,0,B|380:340|380:340|314:324,1,100,0|0,3:0|0:0,0:0:0:0:
172,117,549314,2,0,P|153:168|165:220,1,100,0|0,3:0|0:0,0:0:0:0:
377,93,549743,6,0,L|383:37,2,50
253,61,550064,1,0,0:0:0:0:
243,49,550171,2,0,L|237:-7,2,50
369,191,550600,6,0,L|377:92,1,100
216,137,550921,1,0,0:0:0:0:
200,211,551028,2,0,B|195:248|208:283|208:283|223:319|206:381,1,150
39,334,551457,2,0,P|85:320|139:330,1,100
277,243,551778,1,0,0:0:0:0:
289,251,551885,2,0,P|325:248|345:240,1,50
286,327,552100,2,0,P|321:333|342:330,1,50
293,168,552314,6,0,L|301:58,1,100
300,68,552743,2,0,B|250:78|250:78|211:64|211:64|133:78,1,150
142,232,553171,2,0,P|184:193|182:135,1,100
55,27,553493,1,0,0:0:0:0:
42,35,553600,2,0,L|32:89,1,50
106,115,553814,2,0,L|116:169,1,50
17,288,554028,2,0,L|34:172,1,100
31,189,554457,6,0,B|79:206|79:206|136:194,1,100
304,280,554885,2,0,L|310:340,2,50
402,232,555207,1,0,0:0:0:0:
390,222,555314,2,0,L|402:113,1,100
207,270,555743,2,0,L|195:161,1,100
335,34,556171,6,0,L|329:94,2,50
269,139,556493,1,0,0:0:0:0:
275,152,556600,2,0,B|323:167|323:167|387:159,1,100
483,98,556921,1,0,0:0:0:0:
468,100,557028,2,0,L|462:160,3,50
450,236,557457,6,0,L|439:342,1,100
288,264,557778,1,0,0:0:0:0:
363,277,557885,2,0,L|344:124,1,150
344,128,558314,5,0,0:0:0:0:
312,336,558528,1,0,0:0:0:0:
196,245,558743,2,0,L|131:252,1,50
96,322,558957,2,0,L|161:329,1,50
252,192,559171,6,0,B|258:142|258:142|241:86,1,100
243,94,559600,2,0,P|311:106|396:50,1,150
381,69,560028,1,0,0:0:0:0:
252,192,560243,1,0,0:0:0:0:
142,73,560457,2,0,B|114:68|89:49|89:49|51:40|-1:74,1,133.333333333333
215,23,560885,6,0,P|230:68|215:124,1,100
82,179,561314,2,0,P|85:252|190:291,1,150
159,214,561743,6,0,B|218:212|218:212|254:234|254:234|333:232,1,150
285,313,562171,6,0,L|280:364,2,50
414,300,562493,1,0,0:0:0:0:
422,287,562600,2,0,B|411:191|411:191|371:233,1,150
336,160,563028,6,0,B|318:88|318:88|356:0,1,150
491,91,563457,2,0,P|444:102|383:86,1,100
219,30,563885,6,0,P|195:27|158:36,2,50
207,208,564207,1,0,0:0:0:0:
192,205,564314,2,0,L|198:112,1,83.3333333333333
49,219,564635,1,0,0:0:0:0:
101,164,564743,6,0,L|91:12,1,150
191,49,565171,2,0,L|188:108,1,50
124,237,565385,2,0,L|127:296,1,50
223,192,565600,6,0,P|278:186|327:204,1,100
191,49,566028,2,0,P|238:20|336:27,1,150
278,149,566457,2,0,L|269:87,2,50
309,330,566885,2,0,L|294:227,1,100
421,132,567314,6,0,L|476:136,2,50
393,228,567635,1,0,0:0:0:0:
406,233,567743,2,0,L|461:229,1,50
278,149,567957,1,0,0:0:0:0:
278,149,568171,6,0,L|136:156,1,100
