osu file format v14

[General]
AudioFilename: audio.mp3
AudioLeadIn: 0
PreviewTime: -1
Countdown: 1
SampleSet: None
StackLeniency: 0.7
Mode: 3
LetterboxInBreaks: 0
SpecialStyle: 0
WidescreenStoryboard: 0

[Editor]
DistanceSpacing: 0.8
BeatDivisor: 6
GridSize: 32
TimelineZoom: 1

[Metadata]
Title:Birds
TitleUnicode:Birds
Artist:Middle Milk feat Mumblin Johnsson & Tos
ArtistUnicode:Middle Milk feat Mumblin Johnsson & Tos
Creator:MartZ0Z
Version:Hard
Source:
Tags:
BeatmapID:1451570
BeatmapSetID:685742

[Difficulty]
HPDrainRate:4
CircleSize:4
OverallDifficulty:4
ApproachRate:5
SliderMultiplier:1.4
SliderTickRate:4

[Events]
//Background and Video events
Video,0,"Middle Milk feat Mumblin' Johnsson & Tos - Birds [House _ Plasmapool] #tbt.mp4"
//Break Periods
//Storyboard Layer 0 (Background)
//Storyboard Layer 1 (Fail)
//Storyboard Layer 2 (Pass)
//Storyboard Layer 3 (Foreground)
//Storyboard Sound Samples

[TimingPoints]
0,491.803278688525,4,2,0,100,1,0

[HitObjects]
448,192,4180,5,0,0:0:0:0:
192,192,4344,1,0,0:0:0:0:
320,192,4426,1,0,0:0:0:0:
320,192,4672,1,0,0:0:0:0:
192,192,4754,1,0,0:0:0:0:
64,192,4918,1,0,0:0:0:0:
192,192,5163,1,0,0:0:0:0:
320,192,5245,1,0,0:0:0:0:
192,192,5409,1,0,0:0:0:0:
320,192,5655,1,0,0:0:0:0:
448,192,5737,1,0,0:0:0:0:
320,192,5819,1,0,0:0:0:0:
192,192,5901,1,0,0:0:0:0:
448,192,6229,5,0,0:0:0:0:
192,192,6393,1,0,0:0:0:0:
320,192,6475,1,0,0:0:0:0:
320,192,6721,1,0,0:0:0:0:
192,192,6967,1,0,0:0:0:0:
320,192,7049,1,0,0:0:0:0:
448,192,7131,1,0,0:0:0:0:
320,192,7213,1,0,0:0:0:0:
192,192,7868,1,0,0:0:0:0:
320,192,7950,1,0,0:0:0:0:
448,192,8196,5,0,0:0:0:0:
192,192,8360,1,0,0:0:0:0:
320,192,8442,1,0,0:0:0:0:
320,192,8688,1,0,0:0:0:0:
192,192,8934,1,0,0:0:0:0:
320,192,9016,1,0,0:0:0:0:
448,192,9098,1,0,0:0:0:0:
320,192,9180,1,0,0:0:0:0:
192,192,9344,1,0,0:0:0:0:
320,192,9426,1,0,0:0:0:0:
320,192,9590,1,0,0:0:0:0:
320,192,9836,1,0,0:0:0:0:
320,192,10081,1,0,0:0:0:0:
192,192,10327,128,0,11803:0:0:0:0:
320,192,10327,128,0,11803:0:0:0:0:
448,192,11803,1,0,0:0:0:0:
320,192,12049,1,0,0:0:0:0:
448,192,12295,1,0,0:0:0:0:
320,192,12540,1,0,0:0:0:0:
320,192,12786,1,0,0:0:0:0:
192,192,13032,1,0,0:0:0:0:
64,192,13278,1,0,0:0:0:0:
192,192,13524,1,0,0:0:0:0:
448,192,13770,1,0,0:0:0:0:
64,192,13770,1,0,0:0:0:0:
448,192,14016,1,0,0:0:0:0:
64,192,14016,1,0,0:0:0:0:
64,192,14262,1,0,0:0:0:0:
448,192,14262,1,0,0:0:0:0:
448,192,14508,1,0,0:0:0:0:
64,192,14508,1,0,0:0:0:0:
320,192,14754,1,0,0:0:0:0:
192,192,14754,1,0,0:0:0:0:
192,192,15000,1,0,0:0:0:0:
320,192,15000,1,0,0:0:0:0:
192,192,15245,1,0,0:0:0:0:
320,192,15245,1,0,0:0:0:0:
320,192,15491,1,0,0:0:0:0:
192,192,15491,1,0,0:0:0:0:
448,192,15737,1,0,0:0:0:0:
64,192,15737,1,0,0:0:0:0:
320,192,15983,1,0,0:0:0:0:
192,192,16229,1,0,0:0:0:0:
320,192,16475,1,0,0:0:0:0:
192,192,16721,1,0,0:0:0:0:
320,192,16967,1,0,0:0:0:0:
192,192,17213,1,0,0:0:0:0:
320,192,17459,1,0,0:0:0:0:
448,192,17704,128,0,17950:0:0:0:0:
64,192,17704,128,0,17950:0:0:0:0:
320,192,18196,128,0,18442:0:0:0:0:
192,192,18196,128,0,18442:0:0:0:0:
448,192,18688,128,0,18934:0:0:0:0:
64,192,18688,128,0,18934:0:0:0:0:
320,192,19262,1,0,0:0:0:0:
192,192,19344,1,0,0:0:0:0:
448,192,19590,128,0,20573:0:0:0:0:
448,192,21885,1,0,0:0:0:0:
320,192,22049,1,0,0:0:0:0:
192,192,22213,1,0,0:0:0:0:
320,192,22377,1,0,0:0:0:0:
192,192,22540,1,0,0:0:0:0:
320,192,22704,1,0,0:0:0:0:
448,192,22868,1,0,0:0:0:0:
320,192,23032,1,0,0:0:0:0:
192,192,23196,1,0,0:0:0:0:
320,192,23360,1,0,0:0:0:0:
64,192,23606,1,0,0:0:0:0:
448,192,23606,1,0,0:0:0:0:
320,192,24098,1,0,0:0:0:0:
192,192,24098,1,0,0:0:0:0:
64,192,24590,128,0,25573:0:0:0:0:
192,192,24590,128,0,25573:0:0:0:0:
320,192,24836,1,0,0:0:0:0:
448,192,25081,1,0,0:0:0:0:
320,192,25327,1,0,0:0:0:0:
320,192,25573,1,0,0:0:0:0:
448,192,25573,1,0,0:0:0:0:
448,192,25819,1,0,0:0:0:0:
320,192,26065,1,0,0:0:0:0:
448,192,26311,1,0,0:0:0:0:
320,192,26557,1,0,0:0:0:0:
448,192,26803,1,0,0:0:0:0:
320,192,27049,1,0,0:0:0:0:
448,192,27295,1,0,0:0:0:0:
320,192,27459,1,0,0:0:0:0:
448,192,27786,1,0,0:0:0:0:
320,192,28032,1,0,0:0:0:0:
192,192,28278,1,0,0:0:0:0:
64,192,28524,1,0,0:0:0:0:
192,192,28688,1,0,0:0:0:0:
320,192,28770,1,0,0:0:0:0:
192,192,28934,1,0,0:0:0:0:
64,192,29262,1,0,0:0:0:0:
64,192,29508,1,0,0:0:0:0:
448,192,29508,1,0,0:0:0:0:
320,192,29754,1,0,0:0:0:0:
192,192,29754,1,0,0:0:0:0:
320,192,29918,1,0,0:0:0:0:
448,192,30081,1,0,0:0:0:0:
320,192,30245,1,0,0:0:0:0:
192,192,30491,1,0,0:0:0:0:
320,192,30655,1,0,0:0:0:0:
320,192,30819,1,0,0:0:0:0:
448,192,30901,1,0,0:0:0:0:
192,192,31065,1,0,0:0:0:0:
320,192,31229,1,0,0:0:0:0:
64,192,31475,128,0,33442:0:0:0:0:
448,192,31475,128,0,33442:0:0:0:0:
192,192,31721,1,0,0:0:0:0:
320,192,31967,1,0,0:0:0:0:
192,192,32213,1,0,0:0:0:0:
320,192,32459,1,0,0:0:0:0:
192,192,32704,1,0,0:0:0:0:
320,192,32950,1,0,0:0:0:0:
192,192,33196,1,0,0:0:0:0:
320,192,33442,1,0,0:0:0:0:
64,192,33688,1,0,0:0:0:0:
448,192,33688,1,0,0:0:0:0:
320,192,33934,1,0,0:0:0:0:
192,192,33934,1,0,0:0:0:0:
64,192,34180,1,0,0:0:0:0:
448,192,34180,1,0,0:0:0:0:
192,192,34426,1,0,0:0:0:0:
320,192,34426,1,0,0:0:0:0:
64,192,34672,1,0,0:0:0:0:
448,192,34672,1,0,0:0:0:0:
448,192,34918,1,0,0:0:0:0:
64,192,34918,1,0,0:0:0:0:
320,192,35081,1,0,0:0:0:0:
192,192,35163,1,0,0:0:0:0:
64,192,35409,1,0,0:0:0:0:
448,192,35409,1,0,0:0:0:0:
192,192,35655,1,0,0:0:0:0:
320,192,35655,1,0,0:0:0:0:
448,192,35901,1,0,0:0:0:0:
64,192,35901,1,0,0:0:0:0:
320,192,36147,1,0,0:0:0:0:
192,192,36147,1,0,0:0:0:0:
320,192,36393,1,0,0:0:0:0:
192,192,36639,1,0,0:0:0:0:
320,192,36885,1,0,0:0:0:0:
64,192,37377,1,0,0:0:0:0:
448,192,37377,1,0,0:0:0:0:
320,192,37622,1,0,0:0:0:0:
192,192,37868,1,0,0:0:0:0:
64,192,38114,1,0,0:0:0:0:
320,192,38360,1,0,0:0:0:0:
320,192,38524,1,0,0:0:0:0:
192,192,38606,1,0,0:0:0:0:
320,192,38770,128,0,39098:0:0:0:0:
64,192,39098,1,0,0:0:0:0:
192,192,39180,1,0,0:0:0:0:
320,192,39344,1,0,0:0:0:0:
320,192,39590,1,0,0:0:0:0:
192,192,39836,1,0,0:0:0:0:
192,192,40081,1,0,0:0:0:0:
64,192,40327,1,0,0:0:0:0:
64,192,40491,1,0,0:0:0:0:
192,192,40655,1,0,0:0:0:0:
64,192,40819,1,0,0:0:0:0:
320,192,41065,1,0,0:0:0:0:
448,192,41147,1,0,0:0:0:0:
320,192,41311,1,0,0:0:0:0:
64,192,41311,1,0,0:0:0:0:
192,192,41475,1,0,0:0:0:0:
320,192,41639,1,0,0:0:0:0:
448,192,41803,1,0,0:0:0:0:
64,192,42049,1,0,0:0:0:0:
320,192,42049,1,0,0:0:0:0:
192,192,42295,1,0,0:0:0:0:
448,192,42540,1,0,0:0:0:0:
320,192,42786,1,0,0:0:0:0:
192,192,43032,1,0,0:0:0:0:
448,192,43278,1,0,0:0:0:0:
64,192,43278,1,0,0:0:0:0:
448,192,43524,1,0,0:0:0:0:
64,192,43524,1,0,0:0:0:0:
192,192,43770,1,0,0:0:0:0:
320,192,43770,1,0,0:0:0:0:
192,192,44016,1,0,0:0:0:0:
320,192,44016,1,0,0:0:0:0:
448,192,44262,1,0,0:0:0:0:
192,192,44508,1,0,0:0:0:0:
448,192,44754,1,0,0:0:0:0:
192,192,45000,1,0,0:0:0:0:
320,192,45245,1,0,0:0:0:0:
448,192,45491,1,0,0:0:0:0:
448,192,45737,1,0,0:0:0:0:
192,192,45737,1,0,0:0:0:0:
448,192,45983,1,0,0:0:0:0:
64,192,45983,1,0,0:0:0:0:
320,192,46229,1,0,0:0:0:0:
192,192,46229,1,0,0:0:0:0:
448,192,46475,1,0,0:0:0:0:
448,192,46721,1,0,0:0:0:0:
448,192,46967,1,0,0:0:0:0:
64,192,46967,1,0,0:0:0:0:
320,192,47213,1,0,0:0:0:0:
192,192,47213,1,0,0:0:0:0:
192,192,47459,1,0,0:0:0:0:
320,192,47459,1,0,0:0:0:0:
64,192,47704,1,0,0:0:0:0:
64,192,47950,1,0,0:0:0:0:
448,192,48196,1,0,0:0:0:0:
448,192,48442,1,0,0:0:0:0:
320,192,48688,1,0,0:0:0:0:
192,192,48934,1,0,0:0:0:0:
320,192,49016,1,0,0:0:0:0:
320,192,49180,1,0,0:0:0:0:
192,192,49262,1,0,0:0:0:0:
192,192,49426,1,0,0:0:0:0:
320,192,49508,1,0,0:0:0:0:
320,192,49672,1,0,0:0:0:0:
320,192,49836,1,0,0:0:0:0:
448,192,49918,1,0,0:0:0:0:
448,192,50081,1,0,0:0:0:0:
320,192,50163,1,0,0:0:0:0:
64,192,50409,1,0,0:0:0:0:
64,192,50655,1,0,0:0:0:0:
192,192,50696,1,0,0:0:0:0:
320,192,50737,1,0,0:0:0:0:
448,192,50778,1,0,0:0:0:0:
448,192,51147,1,0,0:0:0:0:
192,192,51147,1,0,0:0:0:0:
448,192,51393,1,0,0:0:0:0:
192,192,51393,1,0,0:0:0:0:
320,192,51639,1,0,0:0:0:0:
64,192,51639,1,0,0:0:0:0:
320,192,51885,1,0,0:0:0:0:
64,192,51885,1,0,0:0:0:0:
192,192,52131,1,0,0:0:0:0:
320,192,52295,1,0,0:0:0:0:
192,192,52459,1,0,0:0:0:0:
320,192,52622,1,0,0:0:0:0:
448,192,52868,1,0,0:0:0:0:
448,192,53114,1,0,0:0:0:0:
320,192,53360,1,0,0:0:0:0:
320,192,53606,1,0,0:0:0:0:
192,192,53852,1,0,0:0:0:0:
320,192,54098,1,0,0:0:0:0:
192,192,54262,1,0,0:0:0:0:
320,192,54344,1,0,0:0:0:0:
448,192,54590,1,0,0:0:0:0:
192,192,54836,1,0,0:0:0:0:
320,192,55081,1,0,0:0:0:0:
192,192,55327,1,0,0:0:0:0:
320,192,55573,1,0,0:0:0:0:
192,192,55819,1,0,0:0:0:0:
448,192,56065,1,0,0:0:0:0:
192,192,56065,1,0,0:0:0:0:
64,192,56311,1,0,0:0:0:0:
320,192,56311,1,0,0:0:0:0:
320,192,56557,1,0,0:0:0:0:
64,192,56557,1,0,0:0:0:0:
192,192,56803,1,0,0:0:0:0:
448,192,56803,1,0,0:0:0:0:
448,192,57049,1,0,0:0:0:0:
64,192,57049,1,0,0:0:0:0:
192,192,57295,1,0,0:0:0:0:
320,192,57295,1,0,0:0:0:0:
320,192,57540,1,0,0:0:0:0:
192,192,57540,1,0,0:0:0:0:
64,192,57786,1,0,0:0:0:0:
448,192,57786,1,0,0:0:0:0:
320,192,58032,1,0,0:0:0:0:
192,192,58032,1,0,0:0:0:0:
192,192,58278,1,0,0:0:0:0:
320,192,58278,1,0,0:0:0:0:
448,192,58524,1,0,0:0:0:0:
64,192,58524,1,0,0:0:0:0:
192,192,58770,1,0,0:0:0:0:
192,192,59016,1,0,0:0:0:0:
192,192,59262,1,0,0:0:0:0:
320,192,59508,1,0,0:0:0:0:
320,192,59754,1,0,0:0:0:0:
192,192,60000,1,0,0:0:0:0:
320,192,60163,1,0,0:0:0:0:
192,192,60327,1,0,0:0:0:0:
320,192,60491,1,0,0:0:0:0:
448,192,60983,1,0,0:0:0:0:
320,192,61147,1,0,0:0:0:0:
192,192,61311,1,0,0:0:0:0:
64,192,61475,1,0,0:0:0:0:
320,192,61639,1,0,0:0:0:0:
192,192,61803,1,0,0:0:0:0:
320,192,61967,1,0,0:0:0:0:
448,192,62131,1,0,0:0:0:0:
320,192,62295,1,0,0:0:0:0:
192,192,62459,1,0,0:0:0:0:
64,192,62622,1,0,0:0:0:0:
320,192,62786,1,0,0:0:0:0:
192,192,62950,1,0,0:0:0:0:
448,192,62950,128,0,64918:0:0:0:0:
320,192,63114,1,0,0:0:0:0:
320,192,63442,1,0,0:0:0:0:
192,192,63442,1,0,0:0:0:0:
320,192,63688,1,0,0:0:0:0:
192,192,63934,1,0,0:0:0:0:
320,192,64180,1,0,0:0:0:0:
192,192,64180,1,0,0:0:0:0:
320,192,64426,1,0,0:0:0:0:
192,192,64672,1,0,0:0:0:0:
320,192,64918,1,0,0:0:0:0:
192,192,64918,1,0,0:0:0:0:
64,192,64918,128,0,66885:0:0:0:0:
448,192,65163,1,0,0:0:0:0:
192,192,65409,1,0,0:0:0:0:
192,192,65655,1,0,0:0:0:0:
320,192,65901,1,0,0:0:0:0:
320,192,66147,1,0,0:0:0:0:
448,192,66393,1,0,0:0:0:0:
448,192,66639,1,0,0:0:0:0:
448,192,66803,1,0,0:0:0:0:
320,192,67049,1,0,0:0:0:0:
448,192,67213,1,0,0:0:0:0:
192,192,67459,1,0,0:0:0:0:
448,192,67622,1,0,0:0:0:0:
192,192,67786,1,0,0:0:0:0:
320,192,68032,1,0,0:0:0:0:
448,192,68196,1,0,0:0:0:0:
320,192,68360,1,0,0:0:0:0:
320,192,68606,1,0,0:0:0:0:
448,192,68770,1,0,0:0:0:0:
320,192,69098,1,0,0:0:0:0:
320,192,69344,1,0,0:0:0:0:
192,192,69590,1,0,0:0:0:0:
192,192,69836,1,0,0:0:0:0:
448,192,70081,1,0,0:0:0:0:
448,192,70327,1,0,0:0:0:0:
448,192,70573,1,0,0:0:0:0:
320,192,70819,1,0,0:0:0:0:
192,192,70819,1,0,0:0:0:0:
448,192,71065,1,0,0:0:0:0:
448,192,71311,1,0,0:0:0:0:
192,192,71557,1,0,0:0:0:0:
64,192,71803,1,0,0:0:0:0:
320,192,72049,1,0,0:0:0:0:
320,192,72295,1,0,0:0:0:0:
320,192,72540,1,0,0:0:0:0:
192,192,72786,1,0,0:0:0:0:
448,192,73032,1,0,0:0:0:0:
448,192,73278,1,0,0:0:0:0:
320,192,73524,1,0,0:0:0:0:
192,192,73770,1,0,0:0:0:0:
64,192,74016,1,0,0:0:0:0:
192,192,74262,1,0,0:0:0:0:
320,192,74508,1,0,0:0:0:0:
448,192,74754,1,0,0:0:0:0:
64,192,74754,1,0,0:0:0:0:
