osu file format v14

[General]
AudioFilename: audio.mp3
AudioLeadIn: 0
PreviewTime: -1
Countdown: 1
SampleSet: None
StackLeniency: 0.7
Mode: 2
LetterboxInBreaks: 0
WidescreenStoryboard: 1

[Editor]
DistanceSpacing: 1.5
BeatDivisor: 4
GridSize: 32
TimelineZoom: 1

[Metadata]
Title:Achromat
TitleUnicode:Achromat
Artist:Middle Island
ArtistUnicode:Middle Island
Creator:gaaraati
Version:Salad
Source:
Tags:
BeatmapID:1294217
BeatmapSetID:613410

[Difficulty]
HPDrainRate:4
CircleSize:4
OverallDifficulty:9
ApproachRate:9
SliderMultiplier:1.4
SliderTickRate:1

[Events]
//Background and Video events
0,0,"Feka.png",0,0
//Break Periods
//Storyboard Layer 0 (Background)
//Storyboard Layer 1 (Fail)
//Storyboard Layer 2 (Pass)
//Storyboard Layer 3 (Foreground)
//Storyboard Sound Samples

[TimingPoints]
-270,363.636363636364,4,2,1,100,1,0
48093,-100,4,2,1,100,0,0
69911,-100,4,2,1,100,0,0
100457,-100,4,2,1,100,0,0

[HitObjects]
256,192,639,5,0,0:0:0:0:
384,192,820,1,0,0:0:0:0:
288,160,1002,1,0,0:0:0:0:
416,160,1184,1,2,0:0:0:0:
160,192,1548,1,2,0:0:0:0:
352,160,1730,1,0,0:0:0:0:
288,160,1820,1,0,0:0:0:0:
224,160,1911,1,0,0:0:0:0:
160,160,2002,1,0,0:0:0:0:
32,128,2093,5,4,0:0:0:0:
96,128,2184,1,0,0:0:0:0:
160,128,2275,1,2,0:0:0:0:
224,128,2366,1,0,0:0:0:0:
288,128,2457,1,0,0:0:0:0:
480,128,2639,5,2,0:0:0:0:
256,192,3548,1,2,0:0:0:0:
128,192,3730,1,2,0:0:0:0:
192,160,3911,1,2,0:0:0:0:
64,160,4093,1,8,0:0:0:0:
288,192,4457,1,10,0:0:0:0:
128,160,4639,5,0,0:0:0:0:
192,160,4730,1,0,0:0:0:0:
288,160,4820,1,2,0:0:0:0:
352,160,4911,1,0,0:0:0:0:
448,128,5002,1,0,0:0:0:0:
384,128,5093,1,0,0:0:0:0:
288,128,5184,1,2,0:0:0:0:
224,128,5275,1,0,0:0:0:0:
160,128,5366,1,0,0:0:0:0:
0,128,5548,5,8,0:0:0:0:
256,128,5911,1,8,0:0:0:0:
512,128,6275,1,8,0:0:0:0:
384,192,6639,1,8,0:0:0:0:
256,192,7002,1,8,0:0:0:0:
416,192,7366,1,10,0:0:0:0:
192,192,7548,1,2,0:0:0:0:
256,160,7639,1,0,0:0:0:0:
192,128,7730,5,0,0:0:0:0:
416,192,7820,1,0,0:0:0:0:
416,160,7911,1,0,0:0:0:0:
416,128,8002,1,0,0:0:0:0:
192,192,8093,1,2,0:0:0:0:
160,160,8184,1,0,0:0:0:0:
192,128,8275,1,0,0:0:0:0:
480,192,8366,1,0,0:0:0:0:
480,160,8457,1,2,0:0:0:0:
480,128,8548,5,0,0:0:0:0:
320,192,8639,1,0,0:0:0:0:
384,160,8730,1,0,0:0:0:0:
320,128,8820,1,2,0:0:0:0:
224,192,8911,1,0,0:0:0:0:
256,128,9002,1,0,0:0:0:0:
288,64,9093,1,0,0:0:0:0:
384,192,9184,1,2,0:0:0:0:
448,160,9275,1,0,0:0:0:0:
384,128,9366,1,0,0:0:0:0:
224,192,9457,1,0,0:0:0:0:
160,160,9548,1,2,0:0:0:0:
96,128,9639,1,0,0:0:0:0:
352,192,9730,1,0,0:0:0:0:
416,160,9820,5,0,0:0:0:0:
128,192,9911,5,10,0:0:0:0:
192,160,10002,1,2,0:0:0:0:
224,128,10093,1,2,0:0:0:0:
256,96,10184,1,0,0:0:0:0:
128,64,10275,2,8,L|224:64,1,70
384,192,10639,5,0,0:0:0:0:
288,192,10730,1,0,0:0:0:0:
192,192,10820,1,2,0:0:0:0:
96,192,10911,1,0,0:0:0:0:
0,192,11002,1,0,0:0:0:0:
96,128,11184,2,2,L|128:96,1,35
64,96,11366,2,8,L|160:96,1,70
256,192,11730,5,0,0:0:0:0:
320,160,11820,1,0,0:0:0:0:
256,128,11911,1,0,0:0:0:0:
320,192,12002,1,0,0:0:0:0:
384,160,12093,1,2,0:0:0:0:
320,128,12184,1,0,0:0:0:0:
384,96,12275,1,0,0:0:0:0:
320,64,12457,2,0,L|224:64,1,70
128,192,12820,6,8,L|128:128,1,35
160,192,13002,2,0,L|160:128,1,35
0,160,13184,5,2,0:0:0:0:
128,157,13275,1,0,0:0:0:0:
256,160,13366,1,10,0:0:0:0:
384,160,13457,1,0,0:0:0:0:
512,160,13548,1,2,0:0:0:0:
512,160,13639,2,2,L|512:96,1,35
480,256,13911,6,2,L|448:224,1,35
416,224,14093,2,0,L|384:192,1,35
192,192,14275,2,0,L|224:160,2,35
352,192,14548,2,0,L|320:160,3,35
256,288,15002,5,2,0:0:0:0:
224,256,15093,1,0,0:0:0:0:
192,224,15184,1,0,0:0:0:0:
192,192,15275,1,0,0:0:0:0:
224,160,15366,1,2,0:0:0:0:
256,160,15457,1,0,0:0:0:0:
288,160,15548,1,0,0:0:0:0:
320,192,15639,1,0,0:0:0:0:
320,224,15730,1,2,0:0:0:0:
288,256,15820,1,2,0:0:0:0:
256,256,15911,1,2,0:0:0:0:
224,224,16002,1,2,0:0:0:0:
256,192,16093,1,2,0:0:0:0:
288,192,16184,1,2,0:0:0:0:
288,224,16275,5,2,0:0:0:0:
160,192,16457,2,8,L|96:192,1,35
32,192,16639,1,2,0:0:0:0:
32,128,16730,1,0,0:0:0:0:
64,96,16820,1,2,0:0:0:0:
256,192,16911,1,0,0:0:0:0:
256,128,17002,1,0,0:0:0:0:
224,96,17093,1,0,0:0:0:0:
352,192,17184,1,2,0:0:0:0:
384,192,17275,5,2,0:0:0:0:
352,160,17366,1,2,0:0:0:0:
384,128,17457,1,2,0:0:0:0:
352,96,17548,1,2,0:0:0:0:
416,64,17639,1,2,0:0:0:0:
352,32,17730,1,2,0:0:0:0:
256,192,17911,6,4,L|224:160,1,35
384,160,18093,1,2,0:0:0:0:
320,160,18184,1,0,0:0:0:0:
256,160,18275,1,2,0:0:0:0:
192,160,18366,1,0,0:0:0:0:
32,192,18457,1,0,0:0:0:0:
64,160,18548,1,0,0:0:0:0:
32,128,18639,1,2,0:0:0:0:
64,96,18730,1,2,0:0:0:0:
32,64,18820,1,2,0:0:0:0:
96,32,18911,1,2,0:0:0:0:
32,0,19002,1,2,0:0:0:0:
160,192,19184,5,2,0:0:0:0:
352,192,19275,1,2,0:0:0:0:
256,192,19366,2,10,L|160:192,1,70
256,160,19639,1,2,0:0:0:0:
352,128,19730,2,8,L|256:128,1,70
352,96,20002,1,2,0:0:0:0:
448,96,20093,2,8,L|384:96,1,35
256,96,20275,2,0,L|320:96,1,35
448,96,20457,2,0,L|384:96,1,35
64,96,20639,6,0,L|128:96,1,35
256,192,20820,2,0,L|224:160,1,35
64,192,21002,2,0,L|32:160,1,35
224,192,21184,2,0,L|256:160,1,35
64,192,21366,2,0,L|32:160,1,35
224,192,21548,2,0,L|256:160,1,35
224,128,21730,1,2,0:0:0:0:
256,192,21911,12,8,23366,0:0:0:0:
352,192,23911,5,0,0:0:0:0:
192,192,24093,1,0,0:0:0:0:
32,192,24275,1,0,0:0:0:0:
128,192,24457,2,2,L|160:160,1,35
320,192,25002,5,0,0:0:0:0:
256,160,25093,1,0,0:0:0:0:
192,128,25184,1,2,0:0:0:0:
384,192,25275,1,0,0:0:0:0:
320,160,25366,1,0,0:0:0:0:
256,128,25457,1,0,0:0:0:0:
416,160,25548,1,2,0:0:0:0:
352,128,25639,1,0,0:0:0:0:
288,96,25730,1,0,0:0:0:0:
32,192,25911,5,2,0:0:0:0:
256,192,26820,5,0,0:0:0:0:
384,192,27002,1,0,0:0:0:0:
512,192,27184,1,0,0:0:0:0:
256,192,27366,2,0,L|320:192,2,35
160,192,27730,1,2,0:0:0:0:
32,192,27911,5,2,0:0:0:0:
96,192,28002,1,0,0:0:0:0:
160,192,28093,1,2,0:0:0:0:
224,192,28184,1,0,0:0:0:0:
352,160,28275,1,0,0:0:0:0:
288,160,28366,1,0,0:0:0:0:
224,160,28457,1,2,0:0:0:0:
160,160,28548,1,0,0:0:0:0:
96,160,28639,1,0,0:0:0:0:
256,160,28820,5,2,0:0:0:0:
0,160,29184,1,2,0:0:0:0:
352,192,29911,1,2,0:0:0:0:
96,192,30275,2,0,L|96:128,2,35
256,192,30639,1,2,0:0:0:0:
416,160,30820,5,2,0:0:0:0:
352,160,30911,1,0,0:0:0:0:
288,160,31002,1,2,0:0:0:0:
224,160,31093,1,0,0:0:0:0:
480,128,31184,1,0,0:0:0:0:
416,128,31275,1,0,0:0:0:0:
352,128,31366,1,2,0:0:0:0:
288,128,31457,1,0,0:0:0:0:
192,128,31730,6,0,L|160:96,1,35
32,128,32093,2,0,L|64:96,1,35
256,192,32457,6,4,L|256:128,1,35
320,192,32639,2,0,L|320:128,1,35
384,192,32820,2,0,L|384:128,1,35
448,192,33002,2,0,L|448:128,1,35
512,192,33184,2,4,L|480:128,1,70
320,192,33548,2,0,L|256:192,1,35
32,192,33730,2,0,L|96:192,4,35
256,160,34275,5,0,0:0:0:0:
320,160,34366,1,0,0:0:0:0:
384,160,34457,1,0,0:0:0:0:
192,128,34548,1,0,0:0:0:0:
256,128,34639,1,10,0:0:0:0:
320,128,34730,1,0,0:0:0:0:
128,96,34820,1,0,0:0:0:0:
192,96,34911,1,0,0:0:0:0:
256,96,35002,1,10,0:0:0:0:
64,64,35093,5,0,0:0:0:0:
128,64,35184,1,0,0:0:0:0:
192,64,35275,1,0,0:0:0:0:
256,64,35366,1,2,0:0:0:0:
320,64,35457,1,0,0:0:0:0:
512,64,35548,1,10,0:0:0:0:
256,64,35730,1,10,0:0:0:0:
384,64,35911,1,10,0:0:0:0:
64,192,36093,2,0,L|96:160,2,35
224,192,36457,1,2,0:0:0:0:
352,128,36639,5,0,0:0:0:0:
288,128,36730,1,0,0:0:0:0:
224,128,36820,1,2,0:0:0:0:
160,128,36911,1,0,0:0:0:0:
64,96,37002,1,0,0:0:0:0:
96,96,37093,1,0,0:0:0:0:
160,96,37184,1,2,0:0:0:0:
224,96,37275,1,0,0:0:0:0:
288,96,37366,1,0,0:0:0:0:
480,96,37548,5,2,0:0:0:0:
352,192,38457,1,2,0:0:0:0:
320,192,38639,1,2,0:0:0:0:
288,192,38820,1,2,0:0:0:0:
96,192,39002,2,2,L|256:192,1,140
416,160,39548,1,2,0:0:0:0:
384,128,39639,1,0,0:0:0:0:
352,96,39730,1,2,0:0:0:0:
320,64,39820,1,0,0:0:0:0:
320,192,39911,5,0,0:0:0:0:
288,160,40002,1,0,0:0:0:0:
256,128,40093,1,2,0:0:0:0:
224,96,40184,1,0,0:0:0:0:
384,192,40275,1,0,0:0:0:0:
192,192,40457,1,2,0:0:0:0:
512,192,40820,1,2,0:0:0:0:
224,192,41366,5,2,0:0:0:0:
384,192,41548,1,2,0:0:0:0:
160,192,41730,1,2,0:0:0:0:
512,192,41911,2,8,L|352:192,1,140
256,128,42457,5,2,0:0:0:0:
352,96,42548,1,0,0:0:0:0:
448,96,42639,1,2,0:0:0:0:
512,128,42730,1,0,0:0:0:0:
416,192,42820,1,0,0:0:0:0:
352,160,42911,1,0,0:0:0:0:
256,160,43002,1,2,0:0:0:0:
160,192,43093,1,0,0:0:0:0:
96,256,43184,5,0,0:0:0:0:
256,256,43366,1,2,0:0:0:0:
416,256,43548,1,2,0:0:0:0:
256,256,43730,1,2,0:0:0:0:
416,256,43911,1,2,0:0:0:0:
256,256,44093,2,4,L|160:224,1,70
0,192,44457,5,2,0:0:0:0:
160,192,44639,1,2,0:0:0:0:
512,192,44820,1,2,0:0:0:0:
416,192,45184,2,0,L|384:160,1,35
288,192,45366,2,0,L|256:160,1,35
128,160,45548,1,2,0:0:0:0:
192,192,46093,5,2,0:0:0:0:
224,192,46184,1,2,0:0:0:0:
256,192,46275,1,2,0:0:0:0:
512,192,46639,1,8,0:0:0:0:
352,192,47366,1,2,0:0:0:0:
288,192,47457,1,0,0:0:0:0:
224,192,47548,1,0,0:0:0:0:
160,192,47639,1,0,0:0:0:0:
96,192,47730,1,8,0:0:0:0:
256,192,47911,5,2,0:0:0:0:
512,192,48275,1,2,0:0:0:0:
384,192,48457,1,2,0:0:0:0:
256,192,48639,2,0,L|224:160,2,35
128,192,49002,1,2,0:0:0:0:
320,192,49184,1,2,0:0:0:0:
128,192,49366,1,2,0:0:0:0:
320,192,49548,1,2,0:0:0:0:
128,192,49730,1,10,0:0:0:0:
128,192,50457,5,2,0:0:0:0:
160,128,50548,1,0,0:0:0:0:
192,64,50639,1,2,0:0:0:0:
384,192,50820,1,0,0:0:0:0:
384,192,51184,1,2,0:0:0:0:
352,128,51275,1,2,0:0:0:0:
320,64,51366,1,2,0:0:0:0:
128,192,51548,1,0,0:0:0:0:
512,192,51730,1,2,0:0:0:0:
0,192,52093,1,10,0:0:0:0:
256,192,52639,5,2,0:0:0:0:
352,160,52730,1,2,0:0:0:0:
256,128,52820,1,2,0:0:0:0:
96,192,53002,1,0,0:0:0:0:
256,192,53184,2,0,L|352:192,1,70
512,192,53548,1,8,0:0:0:0:
256,192,53730,1,0,0:0:0:0:
0,192,53911,1,2,0:0:0:0:
128,192,54093,1,2,0:0:0:0:
192,160,54184,1,0,0:0:0:0:
128,128,54275,1,2,0:0:0:0:
192,96,54366,1,0,0:0:0:0:
128,64,54457,1,0,0:0:0:0:
192,32,54548,5,0,0:0:0:0:
256,192,54639,1,2,0:0:0:0:
384,192,54820,1,2,0:0:0:0:
512,192,55002,1,2,0:0:0:0:
384,128,55184,6,0,L|288:128,1,70
96,128,55548,1,2,0:0:0:0:
192,128,55639,1,2,0:0:0:0:
288,128,55730,1,2,0:0:0:0:
384,64,55820,1,0,0:0:0:0:
288,64,55911,1,0,0:0:0:0:
192,64,56002,1,0,0:0:0:0:
96,192,56093,1,2,0:0:0:0:
192,192,56184,1,0,0:0:0:0:
288,192,56275,1,0,0:0:0:0:
384,192,56366,1,0,0:0:0:0:
0,192,56457,5,2,0:0:0:0:
128,192,56639,1,8,0:0:0:0:
256,192,56820,1,8,0:0:0:0:
384,192,57002,1,2,0:0:0:0:
512,192,57184,1,2,0:0:0:0:
448,160,57275,1,2,0:0:0:0:
384,192,57366,1,2,0:0:0:0:
224,160,57548,1,2,0:0:0:0:
32,192,57730,1,2,0:0:0:0:
256,192,57911,1,2,0:0:0:0:
128,192,58093,1,0,0:0:0:0:
32,192,58275,1,0,0:0:0:0:
64,160,58366,5,0,0:0:0:0:
192,160,58457,1,2,0:0:0:0:
320,160,58548,1,0,0:0:0:0:
448,160,58639,1,2,0:0:0:0:
512,96,58730,1,0,0:0:0:0:
384,96,58820,1,2,0:0:0:0:
256,96,58911,1,0,0:0:0:0:
128,96,59002,1,2,0:0:0:0:
32,96,59093,1,0,0:0:0:0:
64,96,59139,1,0,0:0:0:0:
96,96,59184,1,0,0:0:0:0:
128,96,59230,1,0,0:0:0:0:
160,96,59275,1,0,0:0:0:0:
192,96,59320,1,0,0:0:0:0:
256,96,59366,1,0,0:0:0:0:
256,96,59457,2,8,L|320:96,1,35
448,192,59911,5,2,0:0:0:0:
384,192,60002,1,2,0:0:0:0:
320,192,60093,1,2,0:0:0:0:
224,192,60275,1,2,0:0:0:0:
128,192,60457,1,2,0:0:0:0:
32,192,60639,1,2,0:0:0:0:
256,192,60820,1,2,0:0:0:0:
384,192,61002,1,0,0:0:0:0:
352,192,61048,1,0,0:0:0:0:
320,192,61093,1,0,0:0:0:0:
288,192,61139,1,0,0:0:0:0:
192,160,61184,5,2,0:0:0:0:
224,160,61275,1,0,0:0:0:0:
256,160,61366,1,0,0:0:0:0:
288,160,61457,1,0,0:0:0:0:
448,128,61548,1,2,0:0:0:0:
416,128,61639,1,0,0:0:0:0:
384,128,61730,1,2,0:0:0:0:
352,128,61820,1,0,0:0:0:0:
96,192,61911,5,2,0:0:0:0:
192,160,62002,1,0,0:0:0:0:
288,128,62093,1,8,0:0:0:0:
384,96,62184,1,2,0:0:0:0:
416,96,62230,1,2,0:0:0:0:
448,96,62275,1,2,0:0:0:0:
256,64,62366,5,0,0:0:0:0:
320,64,62457,1,0,0:0:0:0:
384,64,62548,1,0,0:0:0:0:
448,64,62639,1,2,0:0:0:0:
480,32,62730,1,0,0:0:0:0:
416,32,62820,1,2,0:0:0:0:
352,32,62911,1,0,0:0:0:0:
160,32,63002,1,8,0:0:0:0:
320,32,63184,1,8,0:0:0:0:
160,32,63366,1,8,0:0:0:0:
0,32,63548,1,8,0:0:0:0:
256,192,63730,6,0,L|288:160,2,35
352,192,64093,1,2,0:0:0:0:
448,192,64275,2,0,L|416:160,2,35
256,192,64548,1,2,0:0:0:0:
128,192,64639,2,0,L|160:160,2,35
192,192,64911,1,2,0:0:0:0:
256,192,65002,2,0,L|288:160,2,35
320,192,65275,1,0,0:0:0:0:
352,192,65366,1,0,0:0:0:0:
480,192,65548,1,0,0:0:0:0:
416,192,65730,5,0,0:0:0:0:
256,192,65911,1,0,0:0:0:0:
96,192,66093,1,0,0:0:0:0:
256,192,66275,1,2,0:0:0:0:
96,192,66457,1,0,0:0:0:0:
256,192,66639,1,2,0:0:0:0:
416,192,66820,1,0,0:0:0:0:
256,192,67002,1,2,0:0:0:0:
352,160,67184,1,0,0:0:0:0:
288,160,67275,1,0,0:0:0:0:
224,160,67366,1,2,0:0:0:0:
160,160,67457,1,0,0:0:0:0:
32,128,67548,1,0,0:0:0:0:
96,128,67639,1,0,0:0:0:0:
160,128,67730,1,2,0:0:0:0:
224,128,67820,1,0,0:0:0:0:
288,128,67911,1,0,0:0:0:0:
512,128,68093,5,8,0:0:0:0:
256,128,68457,1,4,0:0:0:0:
384,96,68639,1,0,0:0:0:0:
320,96,68730,1,0,0:0:0:0:
256,96,68820,1,0,0:0:0:0:
160,64,68911,1,0,0:0:0:0:
224,64,69002,1,0,0:0:0:0:
288,64,69093,1,0,0:0:0:0:
448,128,69184,1,2,0:0:0:0:
384,128,69275,5,0,0:0:0:0:
320,128,69366,1,0,0:0:0:0:
192,128,69457,1,0,0:0:0:0:
192,128,69548,2,4,L|128:128,2,35
256,128,70093,5,8,0:0:0:0:
384,128,70275,1,8,0:0:0:0:
256,128,70457,1,8,0:0:0:0:
128,128,70639,1,2,0:0:0:0:
256,128,70820,1,8,0:0:0:0:
352,192,71002,2,0,L|288:192,1,35
256,192,71184,1,0,0:0:0:0:
96,192,71366,1,0,0:0:0:0:
352,96,71548,5,2,0:0:0:0:
288,96,71639,1,0,0:0:0:0:
224,96,71730,1,2,0:0:0:0:
160,96,71911,1,2,0:0:0:0:
96,96,72002,1,0,0:0:0:0:
32,96,72093,1,2,0:0:0:0:
224,96,72275,1,2,0:0:0:0:
384,96,72457,1,2,0:0:0:0:
224,96,72820,1,4,0:0:0:0:
160,64,73002,5,0,0:0:0:0:
224,64,73093,1,0,0:0:0:0:
288,64,73184,1,2,0:0:0:0:
352,64,73275,1,0,0:0:0:0:
416,64,73366,1,2,0:0:0:0:
256,64,73548,1,2,0:0:0:0:
416,64,73730,1,4,0:0:0:0:
256,64,73911,1,2,0:0:0:0:
0,64,74093,1,0,0:0:0:0:
64,64,74275,5,0,0:0:0:0:
256,64,74457,1,0,0:0:0:0:
416,64,74639,1,0,0:0:0:0:
448,64,74684,1,0,0:0:0:0:
256,64,74820,1,2,0:0:0:0:
192,64,75002,1,2,0:0:0:0:
256,64,75184,1,2,0:0:0:0:
352,64,75366,2,4,L|416:64,1,35
416,64,75548,1,2,0:0:0:0:
448,192,75911,5,2,0:0:0:0:
352,192,76002,1,0,0:0:0:0:
256,192,76093,1,2,0:0:0:0:
160,192,76184,1,0,0:0:0:0:
32,160,76275,1,0,0:0:0:0:
128,160,76366,1,0,0:0:0:0:
224,160,76457,1,2,0:0:0:0:
320,160,76548,1,0,0:0:0:0:
416,160,76639,1,0,0:0:0:0:
320,160,76730,1,0,0:0:0:0:
256,160,76820,1,2,0:0:0:0:
96,160,77002,2,8,L|128:128,1,35
256,192,77184,1,2,0:0:0:0:
384,192,77275,6,8,L|352:160,1,35
160,192,77548,1,2,0:0:0:0:
256,192,77730,1,8,0:0:0:0:
320,192,77911,1,4,0:0:0:0:
192,192,78002,1,0,0:0:0:0:
256,192,78093,1,2,0:0:0:0:
320,192,78275,2,4,L|256:192,1,35
256,192,78457,1,2,0:0:0:0:
96,192,78639,1,2,0:0:0:0:
320,192,78820,5,2,0:0:0:0:
384,160,78911,1,0,0:0:0:0:
320,128,79002,1,2,0:0:0:0:
256,96,79093,1,0,0:0:0:0:
320,64,79184,1,0,0:0:0:0:
384,32,79275,1,0,0:0:0:0:
256,192,79366,1,2,0:0:0:0:
192,160,79457,1,0,0:0:0:0:
256,128,79548,1,0,0:0:0:0:
320,96,79639,1,0,0:0:0:0:
480,192,79730,1,2,0:0:0:0:
0,192,80093,1,2,0:0:0:0:
160,192,80275,5,8,0:0:0:0:
224,160,80366,1,0,0:0:0:0:
288,192,80457,1,2,0:0:0:0:
352,160,80548,1,0,0:0:0:0:
416,192,80639,1,0,0:0:0:0:
480,160,80730,1,0,0:0:0:0:
512,192,80820,5,2,0:0:0:0:
256,192,81002,1,4,0:0:0:0:
384,192,81184,1,2,0:0:0:0:
256,192,81366,5,4,0:0:0:0:
192,160,81457,1,4,0:0:0:0:
256,128,81548,1,4,0:0:0:0:
352,192,81730,1,8,0:0:0:0:
416,160,81820,1,0,0:0:0:0:
352,128,81911,1,2,0:0:0:0:
256,192,82002,1,0,0:0:0:0:
192,160,82093,1,0,0:0:0:0:
128,128,82184,1,0,0:0:0:0:
352,192,82275,1,2,0:0:0:0:
288,160,82366,1,0,0:0:0:0:
352,128,82457,1,4,0:0:0:0:
128,192,82639,6,8,L|192:192,1,35
256,192,82820,1,2,0:0:0:0:
384,192,83002,2,8,L|320:192,1,35
192,192,83184,1,2,0:0:0:0:
32,192,83366,2,8,L|96:192,1,35
192,192,83548,1,2,0:0:0:0:
416,192,83730,5,2,0:0:0:0:
256,192,83911,1,2,0:0:0:0:
96,192,84093,2,8,L|128:160,1,35
384,192,84639,5,2,0:0:0:0:
320,160,84730,1,2,0:0:0:0:
384,128,84820,1,2,0:0:0:0:
160,192,85184,1,4,0:0:0:0:
224,160,85275,1,4,0:0:0:0:
160,128,85366,1,4,0:0:0:0:
512,192,85548,1,4,0:0:0:0:
0,192,85911,1,8,0:0:0:0:
0,192,87002,1,8,0:0:0:0:
256,192,87366,1,4,0:0:0:0:
128,192,87730,5,2,0:0:0:0:
256,192,88457,5,8,0:0:0:0:
96,192,88820,1,4,0:0:0:0:
416,192,89184,1,2,0:0:0:0:
480,192,89911,1,8,0:0:0:0:
256,192,90275,1,4,0:0:0:0:
32,192,90639,1,2,0:0:0:0:
256,192,91366,5,8,0:0:0:0:
128,192,91730,1,4,0:0:0:0:
384,192,92093,1,2,0:0:0:0:
512,192,92820,5,8,0:0:0:0:
0,192,93184,1,4,0:0:0:0:
512,192,93548,1,2,0:0:0:0:
256,192,94275,5,8,0:0:0:0:
320,192,94639,1,4,0:0:0:0:
192,192,95002,1,2,0:0:0:0:
256,192,95730,5,8,0:0:0:0:
384,192,96093,1,4,0:0:0:0:
128,192,96457,1,2,0:0:0:0:
256,192,97184,5,8,0:0:0:0:
448,192,97548,1,4,0:0:0:0:
96,192,97911,1,2,0:0:0:0:
384,192,98275,1,4,0:0:0:0:
192,192,98639,5,8,0:0:0:0:
128,160,98730,1,0,0:0:0:0:
192,128,98820,1,2,0:0:0:0:
256,192,98911,1,0,0:0:0:0:
320,192,99002,1,2,0:0:0:0:
384,160,99093,1,0,0:0:0:0:
320,128,99184,1,2,0:0:0:0:
128,192,99366,5,2,0:0:0:0:
192,160,99457,1,0,0:0:0:0:
256,128,99548,1,2,0:0:0:0:
320,96,99639,1,0,0:0:0:0:
384,64,99730,1,2,0:0:0:0:
512,192,99911,1,10,0:0:0:0:
256,192,100093,2,8,L|288:160,1,35
448,192,100457,2,8,L|416:160,1,35
384,192,100639,5,2,0:0:0:0:
416,160,100730,1,0,0:0:0:0:
384,128,100820,1,2,0:0:0:0:
352,192,100911,1,0,0:0:0:0:
320,160,101002,1,0,0:0:0:0:
352,128,101093,1,0,0:0:0:0:
320,192,101184,1,2,0:0:0:0:
288,160,101275,1,0,0:0:0:0:
320,128,101366,1,0,0:0:0:0:
256,192,101548,6,8,L|224:160,1,35
96,192,101730,2,0,L|128:160,1,35
256,192,101911,2,2,L|320:192,1,35
512,192,102093,2,2,L|448:192,2,35
256,192,102457,1,0,0:0:0:0:
416,192,102639,6,0,L|384:160,1,35
352,192,102820,1,2,0:0:0:0:
256,192,103002,1,2,0:0:0:0:
192,192,103184,1,2,0:0:0:0:
128,192,103366,1,2,0:0:0:0:
0,160,103548,1,2,0:0:0:0:
64,160,103639,1,0,0:0:0:0:
128,160,103730,1,2,0:0:0:0:
192,160,103820,1,0,0:0:0:0:
256,160,103911,1,0,0:0:0:0:
192,96,104002,1,0,0:0:0:0:
256,96,104093,1,2,0:0:0:0:
320,96,104184,1,0,0:0:0:0:
384,96,104275,1,0,0:0:0:0:
448,96,104366,5,0,0:0:0:0:
192,32,104457,1,2,0:0:0:0:
256,32,104548,1,0,0:0:0:0:
320,32,104639,1,8,0:0:0:0:
384,32,104730,1,0,0:0:0:0:
448,32,104820,1,8,0:0:0:0:
512,192,105184,1,0,0:0:0:0:
256,192,105366,5,2,0:0:0:0:
320,192,105457,1,0,0:0:0:0:
384,192,105548,1,2,0:0:0:0:
448,192,105639,1,0,0:0:0:0:
512,192,105730,1,2,0:0:0:0:
256,128,105911,5,8,0:0:0:0:
320,128,106002,1,0,0:0:0:0:
384,128,106093,1,2,0:0:0:0:
448,128,106184,1,0,0:0:0:0:
512,128,106275,1,8,0:0:0:0:
256,192,106639,1,4,0:0:0:0:
448,192,106820,5,10,0:0:0:0:
384,160,106911,1,0,0:0:0:0:
448,128,107002,1,2,0:0:0:0:
256,192,107093,1,0,0:0:0:0:
320,160,107184,1,2,0:0:0:0:
256,128,107275,1,0,0:0:0:0:
192,192,107366,1,10,0:0:0:0:
128,192,107457,1,0,0:0:0:0:
64,160,107548,1,0,0:0:0:0:
128,128,107639,1,2,0:0:0:0:
192,96,107730,1,2,0:0:0:0:
416,192,108093,5,2,0:0:0:0:
256,192,108457,1,6,0:0:0:0:
192,192,108820,1,10,0:0:0:0:
256,160,108911,1,0,0:0:0:0:
192,128,109002,5,0,0:0:0:0:
128,192,109092,1,0,0:0:0:0:
64,160,109183,1,2,0:0:0:0:
0,128,109274,1,0,0:0:0:0:
192,192,109365,1,0,0:0:0:0:
160,160,109456,1,0,0:0:0:0:
192,128,109547,1,2,0:0:0:0:
320,192,109638,1,0,0:0:0:0:
384,160,109729,1,8,0:0:0:0:
448,128,109820,5,0,0:0:0:0:
384,96,109911,1,2,0:0:0:0:
320,64,110002,1,0,0:0:0:0:
256,32,110092,1,8,0:0:0:0:
192,32,110183,1,0,0:0:0:0:
0,32,110274,1,10,0:0:0:0:
256,192,110457,1,10,0:0:0:0:
352,192,110639,5,4,0:0:0:0:
288,192,110820,1,4,0:0:0:0:
224,192,111002,1,4,0:0:0:0:
160,192,111184,1,4,0:0:0:0:
96,192,111366,1,4,0:0:0:0:
32,192,111548,1,4,0:0:0:0:
0,128,111730,5,10,0:0:0:0:
256,192,111911,1,10,0:0:0:0:
320,192,112093,5,4,0:0:0:0:
384,192,112275,1,4,0:0:0:0:
448,192,112457,1,4,0:0:0:0:
512,192,112639,1,4,0:0:0:0:
448,192,112820,1,4,0:0:0:0:
512,192,113002,1,4,0:0:0:0:
512,128,113184,5,10,0:0:0:0:
256,192,113366,1,10,0:0:0:0:
192,192,113548,1,4,0:0:0:0:
160,192,113730,1,4,0:0:0:0:
128,192,113911,1,4,0:0:0:0:
96,192,114093,1,4,0:0:0:0:
64,192,114275,1,4,0:0:0:0:
32,192,114457,1,4,0:0:0:0:
0,128,114639,5,10,0:0:0:0:
256,160,114820,1,10,0:0:0:0:
320,192,115002,5,4,0:0:0:0:
384,192,115184,1,4,0:0:0:0:
256,192,115366,1,4,0:0:0:0:
320,192,115548,1,4,0:0:0:0:
448,192,115730,1,4,0:0:0:0:
384,192,115911,1,4,0:0:0:0:
256,192,116093,1,2,0:0:0:0:
288,160,116184,1,0,0:0:0:0:
256,128,116275,1,0,0:0:0:0:
64,192,116366,1,0,0:0:0:0:
32,160,116457,1,2,0:0:0:0:
64,128,116548,1,0,0:0:0:0:
256,192,116639,5,0,0:0:0:0:
320,160,116730,1,0,0:0:0:0:
256,128,116820,1,2,0:0:0:0:
416,192,116911,1,0,0:0:0:0:
448,160,117002,1,0,0:0:0:0:
480,128,117093,1,0,0:0:0:0:
256,192,117184,1,2,0:0:0:0:
192,160,117275,1,0,0:0:0:0:
128,128,117366,1,0,0:0:0:0:
352,192,117457,1,0,0:0:0:0:
416,160,117548,1,2,0:0:0:0:
352,128,117639,1,0,0:0:0:0:
0,192,117730,1,0,0:0:0:0:
64,160,117820,5,0,0:0:0:0:
128,128,117911,1,2,0:0:0:0:
320,192,118002,1,0,0:0:0:0:
384,160,118093,1,0,0:0:0:0:
448,128,118184,1,0,0:0:0:0:
256,192,118275,1,2,0:0:0:0:
352,192,118366,1,0,0:0:0:0:
416,160,118457,1,0,0:0:0:0:
352,128,118548,1,0,0:0:0:0:
256,192,118639,1,2,0:0:0:0:
160,192,118730,1,0,0:0:0:0:
96,192,118820,1,0,0:0:0:0:
32,192,118911,1,0,0:0:0:0:
256,192,119002,5,2,0:0:0:0:
160,192,119366,1,2,0:0:0:0:
192,160,119457,1,0,0:0:0:0:
160,128,119548,1,0,0:0:0:0:
288,192,119639,1,0,0:0:0:0:
320,160,119730,1,0,0:0:0:0:
352,128,119820,1,0,0:0:0:0:
448,192,119911,1,0,0:0:0:0:
416,192,120002,1,0,0:0:0:0:
384,192,120093,1,2,0:0:0:0:
128,192,120184,1,0,0:0:0:0:
192,160,120275,1,0,0:0:0:0:
256,128,120366,1,0,0:0:0:0:
0,192,120457,5,2,0:0:0:0:
64,160,120548,1,0,0:0:0:0:
128,128,120639,1,0,0:0:0:0:
192,96,120730,1,0,0:0:0:0:
480,192,120820,1,2,0:0:0:0:
416,192,120911,1,0,0:0:0:0:
352,192,121002,1,0,0:0:0:0:
288,192,121093,1,0,0:0:0:0:
224,192,121184,1,2,0:0:0:0:
96,160,121275,1,0,0:0:0:0:
192,160,121366,1,0,0:0:0:0:
288,160,121457,1,0,0:0:0:0:
384,160,121548,1,2,0:0:0:0:
480,160,121639,5,0,0:0:0:0:
384,96,121730,1,0,0:0:0:0:
480,96,121820,1,0,0:0:0:0:
384,32,121911,1,6,0:0:0:0:
64,32,122093,1,8,0:0:0:0:
256,192,122457,5,0,0:0:0:0:
480,192,122639,1,0,0:0:0:0:
256,192,122820,2,8,P|224:160|224:128,1,70
416,192,123184,1,0,0:0:0:0:
128,192,123366,1,2,0:0:0:0:
352,192,123730,1,4,0:0:0:0:
128,192,123911,1,2,0:0:0:0:
256,192,124639,5,2,0:0:0:0:
320,192,124730,1,0,0:0:0:0:
480,192,124820,1,2,0:0:0:0:
480,128,125366,5,2,0:0:0:0:
416,128,125457,1,0,0:0:0:0:
256,128,125548,1,2,0:0:0:0:
32,128,125911,1,2,0:0:0:0:
256,128,126275,5,8,0:0:0:0:
384,192,126820,1,2,0:0:0:0:
480,160,126911,1,2,0:0:0:0:
384,128,127002,1,2,0:0:0:0:
256,192,127366,1,4,0:0:0:0:
64,192,127730,1,8,0:0:0:0:
256,192,127911,1,2,0:0:0:0:
128,192,128093,1,8,0:0:0:0:
320,192,128275,1,2,0:0:0:0:
192,192,128457,1,10,0:0:0:0:
384,192,128639,1,2,0:0:0:0:
256,192,128820,1,2,0:0:0:0:
448,192,129002,1,0,0:0:0:0:
128,192,129184,6,2,L|192:128,1,70
320,192,129730,1,2,0:0:0:0:
384,160,129820,1,0,0:0:0:0:
320,128,129911,1,2,0:0:0:0:
256,192,130093,1,0,0:0:0:0:
192,160,130184,1,0,0:0:0:0:
256,128,130275,1,2,0:0:0:0:
192,192,130457,1,0,0:0:0:0:
128,192,130548,1,0,0:0:0:0:
384,192,130639,1,10,0:0:0:0:
256,192,131002,1,2,0:0:0:0:
128,192,131184,1,8,0:0:0:0:
256,192,131366,1,2,0:0:0:0:
384,192,131548,5,2,0:0:0:0:
480,192,131730,1,2,0:0:0:0:
320,192,131911,1,8,0:0:0:0:
416,192,132093,1,8,0:0:0:0:
256,192,132639,1,2,0:0:0:0:
192,192,132730,1,2,0:0:0:0:
256,192,132820,1,2,0:0:0:0:
96,192,133184,1,8,0:0:0:0:
288,192,133366,1,2,0:0:0:0:
384,192,133457,1,2,0:0:0:0:
352,192,133548,1,2,0:0:0:0:
256,192,134093,1,2,0:0:0:0:
192,192,134184,1,2,0:0:0:0:
256,192,134275,1,2,0:0:0:0:
256,192,135002,5,6,0:0:0:0:
128,192,135275,5,2,0:0:0:0:
160,160,135320,1,2,0:0:0:0:
192,128,135366,1,2,0:0:0:0:
384,128,135457,1,2,0:0:0:0:
320,128,135548,1,2,0:0:0:0:
256,192,135730,5,0,0:0:0:0:
192,192,135820,1,0,0:0:0:0:
128,192,135911,1,0,0:0:0:0:
64,192,136002,1,0,0:0:0:0:
0,192,136093,1,0,0:0:0:0:
128,192,136366,5,2,0:0:0:0:
160,160,136411,1,2,0:0:0:0:
192,128,136457,1,2,0:0:0:0:
384,128,136548,1,2,0:0:0:0:
320,128,136639,1,2,0:0:0:0:
256,192,136820,5,0,0:0:0:0:
320,192,136911,1,0,0:0:0:0:
384,192,137002,1,0,0:0:0:0:
448,192,137093,1,0,0:0:0:0:
512,192,137184,1,0,0:0:0:0:
96,192,137366,5,2,0:0:0:0:
256,192,137548,1,2,0:0:0:0:
416,192,137730,1,2,0:0:0:0:
128,192,137911,2,8,L|160:160,1,35
192,192,138093,1,2,0:0:0:0:
288,192,138457,5,2,0:0:0:0:
352,160,138548,1,0,0:0:0:0:
416,128,138639,1,2,0:0:0:0:
448,96,138730,1,0,0:0:0:0:
224,192,138820,1,0,0:0:0:0:
160,160,138911,1,0,0:0:0:0:
96,128,139002,1,2,0:0:0:0:
64,96,139093,1,0,0:0:0:0:
64,64,139184,1,0,0:0:0:0:
320,192,139366,2,2,L|288:160,1,35
192,192,139911,1,0,0:0:0:0:
320,192,140093,1,2,0:0:0:0:
128,192,140275,1,2,0:0:0:0:
256,192,140457,1,2,0:0:0:0:
448,192,140639,1,2,0:0:0:0:
128,192,140820,2,8,L|96:160,1,35
256,192,141366,5,2,0:0:0:0:
320,160,141457,1,0,0:0:0:0:
256,128,141548,1,2,0:0:0:0:
320,96,141639,1,0,0:0:0:0:
384,160,141730,1,0,0:0:0:0:
448,128,141820,1,0,0:0:0:0:
384,96,141911,1,2,0:0:0:0:
448,64,142002,1,0,0:0:0:0:
384,32,142093,1,0,0:0:0:0:
256,192,142275,1,8,0:0:0:0:
0,192,142639,1,4,0:0:0:0:
96,192,142820,5,0,0:0:0:0:
160,160,142911,1,0,0:0:0:0:
96,128,143002,1,2,0:0:0:0:
32,96,143093,1,0,0:0:0:0:
256,192,143184,1,0,0:0:0:0:
320,160,143275,1,0,0:0:0:0:
384,160,143366,2,2,P|416:128|416:96,1,70
256,192,143730,2,2,L|288:160,1,35
192,192,144275,5,2,0:0:0:0:
128,160,144366,1,0,0:0:0:0:
192,128,144457,1,2,0:0:0:0:
256,192,144548,1,0,0:0:0:0:
320,192,144639,1,0,0:0:0:0:
384,160,144730,1,0,0:0:0:0:
320,128,144820,1,2,0:0:0:0:
384,96,144911,1,0,0:0:0:0:
256,192,145002,1,0,0:0:0:0:
192,192,145093,1,0,0:0:0:0:
448,192,145184,1,2,0:0:0:0:
256,192,145548,1,8,0:0:0:0:
160,192,145820,5,2,0:0:0:0:
192,160,145866,1,2,0:0:0:0:
224,128,145911,1,2,0:0:0:0:
320,192,146093,2,0,L|352:160,1,35
320,128,146275,1,2,0:0:0:0:
160,192,146457,1,2,0:0:0:0:
448,192,146639,1,2,0:0:0:0:
224,192,147002,1,8,0:0:0:0:
320,192,147366,5,2,0:0:0:0:
352,160,147411,1,2,0:0:0:0:
320,128,147457,1,2,0:0:0:0:
352,96,147502,1,2,0:0:0:0:
320,64,147548,1,2,0:0:0:0:
256,192,147730,1,2,0:0:0:0:
96,192,147911,1,2,0:0:0:0:
192,192,148093,1,10,0:0:0:0:
384,192,148275,1,8,0:0:0:0:
128,192,148457,1,8,0:0:0:0:
384,192,148820,1,2,0:0:0:0:
384,192,149002,5,2,0:0:0:0:
256,192,149184,1,2,0:0:0:0:
128,192,149366,1,2,0:0:0:0:
0,192,149548,2,0,L|64:192,1,35
192,192,149730,1,2,0:0:0:0:
352,192,150093,1,2,0:0:0:0:
320,160,150184,1,0,0:0:0:0:
288,128,150275,1,2,0:0:0:0:
256,96,150366,1,0,0:0:0:0:
64,192,150457,1,0,0:0:0:0:
128,192,150548,1,0,0:0:0:0:
192,192,150639,1,2,0:0:0:0:
256,192,150730,1,0,0:0:0:0:
320,192,150820,1,0,0:0:0:0:
512,192,151002,1,10,0:0:0:0:
256,192,151730,5,2,0:0:0:0:
384,192,151911,1,2,0:0:0:0:
192,192,152093,1,2,0:0:0:0:
448,192,152275,1,2,0:0:0:0:
96,192,152457,1,2,0:0:0:0:
256,192,153002,5,2,0:0:0:0:
320,192,153093,1,0,0:0:0:0:
384,160,153184,1,2,0:0:0:0:
512,160,153275,1,0,0:0:0:0:
480,96,153366,1,0,0:0:0:0:
416,96,153457,1,0,0:0:0:0:
256,192,153548,1,2,0:0:0:0:
192,160,153639,1,0,0:0:0:0:
256,128,153730,1,2,0:0:0:0:
448,192,153911,1,8,0:0:0:0:
128,192,154275,1,2,0:0:0:0:
224,192,154457,5,8,0:0:0:0:
192,160,154548,1,0,0:0:0:0:
256,160,154639,1,2,0:0:0:0:
224,128,154730,1,0,0:0:0:0:
288,128,154820,1,0,0:0:0:0:
256,96,154911,1,0,0:0:0:0:
448,192,155002,1,2,0:0:0:0:
384,192,155184,1,2,0:0:0:0:
320,192,155366,1,10,0:0:0:0:
256,192,155911,5,2,0:0:0:0:
288,160,156002,1,0,0:0:0:0:
256,128,156093,1,2,0:0:0:0:
32,192,156184,1,0,0:0:0:0:
0,160,156275,1,0,0:0:0:0:
32,128,156366,1,0,0:0:0:0:
320,128,156457,1,2,0:0:0:0:
352,96,156548,1,0,0:0:0:0:
320,64,156639,1,0,0:0:0:0:
352,32,156730,1,0,0:0:0:0:
160,192,156820,6,2,L|224:192,1,35
256,192,157002,1,10,0:0:0:0:
32,192,157184,6,2,L|96:192,1,35
256,192,157366,1,8,0:0:0:0:
480,192,157548,2,2,L|416:192,1,35
448,192,157730,1,8,0:0:0:0:
256,192,157911,5,2,0:0:0:0:
384,192,158093,1,2,0:0:0:0:
64,192,158275,2,8,L|128:192,1,35
384,192,158820,5,0,0:0:0:0:
320,192,158911,1,0,0:0:0:0:
32,192,159002,1,8,0:0:0:0:
256,160,159548,5,0,0:0:0:0:
320,160,159639,1,0,0:0:0:0:
512,160,159730,1,8,0:0:0:0:
384,160,160093,1,2,0:0:0:0:
256,192,160820,5,0,0:0:0:0:
320,160,160911,1,0,0:0:0:0:
352,128,161002,1,0,0:0:0:0:
384,96,161093,1,0,0:0:0:0:
128,192,161184,1,2,0:0:0:0:
448,192,161366,1,8,0:0:0:0:
384,192,161548,1,2,0:0:0:0:
192,192,161730,1,8,0:0:0:0:
64,192,161911,5,2,0:0:0:0:
256,192,162093,1,8,0:0:0:0:
512,192,162275,1,2,0:0:0:0:
256,192,162457,1,8,0:0:0:0:
192,192,162639,1,2,0:0:0:0:
448,192,162820,1,8,0:0:0:0:
256,192,163002,1,2,0:0:0:0:
384,192,163184,1,8,0:0:0:0:
192,160,163366,1,2,0:0:0:0:
320,160,163548,1,8,0:0:0:0:
128,128,163730,1,2,0:0:0:0:
256,128,163911,1,8,0:0:0:0:
256,192,164093,5,2,0:0:0:0:
320,160,164184,1,0,0:0:0:0:
352,128,164275,1,0,0:0:0:0:
192,192,164366,1,0,0:0:0:0:
128,160,164457,1,2,0:0:0:0:
96,128,164548,1,0,0:0:0:0:
416,192,164639,1,0,0:0:0:0:
352,160,164730,1,0,0:0:0:0:
288,128,164820,1,2,0:0:0:0:
64,192,164911,1,0,0:0:0:0:
128,192,165002,1,0,0:0:0:0:
192,192,165093,1,0,0:0:0:0:
416,192,165184,1,2,0:0:0:0:
480,160,165275,5,0,0:0:0:0:
416,128,165366,1,0,0:0:0:0:
480,96,165457,1,0,0:0:0:0:
256,192,165548,1,2,0:0:0:0:
320,160,165639,1,0,0:0:0:0:
256,128,165730,1,0,0:0:0:0:
320,96,165820,1,0,0:0:0:0:
256,64,165911,1,2,0:0:0:0:
192,64,166002,1,0,0:0:0:0:
128,64,166093,1,0,0:0:0:0:
64,64,166184,1,0,0:0:0:0:
128,128,166275,1,2,0:0:0:0:
64,128,166366,1,0,0:0:0:0:
128,192,166457,5,0,0:0:0:0:
192,192,166548,1,0,0:0:0:0:
256,192,166639,1,2,0:0:0:0:
320,192,166730,1,0,0:0:0:0:
384,160,166820,1,0,0:0:0:0:
320,128,166911,1,0,0:0:0:0:
416,128,167002,1,10,0:0:0:0:
352,96,167093,1,0,0:0:0:0:
512,192,167184,1,0,0:0:0:0:
256,192,168457,5,14,0:0:0:0:
256,192,169002,1,14,0:0:0:0:
256,192,169548,12,14,174275,0:0:0:0:
