osu file format v14

[General]
AudioFilename: audio.ogg
AudioLeadIn: 0
PreviewTime: 84362
Countdown: 0
SampleSet: Normal
StackLeniency: 0.7
Mode: 1
LetterboxInBreaks: 0
WidescreenStoryboard: 0

[Editor]
DistanceSpacing: 1
BeatDivisor: 6
GridSize: 32
TimelineZoom: 1.500006

[Metadata]
Title:Why?
TitleUnicode:왜?
Artist:Mid-Air Thief
ArtistUnicode:공중도둑
Creator:Nifty
Version:?
Source:
Tags:gongjungdodug summer soul mid air korean electronic dream progressive pop acoustic electronic folk folktronica 무​너​지​기 Crumbling
BeatmapID:3591483
BeatmapSetID:1754970

[Difficulty]
HPDrainRate:6
CircleSize:2
OverallDifficulty:6
ApproachRate:10
SliderMultiplier:1.4
SliderTickRate:3

[Events]
//Background and Video events
0,0,"crumbling.jpg",0,-130
//Break Periods
2,129404,146999
//Storyboard Layer 0 (Background)
//Storyboard Layer 1 (Fail)
//Storyboard Layer 2 (Pass)
//Storyboard Layer 3 (Foreground)
//Storyboard Layer 4 (Overlay)
//Storyboard Sound Samples

[TimingPoints]
15,373.250388802488,420,1,0,15,1,8
34354,373.250388802488,4,1,0,15,1,0
34354,-125,4,1,0,15,0,0
47791,-125,4,1,0,15,0,0
48164,-127.24423,4,1,0,15,0,0
48350,-128.37836,4,1,0,15,0,0
48724,-130.68948,4,1,0,15,0,0
48910,-131.85432,4,1,0,15,0,0
49097,-133.03587,4,1,0,15,0,0
49284,-134.22803,4,1,0,15,0,0
49657,-136.63794,4,1,0,15,0,0
49843,-137.85579,4,1,0,15,0,0
50217,-140.33754,4,1,0,15,0,0
50403,-141.58836,4,1,0,15,0,0
50590,-142.85715,4,1,0,15,0,0
50777,-166.666676388889,4,1,0,15,0,0
52270,-166.66667,4,1,0,25,0,0
52643,-163.71318,4,1,0,25,0,0
53016,-160.81204,4,1,0,25,0,0
53203,-159.37697,4,1,0,25,0,0
53389,-157.96228,4,1,0,25,0,0
53576,-156.55264,4,1,0,25,0,0
53763,-155.15561,4,1,0,25,0,0
53949,-153.77838,4,1,0,25,0,0
54136,-152.4061,4,1,0,25,0,0
54322,-151.0533,4,1,0,25,0,0
54696,-148.36935,4,1,0,25,0,0
54882,-147.05238,4,1,0,25,0,0
55069,-145.7401,4,1,0,25,0,0
55256,-144.43956,4,1,0,25,0,0
55629,-141.87994,4,1,0,25,0,0
56189,-138.12202,4,1,0,25,0,0
56375,-136.89601,4,1,0,25,0,0
56562,-135.67436,4,1,0,25,0,0
56749,-134.46362,4,1,0,25,0,0
57122,-132.08081,4,1,0,25,0,0
57308,-130.9084,4,1,0,25,0,0
57682,-128.58243,4,1,0,25,0,0
57868,-127.44109,4,1,0,25,0,0
58055,-126.30382,4,1,0,25,0,0
58239,373.831775700934,4,1,0,15,1,0
58239,-125.00001,4,1,0,15,0,0
65715,-125.00001,4,1,0,15,0,0
66089,-127.24627,4,1,0,15,0,0
66276,-128.38449,4,1,0,15,0,0
66650,-130.69156,4,1,0,15,0,0
66837,-131.86063,4,1,0,15,0,0
66930,-132.44589,4,1,0,15,0,0
67024,-133.04012,4,1,0,15,0,0
67211,-134.23016,4,1,0,15,0,0
67397,-135.42441,4,1,0,15,0,0
67584,-136.63579,4,1,0,15,0,0
67771,-137.858,4,1,0,15,0,0
68122,-140.1817,4,1,0,15,0,0
68309,-141.43562,4,1,0,15,0,0
68496,-142.70078,4,1,0,15,0,0
68519,-142.857155918368,4,1,0,15,0,0
68706,-166.666684444446,4,1,0,15,0,0
70201,372.670807453416,4,1,0,25,1,0
70201,-166.66667,4,1,0,25,0,0
70573,-163.77258,4,1,0,25,0,0
70946,-160.92119,4,1,0,25,0,0
71132,-159.5179,4,1,0,25,0,0
71319,-158.11942,4,1,0,25,0,0
71505,-156.74057,4,1,0,25,0,0
71691,-166.666666666667,4,1,0,25,0,0
71692,-155.37375,4,1,0,25,0,0
72064,-152.66856,4,1,0,25,0,0
72250,-151.33728,4,1,0,25,0,0
72437,-150.01048,4,1,0,25,0,0
72530,-149.355,4,1,0,25,0,0
72623,-148.70235,4,1,0,25,0,0
72809,-147.40564,4,1,0,25,0,0
72996,-146.11333,4,1,0,25,0,0
73182,-166.666666666667,4,1,0,25,0,0
73183,-144.83917,4,1,0,30,0,0
73555,-142.31743,4,1,0,30,0,0
73927,-139.84616,4,1,0,30,0,0
74114,-138.62013,4,1,0,30,0,0
74300,-137.41133,4,1,0,30,0,0
74486,-136.21306,4,1,0,30,0,0
74673,-166.666666666667,4,1,0,35,0,0
74674,-135.01889,4,1,0,35,0,0
75045,-132.67435,4,1,0,35,0,0
75232,-131.51122,4,1,0,35,0,0
75418,-130.36438,4,1,0,35,0,0
75604,-129.22757,4,1,0,35,0,0
75791,-128.09465,4,1,0,35,0,0
75977,-126.97762,4,1,0,35,0,0
76162,-166.666666666667,4,1,0,40,0,0
76350,-124.76684,4,1,0,40,0,0
76536,-123.67885,4,1,0,40,0,0
76909,-121.5255,4,1,0,40,0,0
77095,-120.46576,4,1,0,40,0,0
77281,-119.415276,4,1,0,40,0,0
77468,-118.36836,4,1,0,40,0,0
77654,-166.666666666667,4,1,0,45,0,0
77840,-116.312965,4,1,0,45,0,0
78027,-115.29325,4,1,0,45,0,0
78213,-114.28786,4,1,0,45,0,0
78586,-112.29802,4,1,0,45,0,0
78772,-111.31874,4,1,0,45,0,0
78958,-110.34802,4,1,0,45,0,0
79145,-166.666666666667,4,1,0,50,0,0
79331,-108.42678,4,1,0,50,0,0
79517,-107.48126,4,1,0,50,0,0
79704,-106.53899,4,1,0,50,0,0
80076,-104.68899,4,1,0,50,0,0
80263,-103.77118,4,1,0,50,0,0
80449,-102.86627,4,1,0,50,0,0
80633,-166.666666666667,4,1,0,55,0,0
80822,-101.07529,4,1,0,55,0,0
81008,-100.19388,4,1,0,55,0,0
81194,-99.32017,4,1,0,55,0,0
81381,-98.44942,4,1,0,55,0,0
81567,-97.59093,4,1,0,55,0,0
81753,-96.739914,4,1,0,55,0,0
81940,-95.89178,4,1,0,55,0,0
82126,-166.666666666667,4,1,0,55,0,0
82127,-95.05559,4,1,0,55,0,0
82312,-94.22668,4,1,0,55,0,0
82499,-93.4006,4,1,0,55,0,0
82871,-91.77874,4,1,0,55,0,0
83058,-90.97412,4,1,0,55,0,0
83244,-90.1808,4,1,0,55,0,0
83430,-89.3944,4,1,0,55,0,0
83617,-166.666666666667,4,1,0,55,0,0
83618,-88.61069,4,1,0,55,0,0
83803,-87.837975,4,1,0,55,0,0
83989,-87.07201,4,1,0,55,0,0
84176,-86.308655,4,1,0,55,0,0
84362,-85.556015,4,1,0,55,0,0
84548,-84.80994,4,1,0,55,0,0
84735,-84.06642,4,1,0,55,0,0
84921,-83.333336,4,1,0,55,0,0
85107,372.093023255814,4,1,0,55,1,0
85107,-166.666666666667,4,1,0,55,0,0
85417,-55.5555555555556,4,1,0,55,0,0
85479,-55.5555555555556,4,1,0,55,0,1
85665,-62.5,4,1,0,55,0,1
85758,-63.73603,4,1,0,55,0,1
85851,-64.996506,4,1,0,55,0,1
85944,-66.28191,4,1,0,55,0,1
86037,-67.592735,4,1,0,55,0,1
86099,-68.48099,4,1,0,55,0,1
86161,-69.38091,4,1,0,55,0,1
86223,-70.29266,4,1,0,55,0,1
86316,-71.682816,4,1,0,55,0,1
86378,-72.62481,4,1,0,55,0,1
86440,-73.579185,4,1,0,55,0,1
86502,-74.54611,4,1,0,55,0,1
86595,-76.02037,4,1,0,55,0,1
86657,-77.01938,4,1,0,55,0,1
86719,-78.03151,4,1,0,55,0,1
86781,-79.05694,4,1,0,55,0,1
86874,-80.620415,4,1,0,55,0,1
86936,-81.67986,4,1,0,55,0,1
86998,-82.753235,4,1,0,55,0,1
87060,-83.84072,4,1,0,55,0,1
87153,-85.4988,4,1,0,55,0,1
87246,-87.18966,4,1,0,55,0,1
87339,-88.91397,4,1,0,55,0,1
87525,-92.46556,4,1,0,55,0,1
87711,-96.15902,4,1,0,55,0,1
87897,-100,4,1,0,55,0,1
88083,-125,4,1,0,55,0,0
88455,-55.5555555555556,4,1,0,55,0,1
88641,-62.5,4,1,0,55,0,1
88734,-63.735474,4,1,0,55,0,1
88827,-64.99537,4,1,0,55,0,1
88920,-66.28016,4,1,0,55,0,1
89013,-67.59036,4,1,0,55,0,1
89075,-68.47819,4,1,0,55,0,1
89138,-69.39227,4,1,0,55,0,1
89200,-70.303764,4,1,0,55,0,1
89293,-71.693504,4,1,0,55,0,1
89355,-72.635216,4,1,0,55,0,1
89417,-73.589294,4,1,0,55,0,1
89479,-74.55592,4,1,0,55,0,1
89572,-76.02971,4,1,0,55,0,1
89634,-77.02839,4,1,0,55,0,1
89696,-78.04018,4,1,0,55,0,1
89758,-79.065254,4,1,0,55,0,1
89851,-80.6282,4,1,0,55,0,1
89913,-81.68727,4,1,0,55,0,1
89975,-82.760254,4,1,0,55,0,1
90037,-83.84734,4,1,0,55,0,1
90130,-85.5048,4,1,0,55,0,1
90223,-87.195015,4,1,0,55,0,1
90316,-88.918655,4,1,0,55,0,1
90502,-92.4688,4,1,0,55,0,1
90688,-96.1607,4,1,0,55,0,1
90874,-100,4,1,0,55,0,1
91060,-71.42857,4,1,0,55,0,1
91122,-73.08811,4,1,0,55,0,1
91184,-74.78622,4,1,0,55,0,1
91246,-76.523766,4,1,0,55,0,1
91339,-79.206085,4,1,0,55,0,1
91401,-81.04633,4,1,0,55,0,1
91463,-82.92932,4,1,0,55,0,1
91525,-84.85608,4,1,0,55,0,1
91618,-87.83045,4,1,0,55,0,1
91711,-90.90909,4,1,0,55,0,1
91804,-76.92308,4,1,0,55,0,1
91866,-78.86937,4,1,0,55,0,1
91928,-80.86493,4,1,0,55,0,1
91990,-82.91096,4,1,0,55,0,1
92083,-86.077484,4,1,0,55,0,1
92145,-88.255394,4,1,0,55,0,1
92207,-90.48843,4,1,0,55,0,1
92269,-92.77795,4,1,0,55,0,1
92362,-96.321304,4,1,0,55,0,1
92455,-100,4,1,0,55,0,1
92548,-83.33333,4,1,0,55,0,1
92610,-84.48189,4,1,0,55,0,1
92672,-85.64629,4,1,0,55,0,1
92734,-86.82674,4,1,0,55,0,1
92827,-88.62797,4,1,0,55,0,1
92889,-89.84951,4,1,0,55,0,1
92951,-91.08788,4,1,0,55,0,1
93013,-92.34332,4,1,0,55,0,1
93107,-94.279816,4,1,0,55,0,1
93200,-96.235664,4,1,0,55,0,1
93293,-98.23209,4,1,0,55,0,1
93479,-102.35006,4,1,0,55,0,1
93665,-106.640656,4,1,0,55,0,1
93851,-111.111115,4,1,0,55,0,1
94037,-142.857149285714,4,1,0,55,0,0
94409,-55.5555555555556,4,1,0,55,0,1
94595,-62.5,4,1,0,55,0,1
94781,-65.12108,4,1,0,55,0,1
94874,-66.47255,4,1,0,55,0,1
94967,-67.85207,4,1,0,55,0,1
95060,-69.260216,4,1,0,55,0,1
95153,-70.69759,4,1,0,55,0,1
95246,-72.1648,4,1,0,55,0,1
95339,-73.66245,4,1,0,55,0,1
95432,-75.19119,4,1,0,55,0,1
95525,-76.751656,4,1,0,55,0,1
95711,-79.97039,4,1,0,55,0,1
95804,-81.63004,4,1,0,55,0,1
95897,-83.32413,4,1,0,55,0,1
96083,-86.818504,4,1,0,55,0,1
96269,-90.459435,4,1,0,55,0,1
96455,-94.25305,4,1,0,55,0,1
96641,-98.20576,4,1,0,55,0,1
96827,-102.324234,4,1,0,55,0,1
97013,-106.615425,4,1,0,45,0,0
97200,-111.111115,4,1,0,45,0,0
97386,-76.92308,4,1,0,45,0,0
97479,-77.6043,4,1,0,45,0,0
97572,-78.29155,4,1,0,45,0,0
97758,-79.68436,4,1,0,45,0,0
97944,-81.10194,4,1,0,45,0,0
98130,-82.54475,4,1,0,45,0,0
98316,-84.01321,4,1,0,45,0,0
98485,372.093023255814,4,1,0,45,1,0
98485,-85.3701,4,1,0,45,0,0
98671,-86.88885,4,1,0,45,0,0
98857,-88.4346,4,1,0,45,0,0
99043,-90.0900900900901,4,1,0,45,0,0
99229,-91.743119266055,4,1,0,45,0,0
99415,-93.23882,4,1,0,45,0,0
99787,-96.58576,4,1,0,45,0,0
99973,-98.30402,4,1,0,45,0,0
100159,-100.052864,4,1,0,45,0,0
100345,-101.832794,4,1,0,45,0,0
100717,-105.263157894737,4,1,0,45,0,0
100903,-107.364876,4,1,0,45,0,0
101089,-109.289617486339,4,1,0,45,0,0
101275,-111.21889,4,1,0,45,0,0
101399,-113.20821,4,1,0,45,0,0
101647,-115.21125,4,1,0,45,0,0
101833,-117.26088,4,1,0,45,0,0
102019,-119.34695,4,1,0,45,0,0
102391,-123.63107,4,1,0,45,0,0
102578,-125.8424,4,1,0,45,0,0
102950,372.670807453416,4,1,0,25,1,0
102950,-130.15761,4,1,0,25,0,0
103321,-134.81703,4,1,0,25,0,0
103880,-142.15442,4,1,0,25,0,0
104066,-144.68336,4,1,0,25,0,0
104254,-147.28522,4,1,0,25,0,0
104378,-149.91963,4,1,0,25,0,0
104811,-155.27179,4,1,0,25,0,0
104999,-158.06404,4,1,0,25,0,0
105370,-163.72246,4,1,0,25,0,0
105558,-166.66667,4,1,0,25,0,0
105931,371.517027863777,4,1,0,53,1,0
105931,-200,4,1,0,53,0,0
106302,-55.5555555555556,4,1,0,55,0,1
106488,-62.500004,4,1,0,55,0,1
106550,-63.105415,4,1,0,55,0,1
106612,-63.71669,4,1,0,55,0,1
106674,-64.33389,4,1,0,55,0,1
106766,-65.26077,4,1,0,55,0,1
106828,-65.89293,4,1,0,55,0,1
106890,-66.531204,4,1,0,55,0,1
106952,-67.17567,4,1,0,55,0,1
107045,-68.15408,4,1,0,55,0,1
107107,-68.81427,4,1,0,55,0,1
107169,-69.48084,4,1,0,55,0,1
107231,-70.15388,4,1,0,55,0,1
107324,-71.175674,4,1,0,55,0,1
107386,-71.86513,4,1,0,55,0,1
107417,-72.21236,4,1,0,55,0,1
107448,-72.56126,4,1,0,55,0,1
107509,-73.25274,4,1,0,55,0,1
107602,-74.319664,4,1,0,55,0,1
107695,-75.40214,4,1,0,55,0,1
107788,-76.500374,4,1,0,55,0,1
107881,-77.6146,4,1,0,55,0,1
107974,-78.74506,4,1,0,55,0,1
108160,-81.055626,4,1,0,55,0,1
108345,-83.421,4,1,0,55,0,1
108438,-84.63604,4,1,0,55,0,1
108531,-85.868774,4,1,0,55,0,1
108717,-88.38835,4,1,0,55,0,1
108903,-90.98186,4,1,0,55,0,1
109088,-93.63691,4,1,0,55,0,1
109274,-96.384445,4,1,0,55,0,1
109646,-102.123695,4,1,0,55,0,1
109831,-105.10388,4,1,0,55,0,1
110017,-108.18786,4,1,0,55,0,1
110203,-111.36234,4,1,0,55,0,1
110389,371.517027863777,69,1,0,55,1,1
110389,-114.62997,69,1,0,55,0,1
110574,-117.97512,69,1,0,55,0,1
110760,-121.43676,69,1,0,55,0,1
110946,-125.00001,69,1,0,55,0,1
111132,-200.000025600001,69,1,0,53,0,0
115900,371.517027863777,69,1,0,25,1,0
115900,-100,69,1,0,25,0,0
115953,-100.68584,69,1,0,25,0,0
116006,-101.376366,69,1,0,25,0,0
116059,-102.07164,69,1,0,25,0,0
116112,-102.771675,69,1,0,25,0,0
116225,-104.28028,69,1,0,25,0,0
116294,-105.21233,69,1,0,25,0,0
116364,-106.16641,69,1,0,25,0,0
116434,-107.129135,69,1,0,25,0,0
116568,-108.99649,69,1,0,25,0,0
116643,-110.055824,69,1,0,25,0,0
116717,-111.11112,69,1,0,25,0,0
116852,-105.26315,69,1,0,25,0,0
116898,-106.27655,69,1,0,25,0,0
116944,-107.29971,69,1,0,25,0,0
116991,-108.35528,69,1,0,25,0,0
117037,-109.398445,69,1,0,25,0,0
117138,-111.72425,69,1,0,25,0,0
117220,-113.648834,69,1,0,25,0,0
117303,-115.63066,69,1,0,25,0,0
117386,-117.64705,69,1,0,25,0,0
117502,-111.11112,69,1,0,25,0,0
117548,-111.85498,69,1,0,25,0,0
117595,-112.62016,69,1,0,25,0,0
117641,-113.37412,69,1,0,25,0,0
117687,-114.133125,69,1,0,25,0,0
117819,-116.339485,69,1,0,25,0,0
117881,-117.39049,69,1,0,25,0,0
117943,-118.45097,69,1,0,25,0,0
118005,-119.52104,69,1,0,25,0,0
118129,-121.69026,69,1,0,25,0,0
118221,-123.325096,69,1,0,25,0,0
118314,-125.00001,69,1,0,25,0,0
118477,-117.64705,69,1,0,25,0,0
118523,-118.36716,69,1,0,25,0,0
118570,-119.107475,69,1,0,25,0,0
118616,-119.83653,69,1,0,25,0,0
118663,-120.58604,69,1,0,25,0,0
118748,-121.953445,69,1,0,25,0,0
118810,-122.96062,69,1,0,25,0,0
118872,-123.97611,69,1,0,25,0,0
118934,-125.00001,69,1,0,25,0,0
119057,-117.64705,69,1,0,25,0,0
119119,-118.5567,69,1,0,25,0,0
119181,-119.47339,69,1,0,25,0,0
119243,-120.39716,69,1,0,25,0,0
119305,-121.32809,69,1,0,25,0,0
119406,-122.860016,69,1,0,25,0,0
119475,-123.91769,69,1,0,25,0,0
119545,-125.00001,69,1,0,25,0,0
119708,-117.64705,69,1,0,25,0,0
119754,-118.525444,69,1,0,25,0,0
119800,-119.4104,69,1,0,25,0,0
119847,-120.32142,69,1,0,25,0,0
119893,-121.21978,69,1,0,25,0,0
120048,-124.296555,69,1,0,25,0,0
120110,-125.54901,69,1,0,25,0,0
120172,-126.814095,69,1,0,25,0,0
120234,-128.09193,69,1,0,25,0,0
120358,-130.68636,69,1,0,25,0,0
120420,-132.0032,69,1,0,25,0,0
120482,-133.33333,69,1,0,25,0,0
120590,-125.00001,69,1,0,25,0,0
120636,-125.53435,69,1,0,25,0,0
120683,-126.08266,69,1,0,25,0,0
120729,-126.62161,69,1,0,25,0,0
120776,-127.17468,69,1,0,25,0,0
120946,-129.19537,69,1,0,25,0,0
121008,-129.94028,69,1,0,25,0,0
121070,-130.68948,69,1,0,25,0,0
121132,-131.44302,69,1,0,25,0,0
121286,-133.33356,69,1,0,25,0,0
121317,-133.71739,69,1,0,25,0,0
121472,-135.65321,69,1,0,25,0,0
121534,-136.43536,69,1,0,25,0,0
121627,-137.61705,69,1,0,25,0,0
121875,-140.81851,69,1,0,25,0,0
122030,-142.85715,69,1,0,25,0,0
122982,371.517027863777,69,1,0,25,1,0
122982,-100,69,1,0,25,0,0
123043,-100.8179,69,1,0,25,0,0
123105,-101.65607,69,1,0,25,0,0
123237,-103.46383,69,1,0,25,0,0
123307,-104.4355,69,1,0,25,0,0
123376,-105.40222,69,1,0,25,0,0
123446,-106.3921,69,1,0,25,0,0
123585,-108.385345,69,1,0,25,0,0
123678,-109.73977,69,1,0,25,0,0
123771,-111.11112,69,1,0,25,0,0
123941,-105.26315,69,1,0,25,0,0
124003,-106.079346,69,1,0,25,0,0
124065,-106.90186,69,1,0,25,0,0
124127,-107.73077,69,1,0,25,0,0
124235,-109.19003,69,1,0,25,0,0
124305,-110.146385,69,1,0,25,0,0
124375,-111.11112,69,1,0,25,0,0
124560,-105.26315,69,1,0,25,0,0
124622,-106.07461,69,1,0,25,0,0
124684,-106.89232,69,1,0,25,0,0
124746,-107.71634,69,1,0,25,0,0
124808,-108.54671,69,1,0,25,0,0
124963,-110.65074,69,1,0,25,0,0
125025,-111.50372,69,1,0,25,0,0
125087,-112.36329,69,1,0,25,0,0
125273,-114.98195,69,1,0,25,0,0
125365,-116.29967,69,1,0,25,0,0
125458,-117.64705,69,1,0,25,0,0
125582,-111.11112,69,1,0,25,0,0
125644,-112.14296,69,1,0,25,0,0
125706,-113.184395,69,1,0,25,0,0
125768,-114.23548,69,1,0,25,0,0
125954,-117.4477,69,1,0,25,0,0
126047,-119.08753,69,1,0,25,0,0
126139,-120.732254,69,1,0,25,0,0
126232,-122.41794,69,1,0,25,0,0
126279,-123.27877,69,1,0,25,0,0
126325,-124.12715,69,1,0,25,0,0
126372,-125.00001,69,1,0,25,0,0
126604,-117.64705,69,1,0,25,0,0
126666,-118.709724,69,1,0,25,0,0
126728,-119.782,69,1,0,25,0,0
126790,-120.86395,69,1,0,25,0,0
126882,-122.48748,69,1,0,25,0,0
126952,-123.73737,69,1,0,25,0,0
127022,-125.00001,69,1,0,25,0,0
127192,-121.21211,69,1,0,25,0,0
127254,-122.11576,69,1,0,25,0,0
127316,-123.026146,69,1,0,25,0,0
127378,-123.94333,69,1,0,25,0,0
127440,-124.86734,69,1,0,25,0,0
127564,-126.736084,69,1,0,25,0,0
127625,-127.66561,69,1,0,25,0,0
127687,-128.61737,69,1,0,25,0,0
127873,-125.00001,69,1,0,25,0,0
127935,-126.01454,69,1,0,25,0,0
127997,-127.03732,69,1,0,25,0,0
128059,-128.0684,69,1,0,25,0,0
128121,-129.10785,69,1,0,25,0,0
128245,-131.21214,69,1,0,25,0,0
128307,-132.2771,69,1,0,25,0,0
128368,-133.33333,69,1,0,25,0,0
128492,-125.00001,69,1,0,25,0,0
128554,-126.461945,69,1,0,25,0,0
128616,-127.941,69,1,0,25,0,0
128678,-129.43735,69,1,0,25,0,0
128740,-130.9512,69,1,0,25,0,0
128833,-133.25523,69,1,0,25,0,0
128957,-136.39046,69,1,0,25,0,0
129019,-137.98563,69,1,0,25,0,0
129081,-139.59944,69,1,0,25,0,0
129204,-142.85715,69,1,0,25,0,0
146233,405.405405405405,690,1,0,25,1,8
147449,-200,690,1,0,25,0,8
148564,-185.1566,690,1,0,25,0,8
149476,-173.83844,690,1,0,25,0,8
150557,-161.31557,690,1,0,25,0,8
150692,-159.81639,690,1,0,25,0,8
150827,-158.33116,690,1,0,25,0,8
151503,-151.09901,690,1,0,25,0,8
152043,-145.55995,690,1,0,25,0,8
152314,-142.85715,690,1,0,25,0,8
152449,-125,690,1,0,25,0,8
152685,-136.76065,690,1,0,25,0,8
152854,-142.90782,690,1,0,25,0,8
152989,-149.43007,690,1,0,25,0,8
153124,-156.25,690,1,0,25,0,8
153530,-166.66667,690,1,0,25,0,8
154205,-160.37277,690,1,0,25,0,8
154611,-156.70216,690,1,0,25,0,8
154746,-155.50035,690,1,0,25,0,8
154881,-154.30775,690,1,0,25,0,8
155557,-148.47208,690,1,0,25,0,8
156233,-142.85715,690,1,0,25,0,8
156469,-111.111115,690,1,0,25,0,8
156741,-121.565025,690,1,0,25,0,8
156874,-127.02919,690,1,0,25,0,8
157009,-132.82675,690,1,0,25,0,8
157144,-138.8889,690,1,0,25,0,8
157584,-142.85715,690,1,0,25,0,8
158226,-138.39745,690,1,0,25,0,8
158665,-135.4283,690,1,0,25,0,8
159577,-129.46214,690,1,0,25,0,8
160287,-125,690,1,0,25,0,8
160498,-100,690,1,0,25,0,8
160770,-109.40852,690,1,0,25,0,8
160903,-114.326256,690,1,0,25,0,8
161038,-119.54406,690,1,0,25,0,8
161173,-125,690,1,0,25,0,8
161638,-142.85715,690,1,0,25,0,8
162280,-134.5794,690,1,0,25,0,8
162584,-130.82883,690,1,0,25,0,8
162719,-129.19695,690,1,0,25,0,8
162854,-127.58544,690,1,0,25,0,8
162989,-125.994026,690,1,0,25,0,8
163665,-118.318794,690,1,0,25,0,8
163800,-116.84296,690,1,0,25,0,8
163935,-115.38555,690,1,0,25,0,8
164341,-111.111115,690,1,0,25,0,8
164501,-90.90909,690,1,0,25,0,8
164773,-99.462296,690,1,0,25,0,8
164906,-103.93297,690,1,0,25,0,8
165041,-108.67642,690,1,0,25,0,8
165176,-113.63636,690,1,0,25,0,8
165557,-100,690,1,0,25,0,8
165692,-101.01841,690,1,0,25,0,8
166368,-106.276184,690,1,0,25,0,8
166638,-108.45187,690,1,0,25,0,8
166908,-110.6721,690,1,0,25,0,8
167449,-115.25851,690,1,0,25,0,8
167989,-120.025955,690,1,0,25,0,8
168124,-121.24833,690,1,0,25,0,8
168260,-122.49233,690,1,0,25,0,8
168530,-125,690,1,0,25,0,8
168606,-92.5926,690,1,0,25,0,8
168878,-101.30418,690,1,0,25,0,8
169011,-105.85765,690,1,0,25,0,8
169146,-110.688934,690,1,0,25,0,8
169281,-115.74074,690,1,0,25,0,8
169611,-125,690,1,0,25,0,8
169746,-121.37294,690,1,0,25,0,8
170016,-114.43151,690,1,0,25,0,8
170151,-111.111115,690,1,0,25,0,8
170227,-100,690,1,0,25,0,8
170499,-109.40852,690,1,0,25,0,8
170632,-114.326256,690,1,0,25,0,8
170767,-119.54406,690,1,0,25,0,8
170902,-125,690,1,0,25,0,8
171038,-129.87012987013,690,1,0,25,0,8
171368,-111.111115,690,1,0,25,0,8
171638,-114.055275,690,1,0,25,0,8
171773,-115.55648,690,1,0,25,0,8
172043,-118.61845,690,1,0,25,0,8
172178,-120.17971,690,1,0,25,0,8
172314,-121.773315,690,1,0,25,0,8
172584,-125,690,1,0,25,0,8
172660,-100,690,1,0,25,0,8
172932,-109.40852,690,1,0,25,0,8
173065,-114.326256,690,1,0,25,0,8
173200,-119.54406,690,1,0,25,0,8
173335,-125,690,1,0,25,0,8
173834,-142.85715,690,1,0,25,0,8
173969,-136.75357,690,1,0,25,0,8
174104,-130.91075,690,1,0,25,0,8
174408,-118.65136,690,1,0,25,0,8
174510,-114.80079,690,1,0,25,0,8
174611,-111.111115,690,1,0,25,0,8
175050,-125.000004921875,690,1,0,25,0,8
175726,-142.85715,690,1,0,25,0,8
175996,-150.37999,690,1,0,25,0,8
176266,-158.299,690,1,0,25,0,8
176537,-166.66667,690,1,0,25,0,8
176765,-125,690,1,0,25,0,8
177037,-136.76065,690,1,0,25,0,8
177170,-142.90782,690,1,0,25,0,8
177305,-149.43007,690,1,0,25,0,8
177440,-156.25,690,1,0,25,0,8
178057,-142.857142857143,690,1,0,25,0,8
178327,-125,690,1,0,25,0,8
178462,-100,690,1,0,25,0,8
178732,-110.71614,690,1,0,25,0,8
178868,-116.541374,690,1,0,25,0,8
179003,-122.626854,690,1,0,25,0,8
179138,-129.0301,690,1,0,25,0,8
179273,-135.76772,690,1,0,25,0,8
179408,-142.85715,690,1,0,25,0,8
180185,-133.333333333334,690,1,0,25,0,8
180455,-125,690,1,0,25,0,8
180760,-111.111111111111,690,1,0,25,0,0
180827,-105.263157894737,690,1,0,25,0,0
180895,-100,690,1,0,25,0,8
181131,-111.111111111111,690,1,0,25,0,8
182010,-100,690,1,0,25,0,8
182145,-101.09346,690,1,0,25,0,8
182449,-103.59975,690,1,0,25,0,8
182584,-104.73256,690,1,0,25,0,8
182989,-108.20589,690,1,0,25,0,8
183057,-108.80025,690,1,0,25,0,8
183124,-109.38906,690,1,0,25,0,8
183192,-109.98993,690,1,0,25,0,8
183530,-113.02591,690,1,0,25,0,8
183665,-114.26182,690,1,0,25,0,8
183935,-116.774284,690,1,0,25,0,8
184070,-118.05116,690,1,0,25,0,8
184476,-121.976006,690,1,0,25,0,8
184543,-122.63613,690,1,0,25,0,8
184611,-123.30975,690,1,0,25,0,8
184746,-124.6581,690,1,0,25,0,8
184780,-125,690,1,0,25,0,8
184949,-113.636363636364,690,1,0,25,0,8
185219,-125,690,1,0,25,0,8
185996,-111.111115,690,1,0,25,0,8
186131,-112.35769,690,1,0,25,0,8
186401,-114.89293,690,1,0,25,0,8
186841,-119.14761,690,1,0,25,0,8
187246,-123.20299,690,1,0,25,0,8
187651,-127.39638,690,1,0,25,0,8
187719,-128.11432,690,1,0,25,0,8
187787,-128.8363,690,1,0,25,0,8
187922,-130.28174,690,1,0,25,0,8
188057,-131.7434,690,1,0,25,0,8
188124,-132.47488,690,1,0,25,0,8
188192,-133.22142,690,1,0,25,0,8
188496,-136.61078,690,1,0,25,0,8
188631,-138.14342,690,1,0,25,0,8
188766,-139.69328,690,1,0,25,0,8
188901,-141.26053,690,1,0,25,0,8
189037,-142.85715,690,1,0,25,0,8
189104,-129.87012987013,690,1,0,25,0,8
189239,-142.857142857143,690,1,0,15,0,8
189847,-125,690,1,0,15,0,8
190016,-128.99654,690,1,0,15,0,8
190287,-135.67363,690,1,0,15,0,8
190422,-139.12772,690,1,0,15,0,8
190692,-146.30197,690,1,0,15,0,8
190962,-153.84616,690,1,0,15,0,8
191232,-142.74179,690,1,0,35,0,8
191380,415.22491349481,4,1,0,35,1,0
191380,-131.3859,4,1,0,35,0,0
191518,-124.263466,4,1,0,35,0,0
191656,-117.52714,4,1,0,35,0,0
191795,-111.11111,4,1,0,35,0,0
192072,-125,4,1,0,35,0,0
192210,-118.22964,4,1,0,35,0,0
192487,-105.72646,4,1,0,35,0,0
192625,-100,4,1,0,35,0,0
192902,-111.11111,4,1,0,35,0,0
193040,-108.23292,4,1,0,35,0,0
193179,-105.409256,4,1,0,35,0,0
193317,-102.67878,4,1,0,35,0,0
193456,-100,4,1,0,35,0,0
193732,-105.26317,4,1,0,35,0,0
193871,-103.91715,4,1,0,35,0,0
194148,-101.2859,4,1,0,35,0,0
194286,-100,4,1,0,35,0,0
194563,-111.11111,4,1,0,35,0,0
194701,-108.23292,4,1,0,35,0,0
194840,-105.409256,4,1,0,35,0,0
194978,-102.67878,4,1,0,35,0,0
195117,-100,4,1,0,35,0,0
195393,-111.11111,4,1,0,35,0,0
195532,-109.12183,4,1,0,35,0,0
195809,-105.26317,4,1,0,35,0,0
195947,-86.9565217391304,4,1,0,35,0,0
196085,-90.90908,4,1,0,35,0,0
196155,-93.12526,4,1,0,35,0,0
196224,-95.36266,4,1,0,35,0,0
196293,-97.65382,4,1,0,35,0,0
196362,-100,4,1,0,35,0,0
196501,-103.59195,4,1,0,35,0,0
196639,-107.285675,4,1,0,35,0,0
196777,-111.11111,4,1,0,35,0,0
197054,-105.26317,4,1,0,35,0,0
197193,-106.70085,4,1,0,35,0,0
197469,-109.614,4,1,0,35,0,0
197608,-111.11111,4,1,0,35,0,0
197885,-100,4,1,0,35,0,0
198023,-102.66412,4,1,0,35,0,0
198162,-105.4193,4,1,0,35,0,0
198300,-108.22778,4,1,0,35,0,0
198438,-111.11111,4,1,0,35,0,0
198715,-95.2381,4,1,0,35,0,0
198854,-97.17209,4,1,0,35,0,0
199130,-101.12943,4,1,0,35,0,0
199269,-103.18307,4,1,0,35,0,0
199407,-105.26317,4,1,0,35,0,0
199684,-90.90908,4,1,0,35,0,0
199822,-93.09323,4,1,0,35,0,0
199961,-95.34625,4,1,0,35,0,0
200099,-97.637,4,1,0,35,0,0
200238,-100,4,1,0,35,0,0
200514,-95.2381,4,1,0,35,0,0
200791,-98.382965,4,1,0,35,0,0
200930,-100,4,1,0,35,0,0
201206,-95.2381,4,1,0,35,0,0
201345,-97.65993,4,1,0,35,0,0
201483,-100.12524,4,1,0,35,0,0
201622,-102.67133,4,1,0,35,0,0
201760,-105.26317,4,1,0,35,0,0
202037,-100,4,1,0,35,0,0
202175,-102.65925,4,1,0,35,0,0
202452,-108.21234,4,1,0,35,0,0
202521,-109.64173,4,1,0,35,0,0
202591,-111.11111,4,1,0,35,0,0
202729,-105.263157894737,4,1,0,35,0,0
202867,-100,4,1,0,35,0,0
203006,-102.67877,4,1,0,35,0,0
203144,-105.40925,4,1,0,35,0,0
203283,-108.23292,4,1,0,35,0,0
203421,-111.11111,4,1,0,35,0,0
203698,-100,4,1,0,35,0,0
203836,-102.123344,4,1,0,35,0,0
204113,-106.52248,4,1,0,35,0,0
204251,-108.78431,4,1,0,35,0,0
204390,-111.11111,4,1,0,35,0,0
204459,-108.23292,4,1,0,35,0,0
204528,-105.42931,4,1,0,35,0,0
204597,-102.698296,4,1,0,35,0,0
204667,-100,4,1,0,35,0,0
204805,-96.88034,4,1,0,35,0,0
204944,-93.83645,4,1,0,35,0,0
205082,-90.90908,4,1,0,35,0,0
205359,-100,4,1,0,35,0,0
205497,-98.78983,4,1,0,35,0,0
205774,-96.40476,4,1,0,35,0,0
205912,-95.2381,4,1,0,35,0,0
206189,-100,4,1,0,35,0,0
206328,-97.637,4,1,0,35,0,0
206466,-95.34625,4,1,0,35,0,0
206604,-93.10924,4,1,0,35,0,0
206743,-90.90908,4,1,0,35,0,0
207020,-95.2381,4,1,0,35,0,0
207158,-93.52589,4,1,0,35,0,0
207435,-90.1814,4,1,0,35,0,0
207573,-88.5601,4,1,0,35,0,0
207712,-86.95652,4,1,0,35,0,0
207988,-90.90908,4,1,0,35,0,0
208127,-89.5688,4,1,0,35,0,0
208265,-88.25771,4,1,0,35,0,0
208404,-86.95652,4,1,0,35,0,0
208681,-95.2381,4,1,0,35,0,0
208819,-97.64668,4,1,0,35,0,0
209096,-102.6667,4,1,0,35,0,0
209234,-105.26317,4,1,0,35,0,0
209373,-100,4,1,0,35,0,0
209442,-97.6454,4,1,0,35,0,0
209511,-95.34625,4,1,0,35,0,0
209580,-93.10123,4,1,0,35,0,0
209649,-90.90908,4,1,0,35,0,0
209788,-93.850815,4,1,0,35,0,0
209926,-96.865524,4,1,0,35,0,0
210065,-100,4,1,0,35,0,0
210341,-103.47017,4,1,0,35,0,0
210480,-105.26317,4,1,0,35,0,0
210757,-90.90908,4,1,0,35,0,0
210895,-93.09722,4,1,0,35,0,0
211033,-95.338036,4,1,0,35,0,0
211172,-97.64962,4,1,0,35,0,0
211310,-100,4,1,0,35,0,0
211449,-98.382965,4,1,0,35,0,0
211587,-96.803444,4,1,0,35,0,0
211726,-95.2381,4,1,0,35,0,0
212002,-105.26317,4,1,0,35,0,0
212141,-102.652794,4,1,0,35,0,0
212418,-97.64229,4,1,0,35,0,0
212556,-95.2381,4,1,0,35,0,0
212694,-90.90908,4,1,0,35,0,0
212764,-92.2673,4,1,0,35,0,0
212833,-93.62597,4,1,0,35,0,0
212971,-96.40362,4,1,0,35,0,0
213110,-99.28471,4,1,0,35,0,0
213248,-102.23025,4,1,0,35,0,0
213386,-105.26317,4,1,0,35,0,0
213525,-90.90908,4,1,0,35,0,0
213594,-93.09323,4,1,0,35,0,0
213663,-95.32986,4,1,0,35,0,0
213732,-97.62021,4,1,0,35,0,0
213802,-100,4,1,0,35,0,0
214078,-111.11111,4,1,0,35,0,0
214217,-108.21234,4,1,0,35,0,0
214494,-102.65925,4,1,0,35,0,0
214632,-100,4,1,0,35,0,0
214771,-90.90908,4,1,0,35,0,0
214840,-91.97253,4,1,0,35,0,0
214909,-93.048416,4,1,0,35,0,0
215047,-95.2381,4,1,0,35,0,0
215324,-105.26317,4,1,0,35,0,0
215463,-103.07262,4,1,0,35,0,0
215601,-100.94292,4,1,0,35,0,0
215739,-98.85722,4,1,0,35,0,0
215878,-96.79998,4,1,0,35,0,0
216016,-94.7999,4,1,0,35,0,0
216155,-92.82708,4,1,0,35,0,0
216293,-90.90908,4,1,0,35,0,0
216570,-95.2381,4,1,0,35,0,0
216708,-96.83617,4,1,0,35,0,0
216847,-98.4729,4,1,0,35,0,0
216985,-100.12524,4,1,0,35,0,0
217123,-101.805305,4,1,0,35,0,0
217400,-105.26317,4,1,0,35,0,0
217539,-86.9565217391304,4,1,0,35,0,0
217677,-90.90908,4,1,0,35,0,0
217746,-93.09323,4,1,0,35,0,0
217815,-95.32986,4,1,0,35,0,0
217885,-97.65382,4,1,0,35,0,0
217954,-100,4,1,0,35,0,0
218092,-97.6538,4,1,0,35,0,0
218231,-95.34625,4,1,0,35,0,0
218369,-93.10924,4,1,0,35,0,0
218508,-90.90908,4,1,0,35,0,0
218784,-95.2381,4,1,0,35,0,0
219061,-100.12524,4,1,0,35,0,0
219200,-102.67133,4,1,0,35,0,0
219338,-105.26317,4,1,0,35,0,0
219615,-100,4,1,0,35,0,0
219753,-101.72028,4,1,0,35,0,0
219892,-103.482956,4,1,0,35,0,0
220030,-105.26317,4,1,0,35,0,0
220168,-95.2381,4,1,0,35,0,0
220238,-96.20719,4,1,0,35,0,0
220307,-97.17209,4,1,0,35,0,0
220445,-99.13101,4,1,0,35,0,0
220584,-101.144066,4,1,0,35,0,0
220722,-103.18307,4,1,0,35,0,0
220860,-105.26317,4,1,0,35,0,0
220999,-90.90908,4,1,0,35,0,0
221068,-91.77716,4,1,0,35,0,0
221137,-92.65352,4,1,0,35,0,0
221276,-94.44443,4,1,0,35,0,0
221414,-96.25669,4,1,0,35,0,0
221553,-98.11726,4,1,0,35,0,0
221691,-100,4,1,0,35,0,0
221829,-90.90908,4,1,0,35,0,0
221899,-91.789795,4,1,0,35,0,0
221968,-92.66628,4,1,0,35,0,0
222106,-94.44443,4,1,0,35,0,0
222383,-98.11726,4,1,0,35,0,0
222521,-100,4,1,0,35,0,0
222798,-105.26317,4,1,0,35,0,0
222937,-102.652794,4,1,0,35,0,0
223075,-100.12524,4,1,0,35,0,0
223213,-97.65993,4,1,0,35,0,0
223352,-95.2381,4,1,0,35,0,0
223629,-100,4,1,0,35,0,0
223767,-98.027245,4,1,0,35,0,0
223905,-96.093414,4,1,0,35,0,0
223975,-95.127106,4,1,0,35,0,0
224044,-94.18413,4,1,0,35,0,0
224182,-92.326096,4,1,0,35,0,0
224321,-90.49166,4,1,0,35,0,0
224459,-88.70649,4,1,0,35,0,0
224597,-86.95652,4,1,0,35,0,0
224874,-90.90908,4,1,0,35,0,0
225013,-93.10924,4,1,0,35,0,0
225151,-95.34625,4,1,0,35,0,0
225290,-97.65382,4,1,0,35,0,0
225428,-100,4,1,0,35,0,0
225705,-86.95652,4,1,0,35,0,0
225774,-87.71735,4,1,0,35,0,0
225843,-88.48483,4,1,0,35,0,0
225982,-90.05138,4,1,0,35,0,0
226120,-91.63408,4,1,0,35,0,0
226258,-93.24459,4,1,0,35,0,0
226397,-94.8954,4,1,0,35,0,0
226535,-96.56324,4,1,0,35,0,0
226674,-98.2728,4,1,0,35,0,0
226812,-100,4,1,0,35,0,0
227089,-111.11111,4,1,0,35,0,0
227227,-109.18164,4,1,0,35,0,0
227296,-108.22951,4,1,0,35,0,0
227366,-107.272064,4,1,0,35,0,0
227504,-105.409256,4,1,0,35,0,0
227642,-103.578804,4,1,0,35,0,0
227781,-101.76722,4,1,0,35,0,0
227919,-100,4,1,0,35,0,0
228058,-90.90908,4,1,0,35,0,0
228127,-91.77716,4,1,0,35,0,0
228196,-92.65352,4,1,0,35,0,0
228265,-93.538246,4,1,0,35,0,0
228335,-94.44443,4,1,0,35,0,0
228473,-96.25669,4,1,0,35,0,0
228611,-98.10374,4,1,0,35,0,0
228750,-100,4,1,0,35,0,0
229027,-90.90908,4,1,0,35,0,0
229165,-92.152756,4,1,0,35,0,0
229303,-93.41343,4,1,0,35,0,0
229373,-94.05949,4,1,0,35,0,0
229442,-94.70068,4,1,0,35,0,0
229580,-95.99622,4,1,0,35,0,0
229719,-97.319084,4,1,0,35,0,0
229857,-98.65043,4,1,0,35,0,0
229995,-100,4,1,0,35,0,0
230272,-86.95652,4,1,0,35,0,0
230411,-88.185715,4,1,0,35,0,0
230549,-89.423256,4,1,0,35,0,0
230687,-90.67818,4,1,0,35,0,0
230757,-91.321434,4,1,0,35,0,0
230826,-91.95998,4,1,0,35,0,0
230964,-93.25048,4,1,0,35,0,0
231103,-94.56865,4,1,0,35,0,0
231241,-95.89576,4,1,0,35,0,0
231380,-97.25133,4,1,0,35,0,0
231518,-98.61609,4,1,0,35,0,0
231587,-99.30563,4,1,0,35,0,0
231656,-100,4,1,0,35,0,0
231933,-105.263157894737,4,1,0,35,0,0
232072,-100,4,1,0,35,0,0
232141,-102.59784,4,1,0,35,0,0
232210,-105.26317,4,1,0,35,0,0
232348,-95.2381,4,1,0,35,0,0
232418,-97.60713,4,1,0,35,0,0
232487,-100,4,1,0,35,0,0
232625,-98.39068,4,1,0,35,0,0
232764,-96.79586,4,1,0,35,0,0
232902,-95.2381,4,1,0,35,0,0
233179,-100,4,1,0,35,0,0
233317,-98.0392156862745,4,1,0,35,0,0
233456,-100,4,1,0,35,0,0
233525,-99.05415,4,1,0,35,0,0
233594,-98.11725,4,1,0,35,0,0
233732,-96.26995,4,1,0,35,0,0
233871,-94.44442,4,1,0,35,0,0
234009,-92.666275,4,1,0,35,0,0
234148,-90.90908,4,1,0,35,0,0
234286,-95.2381,4,1,0,35,0,0
234355,-94.5043,4,1,0,35,0,0
234424,-93.77618,4,1,0,35,0,0
234563,-92.32633,4,1,0,35,0,0
234701,-90.90908,4,1,0,35,0,0
234840,-86.95652,4,1,0,35,0,0
234909,-87.82624,4,1,0,35,0,0
234978,-88.70466,4,1,0,35,0,0
235117,-90.500984,4,1,0,35,0,0
235255,-92.32039,4,1,0,35,0,0
235393,-94.17636,4,1,0,35,0,0
235532,-96.083496,4,1,0,35,0,0
235670,-98.015114,4,1,0,35,0,0
235739,-98.995445,4,1,0,35,0,0
235809,-100,4,1,0,35,0,0
236068,-105.263157894737,4,1,0,35,0,0
236207,-100,4,1,0,35,0,0
236276,-102.59784,4,1,0,35,0,0
236345,-105.26317,4,1,0,35,0,0
236483,-95.2381,4,1,0,35,0,0
236553,-97.60713,4,1,0,35,0,0
236639,-100,4,1,0,35,0,0
236777,-98.39068,4,1,0,35,0,0
236916,-96.79586,4,1,0,35,0,0
237054,-95.2381,4,1,0,35,0,0
237331,-90.90908,4,1,0,35,0,0
237469,-93.09323,4,1,0,35,0,0
237608,-95.34625,4,1,0,35,0,0
237677,-96.48484,4,1,0,35,0,0
237746,-97.637,4,1,0,35,0,0
237885,-100,4,1,0,35,0,0
238162,-105.26317,4,1,0,35,0,0
238300,-102.6667,4,1,0,35,0,0
238438,-100.1343,4,1,0,35,0,0
238577,-97.6467,4,1,0,35,0,0
238715,-95.2381,4,1,0,35,0,0
238992,-90.90908,4,1,0,35,0,0
239130,-93.09323,4,1,0,35,0,0
239269,-95.34625,4,1,0,35,0,0
239407,-97.637,4,1,0,35,0,0
239546,-100,4,1,0,35,0,0
239822,-95.2381,4,1,0,35,0,0
239961,-96.803444,4,1,0,35,0,0
240099,-98.382965,4,1,0,35,0,0
240238,-100,4,1,0,35,0,0
240376,-90.90908,4,1,0,35,0,0
240445,-92.02382,4,1,0,35,0,0
240514,-93.15222,4,1,0,35,0,0
240584,-94.31112,4,1,0,35,0,0
240653,-95.467575,4,1,0,35,0,0
240791,-97.8232,4,1,0,35,0,0
240930,-100.254654,4,1,0,35,0,0
241068,-102.72838,4,1,0,35,0,0
241206,-105.26317,4,1,0,35,0,0
241483,-111.11111,4,1,0,35,0,0
241622,-108.21234,4,1,0,35,0,0
241760,-105.409256,4,1,0,35,0,0
241899,-102.65925,4,1,0,35,0,0
242037,-100,4,1,0,35,0,0
242314,-105.26317,4,1,0,35,0,0
242452,-102.60733,4,1,0,35,0,0
242591,-100,4,1,0,35,0,0
242729,-90.90908,4,1,0,35,0,0
242798,-91.63225,4,1,0,35,0,0
242867,-92.361176,4,1,0,35,0,0
243006,-93.847244,4,1,0,35,0,0
243144,-95.34625,4,1,0,35,0,0
243283,-96.88034,4,1,0,35,0,0
243421,-98.42782,4,1,0,35,0,0
243559,-100,4,1,0,35,0,0
243698,-95.2381,4,1,0,35,0,0
243836,-96.83617,4,1,0,35,0,0
243975,-98.4729,4,1,0,35,0,0
244044,-99.29564,4,1,0,35,0,0
244113,-100.12524,4,1,0,35,0,0
244251,-101.805305,4,1,0,35,0,0
244390,-103.52603,4,1,0,35,0,0
244528,-105.26317,4,1,0,35,0,0
244805,-100,4,1,0,35,0,0
244944,-102.67877,4,1,0,35,0,0
245220,-108.21234,4,1,0,35,0,0
245359,-111.11111,4,1,0,35,0,0
245497,-108.158165,4,1,0,35,0,0
245636,-105.26317,4,1,0,35,0,0
245774,-95.2381,4,1,0,35,0,0
245843,-96.193275,4,1,0,35,0,0
245912,-97.158035,4,1,0,35,0,0
246051,-99.13101,4,1,0,35,0,0
246189,-101.12943,4,1,0,35,0,0
246328,-103.18307,4,1,0,35,0,0
246466,-105.26317,4,1,0,35,0,0
246604,-90.90908,4,1,0,35,0,0
246743,-93.10924,4,1,0,35,0,0
246812,-94.22111,4,1,0,35,0,0
246881,-95.34625,4,1,0,35,0,0
247020,-97.65382,4,1,0,35,0,0
247158,-100,4,1,0,35,0,0
247296,-90.90908,4,1,0,35,0,0
247366,-92.2673,4,1,0,35,0,0
247435,-93.62597,4,1,0,35,0,0
247573,-96.40362,4,1,0,35,0,0
247712,-99.28471,4,1,0,35,0,0
247850,-102.23025,4,1,0,35,0,0
247988,-105.26317,4,1,0,35,0,0
248127,-95.2381,4,1,0,35,0,0
248196,-96.43269,4,1,0,35,0,0
248265,-97.64229,4,1,0,35,0,0
248404,-100.12524,4,1,0,35,0,0
248542,-102.652794,4,1,0,35,0,0
248681,-105.26317,4,1,0,35,0,0
248819,-103.52605,4,1,0,35,0,0
248957,-101.81757,4,1,0,35,0,0
249096,-100.12524,4,1,0,35,0,0
249234,-98.47291,4,1,0,35,0,0
249373,-96.83617,4,1,0,35,0,0
249511,-95.2381,4,1,0,35,0,0
249788,-92.32633,4,1,0,35,0,0
249926,-90.90908,4,1,0,35,0,0
250203,-86.95652,4,1,0,35,0,0
250341,-89.627235,4,1,0,35,0,0
250480,-92.40021,4,1,0,35,0,0
250618,-95.2381,4,1,0,35,0,0
250757,-90.90908,4,1,0,35,0,0
250895,-92.39843,4,1,0,35,0,0
250964,-93.15222,4,1,0,35,0,0
251033,-93.91217,4,1,0,35,0,0
251172,-95.46196,4,1,0,35,0,0
251310,-97.02589,4,1,0,35,0,0
251449,-98.62706,4,1,0,35,0,0
251587,-100.242836,4,1,0,35,0,0
251864,-103.56646,4,1,0,35,0,0
252002,-105.26317,4,1,0,35,0,0
252279,-111.11111,4,1,0,35,0,0
252418,-108.89419,4,1,0,35,0,0
252556,-106.73696,4,1,0,35,0,0
252625,-105.67443,4,1,0,35,0,0
252694,-104.62248,4,1,0,35,0,0
252833,-102.53502,4,1,0,35,0,0
252971,-100.503784,4,1,0,35,0,0
253110,-98.49849,4,1,0,35,0,0
253179,-97.0873786407767,4,1,0,35,0,0
253248,-96.54721,4,1,0,35,0,0
253317,-95.2380952380952,4,1,0,35,0,0
253386,-94.63459,4,1,0,35,0,0
253525,-92.746414,4,1,0,35,0,0
253594,-91.82315,4,1,0,35,0,0
253663,-90.90908,4,1,0,35,0,0
253940,-95.2380952380952,4,1,0,35,0,0
254078,-86.95652,4,1,0,35,0,0
254148,-88.297874,4,1,0,35,0,0
254217,-89.640305,4,1,0,35,0,0
254355,-92.38672,4,1,0,35,0,0
254494,-95.2381,4,1,0,35,0,0
254632,-93.80842,4,1,0,35,0,0
254771,-92.39007,4,1,0,35,0,0
254909,-91.00314,4,1,0,35,0,0
255047,-89.63704,4,1,0,35,0,0
255186,-88.28177,4,1,0,35,0,0
255255,-87.61664,4,1,0,35,0,0
255324,-86.95652,4,1,0,35,0,0
255601,-90.90908,4,1,0,35,0,0
255739,-92.58579,4,1,0,35,0,0
255878,-94.30591,4,1,0,35,0,0
256016,-96.04528,4,1,0,35,0,0
256155,-97.82967,4,1,0,35,0,0
256431,-101.47166,4,1,0,35,0,0
256570,-103.356865,4,1,0,35,0,0
256708,-105.26317,4,1,0,35,0,0
256985,-100,4,1,0,35,0,0
257262,-95.2381,4,1,0,35,0,0
257331,-96.43487,4,1,0,35,0,0
257400,-97.64668,4,1,0,35,0,0
257539,-100.1343,4,1,0,35,0,0
257677,-102.6667,4,1,0,35,0,0
257815,-105.26317,4,1,0,35,0,0
258092,-90.90908,4,1,0,35,0,0
258231,-93.850815,4,1,0,35,0,0
258369,-96.865524,4,1,0,35,0,0
258508,-100,4,1,0,35,0,0
258784,-105.26317,4,1,0,35,0,0
258923,-102.58834,4,1,0,35,0,0
259061,-100,4,1,0,35,0,0
259338,-111.11111,4,1,0,35,0,0
259476,-108.23292,4,1,0,35,0,0
259615,-105.409256,4,1,0,35,0,0
259753,-102.67878,4,1,0,35,0,0
259892,-100,4,1,0,35,0,0
260168,-105.26317,4,1,0,35,0,0
260445,-95.2381,4,1,0,35,0,0
260584,-97.65993,4,1,0,35,0,0
260722,-100.12524,4,1,0,35,0,0
260999,-105.26317,4,1,0,35,0,0
261137,-90.90908,4,1,0,35,0,0
261206,-91.92496,4,1,0,35,0,0
261276,-92.96714,4,1,0,35,0,0
261345,-94.00601,4,1,0,35,0,0
261414,-95.05648,4,1,0,35,0,0
261553,-97.208435,4,1,0,35,0,0
261691,-99.393105,4,1,0,35,0,0
261829,-101.62686,4,1,0,35,0,0
261968,-103.92756,4,1,0,35,0,0
262245,-108.6689,4,1,0,35,0,0
262383,-111.11111,4,1,0,35,0,0
262660,-90.90908,4,1,0,35,0,0
262729,-93.048416,4,1,0,35,0,0
262798,-95.2381,4,1,0,35,0,0
263075,-105.26317,4,1,0,35,0,0
263213,-103.0882,4,1,0,35,0,0
263352,-100.94292,4,1,0,35,0,0
263490,-98.85722,4,1,0,35,0,0
263629,-96.79998,4,1,0,35,0,0
263767,-94.7999,4,1,0,35,0,0
263905,-92.841125,4,1,0,35,0,0
264044,-90.90908,4,1,0,35,0,0
264321,-100,4,1,0,35,0,0
264459,-97.64962,4,1,0,35,0,0
264597,-95.35447,4,1,0,35,0,0
264667,-94.21097,4,1,0,35,0,0
264736,-93.09722,4,1,0,35,0,0
264874,-90.90908,4,1,0,35,0,0
265151,-100,4,1,0,35,0,0
265290,-98.01513,4,1,0,35,0,0
265428,-96.083496,4,1,0,35,0,0
265566,-94.18994,4,1,0,35,0,0
265705,-92.32039,4,1,0,35,0,0
265843,-90.501,4,1,0,35,0,0
265912,-89.60479,4,1,0,35,0,0
265982,-88.70466,4,1,0,35,0,0
266120,-86.95652,4,1,0,35,0,0
266397,-95.2381,4,1,0,35,0,0
266535,-96.83617,4,1,0,35,0,0
266950,-101.805305,4,1,0,35,0,0
267089,-103.52603,4,1,0,35,0,0
267227,-105.26317,4,1,0,35,0,0
267366,-95.2381051473924,4,1,0,35,0,0
267435,-97.0873786407767,4,1,0,35,0,0
267642,-86.9565217391304,4,1,0,35,0,0
267712,-88.4955752212389,4,1,0,35,0,0

[HitObjects]
282,96,34727,5,8,0:0:0:0:
279,98,35287,1,0,0:0:0:0:
282,96,35660,1,8,0:0:0:0:
308,80,36220,1,0,0:0:0:0:
308,80,36406,1,8,0:0:0:0:
305,79,36780,1,0,0:0:0:0:
308,80,36966,1,0,0:0:0:0:
306,69,37153,1,8,0:0:0:0:
305,79,37713,1,8,0:0:0:0:
306,69,38273,1,0,0:0:0:0:
317,70,38646,1,8,0:0:0:0:
323,61,39206,1,0,0:0:0:0:
323,63,39392,1,8,0:0:0:0:
323,63,39766,1,0,0:0:0:0:
323,61,39952,1,0,0:0:0:0:
323,61,40139,1,0,0:0:0:0:
323,63,40326,1,0,0:0:0:0:
323,63,40699,1,8,0:0:0:0:
323,61,41072,1,0,0:0:0:0:
323,63,41259,1,8,0:0:0:0:
323,63,41445,1,0,0:0:0:0:
323,61,41819,1,8,0:0:0:0:
323,63,42192,1,0,0:0:0:0:
323,63,42378,1,8,0:0:0:0:
323,61,42752,1,0,0:0:0:0:
323,63,43125,1,0,0:0:0:0:
323,63,43312,1,0,0:0:0:0:
323,51,43685,1,8,0:0:0:0:
335,60,44058,1,0,0:0:0:0:
335,60,44245,1,8,0:0:0:0:
333,58,44618,1,0,0:0:0:0:
335,60,44805,1,0,0:0:0:0:
335,60,44991,1,8,0:0:0:0:
335,60,45178,1,0,0:0:0:0:
333,58,45364,1,8,0:0:0:0:
335,60,45738,1,8,0:0:0:0:
335,60,45924,1,0,0:0:0:0:
282,131,46298,5,0,0:0:0:0:
318,114,46671,1,8,0:0:0:0:
333,71,47044,1,8,0:0:0:0:
341,78,47231,1,0,0:0:0:0:
341,76,47417,1,0,0:0:0:0:
341,77,47604,1,8,0:0:0:0:
345,73,47791,1,0,0:0:0:0:
346,71,48164,1,0,0:0:0:0:
341,76,48350,1,8,0:0:0:0:
342,70,48724,1,0,0:0:0:0:
352,78,48910,1,0,0:0:0:0:
352,78,49097,1,8,0:0:0:0:
367,68,49284,1,0,0:0:0:0:
354,67,49657,1,0,0:0:0:0:
354,67,49843,1,8,0:0:0:0:
354,67,50217,1,0,0:0:0:0:
348,72,50403,1,0,0:0:0:0:
348,72,50590,1,8,0:0:0:0:
335,73,52270,1,0,0:0:0:0:
335,73,52643,1,8,0:0:0:0:
343,68,53016,1,0,0:0:0:0:
343,68,53203,1,8,0:0:0:0:
343,68,53389,1,0,0:0:0:0:
343,68,53576,1,8,0:0:0:0:
343,68,53949,1,0,0:0:0:0:
343,68,54136,1,0,0:0:0:0:
343,68,54322,1,8,0:0:0:0:
351,62,54696,1,8,0:0:0:0:
351,62,54882,1,0,0:0:0:0:
351,62,55069,1,0,0:0:0:0:
364,68,55256,1,0,0:0:0:0:
351,62,55629,1,8,0:0:0:0:
366,60,56189,1,0,0:0:0:0:
351,62,56375,1,0,0:0:0:0:
351,62,56562,1,8,0:0:0:0:
367,52,57122,1,0,0:0:0:0:
367,54,57308,1,8,0:0:0:0:
323,79,57682,1,8,0:0:0:0:
323,79,57868,1,8,0:0:0:0:
323,79,58055,1,0,0:0:0:0:
377,123,58239,5,0,0:0:0:0:
323,79,58612,1,8,0:0:0:0:
323,79,58986,1,0,0:0:0:0:
329,71,59173,1,8,0:0:0:0:
323,79,59547,1,0,0:0:0:0:
323,79,59734,1,0,0:0:0:0:
329,71,60108,1,0,0:0:0:0:
323,79,60295,1,8,0:0:0:0:
325,72,60668,1,8,0:0:0:0:
329,71,60855,1,0,0:0:0:0:
305,83,61042,1,8,0:0:0:0:
313,107,61229,1,0,0:0:0:0:
257,89,61603,1,8,0:0:0:0:
325,78,61977,1,0,0:0:0:0:
323,79,62164,1,8,0:0:0:0:
325,78,62538,1,0,0:0:0:0:
299,94,62724,1,0,0:0:0:0:
350,76,62818,1,0,0:0:0:0:
317,86,62911,1,8,0:0:0:0:
330,71,63098,1,0,0:0:0:0:
319,87,63285,1,8,0:0:0:0:
350,76,63659,1,8,0:0:0:0:
350,76,63846,1,8,0:0:0:0:
345,72,64033,1,0,0:0:0:0:
302,95,64220,1,0,0:0:0:0:
342,78,64594,1,8,0:0:0:0:
350,83,65154,1,0,0:0:0:0:
352,78,65341,1,0,0:0:0:0:
356,119,65528,1,8,0:0:0:0:
355,91,65715,1,0,0:0:0:0:
366,74,66089,1,0,0:0:0:0:
366,74,66276,1,8,0:0:0:0:
371,77,66650,1,0,0:0:0:0:
371,77,66837,1,0,0:0:0:0:
371,77,66930,1,0,0:0:0:0:
327,134,67024,1,8,0:0:0:0:
355,85,67397,1,0,0:0:0:0:
356,82,67584,1,0,0:0:0:0:
356,82,67771,1,8,0:0:0:0:
344,84,68122,1,0,0:0:0:0:
345,84,68309,1,0,0:0:0:0:
310,118,68496,1,8,0:0:0:0:
280,96,70201,1,0,0:0:0:0:
304,76,70573,1,8,0:0:0:0:
312,73,70946,1,0,0:0:0:0:
311,73,71132,1,8,0:0:0:0:
311,73,71319,1,0,0:0:0:0:
311,73,71505,1,0,0:0:0:0:
319,57,71692,1,8,0:0:0:0:
329,66,72064,1,0,0:0:0:0:
329,66,72250,1,8,0:0:0:0:
323,68,72437,1,8,0:0:0:0:
323,68,72530,1,8,0:0:0:0:
323,68,72623,1,0,0:0:0:0:
329,66,72809,1,8,0:0:0:0:
329,66,72996,1,0,0:0:0:0:
329,66,73183,1,0,0:0:0:0:
323,68,73555,1,8,0:0:0:0:
329,66,73927,1,0,0:0:0:0:
322,69,74114,1,8,0:0:0:0:
323,68,74300,1,0,0:0:0:0:
323,68,74486,1,0,0:0:0:0:
322,68,74674,1,8,0:0:0:0:
324,59,75045,1,0,0:0:0:0:
324,59,75232,1,8,0:0:0:0:
323,60,75418,1,0,0:0:0:0:
323,59,75604,1,8,0:0:0:0:
324,59,75791,1,8,0:0:0:0:
324,59,75977,1,0,0:0:0:0:
323,60,76350,1,0,0:0:0:0:
322,66,76536,1,8,0:0:0:0:
321,67,76909,1,0,0:0:0:0:
321,67,77095,1,0,0:0:0:0:
314,56,77281,1,8,0:0:0:0:
314,57,77468,1,0,0:0:0:0:
321,67,77840,1,0,0:0:0:0:
321,67,78027,1,8,0:0:0:0:
315,63,78213,1,0,0:0:0:0:
321,67,78586,1,8,0:0:0:0:
321,67,78772,1,0,0:0:0:0:
321,67,78958,1,8,0:0:0:0:
321,67,79331,1,0,0:0:0:0:
321,67,79517,1,8,0:0:0:0:
325,60,79704,1,0,0:0:0:0:
335,58,80076,1,0,0:0:0:0:
333,60,80263,1,8,0:0:0:0:
321,67,80449,1,8,0:0:0:0:
322,61,80822,1,0,0:0:0:0:
343,63,81008,1,0,0:0:0:0:
343,65,81194,1,8,0:0:0:0:
335,59,81381,1,8,0:0:0:0:
341,66,81567,1,0,0:0:0:0:
337,60,81753,1,0,0:0:0:0:
343,63,81940,1,8,0:0:0:0:
343,65,82127,1,0,0:0:0:0:
346,61,82312,1,0,0:0:0:0:
341,66,82499,1,8,0:0:0:0:
354,67,82871,1,0,0:0:0:0:
343,65,83058,1,0,0:0:0:0:
346,61,83244,1,8,0:0:0:0:
341,66,83430,1,8,0:0:0:0:
346,65,83618,1,0,0:0:0:0:
346,65,83803,1,0,0:0:0:0:
351,55,83989,1,8,0:0:0:0:
355,56,84176,1,0,0:0:0:0:
355,56,84362,1,0,0:0:0:0:
332,62,84548,1,8,0:0:0:0:
332,63,84735,1,0,0:0:0:0:
335,62,84921,1,0,0:0:0:0:
364,56,85479,1,12,0:0:0:0:
347,55,85665,1,0,0:0:0:0:
352,55,85758,1,0,0:0:0:0:
363,57,85851,1,8,0:0:0:0:
364,57,85944,1,8,0:0:0:0:
359,48,86037,1,0,0:0:0:0:
364,56,86099,1,0,0:0:0:0:
364,56,86161,1,8,0:0:0:0:
364,56,86223,1,8,0:0:0:0:
351,50,86316,1,0,0:0:0:0:
351,49,86378,1,0,0:0:0:0:
358,45,86440,1,8,0:0:0:0:
356,47,86502,1,8,0:0:0:0:
357,44,86595,1,0,0:0:0:0:
355,43,86657,1,0,0:0:0:0:
371,57,86719,1,8,0:0:0:0:
371,57,86781,1,8,0:0:0:0:
371,57,86874,1,0,0:0:0:0:
380,50,86936,1,0,0:0:0:0:
380,50,86998,1,8,0:0:0:0:
380,50,87060,1,8,0:0:0:0:
380,50,87153,1,0,0:0:0:0:
367,48,87246,1,8,0:0:0:0:
366,48,87339,1,0,0:0:0:0:
356,47,87525,1,0,0:0:0:0:
360,47,87711,1,8,0:0:0:0:
369,42,87897,1,0,0:0:0:0:
364,49,88455,1,12,0:0:0:0:
360,47,88641,1,0,0:0:0:0:
360,47,88734,1,0,0:0:0:0:
366,50,88827,1,8,0:0:0:0:
364,52,88920,1,8,0:0:0:0:
367,65,89013,1,0,0:0:0:0:
353,84,89075,1,0,0:0:0:0:
349,79,89138,1,0,0:0:0:0:
346,78,89200,1,8,0:0:0:0:
364,49,89293,1,0,0:0:0:0:
356,52,89355,1,0,0:0:0:0:
356,52,89417,1,0,0:0:0:0:
356,52,89479,1,8,0:0:0:0:
356,52,89572,1,0,0:0:0:0:
360,47,89634,1,0,0:0:0:0:
346,54,89696,1,0,0:0:0:0:
347,52,89758,1,8,0:0:0:0:
347,46,89851,1,0,0:0:0:0:
348,48,89913,1,0,0:0:0:0:
348,48,89975,1,0,0:0:0:0:
348,48,90037,1,8,0:0:0:0:
352,46,90130,1,0,0:0:0:0:
352,48,90223,1,8,0:0:0:0:
364,49,90316,1,0,0:0:0:0:
356,52,90502,1,8,0:0:0:0:
356,37,90688,1,8,0:0:0:0:
358,43,90874,1,0,0:0:0:0:
355,54,91060,1,8,0:0:0:0:
347,56,91122,1,8,0:0:0:0:
352,48,91184,1,0,0:0:0:0:
352,48,91246,1,0,0:0:0:0:
355,44,91339,1,8,0:0:0:0:
349,36,91401,1,8,0:0:0:0:
371,38,91463,1,0,0:0:0:0:
371,38,91525,1,0,0:0:0:0:
363,35,91618,1,8,0:0:0:0:
363,35,91711,1,8,0:0:0:0:
363,35,91804,1,0,0:0:0:0:
351,57,91866,1,0,0:0:0:0:
355,54,91928,1,8,0:0:0:0:
355,54,91990,1,8,0:0:0:0:
355,54,92083,1,0,0:0:0:0:
356,57,92145,1,0,0:0:0:0:
356,57,92207,1,8,0:0:0:0:
356,57,92269,1,8,0:0:0:0:
364,48,92362,1,0,0:0:0:0:
360,49,92455,1,0,0:0:0:0:
361,50,92548,1,8,0:0:0:0:
365,46,92610,1,8,0:0:0:0:
365,46,92672,1,0,0:0:0:0:
368,45,92734,1,0,0:0:0:0:
363,35,92827,1,8,0:0:0:0:
369,44,92889,1,8,0:0:0:0:
363,47,92951,1,0,0:0:0:0:
362,48,93013,1,0,0:0:0:0:
370,58,93107,1,8,0:0:0:0:
382,48,93200,1,8,0:0:0:0:
382,46,93293,1,0,0:0:0:0:
369,46,93479,1,8,0:0:0:0:
365,46,93665,1,8,0:0:0:0:
369,50,93851,1,0,0:0:0:0:
365,53,94409,1,12,0:0:0:0:
351,57,94595,1,0,0:0:0:0:
392,72,94781,1,8,0:0:0:0:
382,71,94874,1,0,0:0:0:0:
382,71,94967,1,8,0:0:0:0:
382,71,95060,1,0,0:0:0:0:
382,71,95153,1,8,0:0:0:0:
378,68,95246,1,8,0:0:0:0:
374,70,95339,1,0,0:0:0:0:
373,70,95432,1,0,0:0:0:0:
360,68,95525,1,8,0:0:0:0:
382,60,95711,1,0,0:0:0:0:
384,59,95804,1,0,0:0:0:0:
382,71,95897,1,8,0:0:0:0:
382,71,96083,1,0,0:0:0:0:
385,58,96269,1,0,0:0:0:0:
373,70,96455,1,0,0:0:0:0:
371,68,96641,1,8,0:0:0:0:
380,67,96827,1,8,0:0:0:0:
382,71,97013,1,0,0:0:0:0:
377,75,97200,1,0,0:0:0:0:
373,70,97386,1,8,0:0:0:0:
385,69,97479,1,8,0:0:0:0:
383,71,97572,1,0,0:0:0:0:
386,72,97758,1,0,0:0:0:0:
382,71,97944,1,0,0:0:0:0:
377,75,98130,1,0,0:0:0:0:
373,70,98316,1,8,0:0:0:0:
378,74,98671,1,0,0:0:0:0:
382,71,98857,1,8,0:0:0:0:
340,73,99043,1,0,0:0:0:0:
359,68,99229,1,0,0:0:0:0:
378,74,99415,1,8,0:0:0:0:
382,71,99787,1,0,0:0:0:0:
358,71,99973,1,0,0:0:0:0:
378,74,100159,1,0,0:0:0:0:
378,74,100345,1,8,0:0:0:0:
367,67,100717,1,8,0:0:0:0:
378,74,100903,1,0,0:0:0:0:
378,74,101089,1,0,0:0:0:0:
378,74,101275,1,8,0:0:0:0:
378,74,101647,1,8,0:0:0:0:
378,74,101833,1,0,0:0:0:0:
378,74,102019,1,0,0:0:0:0:
378,74,102391,1,8,0:0:0:0:
378,74,102578,1,8,0:0:0:0:
371,78,102950,1,0,0:0:0:0:
363,85,103321,1,8,0:0:0:0:
371,78,103880,1,0,0:0:0:0:
363,85,104068,1,8,0:0:0:0:
363,85,104254,1,0,0:0:0:0:
178,112,104813,1,8,0:0:0:0:
382,83,104999,1,0,0:0:0:0:
382,84,105372,1,0,0:0:0:0:
382,84,105558,1,8,0:0:0:0:
336,97,106302,1,12,0:0:0:0:
334,80,106488,1,0,0:0:0:0:
321,73,106550,1,0,0:0:0:0:
326,81,106612,1,8,0:0:0:0:
326,81,106674,1,8,0:0:0:0:
333,75,106766,1,0,0:0:0:0:
333,75,106828,1,0,0:0:0:0:
340,63,106890,1,8,0:0:0:0:
341,63,106952,1,8,0:0:0:0:
348,61,107045,1,0,0:0:0:0:
348,61,107107,1,0,0:0:0:0:
343,67,107169,1,8,0:0:0:0:
350,62,107231,1,8,0:0:0:0:
347,54,107324,1,0,0:0:0:0:
347,54,107386,1,0,0:0:0:0:
347,54,107448,1,8,0:0:0:0:
358,55,107509,1,8,0:0:0:0:
348,58,107602,1,0,0:0:0:0:
349,58,107695,1,8,0:0:0:0:
350,55,107788,1,0,0:0:0:0:
359,61,107881,1,0,0:0:0:0:
359,52,107974,1,8,0:0:0:0:
370,60,108160,1,8,0:0:0:0:
356,65,108345,1,0,0:0:0:0:
363,58,108438,1,8,0:0:0:0:
358,55,108531,1,0,0:0:0:0:
362,59,108717,1,8,0:0:0:0:
356,52,108903,1,0,0:0:0:0:
359,54,109088,1,0,0:0:0:0:
362,53,109274,1,8,0:0:0:0:
360,50,109646,1,0,0:0:0:0:
367,49,109831,1,0,0:0:0:0:
367,49,110017,1,0,0:0:0:0:
348,80,110203,1,8,0:0:0:0:
370,56,110574,1,0,0:0:0:0:
370,56,110760,1,8,0:0:0:0:
370,56,110946,1,0,0:0:0:0:
256,192,111503,12,0,113175,0:0:0:0:
328,113,115900,5,0,0:0:0:0:
341,98,115953,1,0,0:0:0:0:
341,99,116006,1,0,0:0:0:0:
338,80,116059,1,0,0:0:0:0:
331,103,116112,1,8,0:0:0:0:
336,82,116225,1,0,0:0:0:0:
336,83,116294,1,0,0:0:0:0:
351,80,116364,1,0,0:0:0:0:
336,83,116434,1,8,0:0:0:0:
350,77,116568,1,0,0:0:0:0:
356,89,116643,1,0,0:0:0:0:
349,80,116717,1,8,0:0:0:0:
338,80,116852,1,0,0:0:0:0:
339,85,116898,1,0,0:0:0:0:
343,82,116944,1,0,0:0:0:0:
353,83,116991,1,0,0:0:0:0:
352,75,117037,1,8,0:0:0:0:
362,95,117138,1,0,0:0:0:0:
336,83,117220,1,0,0:0:0:0:
362,95,117303,1,0,0:0:0:0:
373,77,117386,1,8,0:0:0:0:
319,62,117502,1,0,0:0:0:0:
319,62,117548,1,0,0:0:0:0:
352,69,117595,1,0,0:0:0:0:
352,69,117641,1,0,0:0:0:0:
335,70,117687,1,8,0:0:0:0:
378,113,117819,1,0,0:0:0:0:
369,109,117881,1,0,0:0:0:0:
370,109,117943,1,0,0:0:0:0:
338,104,118005,1,8,0:0:0:0:
392,107,118129,1,0,0:0:0:0:
394,108,118221,1,0,0:0:0:0:
351,89,118314,1,8,0:0:0:0:
360,98,118477,1,0,0:0:0:0:
373,92,118523,1,0,0:0:0:0:
363,93,118570,1,0,0:0:0:0:
359,94,118616,1,0,0:0:0:0:
376,94,118663,1,8,0:0:0:0:
372,83,118748,1,0,0:0:0:0:
349,78,118810,1,0,0:0:0:0:
363,86,118872,1,0,0:0:0:0:
366,86,118934,1,8,0:0:0:0:
367,84,119057,1,0,0:0:0:0:
368,84,119119,1,0,0:0:0:0:
368,84,119181,1,0,0:0:0:0:
368,84,119243,1,0,0:0:0:0:
363,90,119305,1,8,0:0:0:0:
381,79,119406,1,0,0:0:0:0:
378,81,119475,1,0,0:0:0:0:
378,124,119545,1,8,0:0:0:0:
386,94,119708,1,0,0:0:0:0:
377,76,119754,1,0,0:0:0:0:
378,76,119800,1,0,0:0:0:0:
377,77,119847,1,0,0:0:0:0:
377,77,119893,1,8,0:0:0:0:
369,68,120048,1,0,0:0:0:0:
379,85,120110,1,0,0:0:0:0:
380,85,120172,1,0,0:0:0:0:
394,82,120234,1,8,0:0:0:0:
377,76,120358,1,0,0:0:0:0:
377,76,120420,1,0,0:0:0:0:
388,85,120482,1,8,0:0:0:0:
403,88,120590,1,0,0:0:0:0:
404,87,120636,1,0,0:0:0:0:
406,86,120683,1,0,0:0:0:0:
406,86,120729,1,0,0:0:0:0:
387,96,120776,1,8,0:0:0:0:
379,85,120946,1,0,0:0:0:0:
380,85,121008,1,0,0:0:0:0:
384,81,121070,1,0,0:0:0:0:
384,81,121132,1,8,0:0:0:0:
388,78,121286,1,0,0:0:0:0:
386,74,121317,1,8,0:0:0:0:
385,81,121472,1,0,0:0:0:0:
385,81,121534,1,8,0:0:0:0:
380,83,121627,1,0,0:0:0:0:
366,73,121875,1,8,0:0:0:0:
347,73,122030,1,0,0:0:0:0:
385,65,122982,5,0,0:0:0:0:
408,72,123043,1,0,0:0:0:0:
401,72,123105,1,8,0:0:0:0:
401,66,123237,1,0,0:0:0:0:
415,78,123307,1,0,0:0:0:0:
408,80,123376,1,0,0:0:0:0:
414,78,123446,1,8,0:0:0:0:
391,77,123585,1,0,0:0:0:0:
401,77,123678,1,0,0:0:0:0:
401,77,123771,1,8,0:0:0:0:
363,75,123941,1,0,0:0:0:0:
375,74,124003,1,0,0:0:0:0:
375,74,124065,1,0,0:0:0:0:
375,74,124127,1,8,0:0:0:0:
371,78,124235,1,0,0:0:0:0:
371,78,124305,1,0,0:0:0:0:
376,84,124375,1,8,0:0:0:0:
401,77,124560,1,0,0:0:0:0:
375,74,124622,1,0,0:0:0:0:
376,74,124684,1,0,0:0:0:0:
346,68,124746,1,0,0:0:0:0:
395,91,124808,1,8,0:0:0:0:
402,74,124963,1,0,0:0:0:0:
419,116,125025,1,0,0:0:0:0:
385,98,125087,1,8,0:0:0:0:
399,68,125273,1,0,0:0:0:0:
386,72,125365,1,0,0:0:0:0:
389,73,125458,1,8,0:0:0:0:
409,77,125582,1,0,0:0:0:0:
382,80,125644,1,0,0:0:0:0:
385,83,125706,1,0,0:0:0:0:
390,73,125768,1,8,0:0:0:0:
387,63,125954,1,0,0:0:0:0:
388,66,126047,1,0,0:0:0:0:
391,67,126139,1,8,0:0:0:0:
370,100,126232,1,0,0:0:0:0:
370,83,126279,1,0,0:0:0:0:
370,83,126325,1,0,0:0:0:0:
369,84,126372,1,8,0:0:0:0:
370,78,126604,1,0,0:0:0:0:
370,79,126666,1,0,0:0:0:0:
370,79,126728,1,0,0:0:0:0:
390,86,126790,1,8,0:0:0:0:
372,78,126882,1,0,0:0:0:0:
386,79,126952,1,0,0:0:0:0:
317,93,127022,1,8,0:0:0:0:
353,70,127192,1,0,0:0:0:0:
353,71,127254,1,0,0:0:0:0:
353,71,127316,1,0,0:0:0:0:
353,71,127378,1,0,0:0:0:0:
340,80,127440,1,8,0:0:0:0:
391,118,127564,1,0,0:0:0:0:
363,106,127625,1,0,0:0:0:0:
355,108,127687,1,8,0:0:0:0:
386,91,127873,1,0,0:0:0:0:
372,92,127935,1,0,0:0:0:0:
372,92,127997,1,0,0:0:0:0:
372,92,128059,1,0,0:0:0:0:
373,92,128121,1,8,0:0:0:0:
373,92,128245,1,0,0:0:0:0:
373,92,128307,1,0,0:0:0:0:
373,92,128368,1,8,0:0:0:0:
376,91,128492,1,0,0:0:0:0:
386,91,128554,1,0,0:0:0:0:
386,91,128616,1,0,0:0:0:0:
386,91,128678,1,0,0:0:0:0:
385,90,128740,1,8,0:0:0:0:
392,89,128833,1,0,0:0:0:0:
387,81,128957,1,0,0:0:0:0:
400,88,129019,1,0,0:0:0:0:
400,88,129081,1,8,0:0:0:0:
400,88,129204,1,0,0:0:0:0:
298,113,147449,5,0,0:0:0:0:
314,91,148564,1,8,0:0:0:0:
314,91,149476,1,0,0:0:0:0:
319,80,150557,1,0,0:0:0:0:
327,78,150692,1,0,0:0:0:0:
331,83,150827,1,8,0:0:0:0:
336,71,151503,1,0,0:0:0:0:
324,67,152043,1,8,0:0:0:0:
336,83,152314,1,0,0:0:0:0:
286,118,152449,5,8,0:0:0:0:
335,134,152719,5,0,0:0:0:0:
328,91,152854,1,0,0:0:0:0:
328,91,152989,1,0,0:0:0:0:
328,91,153124,1,0,0:0:0:0:
339,76,153530,1,0,0:0:0:0:
325,73,154205,1,8,0:0:0:0:
311,68,154611,1,0,0:0:0:0:
326,64,154746,1,0,0:0:0:0:
327,64,154881,1,8,0:0:0:0:
319,70,155557,1,0,0:0:0:0:
331,70,156233,1,0,0:0:0:0:
349,90,156503,1,8,0:0:0:0:
349,80,156773,1,0,0:0:0:0:
348,80,156908,1,0,0:0:0:0:
348,80,157043,1,0,0:0:0:0:
350,80,157178,1,0,0:0:0:0:
361,84,157584,1,0,0:0:0:0:
362,86,158226,1,8,0:0:0:0:
357,78,158665,1,0,0:0:0:0:
357,78,159577,1,0,0:0:0:0:
345,75,160287,1,0,0:0:0:0:
355,79,160557,5,8,0:0:0:0:
328,93,160793,5,0,0:0:0:0:
367,72,160928,1,0,0:0:0:0:
367,72,161064,1,0,0:0:0:0:
367,72,161199,1,0,0:0:0:0:
374,72,161638,1,0,0:0:0:0:
374,72,162280,1,0,0:0:0:0:
374,72,162584,1,8,0:0:0:0:
374,72,162719,1,0,0:0:0:0:
391,69,162854,1,0,0:0:0:0:
383,73,162989,1,8,0:0:0:0:
394,73,163665,1,0,0:0:0:0:
388,79,163800,1,0,0:0:0:0:
388,79,163935,1,8,0:0:0:0:
358,80,164341,1,0,0:0:0:0:
348,67,164591,1,8,0:0:0:0:
341,113,164865,1,0,0:0:0:0:
348,67,164998,1,0,0:0:0:0:
348,67,165133,1,0,0:0:0:0:
348,67,165269,1,8,0:0:0:0:
346,79,165557,1,8,0:0:0:0:
350,79,165692,1,0,0:0:0:0:
360,68,166368,1,0,0:0:0:0:
369,63,166638,1,0,0:0:0:0:
341,79,166908,1,0,0:0:0:0:
392,69,167449,1,8,0:0:0:0:
362,86,167989,1,8,0:0:0:0:
362,86,168124,1,0,0:0:0:0:
354,84,168260,1,8,0:0:0:0:
388,58,168530,1,0,0:0:0:0:
368,83,168665,1,8,0:0:0:0:
389,109,168935,1,0,0:0:0:0:
368,83,169070,1,0,0:0:0:0:
368,83,169205,1,0,0:0:0:0:
368,83,169341,1,0,0:0:0:0:
383,64,169611,1,0,0:0:0:0:
383,65,169746,1,8,0:0:0:0:
374,70,170016,1,0,0:0:0:0:
374,66,170151,1,0,0:0:0:0:
363,98,170287,1,8,0:0:0:0:
372,97,170557,1,0,0:0:0:0:
371,96,170692,1,0,0:0:0:0:
369,95,170827,1,0,0:0:0:0:
369,95,170962,1,0,0:0:0:0:
372,96,171097,1,0,0:0:0:0:
372,73,171368,1,8,0:0:0:0:
386,77,171638,1,0,0:0:0:0:
388,80,171773,1,0,0:0:0:0:
379,86,172043,1,8,0:0:0:0:
394,86,172178,1,0,0:0:0:0:
391,83,172314,1,8,0:0:0:0:
405,99,172584,1,0,0:0:0:0:
347,78,172719,1,8,0:0:0:0:
347,78,172989,1,0,0:0:0:0:
347,78,173141,1,0,0:0:0:0:
347,78,173293,1,0,0:0:0:0:
347,78,173445,1,8,0:0:0:0:
365,95,173834,1,8,0:0:0:0:
354,73,173969,1,0,0:0:0:0:
347,78,174104,1,8,0:0:0:0:
374,66,174408,1,0,0:0:0:0:
372,67,174510,1,0,0:0:0:0:
372,67,174611,1,8,0:0:0:0:
362,68,175050,1,0,0:0:0:0:
384,66,175726,1,8,0:0:0:0:
382,70,175996,1,0,0:0:0:0:
384,66,176266,1,8,0:0:0:0:
375,68,176537,1,0,0:0:0:0:
349,80,176815,1,8,0:0:0:0:
373,88,177077,1,0,0:0:0:0:
373,90,177212,1,0,0:0:0:0:
373,90,177347,1,0,0:0:0:0:
373,90,177482,1,0,0:0:0:0:
357,75,178057,1,0,0:0:0:0:
373,77,178327,1,0,0:0:0:0:
376,80,178462,1,8,0:0:0:0:
380,88,178732,1,0,0:0:0:0:
383,88,178868,1,0,0:0:0:0:
384,88,179003,1,0,0:0:0:0:
384,88,179138,1,0,0:0:0:0:
384,88,179273,1,0,0:0:0:0:
385,88,179408,1,0,0:0:0:0:
383,69,180219,1,8,0:0:0:0:
377,72,180489,1,8,0:0:0:0:
380,76,180793,1,0,0:0:0:0:
375,72,180861,1,0,0:0:0:0:
378,83,180928,1,8,0:0:0:0:
378,83,181165,1,0,0:0:0:0:
385,66,182010,1,8,0:0:0:0:
384,67,182145,1,0,0:0:0:0:
373,81,182449,1,0,0:0:0:0:
379,80,182584,1,8,0:0:0:0:
348,69,182989,1,8,0:0:0:0:
364,69,183057,1,8,0:0:0:0:
368,81,183124,1,0,0:0:0:0:
384,67,183192,1,0,0:0:0:0:
379,80,183530,1,0,0:0:0:0:
371,85,183665,1,8,0:0:0:0:
372,74,183935,1,0,0:0:0:0:
364,69,184070,1,8,0:0:0:0:
375,64,184476,1,8,0:0:0:0:
382,71,184543,1,0,0:0:0:0:
389,78,184611,1,8,0:0:0:0:
372,58,184746,1,0,0:0:0:0:
346,75,185016,5,8,0:0:0:0:
446,149,185288,5,0,0:0:0:0:
353,58,185996,1,8,0:0:0:0:
353,58,186131,1,0,0:0:0:0:
346,61,186401,1,8,0:0:0:0:
357,64,186841,1,0,0:0:0:0:
352,64,187246,1,0,0:0:0:0:
357,64,187651,1,8,0:0:0:0:
338,78,187719,1,8,0:0:0:0:
336,78,187787,1,0,0:0:0:0:
360,58,187922,1,0,0:0:0:0:
361,77,188057,1,8,0:0:0:0:
360,71,188124,1,0,0:0:0:0:
343,67,188192,1,0,0:0:0:0:
365,69,188496,1,8,0:0:0:0:
361,79,188631,1,8,0:0:0:0:
356,71,188766,1,0,0:0:0:0:
386,86,188901,1,8,0:0:0:0:
354,81,189037,1,0,0:0:0:0:
321,83,189172,5,8,0:0:0:0:
321,83,189442,1,0,0:0:0:0:
359,79,189847,1,8,0:0:0:0:
354,81,190016,1,0,0:0:0:0:
350,79,190287,1,0,0:0:0:0:
345,70,190422,1,0,0:0:0:0:
359,79,190692,1,8,0:0:0:0:
354,81,190962,1,0,0:0:0:0:
333,104,191232,5,8,0:0:0:0:
367,80,191380,1,0,0:0:0:0:
350,88,191518,1,0,0:0:0:0:
338,95,191656,1,0,0:0:0:0:
338,97,191795,1,8,0:0:0:0:
338,97,192072,1,0,0:0:0:0:
367,80,192210,1,0,0:0:0:0:
366,86,192487,1,0,0:0:0:0:
366,86,192625,1,8,0:0:0:0:
363,83,192902,1,0,0:0:0:0:
367,80,193040,1,0,0:0:0:0:
366,86,193179,1,8,0:0:0:0:
366,86,193317,1,0,0:0:0:0:
366,86,193456,1,8,0:0:0:0:
369,77,193732,1,0,0:0:0:0:
367,80,193871,1,0,0:0:0:0:
368,77,194148,1,0,0:0:0:0:
375,80,194286,1,8,0:0:0:0:
375,80,194563,1,0,0:0:0:0:
379,81,194701,1,8,0:0:0:0:
379,81,194840,1,0,0:0:0:0:
379,81,194978,1,8,0:0:0:0:
375,80,195117,1,8,0:0:0:0:
385,68,195393,1,0,0:0:0:0:
385,68,195532,1,0,0:0:0:0:
380,71,195809,1,0,0:0:0:0:
380,71,195947,1,8,0:0:0:0:
376,76,196085,1,8,0:0:0:0:
373,60,196155,1,8,0:0:0:0:
377,64,196224,1,8,0:0:0:0:
373,60,196293,1,8,0:0:0:0:
377,64,196362,1,0,0:0:0:0:
380,71,196501,1,0,0:0:0:0:
371,63,196639,1,0,0:0:0:0:
380,71,196777,1,8,0:0:0:0:
377,64,197054,1,8,0:0:0:0:
377,64,197193,1,0,0:0:0:0:
389,79,197469,1,0,0:0:0:0:
380,71,197608,1,8,0:0:0:0:
390,77,197885,1,0,0:0:0:0:
385,73,198023,1,0,0:0:0:0:
389,79,198162,1,8,0:0:0:0:
389,79,198300,1,0,0:0:0:0:
388,74,198438,1,8,0:0:0:0:
390,77,198715,1,0,0:0:0:0:
385,73,198854,1,8,0:0:0:0:
391,72,199130,1,0,0:0:0:0:
388,74,199269,1,8,0:0:0:0:
390,77,199407,1,0,0:0:0:0:
394,71,199684,1,8,0:0:0:0:
397,78,199822,1,0,0:0:0:0:
397,78,199961,1,0,0:0:0:0:
397,77,200099,1,8,0:0:0:0:
390,77,200238,1,0,0:0:0:0:
394,80,200514,1,8,0:0:0:0:
397,78,200791,1,0,0:0:0:0:
384,81,200930,1,8,0:0:0:0:
385,81,201206,1,8,0:0:0:0:
385,81,201345,1,0,0:0:0:0:
385,81,201483,1,0,0:0:0:0:
385,81,201622,1,8,0:0:0:0:
384,81,201760,1,0,0:0:0:0:
385,81,202037,1,8,0:0:0:0:
385,81,202175,1,8,0:0:0:0:
385,81,202452,1,0,0:0:0:0:
384,81,202521,1,8,0:0:0:0:
384,81,202591,1,0,0:0:0:0:
422,98,202729,1,0,0:0:0:0:
385,81,202867,1,8,0:0:0:0:
385,81,203006,1,0,0:0:0:0:
392,81,203144,1,8,0:0:0:0:
392,83,203283,1,0,0:0:0:0:
391,83,203421,1,8,0:0:0:0:
392,87,203698,1,0,0:0:0:0:
399,86,203836,1,0,0:0:0:0:
399,86,204113,1,0,0:0:0:0:
398,85,204251,1,8,0:0:0:0:
401,91,204390,1,0,0:0:0:0:
402,84,204459,1,0,0:0:0:0:
402,84,204528,1,8,0:0:0:0:
405,95,204597,1,8,0:0:0:0:
417,90,204667,1,0,0:0:0:0:
405,76,204805,1,0,0:0:0:0:
405,76,204944,1,8,0:0:0:0:
405,106,205082,1,0,0:0:0:0:
401,76,205359,1,0,0:0:0:0:
401,76,205497,1,0,0:0:0:0:
411,83,205774,1,0,0:0:0:0:
411,83,205912,1,8,0:0:0:0:
401,76,206189,1,0,0:0:0:0:
401,76,206328,1,0,0:0:0:0:
396,81,206466,1,8,0:0:0:0:
396,81,206604,1,8,0:0:0:0:
414,89,206743,1,0,0:0:0:0:
414,89,207020,1,8,0:0:0:0:
401,76,207158,1,0,0:0:0:0:
404,79,207435,1,0,0:0:0:0:
396,81,207573,1,8,0:0:0:0:
408,81,207712,1,0,0:0:0:0:
408,81,207988,1,8,0:0:0:0:
412,80,208127,1,0,0:0:0:0:
412,80,208265,1,0,0:0:0:0:
412,80,208404,1,8,0:0:0:0:
413,67,208681,1,0,0:0:0:0:
413,67,208819,1,0,0:0:0:0:
412,66,209096,1,0,0:0:0:0:
413,67,209234,1,8,0:0:0:0:
412,69,209373,1,0,0:0:0:0:
412,69,209442,1,0,0:0:0:0:
413,67,209511,1,0,0:0:0:0:
413,67,209580,1,0,0:0:0:0:
413,67,209649,1,8,0:0:0:0:
430,84,209788,1,0,0:0:0:0:
430,84,209926,1,0,0:0:0:0:
395,74,210065,1,8,0:0:0:0:
393,88,210341,1,0,0:0:0:0:
409,76,210480,1,0,0:0:0:0:
414,83,210757,1,8,0:0:0:0:
411,75,210895,1,0,0:0:0:0:
411,75,211033,1,8,0:0:0:0:
417,83,211172,1,8,0:0:0:0:
425,73,211310,1,0,0:0:0:0:
417,83,211449,1,0,0:0:0:0:
414,83,211587,1,8,0:0:0:0:
422,81,211726,1,8,0:0:0:0:
422,81,212002,1,0,0:0:0:0:
417,83,212141,1,0,0:0:0:0:
417,83,212418,1,0,0:0:0:0:
414,83,212556,1,8,0:0:0:0:
411,81,212694,1,0,0:0:0:0:
413,84,212764,1,0,0:0:0:0:
412,84,212833,1,0,0:0:0:0:
422,81,212971,1,8,0:0:0:0:
425,80,213110,1,0,0:0:0:0:
417,83,213248,1,0,0:0:0:0:
417,83,213386,1,8,0:0:0:0:
414,83,213525,1,0,0:0:0:0:
414,83,213594,1,8,0:0:0:0:
411,81,213663,1,8,0:0:0:0:
411,81,213732,1,0,0:0:0:0:
406,68,213802,1,0,0:0:0:0:
414,72,214078,1,0,0:0:0:0:
414,72,214217,1,8,0:0:0:0:
411,74,214494,1,0,0:0:0:0:
412,74,214632,1,0,0:0:0:0:
411,81,214771,1,8,0:0:0:0:
402,64,214840,1,8,0:0:0:0:
401,69,214909,1,0,0:0:0:0:
405,72,215047,1,8,0:0:0:0:
411,74,215324,1,0,0:0:0:0:
411,74,215463,1,8,0:0:0:0:
412,74,215601,1,0,0:0:0:0:
405,73,215739,1,8,0:0:0:0:
405,73,215878,1,0,0:0:0:0:
409,77,216016,1,8,0:0:0:0:
399,82,216155,1,8,0:0:0:0:
400,81,216293,1,0,0:0:0:0:
403,71,216570,1,0,0:0:0:0:
405,73,216708,1,0,0:0:0:0:
386,68,216847,1,8,0:0:0:0:
401,72,216985,1,8,0:0:0:0:
404,70,217123,1,0,0:0:0:0:
402,71,217400,1,0,0:0:0:0:
403,71,217539,1,8,0:0:0:0:
405,73,217677,1,0,0:0:0:0:
405,73,217746,1,0,0:0:0:0:
401,72,217815,1,8,0:0:0:0:
401,72,217885,1,8,0:0:0:0:
401,72,217954,1,0,0:0:0:0:
409,75,218092,1,0,0:0:0:0:
409,75,218231,1,0,0:0:0:0:
410,75,218369,1,8,0:0:0:0:
408,66,218508,1,0,0:0:0:0:
401,72,218784,1,8,0:0:0:0:
409,75,219061,1,0,0:0:0:0:
409,75,219200,1,8,0:0:0:0:
406,60,219338,1,0,0:0:0:0:
411,60,219615,1,8,0:0:0:0:
411,60,219753,1,0,0:0:0:0:
411,61,219892,1,0,0:0:0:0:
411,61,220030,1,8,0:0:0:0:
409,61,220168,1,0,0:0:0:0:
412,61,220238,1,0,0:0:0:0:
406,60,220307,1,8,0:0:0:0:
403,60,220445,1,0,0:0:0:0:
411,60,220584,1,0,0:0:0:0:
402,57,220722,1,0,0:0:0:0:
402,58,220860,1,8,0:0:0:0:
393,66,220999,1,8,0:0:0:0:
395,64,221068,1,8,0:0:0:0:
395,64,221137,1,0,0:0:0:0:
397,59,221276,1,0,0:0:0:0:
403,60,221414,1,8,0:0:0:0:
403,56,221553,1,0,0:0:0:0:
382,79,221691,1,8,0:0:0:0:
386,63,221829,1,0,0:0:0:0:
384,64,221899,1,0,0:0:0:0:
393,66,221968,1,8,0:0:0:0:
395,64,222106,1,0,0:0:0:0:
393,64,222383,1,8,0:0:0:0:
380,58,222521,1,0,0:0:0:0:
386,54,222798,1,8,0:0:0:0:
395,54,222937,1,0,0:0:0:0:
395,64,223075,1,0,0:0:0:0:
396,54,223213,1,8,0:0:0:0:
396,57,223352,1,0,0:0:0:0:
386,54,223629,1,8,0:0:0:0:
386,54,223767,1,0,0:0:0:0:
388,55,223905,1,8,0:0:0:0:
388,55,223975,1,0,0:0:0:0:
390,55,224044,1,8,0:0:0:0:
396,54,224182,1,0,0:0:0:0:
396,57,224321,1,0,0:0:0:0:
386,54,224459,1,0,0:0:0:0:
386,54,224597,1,8,0:0:0:0:
399,51,224874,1,0,0:0:0:0:
388,55,225013,1,8,0:0:0:0:
382,59,225151,1,0,0:0:0:0:
382,59,225290,1,0,0:0:0:0:
377,60,225428,1,8,0:0:0:0:
365,56,225705,1,8,0:0:0:0:
365,60,225774,1,0,0:0:0:0:
372,64,225843,1,8,0:0:0:0:
368,67,225982,1,0,0:0:0:0:
382,59,226120,1,8,0:0:0:0:
382,59,226258,1,0,0:0:0:0:
390,55,226397,1,0,0:0:0:0:
350,71,226535,1,8,0:0:0:0:
357,68,226674,1,0,0:0:0:0:
372,64,226812,1,0,0:0:0:0:
373,55,227089,1,8,0:0:0:0:
382,59,227227,1,0,0:0:0:0:
394,60,227296,1,0,0:0:0:0:
378,53,227366,1,8,0:0:0:0:
389,60,227504,1,8,0:0:0:0:
369,61,227642,1,0,0:0:0:0:
372,64,227781,1,8,0:0:0:0:
366,66,227919,1,0,0:0:0:0:
362,54,228058,1,8,0:0:0:0:
373,55,228127,1,8,0:0:0:0:
366,54,228196,1,0,0:0:0:0:
371,60,228265,1,0,0:0:0:0:
385,58,228335,1,8,0:0:0:0:
373,64,228473,1,8,0:0:0:0:
369,61,228611,1,0,0:0:0:0:
372,64,228750,1,0,0:0:0:0:
322,61,229027,1,0,0:0:0:0:
347,66,229165,1,8,0:0:0:0:
361,50,229303,1,0,0:0:0:0:
362,62,229373,1,0,0:0:0:0:
360,63,229442,1,8,0:0:0:0:
360,63,229580,1,0,0:0:0:0:
372,64,229719,1,0,0:0:0:0:
370,67,229857,1,0,0:0:0:0:
340,62,229995,1,8,0:0:0:0:
350,53,230272,1,8,0:0:0:0:
351,52,230411,1,0,0:0:0:0:
360,49,230549,1,0,0:0:0:0:
354,42,230687,1,8,0:0:0:0:
346,50,230757,1,8,0:0:0:0:
354,42,230826,1,0,0:0:0:0:
361,47,230964,1,0,0:0:0:0:
365,39,231103,1,8,0:0:0:0:
341,54,231241,1,0,0:0:0:0:
368,52,231380,1,0,0:0:0:0:
368,52,231518,1,8,0:0:0:0:
367,51,231587,1,0,0:0:0:0:
369,47,231656,1,8,0:0:0:0:
369,50,231933,1,0,0:0:0:0:
370,43,232072,1,8,0:0:0:0:
365,39,232141,1,8,0:0:0:0:
370,42,232210,1,0,0:0:0:0:
370,42,232348,1,8,0:0:0:0:
371,41,232418,1,0,0:0:0:0:
371,41,232487,1,0,0:0:0:0:
371,41,232625,1,8,0:0:0:0:
370,42,232764,1,0,0:0:0:0:
366,43,232902,1,8,0:0:0:0:
357,56,233179,1,0,0:0:0:0:
359,55,233317,1,8,0:0:0:0:
375,49,233456,1,0,0:0:0:0:
373,50,233525,1,0,0:0:0:0:
370,51,233594,1,8,0:0:0:0:
370,51,233732,1,0,0:0:0:0:
361,51,233871,1,0,0:0:0:0:
348,56,234009,1,8,0:0:0:0:
348,55,234148,1,0,0:0:0:0:
359,55,234286,1,8,0:0:0:0:
348,58,234355,1,0,0:0:0:0:
350,57,234424,1,8,0:0:0:0:
351,57,234563,1,0,0:0:0:0:
372,63,234701,1,0,0:0:0:0:
374,54,234840,1,8,0:0:0:0:
344,53,234909,1,8,0:0:0:0:
356,59,234978,1,0,0:0:0:0:
348,55,235117,1,8,0:0:0:0:
348,54,235255,1,0,0:0:0:0:
348,58,235393,1,0,0:0:0:0:
351,57,235532,1,8,0:0:0:0:
360,54,235670,1,0,0:0:0:0:
357,53,235739,1,0,0:0:0:0:
357,53,235809,1,8,0:0:0:0:
355,60,236085,1,0,0:0:0:0:
348,61,236224,1,8,0:0:0:0:
357,65,236293,1,8,0:0:0:0:
357,66,236362,1,0,0:0:0:0:
366,67,236501,1,8,0:0:0:0:
366,67,236570,1,0,0:0:0:0:
366,67,236639,1,0,0:0:0:0:
371,62,236777,1,8,0:0:0:0:
373,61,236916,1,0,0:0:0:0:
364,57,237054,1,8,0:0:0:0:
369,54,237331,1,0,0:0:0:0:
371,52,237469,1,8,0:0:0:0:
371,52,237608,1,8,0:0:0:0:
368,53,237677,1,8,0:0:0:0:
368,53,237746,1,0,0:0:0:0:
368,52,237885,1,8,0:0:0:0:
369,54,238162,1,0,0:0:0:0:
369,54,238300,1,8,0:0:0:0:
371,52,238438,1,0,0:0:0:0:
386,59,238577,1,0,0:0:0:0:
386,59,238715,1,8,0:0:0:0:
385,53,238992,1,8,0:0:0:0:
364,46,239130,1,0,0:0:0:0:
378,46,239269,1,0,0:0:0:0:
371,52,239407,1,8,0:0:0:0:
386,59,239546,1,0,0:0:0:0:
393,50,239822,1,8,0:0:0:0:
385,53,239961,1,0,0:0:0:0:
397,49,240099,1,8,0:0:0:0:
371,41,240238,1,0,0:0:0:0:
374,45,240376,1,8,0:0:0:0:
387,49,240445,1,8,0:0:0:0:
384,51,240514,1,0,0:0:0:0:
383,52,240584,1,0,0:0:0:0:
361,47,240653,1,0,0:0:0:0:
376,45,240791,1,8,0:0:0:0:
369,41,240930,1,8,0:0:0:0:
373,43,241068,1,0,0:0:0:0:
377,52,241206,1,0,0:0:0:0:
387,49,241483,1,0,0:0:0:0:
383,52,241622,1,8,0:0:0:0:
376,45,241760,1,0,0:0:0:0:
376,47,241899,1,0,0:0:0:0:
385,50,242037,1,8,0:0:0:0:
387,49,242314,1,0,0:0:0:0:
387,49,242452,1,8,0:0:0:0:
383,52,242591,1,0,0:0:0:0:
384,51,242729,1,8,0:0:0:0:
387,49,242798,1,8,0:0:0:0:
359,60,242867,1,0,0:0:0:0:
392,58,243006,1,0,0:0:0:0:
392,57,243144,1,8,0:0:0:0:
397,54,243283,1,0,0:0:0:0:
400,56,243421,1,8,0:0:0:0:
369,62,243559,1,8,0:0:0:0:
391,63,243698,1,0,0:0:0:0:
384,55,243836,1,0,0:0:0:0:
384,55,243975,1,8,0:0:0:0:
372,52,244044,1,0,0:0:0:0:
373,52,244113,1,8,0:0:0:0:
398,46,244251,1,0,0:0:0:0:
398,47,244390,1,0,0:0:0:0:
383,55,244528,1,8,0:0:0:0:
384,55,244805,1,0,0:0:0:0:
372,57,244944,1,8,0:0:0:0:
371,57,245220,1,8,0:0:0:0:
377,57,245359,1,0,0:0:0:0:
364,55,245497,1,0,0:0:0:0:
361,58,245636,1,0,0:0:0:0:
373,55,245774,1,8,0:0:0:0:
365,60,245843,1,8,0:0:0:0:
365,59,245912,1,0,0:0:0:0:
371,57,246051,1,8,0:0:0:0:
384,52,246189,1,0,0:0:0:0:
362,56,246328,1,0,0:0:0:0:
364,55,246466,1,0,0:0:0:0:
361,58,246604,1,8,0:0:0:0:
355,58,246743,1,0,0:0:0:0:
355,54,246812,1,0,0:0:0:0:
355,54,246881,1,8,0:0:0:0:
355,60,247020,1,8,0:0:0:0:
355,60,247158,1,0,0:0:0:0:
354,61,247296,1,8,0:0:0:0:
362,56,247366,1,0,0:0:0:0:
364,55,247435,1,8,0:0:0:0:
361,58,247573,1,0,0:0:0:0:
355,58,247712,1,8,0:0:0:0:
355,60,247850,1,0,0:0:0:0:
376,50,247988,1,0,0:0:0:0:
374,57,248127,1,8,0:0:0:0:
374,51,248196,1,8,0:0:0:0:
374,57,248265,1,0,0:0:0:0:
358,64,248404,1,8,0:0:0:0:
358,64,248542,1,0,0:0:0:0:
355,58,248681,1,0,0:0:0:0:
355,51,248819,1,8,0:0:0:0:
353,56,248957,1,0,0:0:0:0:
353,57,249096,1,8,0:0:0:0:
347,55,249234,1,8,0:0:0:0:
347,55,249373,1,0,0:0:0:0:
347,53,249511,1,0,0:0:0:0:
343,54,249788,1,8,0:0:0:0:
343,59,249926,1,0,0:0:0:0:
347,55,250203,1,8,0:0:0:0:
339,58,250341,1,8,0:0:0:0:
347,53,250480,1,0,0:0:0:0:
343,54,250618,1,0,0:0:0:0:
343,54,250757,1,8,0:0:0:0:
333,55,250895,1,0,0:0:0:0:
335,55,250964,1,0,0:0:0:0:
333,55,251033,1,8,0:0:0:0:
337,54,251172,1,0,0:0:0:0:
339,58,251310,1,8,0:0:0:0:
339,56,251449,1,8,0:0:0:0:
343,54,251587,1,0,0:0:0:0:
353,58,251864,1,0,0:0:0:0:
354,59,252002,1,0,0:0:0:0:
339,58,252279,1,0,0:0:0:0:
339,56,252418,1,8,0:0:0:0:
340,61,252556,1,0,0:0:0:0:
338,62,252625,1,0,0:0:0:0:
339,62,252694,1,0,0:0:0:0:
347,71,252833,1,8,0:0:0:0:
344,50,252971,1,0,0:0:0:0:
344,50,253110,1,8,0:0:0:0:
310,77,253179,1,0,0:0:0:0:
352,46,253248,1,8,0:0:0:0:
310,77,253317,1,8,0:0:0:0:
344,47,253386,1,0,0:0:0:0:
343,50,253525,1,0,0:0:0:0:
343,50,253594,1,0,0:0:0:0:
344,47,253663,1,8,0:0:0:0:
344,50,253940,1,0,0:0:0:0:
340,58,254078,1,8,0:0:0:0:
344,50,254148,1,8,0:0:0:0:
344,56,254217,1,0,0:0:0:0:
344,47,254355,1,8,0:0:0:0:
344,47,254494,1,0,0:0:0:0:
358,55,254632,1,0,0:0:0:0:
349,54,254771,1,8,0:0:0:0:
349,54,254909,1,8,0:0:0:0:
340,58,255047,1,0,0:0:0:0:
344,50,255186,1,8,0:0:0:0:
344,56,255255,1,0,0:0:0:0:
344,47,255324,1,8,0:0:0:0:
345,50,255601,1,8,0:0:0:0:
349,54,255739,1,0,0:0:0:0:
352,60,255878,1,8,0:0:0:0:
360,53,256016,1,8,0:0:0:0:
379,59,256155,1,0,0:0:0:0:
363,60,256431,1,0,0:0:0:0:
364,60,256570,1,8,0:0:0:0:
363,57,256708,1,0,0:0:0:0:
360,53,256985,1,8,0:0:0:0:
368,43,257262,1,8,0:0:0:0:
371,49,257331,1,0,0:0:0:0:
374,49,257400,1,0,0:0:0:0:
342,68,257539,1,8,0:0:0:0:
349,56,257677,1,8,0:0:0:0:
351,59,257815,1,0,0:0:0:0:
360,60,258092,1,0,0:0:0:0:
360,61,258231,1,8,0:0:0:0:
366,63,258369,1,0,0:0:0:0:
366,63,258508,1,0,0:0:0:0:
351,59,258784,1,0,0:0:0:0:
352,57,258923,1,0,0:0:0:0:
352,58,259061,1,8,0:0:0:0:
307,75,259338,1,0,0:0:0:0:
366,63,259476,1,0,0:0:0:0:
366,60,259615,1,8,0:0:0:0:
344,86,259753,1,0,0:0:0:0:
352,57,259892,1,8,0:0:0:0:
349,61,260168,1,0,0:0:0:0:
336,61,260445,1,8,0:0:0:0:
338,61,260584,1,8,0:0:0:0:
338,61,260722,1,0,0:0:0:0:
345,71,260999,1,0,0:0:0:0:
345,71,261137,1,8,0:0:0:0:
345,72,261206,1,8,0:0:0:0:
345,72,261276,1,8,0:0:0:0:
342,73,261345,1,8,0:0:0:0:
343,73,261414,1,0,0:0:0:0:
349,72,261553,1,8,0:0:0:0:
347,72,261691,1,0,0:0:0:0:
345,71,261829,1,0,0:0:0:0:
345,71,261968,1,8,0:0:0:0:
358,64,262245,1,8,0:0:0:0:
358,64,262383,1,0,0:0:0:0:
347,72,262660,1,8,0:0:0:0:
348,64,262729,1,8,0:0:0:0:
350,62,262798,1,0,0:0:0:0:
358,64,263075,1,0,0:0:0:0:
358,64,263213,1,8,0:0:0:0:
365,60,263352,1,0,0:0:0:0:
365,60,263490,1,0,0:0:0:0:
371,58,263629,1,8,0:0:0:0:
372,60,263767,1,8,0:0:0:0:
372,60,263905,1,0,0:0:0:0:
372,62,264044,1,8,0:0:0:0:
365,60,264321,1,8,0:0:0:0:
365,60,264459,1,0,0:0:0:0:
362,62,264597,1,8,0:0:0:0:
357,64,264667,1,8,0:0:0:0:
359,64,264736,1,0,0:0:0:0:
372,60,264874,1,8,0:0:0:0:
365,60,265151,1,0,0:0:0:0:
365,60,265290,1,0,0:0:0:0:
365,60,265428,1,8,0:0:0:0:
362,62,265566,1,8,0:0:0:0:
357,64,265705,1,0,0:0:0:0:
365,61,265843,1,8,0:0:0:0:
372,60,265912,1,8,0:0:0:0:
365,60,265982,1,8,0:0:0:0:
377,55,266120,1,0,0:0:0:0:
365,60,266397,1,0,0:0:0:0:
362,62,266535,1,8,0:0:0:0:
372,60,266950,1,0,0:0:0:0:
379,63,267089,1,0,0:0:0:0:
379,63,267227,1,0,0:0:0:0:
379,63,267366,1,8,0:0:0:0:
359,71,267435,1,0,0:0:0:0:
376,66,267642,1,8,0:0:0:0:
372,69,267712,1,0,0:0:0:0:
