osu file format v14

[General]
AudioFilename: audio.mp3
AudioLeadIn: 0
PreviewTime: 196543
Countdown: 0
SampleSet: Normal
StackLeniency: 0.7
Mode: 1
LetterboxInBreaks: 0
WidescreenStoryboard: 1

[Editor]
Bookmarks: 35686,57481,91004,117844,148402,171853,212070,237026,262711
DistanceSpacing: 0.4
BeatDivisor: 6
GridSize: 16
TimelineZoom: 2.799999

[Metadata]
Title:Ahhhh, These Chains!
TitleUnicode:쇠사슬
Artist:Mid-Air Thief
ArtistUnicode:공중도둑
Creator:woosungko
Version:Oni
Source:
Tags:soesaseul gongjungdodug summer soul mid air crumbling ah ahh ahhh korean electronic dream progressive pop acoustic folk folktronica
BeatmapID:3588621
BeatmapSetID:1753446

[Difficulty]
HPDrainRate:5
CircleSize:2
OverallDifficulty:5
ApproachRate:10
SliderMultiplier:1.4
SliderTickRate:1

[Events]
//Background and Video events
0,0,"cover (2).jpg",0,-130
//Break Periods
//Storyboard Layer 0 (Background)
//Storyboard Layer 1 (Fail)
//Storyboard Layer 2 (Pass)
//Storyboard Layer 3 (Foreground)
//Storyboard Layer 4 (Overlay)
//Storyboard Sound Samples

[TimingPoints]
-21,297.545251673692,81,1,0,5,1,8
388,-166.666666666667,81,1,0,10,0,0
1727,-166.666666666667,81,1,0,15,0,0
2396,-166.666666666667,81,1,0,5,0,0
7096,-133.333333333333,81,1,0,30,0,0
7122,297.545251673692,6,1,0,30,1,0
7122,-133.333333333333,6,1,0,30,0,0
35091,-133.333333333333,6,1,0,30,0,0
35388,-129.106446649372,6,1,0,30,0,0
35661,-125,6,1,0,46,0,0
35959,-127.806720375855,6,1,0,46,0,0
36158,-129.722490917626,6,1,0,46,0,0
36257,-130.68623265747,6,1,0,46,0,0
36455,-132.635248985348,6,1,0,46,0,0
36554,-133.620630353818,6,1,0,46,0,0
36852,-136.63113124962,6,1,0,46,0,0
37001,-138.161722192208,6,1,0,46,0,0
37075,-138.928241919589,6,1,0,46,0,0
37150,-139.709459363566,6,1,0,46,0,0
37298,-141.263972758929,6,1,0,46,0,0
37447,-142.857142857143,6,1,0,46,0,0
37744,-139.71816711414,6,1,0,46,0,0
37892,-138.179807665821,6,1,0,46,0,0
38041,-136.648163552143,6,1,0,46,0,0
38190,-135.133496837194,6,1,0,46,0,0
38339,-133.635619336221,6,1,0,46,0,0
38413,-132.89788909089,6,1,0,46,0,0
38488,-132.154344950393,6,1,0,46,0,0
38562,-131.424792022767,6,1,0,46,0,0
38636,-130.699266563738,6,1,0,46,0,0
38785,-129.250539968471,6,1,0,46,0,0
38934,-127.817871678679,6,1,0,46,0,0
39232,-125,6,1,0,46,0,0
39530,-127.808310300512,6,1,0,46,0,0
39629,-128.758365017003,6,1,0,46,0,0
39728,-129.715481903099,6,1,0,46,0,0
39827,-130.679713454977,6,1,0,46,0,0
39976,-132.144459183623,6,1,0,46,0,0
40126,-133.625622763158,6,1,0,46,0,0
40199,-134.367392735111,6,1,0,46,0,0
40274,-135.123388215846,6,1,0,46,0,0
40423,-136.637941626599,6,1,0,46,0,0
40720,-139.707715537885,6,1,0,46,0,0
40819,-140.746223705037,6,1,0,46,0,0
40918,-141.792451554735,6,1,0,46,0,0
41018,-142.857142857143,6,1,0,46,0,0
41315,-139.71816711414,6,1,0,46,0,0
41514,-137.653630830131,6,1,0,46,0,0
41613,-136.637941626599,6,1,0,46,0,0
41762,-135.123388215846,6,1,0,46,0,0
41911,-133.635619336221,6,1,0,46,0,0
42059,-132.154344950393,6,1,0,46,0,0
42133,-131.424792022767,6,1,0,46,0,0
42208,-130.689489643677,6,1,0,46,0,0
42357,-129.240871419976,6,1,0,46,0,0
42505,-127.817871678679,6,1,0,46,0,0
42580,-127.102749488345,6,1,0,46,0,0
42654,-126.401083697233,6,1,0,46,0,0
42803,-125,6,1,0,46,0,0
43100,-127.806720375855,6,1,0,46,0,0
43200,-128.765856262608,6,1,0,46,0,0
43299,-129.722490917626,6,1,0,46,0,0
43398,-130.68623265747,6,1,0,46,0,0
43696,-133.630620956212,6,1,0,46,0,0
43770,-134.37200218337,6,1,0,46,0,0
43844,-135.117496585489,6,1,0,46,0,0
43993,-136.63113124962,6,1,0,46,0,0
44142,-138.161722192208,6,1,0,46,0,0
44216,-138.928241919589,6,1,0,46,0,0
44291,-139.709459363566,6,1,0,46,0,0
44489,-141.793045460751,6,1,0,46,0,0
44588,-142.857142857143,6,1,0,46,0,0
44613,-142.857142857143,6,1,0,46,0,0
44885,-139.71816711414,6,1,0,46,0,0
45034,-138.169471166091,6,1,0,46,0,0
45182,-136.648163552143,6,1,0,46,0,0
45480,-133.635619336221,6,1,0,46,0,0
45554,-132.89788909089,6,1,0,46,0,0
45629,-132.154344950393,6,1,0,46,0,0
45777,-130.699266563738,6,1,0,46,0,0
45926,-129.250539968471,6,1,0,46,0,0
46001,-128.527402209798,6,1,0,46,0,0
46075,-127.817871678679,6,1,0,46,0,0
46273,-125.938600125336,6,1,0,46,0,0
46373,-125,6,1,0,46,0,0
46671,-127.808310300512,6,1,0,46,0,0
46869,-129.715481903099,6,1,0,46,0,0
46969,-130.689489643677,6,1,0,46,0,0
47043,-131.414960829989,6,1,0,46,0,0
47117,-132.144459183623,6,1,0,46,0,0
47267,-133.625622763158,6,1,0,46,0,0
47564,-136.637941626599,6,1,0,46,0,0
47663,-137.653630830131,6,1,0,46,0,0
47762,-138.676870092936,6,1,0,46,0,0
47861,-139.707715537885,6,1,0,46,0,0
48159,-142.857142857143,6,1,0,46,0,0
48456,-113.636363636364,6,1,0,65,0,0
48555,-116.31534301236,6,1,0,65,0,0
48655,-119.114109335846,6,1,0,65,0,0
48754,-121.951219512195,6,1,0,65,0,0
49051,-133.640612305588,6,1,0,46,0,0
49126,-132.89333021007,6,1,0,46,0,0
49200,-132.16010737621,6,1,0,46,0,0
49349,-130.696003859607,6,1,0,46,0,0
49498,-129.248120056728,6,1,0,46,0,0
49572,-128.535009227846,6,1,0,46,0,0
49646,-127.825832901485,6,1,0,46,0,0
49944,-125,6,1,0,46,0,0
50241,-127.808310300512,6,1,0,46,0,0
50340,-128.758365017003,6,1,0,46,0,0
50439,-129.715481903099,6,1,0,46,0,0
50538,-130.679713454977,6,1,0,46,0,0
50736,-132.629732494814,6,1,0,46,0,0
50836,-133.625622763158,6,1,0,46,0,0
50910,-134.367392735111,6,1,0,46,0,0
50984,-135.113280350671,6,1,0,46,0,0
51133,-136.627720465703,6,1,0,46,0,0
51282,-138.15913543958,6,1,0,46,0,0
51356,-138.926071420127,6,1,0,46,0,0
51431,-139.707715537885,6,1,0,46,0,0
51629,-141.792451554735,6,1,0,46,0,0
51729,-142.857142857143,6,1,0,46,0,0
52027,-139.71816711414,6,1,0,46,0,0
52126,-138.687244551333,6,1,0,46,0,0
52225,-137.663928739691,6,1,0,46,0,0
52324,-136.648163552143,6,1,0,46,0,0
52523,-134.628990973347,6,1,0,46,0,0
52622,-133.635619336221,6,1,0,46,0,0
52696,-132.89788909089,6,1,0,46,0,0
52771,-132.154344950393,6,1,0,46,0,0
52919,-130.699266563738,6,1,0,46,0,0
53068,-129.250539968471,6,1,0,46,0,0
53143,-128.527402209798,6,1,0,46,0,0
53217,-127.817871678679,6,1,0,46,0,0
53515,-125,6,1,0,46,0,0
53812,-127.808310300512,6,1,0,46,0,0
53911,-128.758365017003,6,1,0,46,0,0
54010,-129.715481903099,6,1,0,46,0,0
54110,-130.689489643677,6,1,0,46,0,0
54308,-132.639654565027,6,1,0,46,0,0
54407,-133.625622763158,6,1,0,46,0,0
54482,-134.377444800209,6,1,0,46,0,0
54556,-135.123388215846,6,1,0,46,0,0
54705,-136.637941626599,6,1,0,46,0,0
54854,-138.169471166091,6,1,0,46,0,0
54928,-138.93646452135,6,1,0,46,0,0
55002,-139.707715537885,6,1,0,46,0,0
55151,-141.273653158828,6,1,0,46,0,0
55300,-142.857142857143,6,1,0,46,0,0
55795,-137.656490642645,6,1,0,46,0,0
55894,-136.641346942386,6,1,0,46,0,0
56092,-134.633462776668,6,1,0,46,0,0
56192,-133.640612305588,6,1,0,46,0,0
56266,-132.89333021007,6,1,0,46,0,0
56340,-132.16010737621,6,1,0,46,0,0
56489,-130.696003859607,6,1,0,46,0,0
56638,-129.248120056728,6,1,0,46,0,0
56712,-128.535009227846,6,1,0,46,0,0
56787,-127.81627628143,6,1,0,46,0,0
57085,-125,6,1,0,65,0,0
57984,-100,6,1,0,90,0,0
58002,-100,6,1,0,90,0,1
58027,-100,6,1,0,65,0,1
58424,-125,6,1,0,65,0,1
58876,-125,6,1,0,65,0,1
58894,-125,6,1,0,65,0,0
59372,-125,6,1,0,65,0,0
59770,-100,6,1,0,90,0,0
59787,-100,6,1,0,90,0,1
60290,-125,6,1,0,65,0,1
60339,-125,6,1,0,65,0,1
60389,-125,6,1,0,65,0,1
60662,-125,6,1,0,65,0,1
60680,-125,6,1,0,65,0,0
61108,-125,6,1,0,65,0,0
61182,-125,6,1,0,65,0,0
61555,-100,6,1,0,90,0,0
61572,-100,6,1,0,90,0,1
62050,-125,6,1,0,65,0,1
62447,-125,6,1,0,65,0,1
62465,-125,6,1,0,65,0,0
62930,-125,6,1,0,65,0,0
62968,-125,6,1,0,65,0,0
63340,-100,6,1,0,90,0,0
63358,-100,6,1,0,90,0,1
63835,-125,6,1,0,65,0,1
63885,-125,6,1,0,65,0,1
64233,-125,6,1,0,65,0,1
64250,-125,6,1,0,65,0,0
64728,-125,6,1,0,65,0,0
64802,-125,6,1,0,65,0,0
64877,-125,6,1,0,65,0,0
65125,-100,6,1,0,90,0,0
65143,-100,6,1,0,90,0,1
65422,-125,6,1,0,65,0,1
65670,-125,6,1,0,65,0,1
65720,-125,6,1,0,65,0,1
65770,-125,6,1,0,65,0,1
66018,-125,6,1,0,65,0,1
66035,-125,6,1,0,65,0,0
66501,-125,6,1,0,65,0,0
66575,-125,6,1,0,65,0,0
66910,-100,6,1,0,90,0,0
66928,-100,6,1,0,90,0,1
67356,-125,6,1,0,65,0,1
67431,-125,6,1,0,65,0,1
67505,-125,6,1,0,65,0,1
67803,-125,6,1,0,65,0,1
67821,-125,6,1,0,65,0,0
68100,-125,6,1,0,65,0,0
68398,-125,6,1,0,65,0,0
68695,-100,6,1,0,90,0,0
68713,-100,6,1,0,90,0,1
68993,-125,6,1,0,65,0,1
69290,-125,6,1,0,65,0,1
69588,-125,6,1,0,45,0,1
69606,-125,6,1,0,45,0,0
69607,-125,6,1,0,45,0,0
69886,-127.808310300512,6,1,0,45,0,0
70034,-129.231203594734,6,1,0,45,0,0
70183,-130.679713454977,6,1,0,40,0,0
70474,-133.625622763158,6,1,0,40,0,0
71076,-139.707715537885,6,1,0,40,0,0
71373,-142.846456470734,6,1,0,40,0,0
71392,-142.857142857143,6,1,0,40,0,0
79202,-142.857142857143,6,1,0,44,0,0
79301,-142.857142857143,6,1,0,48,0,0
79400,-142.857142857143,6,1,0,52,0,0
79847,-142.857142857143,6,1,0,56,0,0
79921,-142.857142857143,6,1,0,52,0,0
82078,-142.857142857143,6,1,0,40,0,0
82103,-142.857142857143,6,1,0,40,0,0
82376,-140.753583793097,6,1,0,40,0,0
82674,-138.674072860948,6,1,0,40,0,0
82972,-136.62528488164,6,1,0,40,0,0
83269,-134.613489386906,6,1,0,40,0,0
83567,-132.624692972271,6,1,0,40,0,0
83864,-130.665279282925,6,1,0,40,0,0
84162,-128.741244354783,6,1,0,40,0,0
84459,-126.84554067443,6,1,0,40,0,0
84757,-124.971508899051,6,1,0,40,0,0
85054,-123.131314247006,6,1,0,40,0,0
85352,-121.312156914267,6,1,0,40,0,0
85649,-119.519876037948,6,1,0,40,0,0
85947,-117.759956207935,6,1,0,40,0,0
86245,-116.020155986126,6,1,0,40,0,0
86542,-114.311769230969,6,1,0,40,0,0
86840,-112.62291295191,6,1,0,40,0,0
87137,-110.964550306395,6,1,0,40,0,0
87435,-109.325146255538,6,1,0,40,0,0
87732,-107.7153429392,6,1,0,40,0,0
88030,-106.12394308162,6,1,0,40,0,0
88328,-104.561277204949,6,1,0,40,0,0
88625,-103.016475906343,6,1,0,40,0,0
88922,-101.49956721487,6,1,0,40,0,0
89220,-100,6,1,0,60,0,0
89368,-104.353759159221,6,1,0,60,0,0
89517,-108.897070506607,6,1,0,60,0,0
89665,-113.605688929312,6,1,0,60,0,0
89963,-123.71326717287,6,1,0,60,0,0
90112,-129.099444873581,6,1,0,60,0,0
90260,-134.681597099208,6,1,0,60,0,0
90409,-140.5453094687,6,1,0,60,0,0
90558,-146.664313752549,6,1,0,60,0,0
91005,-166.666666666667,6,1,0,60,0,0
91302,-154.732529927114,6,1,0,60,0,0
91599,-143.652934905871,6,1,0,60,0,0
91898,-100,6,1,0,90,0,0
91947,-133.333333333333,6,1,0,40,0,0
93689,-133.333333333333,6,1,0,60,0,0
93726,-133.333333333333,6,1,0,50,0,0
94277,-133.333333333333,6,1,0,90,0,0
94582,-117.647058823529,6,1,0,70,0,0
95028,-121.655580637031,6,1,0,40,0,0
95475,-125.81013342211,6,1,0,90,0,0
95921,-130.096791067657,6,1,0,40,0,0
96237,-133.222087480887,6,1,0,40,0,0
96367,-134.529505578978,6,1,0,40,0,0
96665,-137.575131770685,6,1,0,40,0,0
96863,-139.636765815305,6,1,0,40,0,0
97260,-143.863987891864,6,1,0,90,0,0
97557,-147.109886569919,6,1,0,40,0,0
97855,-150.440321195902,6,1,0,40,0,0
98153,-133.333333333333,6,1,0,70,0,0
98189,-133.333333333333,6,1,0,40,0,0
99039,-133.333333333333,6,1,0,60,0,0
99088,-133.333333333333,6,1,0,40,0,0
100830,-133.333333333333,6,1,0,60,0,0
100867,-133.333333333333,6,1,0,40,0,0
101723,-117.647058823529,6,1,0,70,0,0
101759,-117.647058823529,6,1,0,40,0,0
102020,-120.301443970974,6,1,0,40,0,0
102169,-121.655580637031,6,1,0,40,0,0
102616,-125.81013342211,6,1,0,90,0,0
103062,-130.096791067657,6,1,0,40,0,0
103211,-131.561186083261,6,1,0,40,0,0
103508,-134.529505578978,6,1,0,40,0,0
103954,-139.113253469197,6,1,0,40,0,0
104103,-140.679139555339,6,1,0,40,0,0
104401,-143.863987891864,6,1,0,40,0,0
104698,-147.109886569919,6,1,0,50,0,0
104872,-149.045439896219,6,1,0,40,0,0
104996,-150.440321195902,6,1,0,70,0,0
105293,-133.333333333333,6,1,0,70,0,0
106223,-133.333333333333,6,1,0,40,0,0
107971,-133.333333333333,6,1,0,60,0,0
108008,-133.333333333333,6,1,0,40,0,0
108864,-117.647058823529,6,1,0,70,0,0
109162,-120.310481707515,6,1,0,40,0,0
109757,-125.81013342211,6,1,0,90,0,0
110054,-128.648696093317,6,1,0,40,0,0
110352,-131.561186083261,6,1,0,40,0,0
110649,-134.529505578978,6,1,0,40,0,0
110947,-137.575131770685,6,1,0,40,0,0
111145,-139.636765815305,6,1,0,40,0,0
111244,-140.679139555339,6,1,0,40,0,0
111393,-142.262651562619,6,1,0,40,0,0
111542,-143.863987891864,6,1,0,90,0,0
111839,-147.109886569919,6,1,0,60,0,0
111988,-148.765784327819,6,1,0,45,0,0
112137,-150.440321195902,6,1,0,40,0,0
112286,-152.133706979648,6,1,0,40,0,0
112435,-133.333333333333,6,1,0,70,0,0
113364,-133.333333333333,6,1,0,40,0,0
115112,-133.333333333333,6,1,0,60,0,0
115149,-133.333333333333,6,1,0,40,0,0
116897,-133.333333333333,6,1,0,60,0,0
116934,-133.333333333333,6,1,0,40,0,0
117362,340.909090909091,6,1,0,40,1,8
117362,-123.101785817844,6,1,0,40,0,0
117702,-128.777915947902,6,1,0,40,0,0
117873,337.078651685393,6,1,0,40,1,0
117873,-133.333326301045,6,1,0,30,0,0
119874,-133.333326301045,6,1,0,80,0,0
119895,297.47149231532,6,1,0,90,1,1
119895,-83.3333333333333,6,1,0,90,0,1
120168,-100,6,1,0,70,0,1
120267,-101.76851355597,6,1,0,70,0,1
120366,-103.568303513916,6,1,0,70,0,1
120466,-105.399923001248,6,1,0,70,0,1
120664,-109.160912157367,6,1,0,70,0,1
120763,-83.3333333333333,6,1,0,90,0,1
121060,-100,6,1,0,70,0,1
121159,-101.76851355597,6,1,0,70,0,1
121258,-103.568303513916,6,1,0,70,0,1
121358,-105.399923001248,6,1,0,70,0,1
121556,-109.160912157367,6,1,0,70,0,1
121655,-111.111111111111,6,1,0,70,0,1
121953,-100,6,1,0,70,0,1
122052,-101.76851355597,6,1,0,70,0,1
122151,-103.568303513916,6,1,0,70,0,1
122251,-105.399923001248,6,1,0,70,0,1
122449,-109.160912157367,6,1,0,70,0,1
122548,-83.3333333333333,6,1,0,90,0,1
122845,-100,6,1,0,70,0,1
122944,-101.76851355597,6,1,0,70,0,1
123043,-103.568303513916,6,1,0,70,0,1
123143,-105.399923001248,6,1,0,70,0,1
123341,-109.160912157367,6,1,0,70,0,1
123440,-111.111111111111,6,1,0,70,0,1
123737,-100,6,1,0,70,0,1
123836,-101.76851355597,6,1,0,70,0,1
123935,-103.568303513916,6,1,0,70,0,1
124035,-105.399923001248,6,1,0,70,0,1
124233,-109.160912157367,6,1,0,70,0,1
124332,-83.3333333333333,6,1,0,90,0,1
124630,-100,6,1,0,70,0,1
124729,-101.76851355597,6,1,0,70,0,1
124828,-103.568303513916,6,1,0,70,0,1
124928,-105.399923001248,6,1,0,70,0,1
125126,-109.160912157367,6,1,0,70,0,1
125225,-111.111111111111,6,1,0,70,0,1
125522,-100,6,1,0,70,0,1
125621,-101.76851355597,6,1,0,70,0,1
125720,-103.568303513916,6,1,0,70,0,1
125820,-105.399923001248,6,1,0,70,0,1
126018,-109.160912157367,6,1,0,70,0,1
126117,-83.3333333333333,6,1,0,90,0,1
126415,-115.069213895709,6,1,0,90,0,1
126564,-112.531006955079,6,1,0,90,0,1
126712,-110.065263328314,6,1,0,90,0,1
127010,-105.263157894737,6,1,0,90,0,1
127307,-100,6,1,0,70,0,1
127406,-101.76851355597,6,1,0,70,0,1
127505,-103.568303513916,6,1,0,70,0,1
127605,-105.399923001248,6,1,0,70,0,1
127803,-109.160912157367,6,1,0,70,0,1
127902,-83.3333333333333,6,1,0,90,0,1
128199,-100,6,1,0,70,0,1
128298,-101.60431903981,6,1,0,70,0,1
128397,-103.234376475435,6,1,0,70,0,1
128497,-104.89058523286,6,1,0,70,0,1
128695,-108.283141646579,6,1,0,70,0,1
128794,-110.03803768537,6,1,0,70,0,1
128993,-113.597082090296,6,1,0,70,0,1
129092,-115.419541706939,6,1,0,70,0,1
129191,-117.271239390206,6,1,0,70,0,1
129290,-119.152644211964,6,1,0,70,0,1
129390,-121.083697376468,6,1,0,70,0,1
129588,-125,6,1,0,70,0,1
129687,-83.3333333333333,6,1,0,90,0,1
129984,-100,6,1,0,70,0,1
130083,-101.76851355597,6,1,0,70,0,1
130182,-103.568303513916,6,1,0,70,0,1
130282,-105.399923001248,6,1,0,70,0,1
130480,-109.160912157367,6,1,0,70,0,1
130579,-111.111111111111,6,1,0,70,0,1
130877,-100,6,1,0,70,0,1
130976,-101.76851355597,6,1,0,70,0,1
131075,-103.568303513916,6,1,0,70,0,1
131175,-105.399923001248,6,1,0,70,0,1
131373,-109.160912157367,6,1,0,70,0,1
131472,-83.3333333333333,6,1,0,90,0,1
131769,-100,6,1,0,90,0,1
131868,-101.377339808213,6,1,0,90,0,1
131967,-102.773650265898,6,1,0,90,0,1
132066,-104.189192663364,6,1,0,90,0,1
132264,-107.079036482709,6,1,0,90,0,1
132363,-108.553878678435,6,1,0,90,0,1
132438,-109.684692123234,6,1,0,90,0,1
132512,-110.811972737901,6,1,0,90,0,1
132661,-113.117038760445,6,1,0,90,0,1
132859,-116.254509806801,6,1,0,90,0,1
132958,-117.855729449212,6,1,0,90,0,1
133057,-119.479003327176,6,1,0,90,0,1
133157,-121.141372855476,6,1,0,90,0,1
133256,-122.80990120803,6,1,0,90,0,1
133404,-125.347222153145,6,1,0,90,0,1
133851,-133.333333333333,6,1,0,90,0,1
134149,-83.3333333333333,6,1,0,90,0,1
134446,-100,6,1,0,70,0,1
134545,-101.76851355597,6,1,0,70,0,1
134644,-103.568303513916,6,1,0,70,0,1
134744,-105.399923001248,6,1,0,70,0,1
134942,-109.160912157367,6,1,0,70,0,1
135042,-83.3333333333333,6,1,0,90,0,1
135339,-100,6,1,0,70,0,1
135438,-101.76851355597,6,1,0,70,0,1
135537,-103.568303513916,6,1,0,70,0,1
135637,-105.399923001248,6,1,0,70,0,1
135835,-109.160912157367,6,1,0,70,0,1
135934,-111.111111111111,6,1,0,70,0,1
136231,-100,6,1,0,70,0,1
136330,-101.76851355597,6,1,0,70,0,1
136429,-103.568303513916,6,1,0,70,0,1
136529,-105.399923001248,6,1,0,70,0,1
136727,-109.160912157367,6,1,0,70,0,1
136826,-83.3333333333333,6,1,0,90,0,1
137124,-100,6,1,0,70,0,1
137223,-101.76851355597,6,1,0,70,0,1
137322,-103.568303513916,6,1,0,70,0,1
137422,-105.399923001248,6,1,0,70,0,1
137620,-109.160912157367,6,1,0,70,0,1
137719,-111.111111111111,6,1,0,70,0,1
138016,-100,6,1,0,70,0,1
138115,-101.76851355597,6,1,0,70,0,1
138214,-103.568303513916,6,1,0,70,0,1
138314,-105.399923001248,6,1,0,70,0,1
138512,-109.160912157367,6,1,0,70,0,1
138611,-83.3333333333333,6,1,0,90,0,1
138908,-100,6,1,0,70,0,1
139007,-101.76851355597,6,1,0,70,0,1
139106,-103.568303513916,6,1,0,70,0,1
139206,-105.399923001248,6,1,0,70,0,1
139404,-109.160912157367,6,1,0,70,0,1
139503,-111.111111111111,6,1,0,70,0,1
139801,-100,6,1,0,70,0,1
139900,-101.76851355597,6,1,0,70,0,1
139999,-103.568303513916,6,1,0,70,0,1
140099,-105.399923001248,6,1,0,70,0,1
140396,-117.647058823529,6,1,0,70,0,1
140544,-115.350047827882,6,1,0,70,0,1
140693,-113.082818257975,6,1,0,70,0,1
140990,-108.695652173913,6,1,0,70,0,1
141288,-83.3333333333333,6,1,0,90,0,1
141586,-100,6,1,0,70,0,1
141685,-101.76851355597,6,1,0,70,0,1
141784,-103.568303513916,6,1,0,70,0,1
141884,-105.399923001248,6,1,0,70,0,1
142082,-109.160912157367,6,1,0,70,0,1
142181,-83.3333333333333,6,1,0,90,0,1
142478,-100,6,1,0,90,0,1
142552,-101.31898899614,6,1,0,90,0,1
142626,-102.655375312,6,1,0,90,0,1
142775,-105.399923001248,6,1,0,90,0,1
142874,-107.263934927507,6,1,0,90,0,1
143073,-111.111111111111,6,1,0,90,0,1
143370,-100,6,1,0,70,0,1
143469,-101.76851355597,6,1,0,70,0,1
143568,-103.568303513916,6,1,0,70,0,1
143668,-105.399923001248,6,1,0,70,0,1
143965,-83.3333333333333,6,1,0,90,0,1
144262,-111.111111111111,6,1,0,70,0,1
144560,-105.418588502949,6,1,0,70,0,1
144858,-100,6,1,0,70,0,1
145155,-104.210087536474,6,1,0,70,0,1
145303,-106.691949892427,6,1,0,70,0,1
145452,-109.256067204546,6,1,0,70,0,1
145601,-111.887896799713,6,1,0,70,0,1
145750,-114.589524734971,6,1,0,70,0,1
145849,-116.424220875763,6,1,0,70,0,1
145948,-118.291339888249,6,1,0,70,0,1
146047,-120.191553525807,6,1,0,70,0,1
146245,-124.09403803575,6,1,0,70,0,1
146344,-126.097740419954,6,1,0,70,0,1
146543,-130.234948398279,6,1,0,70,0,1
146642,-132.349219903313,6,1,0,70,0,1
146939,-138.925266065531,6,1,0,70,0,1
147535,-153.231304362705,6,1,0,70,0,1
147833,-147.687280056041,6,1,0,70,0,1
148031,-144.115647949237,6,1,0,70,0,1
148130,-142.366302597062,6,1,0,70,0,1
148427,-90.9090909090909,6,1,0,70,0,1
148452,-90.9090909090909,6,1,0,70,0,0
148725,-97.8111469053151,6,1,0,70,0,0
149022,-105.263157894737,6,1,0,70,0,0
149320,-71.5563506261181,6,1,0,90,0,0
149344,-71.5563506261181,6,1,0,90,0,1
149617,-83.5073068893528,6,1,0,70,0,1
149716,-84.7369878874507,6,1,0,70,0,1
149815,-85.9810942782884,6,1,0,70,0,1
149915,-87.2396868540377,6,1,0,70,0,1
150113,-89.8005582310921,6,1,0,70,0,1
150212,-91.1161731207289,6,1,0,70,0,1
150510,-83.5073068893528,6,1,0,70,0,1
150609,-84.7369878874507,6,1,0,70,0,1
150708,-85.9810942782884,6,1,0,70,0,1
150808,-87.2396868540377,6,1,0,70,0,1
151006,-89.8005582310921,6,1,0,70,0,1
151105,-71.5563506261181,6,1,0,90,0,1
151402,-83.5073068893528,6,1,0,70,0,1
151501,-84.7369878874507,6,1,0,70,0,1
151600,-85.9810942782884,6,1,0,70,0,1
151700,-87.2396868540377,6,1,0,70,0,1
151898,-89.8005582310921,6,1,0,70,0,1
151997,-91.1161731207289,6,1,0,70,0,1
152294,-83.5073068893528,6,1,0,70,0,1
152393,-84.7369878874507,6,1,0,70,0,1
152492,-85.9810942782884,6,1,0,70,0,1
152592,-87.2396868540377,6,1,0,70,0,1
152790,-89.8005582310921,6,1,0,70,0,1
152889,-71.5563506261181,6,1,0,90,0,1
153187,-83.5073068893528,6,1,0,70,0,1
153286,-84.7369878874507,6,1,0,70,0,1
153385,-85.9810942782884,6,1,0,70,0,1
153485,-87.2371979412021,6,1,0,70,0,1
153633,-89.1601005373349,6,1,0,70,0,1
153782,-91.1161731207289,6,1,0,70,0,1
154079,-83.5073068893528,6,1,0,70,0,1
154178,-84.7369878874507,6,1,0,70,0,1
154277,-85.9810942782884,6,1,0,70,0,1
154377,-87.2396868540377,6,1,0,70,0,1
154575,-89.8005582310921,6,1,0,70,0,1
154674,-71.5563506261181,6,1,0,90,0,1
155145,-91.7977064407995,6,1,0,90,0,1
155269,-90.4077389024501,6,1,0,90,0,1
155567,-87.1459694989107,6,1,0,90,0,1
155864,-83.5073068893528,6,1,0,70,0,1
155963,-84.7369878874507,6,1,0,70,0,1
156062,-85.9810942782884,6,1,0,70,0,1
156162,-87.2396868540377,6,1,0,70,0,1
156360,-89.8005582310921,6,1,0,70,0,1
156459,-71.5563506261181,6,1,0,90,0,1
156756,-83.5073068893528,6,1,0,70,0,1
156855,-84.6231216129577,6,1,0,70,0,1
156954,-85.7508220071593,6,1,0,70,0,1
157054,-86.8904538796535,6,1,0,70,0,1
157252,-89.2056848295698,6,1,0,70,0,1
157351,-90.3913947392208,6,1,0,70,0,1
157451,-91.5744122412271,6,1,0,70,0,1
157550,-92.7694594667389,6,1,0,70,0,1
157649,-93.9934067451835,6,1,0,70,0,1
157947,-97.7135040062537,6,1,0,70,0,1
158046,-98.9695366788039,6,1,0,70,0,1
158145,-100.23775407032,6,1,0,70,0,1
158244,-71.5563506261181,6,1,0,90,0,1
158541,-83.5073068893528,6,1,0,70,0,1
158640,-84.7369878874507,6,1,0,70,0,1
158739,-85.9810942782884,6,1,0,70,0,1
158839,-87.2396868540377,6,1,0,70,0,1
159037,-89.8005582310921,6,1,0,70,0,1
159136,-91.1161731207289,6,1,0,70,0,1
159434,-83.5073068893528,6,1,0,70,0,1
159533,-84.7369878874507,6,1,0,70,0,1
159632,-85.9810942782884,6,1,0,70,0,1
159732,-87.2396868540377,6,1,0,70,0,1
159930,-89.8005582310921,6,1,0,70,0,1
160029,-71.5563506261181,6,1,0,90,0,1
160326,-83.5073068893528,6,1,0,90,0,1
160401,-84.2231150583723,6,1,0,90,0,1
160475,-84.9438263339852,6,1,0,90,0,1
160623,-86.4085827279773,6,1,0,90,0,1
160723,-87.3826259585153,6,1,0,90,0,1
160821,-88.3759910878099,6,1,0,90,0,1
160920,-89.3893470229785,6,1,0,90,0,1
161218,-92.4607405455314,6,1,0,90,0,1
161515,-95.6022944550669,6,1,0,90,0,1
161665,-97.2001961847696,6,1,0,90,0,1
161813,-98.8293824426208,6,1,0,90,0,1
161961,-100.479169310698,6,1,0,90,0,1
162111,-102.138313136546,6,1,0,90,0,1
162309,-104.401330004561,6,1,0,90,0,1
162408,-105.540897097625,6,1,0,90,0,1
162706,-71.5563506261181,6,1,0,90,0,1
163003,-83.5073068893528,6,1,0,70,0,1
163102,-84.7369878874507,6,1,0,70,0,1
163201,-85.9810942782884,6,1,0,70,0,1
163301,-87.2396868540377,6,1,0,70,0,1
163499,-89.8005582310921,6,1,0,70,0,1
163599,-71.5563506261181,6,1,0,90,0,1
163896,-83.5073068893528,6,1,0,70,0,1
163995,-84.7369878874507,6,1,0,70,0,1
164094,-85.9810942782884,6,1,0,70,0,1
164194,-87.2396868540377,6,1,0,70,0,1
164392,-89.8005582310921,6,1,0,70,0,1
164491,-91.1161731207289,6,1,0,70,0,1
164788,-83.5073068893528,6,1,0,70,0,1
164887,-84.7369878874507,6,1,0,70,0,1
164986,-85.9810942782884,6,1,0,70,0,1
165086,-87.2396868540377,6,1,0,70,0,1
165284,-89.8005582310921,6,1,0,70,0,1
165383,-71.5563506261181,6,1,0,90,0,1
165681,-83.5073068893528,6,1,0,70,0,1
165780,-84.7369878874507,6,1,0,70,0,1
165879,-85.9810942782884,6,1,0,70,0,1
165979,-87.2371979412021,6,1,0,70,0,1
166127,-89.1470847849495,6,1,0,70,0,1
166276,-91.1161731207289,6,1,0,70,0,1
166573,-83.5073068893528,6,1,0,70,0,1
166672,-84.7369878874507,6,1,0,70,0,1
166771,-85.9810942782884,6,1,0,70,0,1
166871,-87.2396868540377,6,1,0,70,0,1
167069,-89.8005582310921,6,1,0,70,0,1
167168,-71.5563506261181,6,1,0,90,0,1
167465,-83.5073068893528,6,1,0,70,0,1
167564,-84.8788086726806,6,1,0,70,0,1
167663,-86.2728356362798,6,1,0,70,0,1
167763,-87.6897577277165,6,1,0,70,0,1
167961,-90.6087058835517,6,1,0,70,0,1
168060,-92.0968391539609,6,1,0,70,0,1
168160,-93.6094131291445,6,1,0,70,0,1
168259,-95.1468292167331,6,1,0,70,0,1
168358,-96.7094954169691,6,1,0,70,0,1
168556,-99.9286855551796,6,1,0,70,0,1
168656,-101.569887691253,6,1,0,70,0,1
168854,-104.933598660935,6,1,0,70,0,1
168953,-106.657000157826,6,1,0,70,0,1
169101,-109.304311239137,6,1,0,70,0,1
169250,-112.017330674807,6,1,0,70,0,1
169547,-117.627701743447,6,1,0,70,0,1
169845,-100,6,1,0,90,0,1
170143,-133.560994218457,6,1,0,90,0,1
170441,-121.378949661036,6,1,0,90,0,1
170738,-117.86279536653,6,1,0,90,0,1
171036,-114.437171198158,6,1,0,90,0,1
171333,-111.122109137701,6,1,0,90,0,1
171655,-100,6,1,0,90,0,0
171680,-133.333333333333,6,1,0,50,0,0
175200,-117.647058823529,6,1,0,70,0,0
175497,-120.302948103062,6,1,0,50,0,0
175645,-121.648720726038,6,1,0,50,0,0
175794,-123.018794239449,6,1,0,50,0,0
175943,-124.404298259822,6,1,0,50,0,0
176092,-125.801987671405,6,1,0,50,0,0
176389,-128.640791043493,6,1,0,50,0,0
176538,-130.094345723795,6,1,0,50,0,0
176687,-131.559538421728,6,1,0,50,0,0
176984,-134.529502747302,6,1,0,50,0,0
177281,-137.566514192385,6,1,0,50,0,0
177430,-139.1158624823,6,1,0,50,0,0
177579,-140.682660368416,6,1,0,50,0,0
177728,-142.267104377499,6,1,0,50,0,0
177876,-143.85857970907,6,1,0,50,0,0
178174,-147.117253272774,6,1,0,50,0,0
178471,-150.438433927087,6,1,0,50,0,0
178769,-133.333333333333,6,1,0,70,0,0
178812,-133.333333333333,6,1,0,50,0,0
179668,-133.333333333333,6,1,0,60,0,0
179705,-133.333333333333,6,1,0,50,0,0
181453,-133.333333333333,6,1,0,60,0,0
181490,-133.333333333333,6,1,0,50,0,0
182339,-117.647058823529,6,1,0,70,0,0
182636,-120.302195824005,6,1,0,50,0,0
182785,-121.656722392867,6,1,0,50,0,0
182933,-123.017255720656,6,1,0,50,0,0
183082,-124.402352145213,6,1,0,50,0,0
183231,-125.803043878689,6,1,0,50,0,0
183528,-128.642250569574,6,1,0,50,0,0
183677,-130.090680875283,6,1,0,50,0,0
183826,-131.555419589319,6,1,0,50,0,0
183975,-133.036650334037,6,1,0,50,0,0
184124,-134.534558799262,6,1,0,50,0,0
184421,-137.570824121002,6,1,0,50,0,0
184570,-139.119784512755,6,1,0,50,0,0
184718,-140.675613896134,6,1,0,50,0,0
185016,-143.861284532502,6,1,0,50,0,0
185313,-147.108041598236,6,1,0,50,0,0
185462,-148.764385021341,6,1,0,50,0,0
185611,-150.439377822858,6,1,0,50,0,0
185908,-133.333333333333,6,1,0,70,0,0
185952,-133.333333333333,6,1,0,50,0,0
186807,-133.333333333333,6,1,0,60,0,0
186844,-133.333333333333,6,1,0,50,0,0
188592,-133.333333333333,6,1,0,60,0,0
188629,-133.333333333333,6,1,0,50,0,0
189479,-117.647058823529,6,1,0,70,0,0
189776,-120.302195824005,6,1,0,50,0,0
189925,-121.656722392867,6,1,0,50,0,0
190074,-123.026500073426,6,1,0,50,0,0
190223,-124.411700583543,6,1,0,50,0,0
190371,-125.803043878689,6,1,0,50,0,0
190669,-128.651917622691,6,1,0,50,0,0
190817,-130.090680875283,6,1,0,50,0,0
190966,-131.555419589319,6,1,0,50,0,0
191264,-134.534558799262,6,1,0,50,0,0
191561,-137.570824121002,6,1,0,50,0,0
191710,-139.119784512755,6,1,0,50,0,0
191859,-140.686185217964,6,1,0,50,0,0
192007,-142.259532255297,6,1,0,50,0,0
192156,-143.861284532502,6,1,0,50,0,0
192454,-147.119096296407,6,1,0,50,0,0
192751,-150.439377822858,6,1,0,50,0,0
193048,-133.333333333333,6,1,0,70,0,0
193098,-133.333333333333,6,1,0,50,0,0
193946,-133.333333333333,6,1,0,60,0,0
193983,-133.333333333333,6,1,0,50,0,0
194833,-133.333333333333,6,1,0,50,0,0
195130,-137.199206717105,6,1,0,50,0,0
195279,-139.180672053938,6,1,0,50,0,0
195427,-141.177167428522,6,1,0,50,0,0
195576,-143.216083471154,6,1,0,50,0,0
195725,-145.284446050395,6,1,0,50,0,0
195768,-145.284446050395,6,1,0,60,0,0
196022,-149.496830598361,6,1,0,50,0,0
196171,-151.655901302086,6,1,0,50,0,0
196320,-153.846153846154,6,1,0,50,0,0
196618,-166.666666666667,6,1,0,50,0,0
196643,-166.666666666667,6,1,0,50,0,0
196692,-164.061458730309,6,1,0,41,0,0
196766,-161.496973444301,6,1,0,42,0,0
196915,-156.454321699466,6,1,0,45,0,0
196989,-154.008745456052,6,1,0,46,0,0
197063,-151.601396620469,6,1,0,47,0,0
197213,-146.867728670639,6,1,0,50,0,0
197287,-145.532396992097,6,1,0,51,0,0
197361,-142.281866827869,6,1,0,53,0,0
197510,-137.839195929981,6,1,0,55,0,0
197584,-135.684597326913,6,1,0,57,0,0
197658,-133.563677788128,6,1,0,58,0,0
197808,-129.393227416949,6,1,0,60,0,0
197882,-127.370649839084,6,1,0,62,0,0
197956,-125.352997002173,6,1,0,63,0,0
198105,-121.438920499238,6,1,0,66,0,0
198253,-117.672108713821,6,1,0,68,0,0
198403,-90.9090909090909,6,1,0,90,0,0
198427,297.47149231532,6,1,0,90,1,9
198427,-90.9090909090909,6,1,0,90,0,1
199295,-133.333333333333,6,1,0,60,0,1
199319,297.47149231532,6,1,0,60,1,1
199319,-133.333333333333,6,1,0,60,0,1
199592,-125.25803205276,6,1,0,60,0,1
199889,-117.671809452976,6,1,0,60,0,1
200175,-90.9090909090909,6,1,0,90,0,1
200205,297.47149231532,6,1,0,90,1,8
200205,-90.9090909090909,6,1,0,60,0,0
200477,-100,6,1,0,60,0,0
200626,-101.022644067219,6,1,0,60,0,0
201072,-104.146641284934,6,1,0,60,0,0
201097,297.47149231532,6,1,0,60,1,0
201097,-104.146641284934,6,1,0,60,0,0
201518,-107.367244156822,6,1,0,60,0,0
201568,-107.734450703276,6,1,0,60,0,0
201617,-108.095531548288,6,1,0,60,0,0
201964,-110.687440090285,6,1,0,60,0,0
202262,-112.962892871081,6,1,0,60,0,0
202336,-113.535151371185,6,1,0,60,0,0
202411,-114.118101193186,6,1,0,60,0,0
202460,-114.50057736623,6,1,0,60,0,0
202510,-114.892180614612,6,1,0,60,0,0
202559,-115.277251178306,6,1,0,60,0,0
202609,-115.671510727597,6,1,0,60,0,0
202658,-116.059193280065,6,1,0,60,0,0
202708,-116.456127148334,6,1,0,60,0,0
202782,-117.046082017194,6,1,0,60,0,0
202857,-117.647058823529,6,1,0,60,0,0
206427,-133.333333333333,6,1,0,60,0,0
206724,-125.25803205276,6,1,0,60,0,0
207021,-117.671809452976,6,1,0,60,0,0
207320,-90.9090909090909,6,1,0,90,0,0
207362,-90.9090909090909,6,1,0,60,0,0
207790,-101.783360677452,6,1,0,60,0,0
208087,-105.45865522199,6,1,0,60,0,0
208236,-107.352184306103,6,1,0,60,0,0
208311,-108.318128766667,6,1,0,60,0,0
208385,-109.279712044806,6,1,0,60,0,0
208534,-111.241848890044,6,1,0,60,0,0
208608,-112.229387199096,6,1,0,60,0,0
208682,-113.22569228002,6,1,0,60,0,0
208831,-115.258679908677,6,1,0,60,0,0
209129,-119.434818551131,6,1,0,60,0,0
209277,-121.564772140358,6,1,0,60,0,0
209575,-125.969397830144,6,1,0,60,0,0
209649,-127.087678471527,6,1,0,60,0,0
209724,-128.23120097942,6,1,0,60,0,0
209798,-129.369560550449,6,1,0,60,0,0
209872,-130.518025793912,6,1,0,60,0,0
210021,-132.861500374747,6,1,0,60,0,0
210467,-140.130687181907,6,1,0,60,0,0
210765,-145.208006982877,6,1,0,60,0,0
210913,335.289186923722,6,1,0,60,1,8
210913,-131.127308129322,6,1,0,60,0,0
211080,-133.768995375753,6,1,0,60,0,0
211374,-138.549606825428,6,1,0,60,0,0
211709,-144.205494183871,6,1,0,60,0,0
211876,-144.205494183871,6,1,0,30,0,0
211918,454.545454545455,6,1,0,30,1,8
211919,454.545454545455,6,1,0,30,1,0
211919,-109.072882423768,6,1,0,30,0,0
212345,-109.072882423768,6,1,0,25,0,0
212799,-109.072882423768,6,1,0,20,0,0
213254,-109.072882423768,6,1,0,15,0,0
213708,-109.072882423768,6,1,0,10,0,0
214163,-109.072882423768,6,1,0,5,0,0
214646,454.545454545455,6,1,0,5,1,8
215100,469.851213782302,6,1,0,5,1,0
215100,-133.333333333333,6,1,0,5,0,0
219269,-133.333333333333,6,1,0,30,0,0
219387,-133.333333333333,6,1,0,5,0,0
221619,-133.333333333333,6,1,0,30,0,0
222206,-133.333333333333,6,1,0,5,0,0
223968,-133.333333333333,6,1,0,30,0,0
225025,-133.333333333333,6,1,0,5,0,0
226317,-133.333333333333,6,1,0,30,0,0
237379,-153.846153846154,6,1,0,60,0,0
237614,-117.647058823529,6,1,0,60,0,0
237946,-117.647058823529,6,1,0,40,0,0
239003,-117.647058823529,6,1,0,60,0,0
239121,-117.647058823529,6,1,0,40,0,0
241852,-117.647058823529,6,1,0,60,0,0
241969,-117.647058823529,6,1,0,40,0,0
243026,-117.647058823529,6,1,0,45,0,0
243261,-117.647058823529,6,1,0,50,0,0
243349,-117.647058823529,6,1,0,40,0,0
244641,-117.647058823529,6,1,0,60,0,0
244759,-117.647058823529,6,1,0,40,0,0
247461,-117.647058823529,6,1,0,60,0,0
247578,-117.647058823529,6,1,0,40,0,0
247950,-133.333333333333,6,1,0,60,0,0
248499,-117.647058823529,6,1,0,40,0,0
254528,-117.647058823529,6,1,0,30,0,0
254762,-116.308877396577,6,1,0,31,0,0
254997,-114.980295908468,6,1,0,32,0,0
255232,-113.66689063743,6,1,0,32,0,0
255467,-112.368488227467,6,1,0,33,0,0
255702,-111.08491730281,6,1,0,34,0,0
255937,-109.816008445291,6,1,0,35,0,0
256171,-108.566901630781,6,1,0,36,0,0
256406,-107.326755745474,6,1,0,37,0,0
256641,-106.100775888614,6,1,0,37,0,0
256876,-104.888800243463,6,1,0,38,0,0
257111,-103.690668841693,6,1,0,39,0,0
257347,-102.501212368987,6,1,0,40,0,0
257581,-101.335308010612,6,1,0,41,0,0
257816,-100.177767697884,6,1,0,42,0,0
258051,-99.0334498206714,6,1,0,42,0,0
258286,-97.9022033407775,6,1,0,43,0,0
258521,-96.7838789452964,6,1,0,44,0,0
258756,-95.6783290269043,6,1,0,45,0,0
258991,-94.5854076643767,6,1,0,46,0,0
259226,-93.5049706033291,6,1,0,47,0,0
259460,-92.4413943759216,6,1,0,47,0,0
259695,-91.3854481055089,6,1,0,48,0,0
259930,-90.3415637748098,6,1,0,49,0,0
260166,-89.3052375654532,6,1,0,50,0,0
260400,-88.289431378416,6,1,0,51,0,0
260635,-87.2809124523408,6,1,0,52,0,0
260870,-86.2839137094673,6,1,0,52,0,0
261105,-85.2983035562105,6,1,0,53,0,0
261340,-84.3239519021622,6,1,0,54,0,0
261575,-83.3607301429204,6,1,0,55,0,0
261810,-82.4085111431145,6,1,0,56,0,0
262045,-81.4671692196255,6,1,0,57,0,0
262280,-80.5365801249964,6,1,0,57,0,0
262514,-79.6205134014313,6,1,0,58,0,0
262749,-78.7110184209392,6,1,0,59,0,0
263024,469.851213782302,6,1,0,60,1,8
263024,-76.923076923077,6,1,0,60,0,0
263229,-76.923076923077,6,1,0,70,0,0
263269,468.749999999999,6,1,0,70,1,0
263269,-71.4285714285714,6,1,0,70,0,0
263464,-72.4257478682586,6,1,0,70,0,0
263698,-73.4386344601986,6,1,0,70,0,0
263933,-74.4719610113904,6,1,0,70,0,0
264128,-75.5172394969412,6,1,0,70,0,0
264401,-76.5791451196003,6,1,0,70,0,0
264636,-77.6626452250335,6,1,0,70,0,0
264870,-78.7588475181384,6,1,0,70,0,0
265105,-79.8785845514815,6,1,0,70,0,0
265339,-77.6986486829858,6,1,0,70,0,0
265456,-76.6340564257995,6,1,0,70,0,0
265573,-75.5859592405874,6,1,0,70,0,0
265808,-73.5294117647057,6,1,0,70,0,0
266049,-64.102564102564,6,1,0,90,0,0
266081,468.749999999999,6,1,0,90,1,8
266093,703.812316715542,2,1,0,90,1,1
266093,-40,2,1,0,90,0,1
266152,-40.7349502951754,2,1,0,90,0,1
266269,-41.4834043887602,2,1,0,90,0,1
266386,-42.2456103962702,2,1,0,90,0,1
266504,-43.0285163699914,2,1,0,90,0,1
266738,-44.6242336206185,2,1,0,90,0,1
266973,-46.2863305250654,2,1,0,90,0,1
267090,-47.136784332115,2,1,0,90,0,1
267208,-48.0103347362743,2,1,0,90,0,1
267325,-48.8924649784216,2,1,0,90,0,1
267442,-49.7908032676152,2,1,0,90,0,1
267677,-51.6453368532136,2,1,0,90,0,1
267794,-52.5942557423312,2,1,0,90,0,1
267911,-53.5606098368901,2,1,0,90,0,1
268146,-55.5555555555556,2,1,0,90,0,1
268864,-62.114006357541,2,1,0,70,0,1
268908,469.116497263487,6,1,0,70,1,0
268908,-71.4285714285714,6,1,0,70,0,0
269103,-72.4249688168346,6,1,0,70,0,0
269338,-73.4414110051647,6,1,0,70,0,0
269572,-74.469545830039,6,1,0,70,0,0
269807,-75.5184680441621,6,1,0,70,0,0
270041,-76.5795635214008,6,1,0,70,0,0
270276,-77.6622237112896,6,1,0,70,0,0
270510,-78.7575627024282,6,1,0,70,0,0
270745,-76.8535052410885,6,1,0,70,0,0
270862,-75.9205087763032,6,1,0,70,0,0
270980,-74.9925010759188,6,1,0,70,0,0
271097,-74.0849986174173,6,1,0,70,0,0
271214,-73.1898759358923,6,1,0,70,0,0
271449,-71.4285714285714,6,1,0,70,0,0
271664,-62.5,6,1,0,90,0,0
271722,703.812316715542,6,1,0,90,1,1
271722,-40,6,1,0,90,0,1
271854,-41.1042756126638,6,1,0,90,0,1
272030,-42.2456103962702,6,1,0,90,0,1
272148,-43.0285163699914,6,1,0,90,0,1
272265,-43.8191118901685,6,1,0,90,0,1
272382,-44.6242336206185,6,1,0,90,0,1
272617,-46.2863305250654,6,1,0,90,0,1
272734,-47.136784332115,6,1,0,90,0,1
272852,-48.0103347362743,6,1,0,90,0,1
272969,-48.8924649784216,6,1,0,90,0,1
273086,-49.7908032676152,6,1,0,90,0,1
273306,-51.6453368532136,6,1,0,90,0,1
273423,-52.5942557423312,6,1,0,90,0,1
273540,-53.5606098368901,6,1,0,90,0,1
273790,-55.5555555555556,6,1,0,90,0,1
274493,-62.114006357541,6,1,0,70,0,1
274537,469.116497263487,6,1,0,70,1,0
274537,-71.4285714285714,6,1,0,70,0,0
274742,-71.9831590630772,6,1,0,70,0,0
274977,-72.5450005355904,6,1,0,70,0,0
275211,-73.1093654016713,6,1,0,70,0,0
275446,-73.6811294490212,6,1,0,70,0,0
275680,-74.255479147976,6,1,0,70,0,0
275915,-74.839095943721,6,1,0,70,0,0
276149,-73.4571176447749,6,1,0,70,0,0
276267,-72.7711610643954,6,1,0,70,0,0
276384,-72.0981374001353,6,1,0,70,0,0
276619,-70.767401318298,6,1,0,70,0,0
276736,-70.1151779604412,6,1,0,70,0,0
276853,-69.4696974157024,6,1,0,70,0,0
276970,-68.8308765893117,6,1,0,70,0,0
277088,-68.193257989992,6,1,0,70,0,0
277322,-59.523809523809,6,1,0,90,0,0
277351,703.812316715542,6,1,0,90,1,1
277351,-40,6,1,0,90,0,1
277410,-40.7349502951754,6,1,0,90,0,1
277527,-41.4834043887602,6,1,0,90,0,1
277644,-42.2456103962702,6,1,0,90,0,1
277762,-43.0285163699914,6,1,0,90,0,1
277996,-44.6242336206185,6,1,0,90,0,1
278231,-46.2863305250654,6,1,0,90,0,1
278466,-48.0103347362743,6,1,0,90,0,1
278700,-49.7908032676152,6,1,0,90,0,1
278935,-51.6453368532136,6,1,0,90,0,1
279052,-52.5942557423312,6,1,0,90,0,1
279169,-53.5606098368901,6,1,0,90,0,1
279404,-55.5555555555556,6,1,0,90,0,1
280122,-62.114006357541,6,1,0,50,0,1
280166,471.327572663001,6,1,0,50,1,0
280166,-95.2834683182472,6,1,0,53,0,0
280362,-93.5018434142852,6,1,0,56,0,0
280598,-91.7447161722221,6,1,0,59,0,0
280833,-90.0264587150289,6,1,0,62,0,0
281069,-88.3319323130694,6,1,0,65,0,0
281305,-86.6680047406307,6,1,0,68,0,0
281549,-86.6680047406307,6,1,0,71,0,0
281579,471.327572663001,6,1,0,71,1,8
281579,-85.0410321314559,6,1,0,74,0,0
281775,-83.4434084264827,6,1,0,60,0,0
281922,-82.458749072084,6,1,0,60,0,0
282129,-81.0911114813129,6,1,0,60,0,0
282286,703.152466893238,6,1,0,60,1,0
282286,-54.4899738448129,6,1,0,60,0,0
282345,-55.4632967838473,6,1,0,60,0,0
282462,-56.4535528529822,6,1,0,60,0,0
282579,-57.1232681230754,6,1,0,60,0,0
282696,-58.485981523129,6,1,0,60,0,0
282960,-60.5986797155913,6,1,0,60,0,0
283165,-62.7760147797837,6,1,0,60,0,0
283282,-63.8929839882442,6,1,0,60,0,0
283399,-65.0292288639296,6,1,0,60,0,0
283517,-65.8074953247877,6,1,0,60,0,0
283663,-67.3709303142554,6,1,0,60,0,0
283897,-69.7837396626488,6,1,0,60,0,0
284132,-72.2909134575982,6,1,0,60,0,0
284366,-74.8738036519303,6,1,0,60,0,0
285054,-83.333333333333,6,1,0,70,0,0
285098,469.851213782302,6,1,0,70,1,0
285098,-71.4285714285714,6,1,0,70,0,0
285304,-72.4234143600854,6,1,0,70,0,0
285539,-73.4382461524703,6,1,0,70,0,0
285774,-74.4691482417801,6,1,0,70,0,0
286009,-75.5164275537002,6,1,0,70,0,0
286244,-76.5803983897015,6,1,0,70,0,0
286479,-77.661382649055,6,1,0,70,0,0
286714,-75.626253765025,6,1,0,70,0,0
286831,-74.6301841262752,6,1,0,70,0,0
286949,-73.6405882891181,6,1,0,70,0,0
287184,-71.7135543534981,6,1,0,70,0,0
287301,-70.7753549749494,6,1,0,70,0,0
287419,-69.8430868956486,6,1,0,70,0,0
287536,-68.9323085359244,6,1,0,70,0,0
287654,-68.0272108843536,6,1,0,70,0,0
287872,-59.880239520958,6,1,0,90,0,0
287917,704.804416774345,6,1,0,90,1,1
287917,-40,6,1,0,90,0,1
288034,-40.7304242560284,6,1,0,90,0,1
288151,-41.4741865019016,6,1,0,90,0,1
288269,-42.2380625706235,6,1,0,90,0,1
288386,-43.0093552063542,6,1,0,90,0,1
288621,-44.6013482429977,6,1,0,90,0,1
288856,-46.2522689668051,6,1,0,90,0,1
288974,-47.1041482769927,6,1,0,90,0,1
289091,-47.9642985885196,6,1,0,90,0,1
289326,-49.7396990564887,6,1,0,90,0,1
289444,-50.655810232604,6,1,0,90,0,1
289561,-51.5808160451706,6,1,0,90,0,1
289679,-52.5308371138236,6,1,0,90,0,1
289796,-53.490082054259,6,1,0,90,0,1
290031,-55.4700196225229,6,1,0,90,0,1
290266,-57.5232446606069,6,1,0,90,0,1
290383,-58.5827140245077,6,1,0,90,0,1
290501,-59.6524699071946,6,1,0,90,0,1
290618,-60.7511555727994,6,1,0,90,0,1
290736,-61.8605085131025,6,1,0,90,0,1
290971,-64.1502777580396,6,1,0,90,0,1
291049,-65.3217007306754,6,1,0,90,0,1
291206,-66.524802904942,6,1,0,90,0,1
291441,-68.9872211969768,6,1,0,90,0,1
291675,-71.5297219542839,6,1,0,90,0,1
291852,-73.6366042863891,6,1,0,90,0,1
292145,469.851213782302,6,1,0,90,1,0
292145,-83.3333333333333,6,1,0,90,0,0
292351,-50,6,1,0,80,0,0
292379,-50,4,1,0,80,0,0
292409,-166.666666666667,4,1,0,80,0,0
292438,-166.666666666667,4,1,0,79,0,0
292468,-166.666666666667,4,1,0,79,0,0
292497,-166.666666666667,4,1,0,78,0,0
292526,-166.666666666667,4,1,0,78,0,0
292556,-166.666666666667,4,1,0,78,0,0
292585,-166.666666666667,4,1,0,77,0,0
292614,-166.666666666667,4,1,0,77,0,0
292644,-166.666666666667,4,1,0,76,0,0
292673,-166.666666666667,4,1,0,76,0,0
292702,-166.666666666667,4,1,0,76,0,0
292732,-166.666666666667,4,1,0,75,0,0
292761,-166.666666666667,4,1,0,75,0,0
292791,-166.666666666667,4,1,0,74,0,0
292820,-166.666666666667,4,1,0,74,0,0
292849,-166.666666666667,4,1,0,73,0,0
292879,-166.666666666667,4,1,0,73,0,0
292908,-166.666666666667,4,1,0,73,0,0
292937,-166.666666666667,4,1,0,72,0,0
292967,-166.666666666667,4,1,0,72,0,0
292996,-166.666666666667,4,1,0,71,0,0
293025,-166.666666666667,4,1,0,71,0,0
293055,-166.666666666667,4,1,0,71,0,0
293084,-166.666666666667,4,1,0,70,0,0
293114,-166.666666666667,4,1,0,70,0,0
293143,-166.666666666667,4,1,0,69,0,0
293172,-166.666666666667,4,1,0,69,0,0
293202,-166.666666666667,4,1,0,69,0,0
293231,-166.666666666667,4,1,0,68,0,0
293260,-166.666666666667,4,1,0,68,0,0
293290,-166.666666666667,4,1,0,67,0,0
293319,-166.666666666667,4,1,0,67,0,0
293348,-166.666666666667,4,1,0,67,0,0
293378,-166.666666666667,4,1,0,66,0,0
293407,-166.666666666667,4,1,0,66,0,0
293437,-166.666666666667,4,1,0,65,0,0
293466,-166.666666666667,4,1,0,65,0,0
293495,-166.666666666667,4,1,0,65,0,0
293525,-166.666666666667,4,1,0,64,0,0
293554,-166.666666666667,4,1,0,64,0,0
293583,-166.666666666667,4,1,0,63,0,0
293613,-166.666666666667,4,1,0,63,0,0
293642,-166.666666666667,4,1,0,62,0,0
293672,-166.666666666667,4,1,0,62,0,0
293701,-166.666666666667,4,1,0,62,0,0
293730,-166.666666666667,4,1,0,61,0,0
293760,-166.666666666667,4,1,0,61,0,0
293789,-166.666666666667,4,1,0,60,0,0
293818,-166.666666666667,4,1,0,60,0,0
293848,-166.666666666667,4,1,0,60,0,0
293877,-166.666666666667,4,1,0,59,0,0
293906,-166.666666666667,4,1,0,59,0,0
293936,-166.666666666667,4,1,0,58,0,0
293965,-166.666666666667,4,1,0,58,0,0
293995,-166.666666666667,4,1,0,58,0,0
294024,-166.666666666667,4,1,0,57,0,0
294053,-166.666666666667,4,1,0,57,0,0
294083,-166.666666666667,4,1,0,56,0,0
294112,-166.666666666667,4,1,0,56,0,0
294141,-166.666666666667,4,1,0,56,0,0
294171,-166.666666666667,4,1,0,55,0,0
294200,-166.666666666667,4,1,0,55,0,0
294229,-166.666666666667,4,1,0,54,0,0
294259,-166.666666666667,4,1,0,54,0,0
294288,-166.666666666667,4,1,0,54,0,0
294318,-166.666666666667,4,1,0,53,0,0
294347,-166.666666666667,4,1,0,53,0,0
294376,-166.666666666667,4,1,0,52,0,0
294406,-166.666666666667,4,1,0,52,0,0
294435,-166.666666666667,4,1,0,51,0,0
294464,-166.666666666667,4,1,0,51,0,0
294494,-166.666666666667,4,1,0,51,0,0
294523,-166.666666666667,4,1,0,50,0,0
294552,-166.666666666667,4,1,0,50,0,0
294582,-166.666666666667,4,1,0,49,0,0
294611,-166.666666666667,4,1,0,49,0,0
294641,-166.666666666667,4,1,0,49,0,0
294670,-166.666666666667,4,1,0,48,0,0
294699,-166.666666666667,4,1,0,48,0,0
294729,-166.666666666667,4,1,0,47,0,0
294758,-166.666666666667,4,1,0,47,0,0
294787,-166.666666666667,4,1,0,47,0,0
294817,-166.666666666667,4,1,0,46,0,0
294846,-166.666666666667,4,1,0,46,0,0
294876,-166.666666666667,4,1,0,45,0,0
294905,-166.666666666667,4,1,0,45,0,0
294934,-166.666666666667,4,1,0,45,0,0
294964,-166.666666666667,4,1,0,44,0,0
294993,-166.666666666667,4,1,0,44,0,0
295022,-166.666666666667,4,1,0,43,0,0
295052,-166.666666666667,4,1,0,43,0,0
295081,-166.666666666667,4,1,0,43,0,0
295110,-166.666666666667,4,1,0,42,0,0
295140,-166.666666666667,4,1,0,42,0,0
295169,-166.666666666667,4,1,0,41,0,0
295199,-166.666666666667,4,1,0,41,0,0
295228,-166.666666666667,4,1,0,40,0,0
295257,-166.666666666667,4,1,0,40,0,0
295287,-166.666666666667,4,1,0,40,0,0
295316,-166.666666666667,4,1,0,39,0,0
295345,-166.666666666667,4,1,0,39,0,0
295375,-166.666666666667,4,1,0,38,0,0
295404,-166.666666666667,4,1,0,38,0,0
295433,-166.666666666667,4,1,0,38,0,0
295463,-166.666666666667,4,1,0,37,0,0
295492,-166.666666666667,4,1,0,37,0,0
295522,-166.666666666667,4,1,0,36,0,0
295551,-166.666666666667,4,1,0,36,0,0
295580,-166.666666666667,4,1,0,36,0,0
295610,-166.666666666667,4,1,0,35,0,0
295639,-166.666666666667,4,1,0,35,0,0
295668,-166.666666666667,4,1,0,34,0,0
295698,-166.666666666667,4,1,0,34,0,0
295727,-166.666666666667,4,1,0,34,0,0
295756,-166.666666666667,4,1,0,33,0,0
295786,-166.666666666667,4,1,0,33,0,0
295815,-166.666666666667,4,1,0,32,0,0
295845,-166.666666666667,4,1,0,32,0,0
295874,-166.666666666667,4,1,0,31,0,0
295903,-166.666666666667,4,1,0,31,0,0
295933,-166.666666666667,4,1,0,31,0,0
295962,-166.666666666667,4,1,0,30,0,0
295991,-166.666666666667,4,1,0,30,0,0
296021,-166.666666666667,4,1,0,29,0,0
296050,-166.666666666667,4,1,0,29,0,0
296080,-166.666666666667,4,1,0,29,0,0
296109,-166.666666666667,4,1,0,28,0,0
296138,-166.666666666667,4,1,0,28,0,0
296168,-166.666666666667,4,1,0,27,0,0
296197,-166.666666666667,4,1,0,27,0,0
296226,-166.666666666667,4,1,0,27,0,0
296256,-166.666666666667,4,1,0,26,0,0
296285,-166.666666666667,4,1,0,26,0,0
296314,-166.666666666667,4,1,0,25,0,0
296344,-166.666666666667,4,1,0,25,0,0
296373,-166.666666666667,4,1,0,25,0,0
296403,-166.666666666667,4,1,0,24,0,0
296432,-166.666666666667,4,1,0,24,0,0
296461,-166.666666666667,4,1,0,23,0,0
296491,-166.666666666667,4,1,0,23,0,0
296520,-166.666666666667,4,1,0,23,0,0
296549,-166.666666666667,4,1,0,22,0,0
296579,-166.666666666667,4,1,0,22,0,0
296608,-166.666666666667,4,1,0,21,0,0
296637,-166.666666666667,4,1,0,21,0,0
296667,-166.666666666667,4,1,0,20,0,0
296696,-166.666666666667,4,1,0,20,0,0
296726,-166.666666666667,4,1,0,20,0,0
296755,-166.666666666667,4,1,0,19,0,0
296784,-166.666666666667,4,1,0,19,0,0
296814,-166.666666666667,4,1,0,18,0,0
296843,-166.666666666667,4,1,0,18,0,0
296872,-166.666666666667,4,1,0,18,0,0
296902,-166.666666666667,4,1,0,17,0,0
296931,-166.666666666667,4,1,0,17,0,0
296960,-166.666666666667,4,1,0,16,0,0
296990,-166.666666666667,4,1,0,16,0,0
297019,-166.666666666667,4,1,0,16,0,0
297049,-166.666666666667,4,1,0,15,0,0
297078,-166.666666666667,4,1,0,15,0,0
297107,-166.666666666667,4,1,0,14,0,0
297137,-166.666666666667,4,1,0,14,0,0
297166,-166.666666666667,4,1,0,14,0,0
297195,-166.666666666667,4,1,0,13,0,0
297225,-166.666666666667,4,1,0,13,0,0
297254,-166.666666666667,4,1,0,12,0,0
297283,-166.666666666667,4,1,0,12,0,0
297313,-166.666666666667,4,1,0,12,0,0
297342,-166.666666666667,4,1,0,11,0,0
297372,-166.666666666667,4,1,0,11,0,0
297401,-166.666666666667,4,1,0,10,0,0
297430,-166.666666666667,4,1,0,10,0,0
297460,-166.666666666667,4,1,0,9,0,0
297489,-166.666666666667,4,1,0,9,0,0
297518,-166.666666666667,4,1,0,9,0,0
297548,-166.666666666667,4,1,0,8,0,0
297577,-166.666666666667,4,1,0,8,0,0
297607,-166.666666666667,4,1,0,7,0,0
297636,-166.666666666667,4,1,0,7,0,0
297665,-166.666666666667,4,1,0,7,0,0
297695,-166.666666666667,4,1,0,6,0,0
297724,-166.666666666667,4,1,0,6,0,0
297753,-166.666666666667,4,1,0,5,0,0
297783,-166.666666666667,4,1,0,5,0,0

[HitObjects]
314,159,426,5,0,0:0:0:0:
286,151,1765,5,0,0:0:0:0:
311,178,2360,1,8,0:0:0:0:
325,144,7122,5,8,0:0:0:0:
359,144,7419,1,0,0:0:0:0:
432,151,7617,1,8,0:0:0:0:
359,144,7717,1,0,0:0:0:0:
432,151,7915,1,8,0:0:0:0:
359,144,8014,1,0,0:0:0:0:
350,151,8312,1,0,0:0:0:0:
340,139,8510,1,8,0:0:0:0:
326,175,8609,1,0,0:0:0:0:
333,179,8808,1,0,0:0:0:0:
328,171,8907,1,0,0:0:0:0:
357,176,9204,1,0,0:0:0:0:
352,181,9403,1,8,0:0:0:0:
357,176,9502,1,0,0:0:0:0:
350,189,9700,1,8,0:0:0:0:
372,154,9799,1,0,0:0:0:0:
275,141,9874,1,0,0:0:0:0:
366,171,9948,1,0,0:0:0:0:
336,178,10097,1,8,0:0:0:0:
338,168,10394,1,8,0:0:0:0:
315,156,10593,1,8,0:0:0:0:
346,182,10692,1,0,0:0:0:0:
336,178,10990,1,0,0:0:0:0:
321,173,11188,1,8,0:0:0:0:
297,143,11287,1,8,0:0:0:0:
268,163,11485,1,8,0:0:0:0:
333,182,11585,1,0,0:0:0:0:
382,162,11882,1,0,0:0:0:0:
321,173,12081,1,8,0:0:0:0:
354,175,12180,1,0,0:0:0:0:
327,170,12378,1,8,0:0:0:0:
352,176,12477,1,0,0:0:0:0:
377,181,12775,1,0,0:0:0:0:
376,185,12973,1,8,0:0:0:0:
372,175,13072,1,8,0:0:0:0:
371,174,13271,1,8,0:0:0:0:
413,165,13370,1,0,0:0:0:0:
355,188,13444,1,0,0:0:0:0:
406,186,13519,1,8,0:0:0:0:
329,163,13667,1,8,0:0:0:0:
329,163,13965,1,8,0:0:0:0:
334,176,14263,1,0,0:0:0:0:
350,177,14560,1,0,0:0:0:0:
309,185,14758,1,8,0:0:0:0:
310,185,14858,1,8,0:0:0:0:
350,177,14957,1,0,0:0:0:0:
350,177,15056,1,0,0:0:0:0:
310,185,15155,1,8,0:0:0:0:
405,199,15453,1,0,0:0:0:0:
364,209,15651,1,8,0:0:0:0:
316,177,15750,1,0,0:0:0:0:
350,177,15849,1,8,0:0:0:0:
350,177,15949,1,8,0:0:0:0:
316,177,16048,1,0,0:0:0:0:
316,177,16345,1,0,0:0:0:0:
315,188,16544,1,8,0:0:0:0:
316,177,16643,1,0,0:0:0:0:
315,188,16841,1,8,0:0:0:0:
318,178,16940,1,0,0:0:0:0:
315,188,17015,1,8,0:0:0:0:
316,177,17089,1,0,0:0:0:0:
315,188,17238,1,8,0:0:0:0:
323,197,17536,1,8,0:0:0:0:
323,197,17734,1,8,0:0:0:0:
309,183,17833,1,0,0:0:0:0:
324,193,18131,1,8,0:0:0:0:
324,193,18329,1,8,0:0:0:0:
326,189,18428,1,0,0:0:0:0:
323,197,18627,1,8,0:0:0:0:
372,176,18726,1,0,0:0:0:0:
340,176,18800,1,0,0:0:0:0:
340,188,18875,1,8,0:0:0:0:
354,179,19023,1,0,0:0:0:0:
331,184,19321,1,0,0:0:0:0:
317,182,19519,1,8,0:0:0:0:
308,172,19618,1,0,0:0:0:0:
302,164,19916,1,8,0:0:0:0:
302,164,20114,1,8,0:0:0:0:
275,141,20213,1,0,0:0:0:0:
300,154,20313,1,0,0:0:0:0:
300,154,20412,1,0,0:0:0:0:
310,180,20511,1,8,0:0:0:0:
308,179,20809,1,8,0:0:0:0:
298,152,21007,1,0,0:0:0:0:
310,175,21106,1,8,0:0:0:0:
315,162,21181,1,8,0:0:0:0:
407,171,21255,1,0,0:0:0:0:
291,163,21404,1,0,0:0:0:0:
287,182,21701,1,8,0:0:0:0:
300,177,21999,1,0,0:0:0:0:
287,182,22197,1,8,0:0:0:0:
300,177,22296,1,0,0:0:0:0:
292,187,22371,1,0,0:0:0:0:
292,187,22445,1,0,0:0:0:0:
287,182,22594,1,8,0:0:0:0:
262,152,22891,1,8,0:0:0:0:
262,152,23090,1,8,0:0:0:0:
297,172,23189,1,0,0:0:0:0:
297,172,23486,1,0,0:0:0:0:
279,177,23586,1,8,0:0:0:0:
279,177,23685,1,8,0:0:0:0:
299,184,23784,1,0,0:0:0:0:
279,177,23982,1,8,0:0:0:0:
300,159,24082,1,0,0:0:0:0:
300,159,24156,1,0,0:0:0:0:
312,184,24230,1,8,0:0:0:0:
306,149,24379,1,0,0:0:0:0:
306,166,24528,1,8,0:0:0:0:
297,168,24602,1,0,0:0:0:0:
249,171,24677,1,8,0:0:0:0:
332,171,24974,1,0,0:0:0:0:
272,170,25272,1,8,0:0:0:0:
272,170,25371,1,8,0:0:0:0:
308,175,25470,1,0,0:0:0:0:
272,170,25569,1,8,0:0:0:0:
308,175,25768,1,0,0:0:0:0:
272,170,25867,1,8,0:0:0:0:
290,174,25941,1,0,0:0:0:0:
290,174,26016,1,0,0:0:0:0:
308,175,26164,1,8,0:0:0:0:
308,175,26462,1,8,0:0:0:0:
310,180,26561,1,8,0:0:0:0:
310,180,26660,1,8,0:0:0:0:
310,168,26759,1,0,0:0:0:0:
271,177,27057,1,8,0:0:0:0:
335,182,27156,1,0,0:0:0:0:
335,182,27255,1,0,0:0:0:0:
271,177,27355,1,8,0:0:0:0:
283,189,27652,1,0,0:0:0:0:
309,178,27801,1,8,0:0:0:0:
302,149,27950,1,0,0:0:0:0:
302,149,28024,1,0,0:0:0:0:
308,178,28098,1,8,0:0:0:0:
302,154,28247,1,0,0:0:0:0:
311,176,28545,1,0,0:0:0:0:
284,167,28842,1,8,0:0:0:0:
350,171,28941,1,0,0:0:0:0:
350,171,29041,1,0,0:0:0:0:
284,167,29140,1,8,0:0:0:0:
331,176,29338,1,0,0:0:0:0:
284,167,29437,1,8,0:0:0:0:
305,146,29512,1,8,0:0:0:0:
349,230,29586,1,0,0:0:0:0:
240,174,29735,1,8,0:0:0:0:
297,161,29884,1,0,0:0:0:0:
240,174,29958,1,8,0:0:0:0:
297,161,30032,1,0,0:0:0:0:
272,170,30330,1,8,0:0:0:0:
289,153,30628,1,0,0:0:0:0:
312,163,30776,1,8,0:0:0:0:
289,153,30925,1,0,0:0:0:0:
390,166,31223,1,8,0:0:0:0:
338,154,31297,1,8,0:0:0:0:
346,178,31371,1,0,0:0:0:0:
338,154,31520,1,8,0:0:0:0:
327,164,31669,1,0,0:0:0:0:
338,187,31743,1,0,0:0:0:0:
277,151,31818,1,8,0:0:0:0:
310,178,32115,1,8,0:0:0:0:
317,204,32314,1,0,0:0:0:0:
317,204,32413,1,0,0:0:0:0:
321,189,32562,1,8,0:0:0:0:
305,152,33008,1,8,0:0:0:0:
305,152,33082,1,8,0:0:0:0:
288,160,33157,1,0,0:0:0:0:
305,152,33305,1,8,0:0:0:0:
305,152,33454,1,0,0:0:0:0:
305,152,33603,1,8,0:0:0:0:
305,152,33677,1,8,0:0:0:0:
305,152,33752,1,8,0:0:0:0:
305,152,33826,1,8,0:0:0:0:
325,144,33901,1,0,0:0:0:0:
314,167,34570,1,0,0:0:0:0:
305,152,34644,1,8,0:0:0:0:
301,139,34942,1,0,0:0:0:0:
297,151,35091,1,0,0:0:0:0:
296,157,35388,1,0,0:0:0:0:
297,175,35686,1,0,0:0:0:0:
323,120,35983,1,8,0:0:0:0:
285,151,36182,1,0,0:0:0:0:
323,120,36281,1,8,0:0:0:0:
285,163,36479,1,0,0:0:0:0:
323,120,36578,1,8,0:0:0:0:
337,150,36876,1,0,0:0:0:0:
378,143,37025,1,8,0:0:0:0:
337,150,37099,1,0,0:0:0:0:
378,143,37174,1,8,0:0:0:0:
308,125,37322,1,0,0:0:0:0:
354,126,37471,1,8,0:0:0:0:
337,150,37769,1,0,0:0:0:0:
378,143,37917,1,8,0:0:0:0:
337,150,38066,1,0,0:0:0:0:
340,177,38215,1,8,0:0:0:0:
330,151,38364,1,8,0:0:0:0:
330,151,38438,1,8,0:0:0:0:
329,144,38513,1,0,0:0:0:0:
329,144,38587,1,0,0:0:0:0:
321,147,38661,1,0,0:0:0:0:
332,135,38810,1,8,0:0:0:0:
344,123,38959,1,0,0:0:0:0:
315,118,39257,1,0,0:0:0:0:
385,136,39554,1,0,0:0:0:0:
321,147,39653,1,8,0:0:0:0:
319,142,39752,1,8,0:0:0:0:
385,136,39851,1,0,0:0:0:0:
385,136,40000,1,0,0:0:0:0:
256,121,40149,1,8,0:0:0:0:
274,130,40223,1,0,0:0:0:0:
340,138,40298,1,8,0:0:0:0:
274,130,40447,1,0,0:0:0:0:
331,138,40744,1,0,0:0:0:0:
331,138,40843,1,0,0:0:0:0:
331,138,40942,1,0,0:0:0:0:
308,114,41042,1,8,0:0:0:0:
287,124,41339,1,0,0:0:0:0:
300,126,41538,1,8,0:0:0:0:
287,124,41637,1,0,0:0:0:0:
287,125,41786,1,0,0:0:0:0:
331,138,41934,1,8,0:0:0:0:
343,128,42083,1,8,0:0:0:0:
343,128,42157,1,8,0:0:0:0:
327,154,42232,1,0,0:0:0:0:
343,128,42381,1,8,0:0:0:0:
327,154,42529,1,0,0:0:0:0:
305,146,42604,1,8,0:0:0:0:
305,146,42678,1,8,0:0:0:0:
318,141,42827,1,0,0:0:0:0:
296,141,43124,1,0,0:0:0:0:
392,170,43224,1,0,0:0:0:0:
361,153,43323,1,8,0:0:0:0:
296,141,43422,1,0,0:0:0:0:
327,160,43720,1,8,0:0:0:0:
345,157,43794,1,0,0:0:0:0:
345,157,43868,1,0,0:0:0:0:
338,160,44017,1,8,0:0:0:0:
340,160,44166,1,0,0:0:0:0:
342,160,44240,1,0,0:0:0:0:
338,160,44315,1,8,0:0:0:0:
332,164,44513,1,8,0:0:0:0:
339,160,44612,1,0,0:0:0:0:
306,161,44910,1,0,0:0:0:0:
336,148,45059,1,8,0:0:0:0:
304,150,45207,1,0,0:0:0:0:
323,154,45505,1,8,0:0:0:0:
284,151,45579,1,0,0:0:0:0:
284,151,45654,1,0,0:0:0:0:
274,137,45802,1,8,0:0:0:0:
274,137,45951,1,8,0:0:0:0:
327,147,46026,1,0,0:0:0:0:
325,147,46100,1,8,0:0:0:0:
323,154,46298,1,8,0:0:0:0:
305,154,46397,1,0,0:0:0:0:
327,147,46695,1,8,0:0:0:0:
362,171,46893,1,0,0:0:0:0:
327,147,46993,1,8,0:0:0:0:
357,176,47067,1,8,0:0:0:0:
357,176,47141,1,8,0:0:0:0:
375,170,47290,1,0,0:0:0:0:
356,159,47588,1,8,0:0:0:0:
356,159,47687,1,8,0:0:0:0:
316,160,47786,1,0,0:0:0:0:
257,144,47885,1,8,0:0:0:0:
320,168,48183,1,0,0:0:0:0:
316,144,48480,1,8,0:0:0:0:
316,144,48579,1,8,0:0:0:0:
316,144,48679,1,8,0:0:0:0:
332,166,48778,1,0,0:0:0:0:
304,152,49075,1,8,0:0:0:0:
289,168,49150,1,0,0:0:0:0:
289,168,49224,1,0,0:0:0:0:
304,152,49373,1,8,0:0:0:0:
300,161,49522,1,8,0:0:0:0:
300,161,49596,1,8,0:0:0:0:
299,162,49670,1,0,0:0:0:0:
294,161,49968,1,0,0:0:0:0:
337,164,50266,1,0,0:0:0:0:
337,164,50365,1,8,0:0:0:0:
338,167,50464,1,8,0:0:0:0:
366,166,50563,1,0,0:0:0:0:
350,168,50761,1,8,0:0:0:0:
366,166,50861,1,0,0:0:0:0:
320,154,50935,1,0,0:0:0:0:
320,166,51009,1,8,0:0:0:0:
328,154,51158,1,0,0:0:0:0:
316,166,51307,1,8,0:0:0:0:
316,166,51381,1,8,0:0:0:0:
326,154,51456,1,0,0:0:0:0:
310,171,51654,1,8,0:0:0:0:
322,160,51753,1,0,0:0:0:0:
304,169,52051,1,8,0:0:0:0:
272,165,52150,1,0,0:0:0:0:
272,165,52249,1,0,0:0:0:0:
304,169,52348,1,8,0:0:0:0:
272,165,52547,1,0,0:0:0:0:
310,171,52646,1,8,0:0:0:0:
253,161,52720,1,0,0:0:0:0:
253,161,52795,1,0,0:0:0:0:
347,146,52943,1,8,0:0:0:0:
304,166,53092,1,0,0:0:0:0:
304,166,53167,1,0,0:0:0:0:
260,141,53241,1,8,0:0:0:0:
288,157,53539,1,0,0:0:0:0:
311,163,53836,1,8,0:0:0:0:
276,166,53935,1,0,0:0:0:0:
320,160,54034,1,8,0:0:0:0:
311,163,54134,1,8,0:0:0:0:
311,147,54332,1,0,0:0:0:0:
311,163,54431,1,8,0:0:0:0:
309,160,54506,1,0,0:0:0:0:
309,160,54580,1,0,0:0:0:0:
332,165,54729,1,8,0:0:0:0:
297,160,54878,1,0,0:0:0:0:
330,165,54952,1,8,0:0:0:0:
297,160,55026,1,0,0:0:0:0:
284,153,55175,1,8,0:0:0:0:
297,160,55324,1,0,0:0:0:0:
304,165,55820,1,0,0:0:0:0:
297,158,55919,1,8,0:0:0:0:
304,165,56117,1,0,0:0:0:0:
297,158,56216,1,8,0:0:0:0:
316,149,56291,1,8,0:0:0:0:
299,169,56365,1,0,0:0:0:0:
304,165,56514,1,8,0:0:0:0:
315,170,56663,1,0,0:0:0:0:
315,170,56737,1,0,0:0:0:0:
304,165,56812,1,8,0:0:0:0:
304,165,57109,1,0,0:0:0:0:
304,165,57555,1,8,0:0:0:0:
296,165,58002,1,12,0:0:0:0:
324,166,58448,1,0,0:0:0:0:
304,165,58522,1,8,0:0:0:0:
316,162,58894,1,0,0:0:0:0:
309,185,59390,1,8,0:0:0:0:
246,178,59787,1,12,0:0:0:0:
254,166,60308,1,0,0:0:0:0:
252,155,60357,1,8,0:0:0:0:
276,161,60680,1,0,0:0:0:0:
261,155,61126,1,0,0:0:0:0:
281,156,61200,1,8,0:0:0:0:
266,163,61572,1,12,0:0:0:0:
266,166,62068,1,8,0:0:0:0:
266,163,62465,1,0,0:0:0:0:
266,174,62948,1,0,0:0:0:0:
237,165,62986,1,8,0:0:0:0:
309,167,63358,1,12,0:0:0:0:
319,166,63853,1,8,0:0:0:0:
315,160,63903,1,0,0:0:0:0:
220,151,64250,1,0,0:0:0:0:
235,142,64746,1,0,0:0:0:0:
256,141,64820,1,0,0:0:0:0:
263,143,64895,1,8,0:0:0:0:
282,187,65143,1,12,0:0:0:0:
289,180,65440,1,0,0:0:0:0:
269,187,65688,1,8,0:0:0:0:
282,187,65738,1,0,0:0:0:0:
299,185,66035,1,0,0:0:0:0:
281,174,66519,1,0,0:0:0:0:
300,177,66593,1,8,0:0:0:0:
299,169,66928,1,12,0:0:0:0:
309,183,67374,1,0,0:0:0:0:
237,164,67449,1,8,0:0:0:0:
306,171,67523,1,0,0:0:0:0:
294,163,67821,1,0,0:0:0:0:
283,182,68118,1,8,0:0:0:0:
279,157,68416,1,0,0:0:0:0:
279,148,68713,1,12,0:0:0:0:
271,147,69011,1,0,0:0:0:0:
305,148,69308,1,8,0:0:0:0:
285,155,69606,1,0,0:0:0:0:
297,163,69904,1,8,0:0:0:0:
297,163,70052,1,8,0:0:0:0:
283,167,70201,1,0,0:0:0:0:
287,166,70499,1,8,0:0:0:0:
283,167,71094,1,8,0:0:0:0:
285,157,71391,1,0,0:0:0:0:
296,144,71986,1,0,0:0:0:0:
297,157,72284,1,8,0:0:0:0:
298,159,72780,1,8,0:0:0:0:
345,166,72879,1,0,0:0:0:0:
345,166,73177,1,8,0:0:0:0:
316,160,73623,1,0,0:0:0:0:
316,161,74069,1,8,0:0:0:0:
300,164,74367,1,0,0:0:0:0:
300,164,74466,1,0,0:0:0:0:
300,164,74565,1,0,0:0:0:0:
325,169,74664,1,8,0:0:0:0:
325,169,74863,1,8,0:0:0:0:
289,178,74962,1,0,0:0:0:0:
305,170,75259,1,8,0:0:0:0:
264,183,75408,1,0,0:0:0:0:
305,170,75557,1,8,0:0:0:0:
264,183,75656,1,0,0:0:0:0:
245,172,75755,1,0,0:0:0:0:
305,165,75854,1,8,0:0:0:0:
293,156,76450,1,0,0:0:0:0:
322,150,76747,1,0,0:0:0:0:
308,142,77243,1,8,0:0:0:0:
310,151,77342,1,0,0:0:0:0:
310,151,77491,1,0,0:0:0:0:
303,142,77640,1,8,0:0:0:0:
323,156,77788,1,0,0:0:0:0:
300,135,78086,1,0,0:0:0:0:
300,135,78160,1,0,0:0:0:0:
363,147,78235,1,8,0:0:0:0:
327,127,78532,1,0,0:0:0:0:
320,144,78830,1,0,0:0:0:0:
328,152,78929,1,8,0:0:0:0:
328,152,79028,1,8,0:0:0:0:
378,164,79127,1,0,0:0:0:0:
328,145,79326,1,0,0:0:0:0:
328,149,79425,1,8,0:0:0:0:
326,155,79723,1,0,0:0:0:0:
308,144,79871,1,8,0:0:0:0:
308,144,79946,1,8,0:0:0:0:
325,160,80020,1,0,0:0:0:0:
318,151,80169,1,8,0:0:0:0:
328,145,80318,1,0,0:0:0:0:
320,146,80615,1,8,0:0:0:0:
269,139,80764,1,0,0:0:0:0:
308,147,81111,1,0,0:0:0:0:
298,153,81210,1,8,0:0:0:0:
296,157,81508,1,0,0:0:0:0:
317,165,81805,1,8,0:0:0:0:
301,172,81991,1,8,0:0:0:0:
276,170,82103,1,0,0:0:0:0:
286,172,82400,1,8,0:0:0:0:
269,175,82698,1,0,0:0:0:0:
286,172,82996,1,8,0:0:0:0:
287,157,83293,1,0,0:0:0:0:
301,161,83591,1,0,0:0:0:0:
293,167,83888,1,8,0:0:0:0:
293,166,84186,1,8,0:0:0:0:
289,169,84483,1,0,0:0:0:0:
296,157,84781,1,8,0:0:0:0:
328,157,85078,1,8,0:0:0:0:
328,157,85376,1,8,0:0:0:0:
350,160,85673,1,0,0:0:0:0:
348,166,85971,1,8,0:0:0:0:
350,160,86269,1,0,0:0:0:0:
350,160,86566,1,8,0:0:0:0:
348,166,86864,1,8,0:0:0:0:
343,163,87161,1,0,0:0:0:0:
343,163,87459,1,0,0:0:0:0:
348,166,87756,1,8,0:0:0:0:
343,163,88054,1,0,0:0:0:0:
322,169,88351,1,8,0:0:0:0:
322,169,88649,1,8,0:0:0:0:
322,169,88946,1,8,0:0:0:0:
329,170,89244,1,0,0:0:0:0:
334,171,89393,1,0,0:0:0:0:
334,171,89542,1,0,0:0:0:0:
337,168,89690,1,8,0:0:0:0:
344,150,89988,1,0,0:0:0:0:
316,148,90137,1,8,0:0:0:0:
344,150,90285,1,0,0:0:0:0:
344,150,90434,1,0,0:0:0:0:
340,143,90583,1,8,0:0:0:0:
296,147,91029,1,0,0:0:0:0:
296,147,91327,1,0,0:0:0:0:
296,147,91624,1,0,0:0:0:0:
311,157,91922,1,12,0:0:0:0:
296,147,92368,1,8,0:0:0:0:
311,157,92666,1,8,0:0:0:0:
311,157,92815,1,0,0:0:0:0:
293,155,93261,1,8,0:0:0:0:
300,168,93558,1,0,0:0:0:0:
295,153,93707,1,8,0:0:0:0:
293,155,94005,1,0,0:0:0:0:
300,155,94302,1,8,0:0:0:0:
320,148,94600,1,0,0:0:0:0:
300,141,95046,1,0,0:0:0:0:
320,148,95492,1,8,0:0:0:0:
325,148,95939,1,8,0:0:0:0:
356,147,96255,1,0,0:0:0:0:
340,158,96385,1,0,0:0:0:0:
370,160,96683,1,8,0:0:0:0:
331,161,96881,1,0,0:0:0:0:
338,164,97278,1,8,0:0:0:0:
276,164,97575,1,8,0:0:0:0:
288,162,97873,1,0,0:0:0:0:
277,163,98170,1,8,0:0:0:0:
285,166,98468,1,8,0:0:0:0:
286,169,98617,1,0,0:0:0:0:
327,166,98914,1,0,0:0:0:0:
300,176,99063,1,8,0:0:0:0:
304,176,99509,1,0,0:0:0:0:
327,166,99807,1,8,0:0:0:0:
314,172,99956,1,0,0:0:0:0:
353,169,100402,1,0,0:0:0:0:
327,166,100699,1,0,0:0:0:0:
321,157,100848,1,8,0:0:0:0:
315,165,100997,1,0,0:0:0:0:
307,161,101146,1,0,0:0:0:0:
331,160,101443,1,8,0:0:0:0:
311,165,101741,1,0,0:0:0:0:
307,161,102038,1,8,0:0:0:0:
303,159,102187,1,8,0:0:0:0:
316,152,102634,1,8,0:0:0:0:
334,141,103080,1,0,0:0:0:0:
324,149,103229,1,8,0:0:0:0:
332,149,103526,1,0,0:0:0:0:
319,144,103972,1,8,0:0:0:0:
329,163,104121,1,0,0:0:0:0:
319,144,104419,1,8,0:0:0:0:
329,144,104716,1,8,0:0:0:0:
329,152,104890,1,0,0:0:0:0:
329,144,105014,1,8,0:0:0:0:
326,151,105311,1,0,0:0:0:0:
320,160,105609,1,0,0:0:0:0:
304,159,105758,1,8,0:0:0:0:
320,160,105907,1,0,0:0:0:0:
316,167,106204,1,8,0:0:0:0:
291,146,106502,1,0,0:0:0:0:
304,159,106650,1,8,0:0:0:0:
308,158,106948,1,8,0:0:0:0:
307,150,107097,1,0,0:0:0:0:
312,152,107543,1,8,0:0:0:0:
308,158,107692,1,0,0:0:0:0:
309,161,107989,1,8,0:0:0:0:
316,158,108138,1,8,0:0:0:0:
303,158,108287,1,0,0:0:0:0:
303,158,108436,1,0,0:0:0:0:
313,163,108584,1,8,0:0:0:0:
280,158,108882,1,0,0:0:0:0:
289,157,109180,1,8,0:0:0:0:
302,164,109775,1,8,0:0:0:0:
304,158,110072,1,0,0:0:0:0:
310,171,110370,1,8,0:0:0:0:
302,164,110667,1,0,0:0:0:0:
312,158,110965,1,8,0:0:0:0:
298,153,111163,1,0,0:0:0:0:
311,146,111262,1,8,0:0:0:0:
321,141,111411,1,0,0:0:0:0:
289,125,111560,1,8,0:0:0:0:
361,159,111857,1,0,0:0:0:0:
291,118,112006,1,8,0:0:0:0:
291,118,112155,1,8,0:0:0:0:
325,158,112304,1,0,0:0:0:0:
317,142,112453,1,0,0:0:0:0:
309,150,112750,1,0,0:0:0:0:
320,165,112899,1,8,0:0:0:0:
310,155,113048,1,0,0:0:0:0:
317,142,113345,1,8,0:0:0:0:
322,157,113494,1,8,0:0:0:0:
322,157,113791,1,8,0:0:0:0:
345,163,114089,1,0,0:0:0:0:
339,163,114238,1,8,0:0:0:0:
360,170,114535,1,8,0:0:0:0:
340,156,114684,1,0,0:0:0:0:
285,101,114982,1,0,0:0:0:0:
338,144,115130,1,8,0:0:0:0:
327,146,115279,1,0,0:0:0:0:
327,146,115428,1,0,0:0:0:0:
305,149,115726,1,8,0:0:0:0:
273,163,116023,1,0,0:0:0:0:
279,157,116321,1,0,0:0:0:0:
282,158,116469,1,8,0:0:0:0:
278,153,116618,1,0,0:0:0:0:
278,153,116767,1,0,0:0:0:0:
280,158,116916,1,8,0:0:0:0:
292,163,117362,1,0,0:0:0:0:
292,163,117702,1,0,0:0:0:0:
256,192,117873,12,0,119558,0:0:0:0:
314,184,119895,5,4,0:0:0:0:
314,167,120192,1,8,0:0:0:0:
316,172,120291,1,8,0:0:0:0:
266,170,120390,1,0,0:0:0:0:
316,172,120489,1,8,0:0:0:0:
266,170,120688,1,0,0:0:0:0:
327,181,120787,1,12,0:0:0:0:
312,179,121084,1,0,0:0:0:0:
312,179,121184,1,0,0:0:0:0:
287,158,121283,1,8,0:0:0:0:
312,179,121382,1,0,0:0:0:0:
287,158,121580,1,8,0:0:0:0:
312,179,121679,1,0,0:0:0:0:
299,167,121977,1,8,0:0:0:0:
288,171,122076,1,0,0:0:0:0:
286,171,122175,1,0,0:0:0:0:
299,167,122274,1,8,0:0:0:0:
286,171,122473,1,0,0:0:0:0:
355,175,122572,1,12,0:0:0:0:
306,151,122869,1,0,0:0:0:0:
326,172,122968,1,8,0:0:0:0:
326,172,123068,1,8,0:0:0:0:
306,151,123167,1,0,0:0:0:0:
326,172,123365,1,8,0:0:0:0:
282,158,123464,1,0,0:0:0:0:
300,157,123762,1,8,0:0:0:0:
300,157,123861,1,8,0:0:0:0:
299,157,123960,1,8,0:0:0:0:
284,147,124059,1,0,0:0:0:0:
284,147,124257,1,0,0:0:0:0:
292,147,124357,1,12,0:0:0:0:
282,166,124654,1,0,0:0:0:0:
282,166,124753,1,0,0:0:0:0:
282,166,124852,1,0,0:0:0:0:
293,149,124952,1,8,0:0:0:0:
271,152,125150,1,8,0:0:0:0:
282,166,125249,1,0,0:0:0:0:
283,157,125546,1,0,0:0:0:0:
283,157,125646,1,0,0:0:0:0:
282,166,125745,1,8,0:0:0:0:
308,157,125844,1,0,0:0:0:0:
308,157,126042,1,0,0:0:0:0:
281,157,126141,1,12,0:0:0:0:
314,163,126439,1,8,0:0:0:0:
296,155,126588,1,0,0:0:0:0:
356,144,126736,1,8,0:0:0:0:
308,157,127034,1,0,0:0:0:0:
275,152,127331,1,8,0:0:0:0:
298,157,127430,1,0,0:0:0:0:
285,153,127530,1,8,0:0:0:0:
297,136,127629,1,0,0:0:0:0:
297,137,127827,1,0,0:0:0:0:
266,159,127926,1,12,0:0:0:0:
326,153,128224,1,0,0:0:0:0:
298,150,128323,1,8,0:0:0:0:
326,153,128422,1,0,0:0:0:0:
358,163,128521,1,8,0:0:0:0:
358,163,128719,1,8,0:0:0:0:
323,154,128819,1,0,0:0:0:0:
316,155,129017,1,8,0:0:0:0:
343,161,129116,1,0,0:0:0:0:
333,159,129215,1,8,0:0:0:0:
333,158,129314,1,8,0:0:0:0:
285,154,129414,1,0,0:0:0:0:
285,154,129612,1,0,0:0:0:0:
257,150,129711,1,12,0:0:0:0:
285,159,130009,1,8,0:0:0:0:
322,160,130108,1,0,0:0:0:0:
322,160,130207,1,0,0:0:0:0:
309,154,130306,1,8,0:0:0:0:
309,154,130504,1,8,0:0:0:0:
340,159,130603,1,0,0:0:0:0:
315,150,130901,1,8,0:0:0:0:
315,150,131000,1,8,0:0:0:0:
334,162,131099,1,0,0:0:0:0:
315,150,131198,1,8,0:0:0:0:
340,159,131397,1,0,0:0:0:0:
350,146,131496,1,12,0:0:0:0:
350,155,131793,1,0,0:0:0:0:
350,155,131893,1,0,0:0:0:0:
331,148,131992,1,8,0:0:0:0:
351,155,132091,1,0,0:0:0:0:
331,148,132289,1,8,0:0:0:0:
348,142,132388,1,0,0:0:0:0:
277,184,132463,1,8,0:0:0:0:
277,184,132537,1,8,0:0:0:0:
350,155,132686,1,0,0:0:0:0:
334,160,132884,1,0,0:0:0:0:
331,148,132983,1,8,0:0:0:0:
321,155,133082,1,8,0:0:0:0:
339,170,133182,1,0,0:0:0:0:
350,153,133281,1,8,0:0:0:0:
331,182,133429,1,0,0:0:0:0:
312,173,133876,1,8,0:0:0:0:
313,149,134173,1,4,0:0:0:0:
316,149,134471,1,8,0:0:0:0:
308,147,134570,1,0,0:0:0:0:
323,151,134669,1,8,0:0:0:0:
317,153,134768,1,0,0:0:0:0:
313,149,134966,1,0,0:0:0:0:
323,157,135066,1,12,0:0:0:0:
326,149,135363,1,0,0:0:0:0:
319,168,135462,1,8,0:0:0:0:
326,149,135561,1,0,0:0:0:0:
319,168,135660,1,8,0:0:0:0:
319,168,135859,1,8,0:0:0:0:
327,149,135958,1,0,0:0:0:0:
286,158,136255,1,0,0:0:0:0:
327,155,136355,1,8,0:0:0:0:
327,155,136454,1,8,0:0:0:0:
326,149,136553,1,0,0:0:0:0:
326,149,136751,1,0,0:0:0:0:
326,135,136850,1,12,0:0:0:0:
320,145,137148,1,8,0:0:0:0:
293,135,137247,1,0,0:0:0:0:
293,135,137346,1,0,0:0:0:0:
320,141,137445,1,8,0:0:0:0:
320,141,137644,1,8,0:0:0:0:
293,136,137743,1,0,0:0:0:0:
286,158,138040,1,8,0:0:0:0:
286,158,138139,1,8,0:0:0:0:
312,137,138239,1,0,0:0:0:0:
290,157,138338,1,8,0:0:0:0:
326,138,138536,1,0,0:0:0:0:
345,152,138635,1,12,0:0:0:0:
321,154,138933,1,0,0:0:0:0:
321,154,139032,1,0,0:0:0:0:
319,154,139131,1,8,0:0:0:0:
321,154,139230,1,0,0:0:0:0:
319,154,139428,1,8,0:0:0:0:
365,164,139528,1,0,0:0:0:0:
338,147,139825,1,8,0:0:0:0:
338,147,139924,1,8,0:0:0:0:
311,157,140023,1,0,0:0:0:0:
311,157,140123,1,0,0:0:0:0:
293,143,140420,1,8,0:0:0:0:
281,158,140569,1,0,0:0:0:0:
281,158,140718,1,0,0:0:0:0:
334,163,141015,1,8,0:0:0:0:
316,173,141312,1,4,0:0:0:0:
319,166,141610,1,8,0:0:0:0:
319,148,141709,1,0,0:0:0:0:
331,153,141808,1,8,0:0:0:0:
325,165,141907,1,0,0:0:0:0:
324,165,142106,1,0,0:0:0:0:
345,174,142205,1,12,0:0:0:0:
346,170,142502,1,8,0:0:0:0:
346,170,142577,1,8,0:0:0:0:
300,166,142651,1,0,0:0:0:0:
331,174,142800,1,8,0:0:0:0:
331,174,142899,1,0,0:0:0:0:
299,177,143097,1,0,0:0:0:0:
328,156,143395,1,8,0:0:0:0:
328,156,143494,1,8,0:0:0:0:
328,156,143593,1,8,0:0:0:0:
331,174,143692,1,0,0:0:0:0:
323,149,143990,1,12,0:0:0:0:
257,147,144287,1,0,0:0:0:0:
336,148,144585,1,8,0:0:0:0:
329,156,144882,1,0,0:0:0:0:
345,170,145180,1,8,0:0:0:0:
317,165,145328,1,8,0:0:0:0:
345,183,145477,1,0,0:0:0:0:
355,183,145626,1,0,0:0:0:0:
411,164,145775,1,8,0:0:0:0:
353,164,145874,1,8,0:0:0:0:
353,164,145973,1,8,0:0:0:0:
358,159,146072,1,0,0:0:0:0:
358,159,146270,1,0,0:0:0:0:
353,164,146369,1,8,0:0:0:0:
353,164,146568,1,8,0:0:0:0:
337,159,146667,1,0,0:0:0:0:
376,161,146964,1,0,0:0:0:0:
353,164,147559,1,8,0:0:0:0:
366,168,147857,1,8,0:0:0:0:
352,144,148055,1,0,0:0:0:0:
324,151,148154,1,8,0:0:0:0:
351,135,148452,1,8,0:0:0:0:
319,140,148749,1,0,0:0:0:0:
319,140,149047,1,0,0:0:0:0:
320,145,149344,1,12,0:0:0:0:
319,140,149642,1,0,0:0:0:0:
319,140,149741,1,0,0:0:0:0:
318,147,149840,1,8,0:0:0:0:
319,140,149939,1,0,0:0:0:0:
320,145,150137,1,8,0:0:0:0:
308,131,150237,1,0,0:0:0:0:
294,158,150534,1,8,0:0:0:0:
345,157,150633,1,0,0:0:0:0:
345,157,150732,1,0,0:0:0:0:
294,158,150832,1,8,0:0:0:0:
355,158,151030,1,0,0:0:0:0:
333,171,151129,1,12,0:0:0:0:
350,174,151426,1,0,0:0:0:0:
330,170,151526,1,8,0:0:0:0:
329,170,151625,1,8,0:0:0:0:
323,169,151724,1,0,0:0:0:0:
329,170,151922,1,8,0:0:0:0:
323,169,152021,1,0,0:0:0:0:
327,181,152319,1,8,0:0:0:0:
327,181,152418,1,8,0:0:0:0:
327,181,152517,1,8,0:0:0:0:
329,161,152616,1,0,0:0:0:0:
329,161,152815,1,0,0:0:0:0:
249,174,152914,1,12,0:0:0:0:
286,180,153211,1,0,0:0:0:0:
286,180,153310,1,0,0:0:0:0:
286,180,153410,1,0,0:0:0:0:
286,180,153509,1,8,0:0:0:0:
286,180,153658,1,8,0:0:0:0:
286,180,153806,1,0,0:0:0:0:
268,166,154104,1,0,0:0:0:0:
268,166,154203,1,0,0:0:0:0:
292,187,154302,1,8,0:0:0:0:
279,167,154401,1,0,0:0:0:0:
279,167,154600,1,0,0:0:0:0:
210,167,154699,1,12,0:0:0:0:
291,175,155170,1,0,0:0:0:0:
248,177,155294,1,8,0:0:0:0:
287,173,155591,1,0,0:0:0:0:
262,165,155889,1,8,0:0:0:0:
277,166,155988,1,0,0:0:0:0:
262,165,156087,1,8,0:0:0:0:
276,165,156186,1,0,0:0:0:0:
276,165,156384,1,0,0:0:0:0:
332,143,156483,1,12,0:0:0:0:
322,157,156781,1,0,0:0:0:0:
299,126,156880,1,8,0:0:0:0:
322,157,156979,1,0,0:0:0:0:
299,126,157078,1,8,0:0:0:0:
299,126,157277,1,8,0:0:0:0:
311,134,157376,1,0,0:0:0:0:
323,145,157475,1,8,0:0:0:0:
323,145,157574,1,8,0:0:0:0:
387,136,157673,1,0,0:0:0:0:
345,140,157971,1,0,0:0:0:0:
345,138,158070,1,0,0:0:0:0:
345,138,158169,1,0,0:0:0:0:
314,127,158268,1,12,0:0:0:0:
306,172,158566,1,8,0:0:0:0:
337,155,158665,1,0,0:0:0:0:
337,155,158764,1,0,0:0:0:0:
308,174,158863,1,8,0:0:0:0:
306,172,159062,1,8,0:0:0:0:
376,177,159161,1,0,0:0:0:0:
334,177,159458,1,8,0:0:0:0:
334,177,159557,1,8,0:0:0:0:
344,182,159657,1,0,0:0:0:0:
334,177,159756,1,8,0:0:0:0:
344,181,159954,1,0,0:0:0:0:
284,140,160053,1,12,0:0:0:0:
342,164,160351,1,0,0:0:0:0:
297,165,160425,1,8,0:0:0:0:
297,165,160499,1,8,0:0:0:0:
334,162,160648,1,0,0:0:0:0:
308,175,160747,1,8,0:0:0:0:
308,175,160846,1,8,0:0:0:0:
334,162,160946,1,0,0:0:0:0:
308,158,161243,1,8,0:0:0:0:
253,151,161541,1,0,0:0:0:0:
298,143,161689,1,0,0:0:0:0:
320,149,161838,1,8,0:0:0:0:
299,143,161987,1,0,0:0:0:0:
320,149,162135,1,8,0:0:0:0:
348,160,162334,1,0,0:0:0:0:
312,151,162433,1,8,0:0:0:0:
323,160,162730,1,4,0:0:0:0:
339,180,163028,1,8,0:0:0:0:
405,183,163127,1,0,0:0:0:0:
339,180,163226,1,8,0:0:0:0:
405,183,163325,1,0,0:0:0:0:
413,183,163524,1,0,0:0:0:0:
359,143,163623,1,12,0:0:0:0:
348,164,163920,1,0,0:0:0:0:
323,157,164019,1,8,0:0:0:0:
348,164,164119,1,0,0:0:0:0:
323,157,164218,1,8,0:0:0:0:
323,157,164416,1,8,0:0:0:0:
344,147,164515,1,0,0:0:0:0:
277,158,164813,1,0,0:0:0:0:
335,148,164912,1,8,0:0:0:0:
335,148,165011,1,8,0:0:0:0:
293,153,165110,1,0,0:0:0:0:
293,153,165308,1,0,0:0:0:0:
354,159,165408,1,12,0:0:0:0:
325,153,165705,1,8,0:0:0:0:
316,159,165804,1,0,0:0:0:0:
316,159,165903,1,0,0:0:0:0:
346,153,166003,1,8,0:0:0:0:
346,153,166151,1,8,0:0:0:0:
392,164,166300,1,0,0:0:0:0:
355,153,166598,1,8,0:0:0:0:
355,153,166697,1,8,0:0:0:0:
384,149,166796,1,0,0:0:0:0:
355,153,166895,1,8,0:0:0:0:
384,149,167093,1,0,0:0:0:0:
347,158,167192,1,12,0:0:0:0:
348,146,167490,1,0,0:0:0:0:
348,146,167589,1,0,0:0:0:0:
336,163,167688,1,8,0:0:0:0:
364,156,167787,1,0,0:0:0:0:
303,161,167986,1,8,0:0:0:0:
325,145,168085,1,0,0:0:0:0:
312,149,168184,1,0,0:0:0:0:
315,153,168283,1,8,0:0:0:0:
315,153,168382,1,8,0:0:0:0:
448,64,168581,1,8,0:0:0:0:
306,147,168680,1,0,0:0:0:0:
306,147,168878,1,0,0:0:0:0:
303,161,168977,1,8,0:0:0:0:
300,144,169126,1,0,0:0:0:0:
298,146,169275,1,8,0:0:0:0:
298,146,169572,1,8,0:0:0:0:
306,147,169870,1,4,0:0:0:0:
298,146,170167,1,0,0:0:0:0:
300,143,170465,1,0,0:0:0:0:
293,142,170762,1,8,0:0:0:0:
298,146,171060,1,8,0:0:0:0:
300,143,171357,1,8,0:0:0:0:
309,141,171655,1,4,0:0:0:0:
317,142,172150,1,0,0:0:0:0:
330,149,172547,1,8,0:0:0:0:
311,147,172993,1,8,0:0:0:0:
337,160,173439,1,0,0:0:0:0:
338,157,173737,1,0,0:0:0:0:
339,157,173935,1,0,0:0:0:0:
323,157,174332,1,8,0:0:0:0:
306,149,174778,1,8,0:0:0:0:
296,135,175224,1,0,0:0:0:0:
284,137,175522,1,0,0:0:0:0:
294,140,175670,1,8,0:0:0:0:
283,137,175819,1,0,0:0:0:0:
309,146,175968,1,8,0:0:0:0:
308,146,176117,1,8,0:0:0:0:
308,149,176414,1,8,0:0:0:0:
290,158,176563,1,0,0:0:0:0:
312,149,176712,1,8,0:0:0:0:
291,158,177009,1,0,0:0:0:0:
284,158,177306,1,0,0:0:0:0:
290,158,177455,1,0,0:0:0:0:
277,161,177604,1,8,0:0:0:0:
308,157,177753,1,0,0:0:0:0:
277,161,177901,1,8,0:0:0:0:
291,149,178199,1,0,0:0:0:0:
288,135,178496,1,8,0:0:0:0:
290,143,178794,1,0,0:0:0:0:
291,149,179091,1,8,0:0:0:0:
289,151,179240,1,0,0:0:0:0:
290,143,179538,1,0,0:0:0:0:
269,136,179686,1,8,0:0:0:0:
283,135,180132,1,8,0:0:0:0:
275,140,180430,1,8,0:0:0:0:
280,143,180579,1,0,0:0:0:0:
283,135,180876,1,8,0:0:0:0:
283,135,181025,1,8,0:0:0:0:
293,150,181322,1,0,0:0:0:0:
280,143,181471,1,8,0:0:0:0:
293,150,181620,1,0,0:0:0:0:
307,156,181917,1,8,0:0:0:0:
323,160,182066,1,8,0:0:0:0:
325,155,182364,1,0,0:0:0:0:
307,156,182661,1,0,0:0:0:0:
329,163,182810,1,8,0:0:0:0:
301,153,182958,1,0,0:0:0:0:
300,151,183107,1,8,0:0:0:0:
329,163,183256,1,8,0:0:0:0:
315,150,183553,1,8,0:0:0:0:
315,150,183702,1,8,0:0:0:0:
308,155,183851,1,0,0:0:0:0:
315,150,184000,1,8,0:0:0:0:
308,155,184148,1,0,0:0:0:0:
305,162,184446,1,8,0:0:0:0:
305,162,184595,1,8,0:0:0:0:
315,169,184743,1,0,0:0:0:0:
305,162,185041,1,8,0:0:0:0:
318,183,185338,1,8,0:0:0:0:
315,181,185487,1,0,0:0:0:0:
323,178,185636,1,8,0:0:0:0:
327,176,185933,1,0,0:0:0:0:
306,182,186231,1,8,0:0:0:0:
317,188,186379,1,0,0:0:0:0:
306,166,186677,1,0,0:0:0:0:
314,165,186826,1,8,0:0:0:0:
316,176,187272,1,8,0:0:0:0:
379,181,187421,1,0,0:0:0:0:
322,166,187718,1,0,0:0:0:0:
318,165,188015,1,0,0:0:0:0:
313,155,188164,1,8,0:0:0:0:
322,166,188462,1,0,0:0:0:0:
311,164,188610,1,8,0:0:0:0:
318,165,188908,1,0,0:0:0:0:
302,155,189057,1,8,0:0:0:0:
322,166,189205,1,0,0:0:0:0:
332,157,189503,1,0,0:0:0:0:
318,165,189800,1,8,0:0:0:0:
319,166,189949,1,8,0:0:0:0:
336,170,190098,1,0,0:0:0:0:
319,166,190247,1,8,0:0:0:0:
319,166,190395,1,8,0:0:0:0:
305,159,190693,1,0,0:0:0:0:
305,160,190841,1,0,0:0:0:0:
308,177,190990,1,8,0:0:0:0:
348,165,191288,1,0,0:0:0:0:
326,153,191585,1,0,0:0:0:0:
361,163,191734,1,8,0:0:0:0:
359,163,191883,1,8,0:0:0:0:
312,151,192031,1,0,0:0:0:0:
359,163,192180,1,8,0:0:0:0:
308,169,192478,1,8,0:0:0:0:
312,151,192775,1,0,0:0:0:0:
325,159,193072,1,0,0:0:0:0:
327,147,193519,1,8,0:0:0:0:
343,146,193965,1,8,0:0:0:0:
341,141,194411,1,8,0:0:0:0:
338,147,194560,1,8,0:0:0:0:
304,135,194857,1,0,0:0:0:0:
296,134,195155,1,8,0:0:0:0:
296,134,195304,1,8,0:0:0:0:
320,150,195452,1,0,0:0:0:0:
320,150,195601,1,0,0:0:0:0:
279,176,195750,1,8,0:0:0:0:
322,150,196047,1,0,0:0:0:0:
315,152,196196,1,8,0:0:0:0:
320,150,196345,1,8,0:0:0:0:
347,180,196642,1,8,0:0:0:0:
347,180,196717,1,0,0:0:0:0:
370,166,196791,1,0,0:0:0:0:
322,150,196940,1,8,0:0:0:0:
363,160,197014,1,0,0:0:0:0:
363,160,197088,1,0,0:0:0:0:
371,147,197237,1,8,0:0:0:0:
298,173,197386,1,0,0:0:0:0:
322,150,197535,1,8,0:0:0:0:
322,150,197609,1,8,0:0:0:0:
253,113,197683,1,0,0:0:0:0:
289,135,197832,1,8,0:0:0:0:
289,135,197906,1,8,0:0:0:0:
291,155,197981,1,0,0:0:0:0:
312,120,198130,1,8,0:0:0:0:
280,135,198278,1,0,0:0:0:0:
327,118,198427,1,12,0:0:0:0:
317,129,199319,1,0,0:0:0:0:
317,129,199617,1,0,0:0:0:0:
317,129,199914,1,0,0:0:0:0:
327,135,200205,1,12,0:0:0:0:
319,145,200502,1,0,0:0:0:0:
285,149,200651,1,8,0:0:0:0:
309,172,201097,1,0,0:0:0:0:
328,165,201543,1,0,0:0:0:0:
297,146,201642,1,8,0:0:0:0:
327,142,201989,1,8,0:0:0:0:
377,149,202287,1,0,0:0:0:0:
377,149,202361,1,0,0:0:0:0:
364,155,202436,1,8,0:0:0:0:
364,155,202584,1,8,0:0:0:0:
363,154,202659,1,8,0:0:0:0:
314,141,202733,1,0,0:0:0:0:
319,150,202882,1,0,0:0:0:0:
360,154,203328,1,8,0:0:0:0:
326,151,203774,1,8,0:0:0:0:
340,154,203923,1,0,0:0:0:0:
323,158,204220,1,0,0:0:0:0:
323,158,204394,1,0,0:0:0:0:
331,157,204667,1,0,0:0:0:0:
355,154,204840,1,8,0:0:0:0:
323,158,205113,1,0,0:0:0:0:
300,142,205286,1,0,0:0:0:0:
300,144,205559,1,8,0:0:0:0:
343,161,205708,1,0,0:0:0:0:
318,136,205856,1,0,0:0:0:0:
317,131,206005,1,8,0:0:0:0:
317,131,206080,1,8,0:0:0:0:
341,151,206154,1,0,0:0:0:0:
320,140,206451,1,0,0:0:0:0:
318,136,206749,1,0,0:0:0:0:
320,140,207046,1,0,0:0:0:0:
325,152,207344,1,12,0:0:0:0:
326,136,207790,1,8,0:0:0:0:
326,136,208087,1,8,0:0:0:0:
331,134,208236,1,0,0:0:0:0:
344,144,208311,1,0,0:0:0:0:
269,169,208385,1,8,0:0:0:0:
243,141,208534,1,0,0:0:0:0:
312,136,208608,1,8,0:0:0:0:
285,119,208682,1,0,0:0:0:0:
326,136,208831,1,8,0:0:0:0:
309,128,209129,1,8,0:0:0:0:
338,131,209277,1,0,0:0:0:0:
327,137,209575,1,0,0:0:0:0:
338,136,209649,1,8,0:0:0:0:
321,143,209724,1,8,0:0:0:0:
321,143,209798,1,8,0:0:0:0:
369,135,209872,1,0,0:0:0:0:
371,135,210021,1,0,0:0:0:0:
263,112,210467,1,8,0:0:0:0:
298,125,210765,1,0,0:0:0:0:
293,118,210913,1,8,0:0:0:0:
254,129,211080,1,0,0:0:0:0:
284,96,211374,1,8,0:0:0:0:
279,139,211709,1,0,0:0:0:0:
256,192,211919,12,0,214646,0:0:0:0:
292,172,219328,5,8,0:0:0:0:
317,182,221677,1,0,0:0:0:0:
301,177,222147,1,8,0:0:0:0:
385,153,224027,1,8,0:0:0:0:
376,153,224497,1,0,0:0:0:0:
369,155,224966,1,8,0:0:0:0:
403,142,226376,1,0,0:0:0:0:
369,153,226846,1,8,0:0:0:0:
394,164,227316,1,8,0:0:0:0:
394,164,227785,1,8,0:0:0:0:
371,137,228020,1,0,0:0:0:0:
371,137,228255,1,0,0:0:0:0:
394,164,228490,1,8,0:0:0:0:
371,137,228725,1,0,0:0:0:0:
386,137,229195,1,8,0:0:0:0:
369,151,229665,1,0,0:0:0:0:
369,151,230135,1,0,0:0:0:0:
379,135,230605,1,8,0:0:0:0:
350,137,231074,1,0,0:0:0:0:
361,138,231544,1,8,0:0:0:0:
381,126,232014,1,0,0:0:0:0:
402,130,232249,1,0,0:0:0:0:
361,138,232484,1,8,0:0:0:0:
360,134,232719,1,8,0:0:0:0:
363,122,232954,1,0,0:0:0:0:
342,145,233424,1,8,0:0:0:0:
325,137,233894,1,0,0:0:0:0:
342,145,234363,1,0,0:0:0:0:
344,148,234833,1,0,0:0:0:0:
373,155,235068,1,8,0:0:0:0:
371,131,235773,1,8,0:0:0:0:
369,120,236243,1,0,0:0:0:0:
256,192,237417,12,8,237887,0:0:0:0:
264,157,238122,5,8,0:0:0:0:
281,147,238592,1,0,0:0:0:0:
296,149,239062,1,8,0:0:0:0:
303,146,239532,1,8,0:0:0:0:
309,137,240002,1,0,0:0:0:0:
329,141,240471,1,0,0:0:0:0:
329,153,240941,1,8,0:0:0:0:
327,154,241176,1,0,0:0:0:0:
171,126,241411,1,8,0:0:0:0:
341,129,241881,1,8,0:0:0:0:
348,153,242351,1,0,0:0:0:0:
391,153,242821,1,0,0:0:0:0:
369,148,243056,1,0,0:0:0:0:
369,145,243291,1,8,0:0:0:0:
365,149,243760,1,8,0:0:0:0:
334,151,244230,1,0,0:0:0:0:
322,151,244700,1,8,0:0:0:0:
322,151,245405,1,8,0:0:0:0:
346,149,246110,1,0,0:0:0:0:
338,147,246580,1,0,0:0:0:0:
338,147,246814,1,0,0:0:0:0:
331,156,247049,1,8,0:0:0:0:
338,147,247284,1,0,0:0:0:0:
343,154,247519,1,8,0:0:0:0:
256,192,247989,12,0,248459,0:0:0:0:
373,148,248929,5,0,0:0:0:0:
395,147,249399,1,8,0:0:0:0:
395,147,249634,1,8,0:0:0:0:
323,123,249868,1,0,0:0:0:0:
323,123,250103,1,0,0:0:0:0:
339,140,250338,1,8,0:0:0:0:
357,135,250808,1,8,0:0:0:0:
354,154,251043,1,0,0:0:0:0:
359,151,251278,1,8,0:0:0:0:
338,165,251513,1,0,0:0:0:0:
336,166,251748,1,0,0:0:0:0:
369,142,252218,1,8,0:0:0:0:
376,156,252453,1,0,0:0:0:0:
369,142,252688,1,8,0:0:0:0:
376,156,252923,1,0,0:0:0:0:
369,142,253157,1,8,0:0:0:0:
345,140,253627,1,8,0:0:0:0:
349,124,253862,1,8,0:0:0:0:
345,140,254097,1,8,0:0:0:0:
358,126,254567,1,0,0:0:0:0:
365,125,254802,1,0,0:0:0:0:
328,135,255037,1,8,0:0:0:0:
328,135,255272,1,8,0:0:0:0:
369,132,255507,1,0,0:0:0:0:
334,143,255742,1,0,0:0:0:0:
334,139,255977,1,0,0:0:0:0:
352,149,256211,1,0,0:0:0:0:
352,149,256446,1,0,0:0:0:0:
352,149,256681,1,0,0:0:0:0:
352,149,256916,1,0,0:0:0:0:
352,149,257151,1,0,0:0:0:0:
352,149,257386,1,0,0:0:0:0:
352,149,257621,1,0,0:0:0:0:
352,149,257856,1,0,0:0:0:0:
352,149,258091,1,0,0:0:0:0:
352,149,258326,1,0,0:0:0:0:
352,149,258561,1,0,0:0:0:0:
348,139,258796,1,0,0:0:0:0:
348,139,259031,1,0,0:0:0:0:
348,139,259266,1,0,0:0:0:0:
348,139,259500,1,0,0:0:0:0:
348,139,259735,1,0,0:0:0:0:
348,139,259970,1,0,0:0:0:0:
357,143,260440,1,8,0:0:0:0:
357,143,260675,1,8,0:0:0:0:
357,143,260910,1,8,0:0:0:0:
357,143,261145,1,8,0:0:0:0:
357,143,261380,1,8,0:0:0:0:
357,143,261615,1,8,0:0:0:0:
365,188,261850,1,8,0:0:0:0:
365,188,262085,1,8,0:0:0:0:
365,188,262320,1,8,0:0:0:0:
365,188,262554,1,8,0:0:0:0:
365,188,262789,1,8,0:0:0:0:
311,132,263269,5,4,0:0:0:0:
326,130,263503,1,8,0:0:0:0:
326,130,263737,1,8,0:0:0:0:
326,130,263972,1,8,0:0:0:0:
341,141,264206,1,4,0:0:0:0:
352,137,264440,1,4,0:0:0:0:
352,137,264675,1,4,0:0:0:0:
352,150,264909,1,8,0:0:0:0:
352,150,265144,1,8,0:0:0:0:
352,150,265378,1,8,0:0:0:0:
356,164,265495,1,0,0:0:0:0:
363,171,265612,1,8,0:0:0:0:
352,171,265847,1,0,0:0:0:0:
367,178,266093,1,0,0:0:0:0:
346,165,266210,1,0,0:0:0:0:
340,163,266327,1,8,0:0:0:0:
348,161,266444,1,8,0:0:0:0:
391,165,266562,1,0,0:0:0:0:
356,161,266796,1,8,0:0:0:0:
363,164,267031,1,8,0:0:0:0:
391,165,267148,1,0,0:0:0:0:
363,164,267266,1,8,0:0:0:0:
363,164,267383,1,8,0:0:0:0:
391,165,267500,1,0,0:0:0:0:
380,155,267735,1,8,0:0:0:0:
330,160,267852,1,0,0:0:0:0:
330,160,267969,1,0,0:0:0:0:
322,129,268204,1,8,0:0:0:0:
336,140,268908,1,4,0:0:0:0:
358,163,269142,1,8,0:0:0:0:
357,162,269377,1,8,0:0:0:0:
357,162,269611,1,8,0:0:0:0:
308,197,269846,1,4,0:0:0:0:
308,197,270080,1,4,0:0:0:0:
308,197,270315,1,4,0:0:0:0:
328,177,270549,1,8,0:0:0:0:
385,174,270784,1,0,0:0:0:0:
334,180,270901,1,8,0:0:0:0:
385,174,271019,1,0,0:0:0:0:
385,174,271136,1,0,0:0:0:0:
385,174,271253,1,0,0:0:0:0:
385,174,271488,1,0,0:0:0:0:
352,176,271722,1,0,0:0:0:0:
371,160,271897,1,0,0:0:0:0:
372,147,272073,1,8,0:0:0:0:
339,150,272191,1,8,0:0:0:0:
339,150,272308,1,8,0:0:0:0:
349,137,272425,1,0,0:0:0:0:
358,137,272660,1,8,0:0:0:0:
357,137,272777,1,8,0:0:0:0:
357,137,272895,1,8,0:0:0:0:
357,137,273012,1,8,0:0:0:0:
346,129,273129,1,0,0:0:0:0:
342,130,273364,1,8,0:0:0:0:
342,130,273481,1,8,0:0:0:0:
358,137,273598,1,0,0:0:0:0:
364,124,273833,1,8,0:0:0:0:
322,113,274537,1,4,0:0:0:0:
346,147,274771,1,8,0:0:0:0:
346,147,275006,1,8,0:0:0:0:
346,147,275240,1,8,0:0:0:0:
331,151,275475,1,4,0:0:0:0:
331,151,275709,1,4,0:0:0:0:
331,151,275944,1,4,0:0:0:0:
333,151,276178,1,8,0:0:0:0:
290,157,276296,1,0,0:0:0:0:
331,151,276413,1,8,0:0:0:0:
290,157,276648,1,0,0:0:0:0:
328,165,276765,1,8,0:0:0:0:
301,151,276882,1,0,0:0:0:0:
328,165,276999,1,8,0:0:0:0:
328,169,277117,1,0,0:0:0:0:
339,175,277351,1,0,0:0:0:0:
332,159,277468,1,8,0:0:0:0:
344,164,277585,1,8,0:0:0:0:
349,170,277702,1,0,0:0:0:0:
332,159,277820,1,8,0:0:0:0:
344,164,278054,1,8,0:0:0:0:
332,142,278289,1,0,0:0:0:0:
361,151,278524,1,8,0:0:0:0:
342,139,278758,1,0,0:0:0:0:
337,150,278993,1,8,0:0:0:0:
351,159,279110,1,0,0:0:0:0:
341,150,279227,1,0,0:0:0:0:
304,135,279462,1,8,0:0:0:0:
362,162,280166,1,0,0:0:0:0:
366,197,280401,1,0,0:0:0:0:
366,197,280637,1,0,0:0:0:0:
366,197,280872,1,0,0:0:0:0:
389,192,281108,1,8,0:0:0:0:
389,192,281344,1,8,0:0:0:0:
342,184,281579,1,0,0:0:0:0:
371,188,281814,1,8,0:0:0:0:
382,159,282286,1,8,0:0:0:0:
344,155,282403,1,8,0:0:0:0:
379,155,282520,1,0,0:0:0:0:
368,163,282637,1,0,0:0:0:0:
408,143,282754,1,8,0:0:0:0:
382,159,282989,1,8,0:0:0:0:
382,159,283223,1,0,0:0:0:0:
316,155,283340,1,8,0:0:0:0:
345,158,283457,1,8,0:0:0:0:
345,158,283575,1,8,0:0:0:0:
380,155,283692,1,0,0:0:0:0:
350,151,283926,1,8,0:0:0:0:
336,151,284161,1,0,0:0:0:0:
373,141,284395,1,8,0:0:0:0:
360,148,285098,1,4,0:0:0:0:
426,188,285332,1,8,0:0:0:0:
426,188,285567,1,8,0:0:0:0:
426,188,285802,1,8,0:0:0:0:
386,180,286037,1,4,0:0:0:0:
386,180,286272,1,4,0:0:0:0:
386,180,286507,1,4,0:0:0:0:
387,189,286742,1,8,0:0:0:0:
366,157,286859,1,0,0:0:0:0:
388,189,286977,1,8,0:0:0:0:
366,157,287212,1,0,0:0:0:0:
386,180,287329,1,8,0:0:0:0:
359,159,287447,1,0,0:0:0:0:
366,157,287564,1,0,0:0:0:0:
366,157,287682,1,0,0:0:0:0:
377,171,287917,1,0,0:0:0:0:
363,150,288034,1,0,0:0:0:0:
380,162,288151,1,8,0:0:0:0:
378,159,288269,1,8,0:0:0:0:
349,165,288386,1,0,0:0:0:0:
347,158,288621,1,8,0:0:0:0:
359,157,288856,1,8,0:0:0:0:
359,157,288974,1,8,0:0:0:0:
356,156,289091,1,0,0:0:0:0:
363,152,289326,1,8,0:0:0:0:
341,146,289444,1,0,0:0:0:0:
363,152,289561,1,8,0:0:0:0:
359,157,289679,1,8,0:0:0:0:
341,146,289796,1,0,0:0:0:0:
383,158,290031,1,8,0:0:0:0:
416,145,290266,1,0,0:0:0:0:
376,158,290384,1,8,0:0:0:0:
375,158,290501,1,8,0:0:0:0:
375,158,290619,1,8,0:0:0:0:
416,145,290736,1,0,0:0:0:0:
392,151,290971,1,8,0:0:0:0:
392,151,291088,1,8,0:0:0:0:
376,158,291206,1,0,0:0:0:0:
357,157,291441,1,8,0:0:0:0:
346,152,291675,1,8,0:0:0:0:
276,144,291910,1,0,0:0:0:0:
350,148,292145,1,12,0:0:0:0:
256,192,292379,12,0,306240,0:0:0:0:
