osu file format v14

[General]
AudioFilename: audio.mp3
AudioLeadIn: 0
PreviewTime: 196543
Countdown: 0
SampleSet: Normal
StackLeniency: 0.7
Mode: 1
LetterboxInBreaks: 0
WidescreenStoryboard: 1

[Editor]
Bookmarks: 35686,57481,91004,117844,148402,171853,212070,237026,262711
DistanceSpacing: 0.4
BeatDivisor: 16
GridSize: 16
TimelineZoom: 2.799999

[Metadata]
Title:Ahhhh, These Chains!
TitleUnicode:쇠사슬
Artist:Mid-Air Thief
ArtistUnicode:공중도둑
Creator:woosungko
Version:Burden
Source:
Tags:soesaseul gongjungdodug summer soul mid air crumbling ah ahh ahhh korean electronic dream progressive pop acoustic folk folktronica
BeatmapID:3588332
BeatmapSetID:1753446

[Difficulty]
HPDrainRate:6
CircleSize:2
OverallDifficulty:6
ApproachRate:10
SliderMultiplier:1.4
SliderTickRate:1

[Events]
//Background and Video events
0,0,"cover (2).jpg",0,-130
//Break Periods
//Storyboard Layer 0 (Background)
//Storyboard Layer 1 (Fail)
//Storyboard Layer 2 (Pass)
//Storyboard Layer 3 (Foreground)
//Storyboard Layer 4 (Overlay)
//Storyboard Sound Samples

[TimingPoints]
-21,297.545251673692,81,1,0,5,1,8
388,-333.333333333333,81,1,0,10,0,0
1727,-333.333333333333,81,1,0,15,0,0
2396,-333.333333333333,81,1,0,5,0,0
7096,-333.333333333333,81,1,0,30,0,0
7122,297.545251673692,6,1,0,30,1,0
7122,-166.666666666667,6,1,0,30,0,0
9775,-163.265306122449,6,1,0,30,0,0
9850,-161.331260117489,6,1,0,30,0,0
9924,-159.420395502565,6,1,0,30,0,0
9999,-157.507070489176,6,1,0,30,0,0
10073,-155.642023346303,6,1,0,30,0,0
10122,-166.666666666667,6,1,0,30,0,0
13346,-162.60162601626,6,1,0,30,0,0
13421,-161.030787262039,6,1,0,30,0,0
13495,-159.45432706316,6,1,0,30,0,0
13570,-157.914131421574,6,1,0,30,0,0
13644,-156.388928193495,6,1,0,30,0,0
13792,-153.362796202084,6,1,0,30,0,0
13941,-150.395656895587,6,1,0,30,0,0
13990,-166.666666666667,6,1,0,30,0,0
16916,-162.60162601626,6,1,0,30,0,0
16990,-160.961477965186,6,1,0,30,0,0
17064,-159.338004682401,6,1,0,30,0,0
17139,-157.709430424395,6,1,0,30,0,0
17213,-156.11901160734,6,1,0,30,0,0
17312,-154.016533504842,6,1,0,30,0,0
17411,-151.942583231662,6,1,0,30,0,0
17511,-149.876245397171,6,1,0,30,0,0
17610,-147.858456287507,6,1,0,30,0,0
17709,-145.868029398546,6,1,0,30,0,0
17809,-143.904588426779,6,1,0,30,0,0
17858,-166.666666666667,6,1,0,30,0,0
18701,-162.60162601626,6,1,0,30,0,0
18775,-160.961477965186,6,1,0,30,0,0
18849,-159.338004682401,6,1,0,30,0,0
18924,-157.709430424395,6,1,0,30,0,0
18998,-156.11901160734,6,1,0,30,0,0
19097,-154.016533504842,6,1,0,30,0,0
19196,-151.942583231662,6,1,0,30,0,0
19296,-149.876245397171,6,1,0,30,0,0
19395,-147.858456287507,6,1,0,30,0,0
19494,-145.868029398546,6,1,0,30,0,0
19594,-143.904588426779,6,1,0,30,0,0
19643,-166.666666666667,6,1,0,30,0,0
21082,-163.265306122449,6,1,0,30,0,0
21157,-161.331260117489,6,1,0,30,0,0
21231,-159.420395502565,6,1,0,30,0,0
21306,-157.507070489176,6,1,0,30,0,0
21380,-155.642023346303,6,1,0,30,0,0
21429,-166.666666666667,6,1,0,30,0,0
22272,-162.60162601626,6,1,0,30,0,0
22346,-160.961477965186,6,1,0,30,0,0
22420,-159.338004682401,6,1,0,30,0,0
22495,-157.709430424395,6,1,0,30,0,0
22569,-156.11901160734,6,1,0,30,0,0
22668,-154.016533504842,6,1,0,30,0,0
22767,-151.942583231662,6,1,0,30,0,0
22867,-149.876245397171,6,1,0,30,0,0
22966,-147.858456287507,6,1,0,30,0,0
23065,-145.868029398546,6,1,0,30,0,0
23165,-143.904588426779,6,1,0,30,0,0
23214,-166.666666666667,6,1,0,30,0,0
24057,-162.60162601626,6,1,0,30,0,0
24131,-160.964103820218,6,1,0,30,0,0
24205,-159.343072719673,6,1,0,30,0,0
24280,-157.716792456639,6,1,0,30,0,0
24354,-156.128464254371,6,1,0,30,0,0
24429,-154.534992786921,6,1,0,30,0,0
24504,-152.978707730286,6,1,0,30,0,0
24578,-151.43809564929,6,1,0,30,0,0
24652,-149.892494815678,6,1,0,30,0,0
24702,-148.89123206326,6,1,0,30,0,0
24801,-146.888633814519,6,1,0,30,0,0
24950,-143.905597927759,6,1,0,30,0,0
24999,-166.666666666667,6,1,0,30,0,0
25843,-162.60162601626,6,1,0,30,0,0
25917,-160.961477965186,6,1,0,30,0,0
25991,-159.338004682401,6,1,0,30,0,0
26066,-157.709430424395,6,1,0,30,0,0
26140,-156.11901160734,6,1,0,30,0,0
26239,-154.016533504842,6,1,0,30,0,0
26338,-151.942583231662,6,1,0,30,0,0
26438,-149.876245397171,6,1,0,30,0,0
26537,-147.858456287507,6,1,0,30,0,0
26636,-145.868029398546,6,1,0,30,0,0
26736,-143.904588426779,6,1,0,30,0,0
26785,-166.666666666667,6,1,0,30,0,0
27628,-162.60162601626,6,1,0,30,0,0
27777,-159.339456525165,6,1,0,30,0,0
27926,-156.12135391295,6,1,0,30,0,0
28000,-154.547339282781,6,1,0,30,0,0
28074,-152.989193859443,6,1,0,30,0,0
28149,-151.426020765052,6,1,0,30,0,0
28223,-149.899344457817,6,1,0,30,0,0
28372,-146.871899263206,6,1,0,30,0,0
28521,-143.905597927759,6,1,0,30,0,0
28570,-166.666666666667,6,1,0,30,0,0
29413,-162.60162601626,6,1,0,30,0,0
29487,-160.964103820218,6,1,0,30,0,0
29561,-159.343072719673,6,1,0,30,0,0
29636,-157.716792456639,6,1,0,30,0,0
29710,-156.128464254371,6,1,0,30,0,0
29785,-154.534992786921,6,1,0,30,0,0
29860,-152.978707730286,6,1,0,30,0,0
29934,-151.43809564929,6,1,0,30,0,0
30008,-149.892494815678,6,1,0,30,0,0
30132,-147.397597970606,6,1,0,30,0,0
30182,-146.391325779992,6,1,0,30,0,0
30306,-143.925282865793,6,1,0,30,0,0
30405,-141.883224543164,6,1,0,30,0,0
30455,-166.666666666667,6,1,0,30,0,0
31198,-162.60162601626,6,1,0,30,0,0
31272,-160.964103820218,6,1,0,30,0,0
31346,-159.343072719673,6,1,0,30,0,0
31421,-157.716792456639,6,1,0,30,0,0
31495,-156.128464254371,6,1,0,30,0,0
31644,-152.978707730286,6,1,0,30,0,0
31718,-151.43809564929,6,1,0,30,0,0
31793,-149.892494815678,6,1,0,30,0,0
31942,-146.868543573271,6,1,0,30,0,0
32091,-143.925282865793,6,1,0,30,0,0
32141,-166.666666666667,6,1,0,30,0,0
32984,-166.666666666667,6,1,0,30,0,0
33058,-164.551212714104,6,1,0,30,0,0
33133,-162.434567573279,6,1,0,30,0,0
33207,-160.372830485245,6,1,0,30,0,0
33281,-158.337262456444,6,1,0,30,0,0
33356,-156.300548222242,6,1,0,30,0,0
33430,-154.316668547095,6,1,0,30,0,0
33505,-152.331671771678,6,1,0,30,0,0
33579,-150.398167948779,6,1,0,30,0,0
33653,-148.489205555706,6,1,0,30,0,0
33728,-146.57916824744,6,1,0,30,0,0
33802,-144.718679362446,6,1,0,30,0,0
33877,-142.857142857143,6,1,0,30,0,0
34248,-166.666666666667,6,1,0,30,0,0
34322,-164.730300481942,6,1,0,30,0,0
34396,-162.816431381225,6,1,0,30,0,0
34545,-159.030025669848,6,1,0,30,0,0
34619,-157.18238348547,6,1,0,30,0,0
34768,-153.527001350459,6,1,0,30,0,0
34917,-149.956627587612,6,1,0,30,0,0
35066,-146.469285270012,6,1,0,30,0,0
35363,-139.758085178006,6,1,0,38,0,0
35661,-133.333333333333,6,1,0,46,0,0
35959,-136.544283502864,6,1,0,46,0,0
36059,-137.642720841334,6,1,0,46,0,0
36158,-138.738877903065,6,1,0,46,0,0
36257,-139.84376452417,6,1,0,46,0,0
36356,-140.957450224985,6,1,0,46,0,0
36455,-142.08000507949,6,1,0,46,0,0
36554,-143.21149971972,6,1,0,46,0,0
36852,-146.672088572187,6,1,0,46,0,0
36932,-147.5377504196766,6,1,0,46,0,0
37001,-148.434021077631,6,1,0,46,0,0
37075,-149.316315663164,6,1,0,46,0,0
37150,-150.216299726139,6,1,0,46,0,0
37298,-152.008213288983,6,1,0,46,0,0
37447,-153.846153846154,6,1,0,46,0,0
37744,-150.226333331465,6,1,0,46,0,0
37892,-148.454438815691,6,1,0,46,0,0
38041,-146.691682970407,6,1,0,46,0,0
38190,-144.949858181109,6,1,0,46,0,0
38339,-143.228715911332,6,1,0,46,0,0
38413,-142.381531006868,6,1,0,46,0,0
38488,-141.528010575747,6,1,0,46,0,0
38562,-140.690885189572,6,1,0,46,0,0
38636,-139.858711324368,6,1,0,46,0,0
38711,-139.020314189982,6,1,0,46,0,0
38785,-138.198021601193,6,1,0,46,0,0
38859,-137.380592798719,6,1,0,46,0,0
38934,-136.557050995481,6,1,0,46,0,0
39045,-135.347260453365,6,1,0,46,0,0
39120,-134.535907665708,6,1,0,46,0,0
39232,-133.333333333333,6,1,0,46,0,0
39530,-136.54610385491,6,1,0,46,0,0
39629,-137.634139316274,6,1,0,46,0,0
39728,-138.730844531895,6,1,0,46,0,0
39827,-139.836288584668,6,1,0,46,0,0
39976,-141.516664936578,6,1,0,46,0,0
40126,-143.228715911332,6,1,0,46,0,0
40199,-144.069391358287,6,1,0,46,0,0
40274,-144.93823822841,6,1,0,46,0,0
40348,-145.800635806511,6,1,0,46,0,0
40423,-146.679923383755,6,1,0,46,0,0
40522,-147.848707798734,6,1,0,46,0,0
40596,-148.728422973208,6,1,0,46,0,0
40720,-150.214290388413,6,1,0,46,0,0
40819,-151.411237574251,6,1,0,46,0,0
40918,-152.617722351766,6,1,0,46,0,0
41018,-153.846153846154,6,1,0,46,0,0
41091,-153.242991855585,6,1,0,46,0,0
41315,-150.226333331465,6,1,0,46,0,0
41514,-147.848707798734,6,1,0,46,0,0
41613,-146.679923383755,6,1,0,46,0,0
41762,-144.93823822841,6,1,0,46,0,0
41911,-143.217233934565,6,1,0,46,0,0
42059,-141.528010575747,6,1,0,46,0,0
42133,-140.690885189572,6,1,0,46,0,0
42208,-139.847499505118,6,1,0,46,0,0
42282,-139.020314189982,6,1,0,46,0,0
42357,-138.186942911678,6,1,0,46,0,0
42431,-137.369579638651,6,1,0,46,0,0
42505,-136.557050995481,6,1,0,46,0,0
42580,-135.738445996545,6,1,0,46,0,0
42654,-134.935565361388,6,1,0,46,0,0
42729,-134.126680521435,6,1,0,46,0,0
42803,-133.333333333333,6,1,0,46,0,0
43100,-136.544283502864,6,1,0,46,0,0
43200,-137.642720841334,6,1,0,46,0,0
43299,-138.738877903065,6,1,0,46,0,0
43398,-139.84376452417,6,1,0,46,0,0
43696,-143.222974807887,6,1,0,46,0,0
43770,-144.074687823513,6,1,0,46,0,0
43844,-144.93146577416,6,1,0,46,0,0
43919,-145.805020742625,6,1,0,46,0,0
43993,-146.672088572187,6,1,0,46,0,0
44067,-147.544312648202,6,1,0,46,0,0
44142,-148.433616200706,6,1,0,46,0,0
44216,-149.316315663164,6,1,0,46,0,0
44291,-150.216299726139,6,1,0,46,0,0
44390,-151.412590069177,6,1,0,46,0,0
44489,-152.618407411531,6,1,0,46,0,0
44588,-153.846153846154,6,1,0,46,0,0
44885,-150.226333331465,6,1,0,46,0,0
45034,-148.442537917141,6,1,0,46,0,0
45182,-146.691682970407,6,1,0,46,0,0
45480,-143.228715911332,6,1,0,46,0,0
45554,-142.381531006868,6,1,0,46,0,0
45629,-141.528010575747,6,1,0,46,0,0
45703,-140.690885189572,6,1,0,46,0,0
45777,-139.858711324368,6,1,0,46,0,0
45852,-139.020314189982,6,1,0,46,0,0
45926,-138.198021601193,6,1,0,46,0,0
46001,-137.369579638651,6,1,0,46,0,0
46075,-136.557050995481,6,1,0,46,0,0
46174,-135.477530211462,6,1,0,46,0,0
46273,-134.406543334076,6,1,0,46,0,0
46373,-133.333333333333,6,1,0,46,0,0
46671,-136.54610385491,6,1,0,46,0,0
46770,-137.634139316274,6,1,0,46,0,0
46869,-138.730844531895,6,1,0,46,0,0
46969,-139.847499505118,6,1,0,46,0,0
47043,-140.679606658833,6,1,0,46,0,0
47117,-141.516664936578,6,1,0,46,0,0
47192,-142.370116944955,6,1,0,46,0,0
47267,-143.228715911332,6,1,0,46,0,0
47340,-144.069391358287,6,1,0,46,0,0
47564,-146.679923383755,6,1,0,46,0,0
47663,-147.848707798734,6,1,0,46,0,0
47762,-149.026805396985,6,1,0,46,0,0
47861,-150.214290388413,6,1,0,46,0,0
47985,-151.715002323122,6,1,0,46,0,0
48060,-152.629957982172,6,1,0,46,0,0
48159,-153.846153846154,6,1,0,46,0,0
48456,-125,6,1,0,65,0,0
48555,-128.257302374121,6,1,0,65,0,0
48655,-131.668591917207,6,1,0,65,0,0
48754,-135.135135135135,6,1,0,65,0,0
49051,-143.234450815516,6,1,0,46,0,0
49126,-142.376296785374,6,1,0,46,0,0
49200,-141.534623991071,6,1,0,46,0,0
49275,-140.686654055828,6,1,0,46,0,0
49349,-139.854969766281,6,1,0,46,0,0
49423,-139.028202067879,6,1,0,46,0,0
49498,-138.19524874395,6,1,0,46,0,0
49572,-137.378292664912,6,1,0,46,0,0
49646,-136.566166109618,6,1,0,46,0,0
49746,-135.476320056665,6,1,0,46,0,0
49944,-133.333333333333,6,1,0,46,0,0
50018,-134.115928212306,6,1,0,46,0,0
50241,-136.54610385491,6,1,0,46,0,0
50340,-137.634139316274,6,1,0,46,0,0
50439,-138.730844531895,6,1,0,46,0,0
50538,-139.836288584668,6,1,0,46,0,0
50637,-140.950541107958,6,1,0,46,0,0
50736,-142.073672289986,6,1,0,46,0,0
50836,-143.217233934565,6,1,0,46,0,0
50910,-144.069391358287,6,1,0,46,0,0
50984,-144.926619207228,6,1,0,46,0,0
51059,-145.800635806511,6,1,0,46,0,0
51133,-146.668164739815,6,1,0,46,0,0
51208,-147.552684169511,6,1,0,46,0,0
51282,-148.430637972631,6,1,0,46,0,0
51356,-149.313815692108,6,1,0,46,0,0
51431,-150.214290388413,6,1,0,46,0,0
51530,-151.411237574251,6,1,0,46,0,0
51629,-152.617722351766,6,1,0,46,0,0
51729,-153.542372471009,6,1,0,46,0,0
52027,-149.979014793973,6,1,0,46,0,0
52126,-148.809701751607,6,1,0,46,0,0
52225,-147.649505271268,6,1,0,46,0,0
52324,-146.498354275579,6,1,0,46,0,0
52424,-145.344686655962,6,1,0,46,0,0
52523,-144.211505204018,6,1,0,46,0,0
52622,-143.087158613757,6,1,0,46,0,0
52696,-142.252466728828,6,1,0,46,0,0
52771,-141.4114633703,6,1,0,46,0,0
52845,-140.586546570954,6,1,0,46,0,0
52919,-139.766441883085,6,1,0,46,0,0
52994,-138.94013602185,6,1,0,46,0,0
53068,-138.129635588743,6,1,0,46,0,0
53143,-137.313006604279,6,1,0,46,0,0
53217,-136.511997950405,6,1,0,46,0,0
53267,-135.9734227735,6,1,0,46,0,0
53515,-133.333333333333,6,1,0,46,0,0
53613,-134.126680521435,6,1,0,46,0,0
53812,-136.54610385491,6,1,0,46,0,0
53911,-137.634139316274,6,1,0,46,0,0
54010,-138.730844531895,6,1,0,46,0,0
54110,-139.847499505118,6,1,0,46,0,0
54209,-140.961841359986,6,1,0,46,0,0
54308,-142.085062585411,6,1,0,46,0,0
54407,-143.217233934565,6,1,0,46,0,0
54482,-144.080941654009,6,1,0,46,0,0
54556,-144.93823822841,6,1,0,46,0,0
54630,-145.800635806511,6,1,0,46,0,0
54705,-146.679923383755,6,1,0,46,0,0
54779,-147.552684169511,6,1,0,46,0,0
54854,-148.442537917141,6,1,0,46,0,0
54928,-149.325786442525,6,1,0,46,0,0
55002,-150.214290388413,6,1,0,46,0,0
55077,-151.12019562492,6,1,0,46,0,0
55151,-152.019376491902,6,1,0,46,0,0
55225,-152.923907578478,6,1,0,46,0,0
55300,-153.846153846154,6,1,0,46,0,0
55448,-152.02039323021,6,1,0,46,0,0
55795,-147.851999546605,6,1,0,46,0,0
55894,-146.683840946481,6,1,0,46,0,0
55993,-145.524911809057,6,1,0,46,0,0
56092,-144.375139213601,6,1,0,46,0,0
56192,-143.222974807887,6,1,0,46,0,0
56266,-142.376296785374,6,1,0,46,0,0
56340,-141.534623991071,6,1,0,46,0,0
56415,-140.686654055828,6,1,0,46,0,0
56489,-139.854969766281,6,1,0,46,0,0
56563,-139.028202067879,6,1,0,46,0,0
56638,-138.19524874395,6,1,0,46,0,0
56712,-137.378292664912,6,1,0,46,0,0
56787,-136.555224367912,6,1,0,46,0,0
57085,-133.333333333333,6,1,0,65,0,0
57531,-135.970576165781,6,1,0,65,0,0
57984,-100,6,1,0,90,0,0
58002,-100,6,1,0,90,0,1
58027,-100,6,1,0,65,0,1
58430,-141.42125453007,6,1,0,65,0,1
58504,-141.882620103669,6,1,0,65,0,1
58876,-144.224818732718,6,1,0,65,0,1
58894,-144.224818732718,6,1,0,65,0,0
59372,-147.408005844113,6,1,0,65,0,0
59770,-79.36320510588,6,1,0,90,0,0
59787,-79.36320510588,6,1,0,90,0,1
60290,-153.485974227282,6,1,0,65,0,1
60339,-153.817352865519,6,1,0,65,0,1
60389,-154.156231846211,6,1,0,65,0,1
60662,-156.019721053713,6,1,0,65,0,1
60680,-156.019721053713,6,1,0,65,0,0
61108,-159.112688276404,6,1,0,65,0,0
61182,-159.631769491865,6,1,0,65,0,0
61555,-62.99333500692,6,1,0,90,0,0
61572,-62.99333500692,6,1,0,90,0,1
62050,-165.848366720107,6,1,0,65,0,1
62447,-168.771798074612,6,1,0,65,0,1
62465,-168.771798074612,6,1,0,65,0,0
62930,-172.398090338493,6,1,0,65,0,0
62968,-172.686673252731,6,1,0,65,0,0
63340,-50,6,1,0,90,0,0
63358,-50,6,1,0,90,0,1
63835,-179.40377581789,6,1,0,65,0,1
63885,-179.799024907469,6,1,0,65,0,1
64233,-182.574185835055,6,1,0,65,0,1
64250,-182.574185835055,6,1,0,65,0,0
64728,-186.595569122716,6,1,0,65,0,0
64802,-187.204309103601,6,1,0,65,0,0
64877,-187.823301689351,6,1,0,65,0,0
65125,-39.686738283112,6,1,0,90,0,0
65143,-39.686738283112,6,1,0,90,0,1
65422,-192.383214822414,6,1,0,65,0,1
65670,-194.49467362686,6,1,0,65,0,1
65720,-194.923169862953,6,1,0,65,0,1
65770,-195.352610130166,6,1,0,65,0,1
66018,-197.496658866494,6,1,0,65,0,1
66035,-197.496658866494,6,1,0,65,0,0
66501,-201.740143941372,6,1,0,65,0,0
66575,-202.398290819906,6,1,0,65,0,0
66910,-31.500743911044,6,1,0,90,0,0
66928,-31.500743911044,6,1,0,90,0,1
67356,-209.476689467977,6,1,0,65,0,1
67431,-210.169325862347,6,1,0,65,0,1
67505,-210.854971679176,6,1,0,65,0,1
67803,-213.638801591956,6,1,0,65,0,1
67821,-213.638801591956,6,1,0,65,0,0
68100,-216.44985820107,6,1,0,65,0,0
68398,-219.307555058196,6,1,0,65,0,0
68695,-25.003235586419,6,1,0,90,0,0
68713,-25.003235586419,6,1,0,90,0,1
68993,-225.126724860896,6,1,0,65,0,1
69290,-228.088939416926,6,1,0,65,0,1
69588,-231.10030219043,6,1,0,45,0,1
69606,-231.10030219043,6,1,0,45,0,0
69886,-234.15142272587,6,1,0,45,0,0
70034,-235.681682383917,6,1,0,45,0,0
70183,-237.232384140568,6,1,0,40,0,0
70474,-240.364463986687,6,1,0,40,0,0
71076,-246.742363873001,6,1,0,40,0,0
71373,-249.988996729698,6,1,0,40,0,0
79202,-249.988996729698,6,1,0,44,0,0
79301,-249.988996729698,6,1,0,48,0,0
79400,-249.988996729698,6,1,0,52,0,0
79847,-249.988996729698,6,1,0,56,0,0
79921,-249.988996729698,6,1,0,52,0,0
82078,-249.988996729698,6,1,0,40,0,0
82103,-250,6,1,0,40,0,0
82376,-245.819442809804,6,1,0,40,0,0
82674,-241.695070047108,6,1,0,40,0,0
82972,-237.639896248055,6,1,0,40,0,0
83269,-233.666027540306,6,1,0,40,0,0
83567,-229.745565478645,6,1,0,40,0,0
83864,-225.903707575935,6,1,0,40,0,0
84162,-222.113482165494,6,1,0,40,0,0
84459,-218.399249705869,6,1,0,40,0,0
84757,-214.734934521585,6,1,0,40,0,0
85054,-211.144087823583,6,1,0,40,0,0
85352,-207.601500163023,6,1,0,40,0,0
85649,-204.129940386215,6,1,0,40,0,0
85947,-200.705036495146,6,1,0,40,0,0
86245,-197.337595838726,6,1,0,40,0,0
86542,-194.037671418007,6,1,0,40,0,0
86840,-190.782096196675,6,1,0,40,0,0
87137,-187.591794340612,6,1,0,40,0,0
87435,-184.444368415958,6,1,0,40,0,0
87732,-181.360047493668,6,1,0,40,0,0
88030,-178.317178176358,6,1,0,40,0,0
88328,-175.325362295625,6,1,0,40,0,0
88625,-172.39353147975,6,1,0,40,0,0
88922,-169.510727409467,6,1,0,40,0,0
89220,-166.666666666667,6,1,0,60,0,0
89368,-169.737388820982,6,1,0,60,0,0
89517,-172.864686982591,6,1,0,60,0,0
89665,-176.028033855022,6,1,0,60,0,0
89963,-182.574185835055,6,1,0,60,0,0
90112,-185.937993418554,6,1,0,60,0,0
90260,-189.340575983065,6,1,0,60,0,0
90409,-192.829049791357,6,1,0,60,0,0
90558,-196.381796402496,6,1,0,60,0,0
90608,-197.588602042846,6,1,0,60,0,0
91005,-222.222222222222,6,1,0,60,0,0
91302,-215.177411082287,6,1,0,60,0,0
91599,-208.35593208034,6,1,0,60,0,0
91898,-100,6,1,0,90,0,0
91947,-133.333333333333,6,1,0,40,0,0
93689,-133.333333333333,6,1,0,60,0,0
93726,-133.333333333333,6,1,0,50,0,0
94277,-133.333333333333,6,1,0,90,0,0
94582,-117.647058823529,6,1,0,70,0,0
95028,-121.655580637031,6,1,0,40,0,0
95475,-125.81013342211,6,1,0,90,0,0
95921,-130.096791067657,6,1,0,40,0,0
96094,-131.798598325891,6,1,0,40,0,0
96237,-133.222087480887,6,1,0,40,0,0
96367,-134.529505578978,6,1,0,40,0,0
96665,-137.575131770685,6,1,0,40,0,0
96863,-139.636765815305,6,1,0,40,0,0
97136,-142.530082295193,6,1,0,40,0,0
97260,-143.863987891864,6,1,0,90,0,0
97557,-147.109886569919,6,1,0,40,0,0
97855,-150.440321195902,6,1,0,40,0,0
98153,-133.333333333333,6,1,0,70,0,0
98189,-133.333333333333,6,1,0,40,0,0
99044,-133.333333333333,6,1,0,60,0,0
99137,-133.333333333333,6,1,0,40,0,0
100830,-133.333333333333,6,1,0,60,0,0
100867,-133.333333333333,6,1,0,40,0,0
101723,-117.647058823529,6,1,0,70,0,0
101759,-117.647058823529,6,1,0,40,0,0
102020,-120.301443970974,6,1,0,40,0,0
102169,-121.655580637031,6,1,0,40,0,0
102616,-125.81013342211,6,1,0,90,0,0
103062,-130.096791067657,6,1,0,40,0,0
103211,-131.561186083261,6,1,0,40,0,0
103508,-134.529505578978,6,1,0,40,0,0
103954,-139.113253469197,6,1,0,40,0,0
104103,-140.679139555339,6,1,0,40,0,0
104252,-142.262651562619,6,1,0,40,0,0
104401,-143.863987891864,6,1,0,40,0,0
104599,-146.019863677082,6,1,0,40,0,0
104698,-147.109886569919,6,1,0,50,0,0
104872,-149.045439896219,6,1,0,40,0,0
104996,-150.440321195902,6,1,0,70,0,0
105293,-133.333333333333,6,1,0,70,0,0
106223,-133.333333333333,6,1,0,40,0,0
107971,-133.333333333333,6,1,0,60,0,0
108008,-133.333333333333,6,1,0,40,0,0
108864,-117.647058823529,6,1,0,70,0,0
109162,-120.310481707515,6,1,0,40,0,0
109757,-125.81013342211,6,1,0,90,0,0
110054,-128.648696093317,6,1,0,40,0,0
110352,-131.561186083261,6,1,0,40,0,0
110649,-134.529505578978,6,1,0,40,0,0
110947,-137.575131770685,6,1,0,40,0,0
111145,-139.636765815305,6,1,0,40,0,0
111244,-140.679139555339,6,1,0,40,0,0
111393,-142.262651562619,6,1,0,40,0,0
111542,-143.863987891864,6,1,0,90,0,0
111691,-145.48334917714,6,1,0,75,0,0
111839,-147.109886569919,6,1,0,60,0,0
111988,-148.765784327819,6,1,0,45,0,0
112137,-150.440321195902,6,1,0,40,0,0
112286,-152.133706979648,6,1,0,40,0,0
112435,-133.333333333333,6,1,0,70,0,0
113364,-133.333333333333,6,1,0,40,0,0
115112,-133.333333333333,6,1,0,60,0,0
115149,-133.333333333333,6,1,0,40,0,0
116897,-133.333333333333,6,1,0,60,0,0
116934,-133.333333333333,6,1,0,40,0,0
117362,340.909090909091,6,1,0,40,1,8
117362,-123.101785817844,6,1,0,40,0,0
117702,-128.777915947902,6,1,0,40,0,0
117873,337.078651685393,6,1,0,40,1,0
117873,-133.333326301045,6,1,0,30,0,0
119874,-133.333326301045,6,1,0,80,0,0
119895,297.47149231532,6,1,0,90,1,1
119895,-76.923076923077,6,1,0,90,0,1
120168,-100,6,1,0,70,0,1
120267,-103.782594401432,6,1,0,70,0,1
120366,-107.708269006922,6,1,0,70,0,1
120466,-95.238095238095,6,1,0,70,0,1
120565,-98.580794191765,6,1,0,70,0,1
120664,-102.040816326531,6,1,0,70,0,1
120763,-66.666666666667,6,1,0,90,0,1
121060,-100,6,1,0,70,0,1
121159,-103.782594401432,6,1,0,70,0,1
121258,-107.708269006922,6,1,0,70,0,1
121358,-95.238095238095,6,1,0,70,0,1
121457,-98.580794191765,6,1,0,70,0,1
121556,-102.040816326531,6,1,0,70,0,1
121655,-90.909090909091,6,1,0,70,0,1
121953,-100,6,1,0,70,0,1
122052,-103.782594401432,6,1,0,70,0,1
122151,-107.708269006922,6,1,0,70,0,1
122251,-95.238095238095,6,1,0,70,0,1
122350,-98.580794191765,6,1,0,70,0,1
122449,-102.040816326531,6,1,0,70,0,1
122548,-66.666666666667,6,1,0,90,0,1
122845,-100,6,1,0,70,0,1
122944,-103.782594401432,6,1,0,70,0,1
123043,-107.708269006922,6,1,0,70,0,1
123143,-95.238095238095,6,1,0,70,0,1
123242,-98.580794191765,6,1,0,70,0,1
123341,-102.040816326531,6,1,0,70,0,1
123440,-90.909090909091,6,1,0,70,0,1
123737,-100,6,1,0,70,0,1
123836,-103.782594401432,6,1,0,70,0,1
123935,-107.708269006922,6,1,0,70,0,1
124035,-95.238095238095,6,1,0,70,0,1
124134,-98.580794191765,6,1,0,70,0,1
124233,-102.040816326531,6,1,0,70,0,1
124332,-66.666666666667,6,1,0,90,0,1
124629,-100,6,1,0,70,0,1
124728,-103.782594401432,6,1,0,70,0,1
124827,-107.708269006922,6,1,0,70,0,1
124927,-95.238095238095,6,1,0,70,0,1
125026,-98.580794191765,6,1,0,70,0,1
125125,-102.040816326531,6,1,0,70,0,1
125224,-90.909090909091,6,1,0,70,0,1
125522,-100,6,1,0,70,0,1
125621,-103.782594401432,6,1,0,70,0,1
125720,-107.708269006922,6,1,0,70,0,1
125820,-95.238095238095,6,1,0,70,0,1
125919,-98.580794191765,6,1,0,70,0,1
126018,-102.040816326531,6,1,0,70,0,1
126117,-66.666666666667,6,1,0,90,0,1
126316,-117.647058823529,6,1,0,70,0,1
126415,-115.795144521846,6,1,0,70,0,1
126564,-113.062727918904,6,1,0,70,0,1
126712,-110.412482229968,6,1,0,70,0,1
127010,-105.263157894737,6,1,0,70,0,1
127307,-100,6,1,0,70,0,1
127406,-103.782594401432,6,1,0,70,0,1
127505,-107.708269006922,6,1,0,70,0,1
127605,-95.238095238095,6,1,0,70,0,1
127704,-98.580794191765,6,1,0,70,0,1
127803,-102.040816326531,6,1,0,70,0,1
127902,-66.666666666667,6,1,0,90,0,1
128199,-100,6,1,0,70,0,1
128298,-103.782594401432,6,1,0,70,0,1
128397,-107.708269006922,6,1,0,70,0,1
128497,-95.238095238095,6,1,0,70,0,1
128596,-98.580794191765,6,1,0,70,0,1
128695,-102.040816326531,6,1,0,70,0,1
128794,-90.909090909091,6,1,0,70,0,1
128894,-93.186066089933,6,1,0,70,0,1
128993,-95.520072046491,6,1,0,70,0,1
129092,-97.912537213035,6,1,0,70,0,1
129191,-100.364925801436,6,1,0,70,0,1
129290,-102.878738697283,6,1,0,70,0,1
129390,-105.481868978983,6,1,0,70,0,1
129489,-108.123844553618,6,1,0,70,0,1
129588,-110.831992969182,6,1,0,70,0,1
129687,-66.666666666667,6,1,0,90,0,1
129984,-100,6,1,0,70,0,1
130083,-103.782594401432,6,1,0,70,0,1
130182,-107.708269006922,6,1,0,70,0,1
130282,-95.238095238095,6,1,0,70,0,1
130381,-98.580794191765,6,1,0,70,0,1
130480,-102.040816326531,6,1,0,70,0,1
130579,-90.909090909091,6,1,0,70,0,1
130877,-100,6,1,0,70,0,1
130976,-103.782594401432,6,1,0,70,0,1
131075,-107.708269006922,6,1,0,70,0,1
131175,-95.238095238095,6,1,0,70,0,1
131274,-98.580794191765,6,1,0,70,0,1
131373,-102.040816326531,6,1,0,70,0,1
131472,-66.666666666667,6,1,0,90,0,1
131769,-100,6,1,0,70,0,1
131868,-103.782594401432,6,1,0,70,0,1
131967,-107.708269006922,6,1,0,70,0,1
132067,-95.238095238095,6,1,0,70,0,1
132166,-98.580794191765,6,1,0,70,0,1
132265,-102.040816326531,6,1,0,70,0,1
132364,-90.909090909091,6,1,0,70,0,1
132438,-92.361270214443,6,1,0,70,0,1
132512,-93.836646591878,6,1,0,70,0,1
132586,-95.335590590786,6,1,0,70,0,1
132661,-96.879223970228,6,1,0,70,0,1
132760,-98.95515653943,6,1,0,70,0,1
132859,-101.075572289394,6,1,0,70,0,1
132958,-103.241424407809,6,1,0,70,0,1
133057,-105.453686507316,6,1,0,70,0,1
133157,-107.736423266563,6,1,0,70,0,1
133256,-110.045004413097,6,1,0,70,0,1
133404,-113.588796071448,6,1,0,70,0,1
133752,-122.377685203834,6,1,0,70,0,1
133851,-125,6,1,0,70,0,1
134149,-76.923076923077,6,1,0,90,0,1
134447,-100,6,1,0,70,0,1
134546,-103.782594401432,6,1,0,70,0,1
134645,-107.708269006922,6,1,0,70,0,1
134745,-95.238095238095,6,1,0,70,0,1
134844,-98.580794191765,6,1,0,70,0,1
134943,-102.040816326531,6,1,0,70,0,1
135042,-66.666666666667,6,1,0,90,0,1
135339,-100,6,1,0,70,0,1
135438,-103.782594401432,6,1,0,70,0,1
135537,-107.708269006922,6,1,0,70,0,1
135637,-95.238095238095,6,1,0,70,0,1
135736,-98.580794191765,6,1,0,70,0,1
135835,-102.040816326531,6,1,0,70,0,1
135934,-90.909090909091,6,1,0,70,0,1
136231,-100,6,1,0,70,0,1
136330,-103.782594401432,6,1,0,70,0,1
136429,-107.708269006922,6,1,0,70,0,1
136529,-95.238095238095,6,1,0,70,0,1
136628,-98.580794191765,6,1,0,70,0,1
136727,-102.040816326531,6,1,0,70,0,1
136826,-66.666666666667,6,1,0,90,0,1
137123,-100,6,1,0,70,0,1
137222,-103.782594401432,6,1,0,70,0,1
137321,-107.708269006922,6,1,0,70,0,1
137421,-95.238095238095,6,1,0,70,0,1
137471,-96.878151161912,6,1,0,70,0,1
137520,-98.546449811779,6,1,0,70,0,1
137570,-100.278413354397,6,1,0,70,0,1
137619,-102.040816326531,6,1,0,70,0,1
137718,-90.909090909091,6,1,0,70,0,1
138016,-100,6,1,0,70,0,1
138115,-103.782594401432,6,1,0,70,0,1
138214,-107.708269006922,6,1,0,70,0,1
138314,-95.238095238095,6,1,0,70,0,1
138413,-98.580794191765,6,1,0,70,0,1
138512,-102.040816326531,6,1,0,70,0,1
138611,-66.666666666667,6,1,0,90,0,1
138908,-100,6,1,0,70,0,1
139007,-103.782594401432,6,1,0,70,0,1
139106,-107.708269006922,6,1,0,70,0,1
139206,-95.238095238095,6,1,0,70,0,1
139305,-98.580794191765,6,1,0,70,0,1
139404,-102.040816326531,6,1,0,70,0,1
139503,-90.909090909091,6,1,0,70,0,1
139801,-100,6,1,0,70,0,1
139900,-103.782594401432,6,1,0,70,0,1
139999,-107.708269006922,6,1,0,70,0,1
140099,-111.42061281337,6,1,0,70,0,1
140396,-117.647058823529,6,1,0,70,0,1
140544,-115.495854542583,6,1,0,70,0,1
140693,-113.369848298756,6,1,0,70,0,1
140866,-110.950447192323,6,1,0,70,0,1
140990,-109.248141277905,6,1,0,70,0,1
141288,-76.923076923077,6,1,0,90,0,1
141586,-100,6,1,0,70,0,1
141685,-103.782594401432,6,1,0,70,0,1
141734,-105.706675384291,6,1,0,70,0,1
141784,-107.671712163627,6,1,0,70,0,1
141834,-109.73948383399,6,1,0,70,0,1
141884,-95.238095238095,6,1,0,70,0,1
141983,-98.580794191765,6,1,0,70,0,1
142082,-102.040816326531,6,1,0,70,0,1
142181,-66.666666666667,6,1,0,90,0,1
142478,-100,6,1,0,70,0,1
142552,-102.815498873896,6,1,0,70,0,1
142627,-105.710268086881,6,1,0,70,0,1
142776,-95.238095238095,6,1,0,70,0,1
142825,-96.869839473669,6,1,0,70,0,1
142875,-98.563706798314,6,1,0,70,0,1
142924,-100.287193109932,6,1,0,70,0,1
143073,-90.909090909091,6,1,0,70,0,1
143370,-100,6,1,0,70,0,1
143469,-103.782594401432,6,1,0,70,0,1
143568,-107.708269006922,6,1,0,70,0,1
143668,-111.42061281337,6,1,0,70,0,1
143965,-66.666666666667,6,1,0,90,0,1
144262,-100,6,1,0,70,0,1
144560,-95.238095238095,6,1,0,70,0,1
144857,-90.909090909091,6,1,0,70,0,1
145155,-94.598429666068,6,1,0,70,0,1
145303,-96.639101112248,6,1,0,70,0,1
145452,-98.738031431739,6,1,0,70,0,1
145601,-100.882548976642,6,1,0,70,0,1
145750,-103.073643868021,6,1,0,70,0,1
145849,-104.555722777367,6,1,0,70,0,1
145948,-106.059112254683,6,1,0,70,0,1
146047,-107.584118721107,6,1,0,70,0,1
146146,-109.131053003757,6,1,0,70,0,1
146245,-110.700230399083,6,1,0,70,0,1
146344,-112.29197073713,6,1,0,70,0,1
146444,-113.923025698846,6,1,0,70,0,1
146543,-115.561106078475,6,1,0,70,0,1
146642,-117.222740145462,6,1,0,70,0,1
146939,-122.352375635141,6,1,0,70,0,1
147051,-124.344548620044,6,1,0,70,0,1
147163,-126.369158680085,6,1,0,70,0,1
147535,-133.314107191217,6,1,0,70,0,1
147709,-130.842291613461,6,1,0,70,0,1
147833,-129.097825949764,6,1,0,70,0,1
148031,-126.36039982564,6,1,0,70,0,1
148130,-125.013531235831,6,1,0,70,0,1
148427,-83.333333333333,6,1,0,70,0,1
148452,-83.333333333333,6,1,0,70,0,0
148725,-91.273107766296,6,1,0,70,0,0
149022,-100,6,1,0,70,0,0
149320,-57.142857142857,6,1,0,90,0,0
149344,-57.142857142857,6,1,0,90,0,1
149617,-80,6,1,0,70,0,1
149716,-82.402683661385,6,1,0,70,0,1
149815,-84.858392570678,6,1,0,70,0,1
149915,-76.923076923077,6,1,0,70,0,1
150014,-79.089122838413,6,1,0,70,0,1
150113,-81.30081300813,6,1,0,70,0,1
150212,-74.074074074074,6,1,0,70,0,1
150510,-80,6,1,0,70,0,1
150609,-82.402683661385,6,1,0,70,0,1
150708,-84.858392570678,6,1,0,70,0,1
150808,-76.923076923077,6,1,0,70,0,1
150907,-79.089122838413,6,1,0,70,0,1
151006,-81.30081300813,6,1,0,70,0,1
151105,-57.142857142857,6,1,0,90,0,1
151402,-80,6,1,0,70,0,1
151501,-82.402683661385,6,1,0,70,0,1
151600,-84.858392570678,6,1,0,70,0,1
151700,-76.923076923077,6,1,0,70,0,1
151799,-79.089122838413,6,1,0,70,0,1
151898,-81.30081300813,6,1,0,70,0,1
151997,-74.074074074074,6,1,0,70,0,1
152295,-80,6,1,0,70,0,1
152394,-82.402683661385,6,1,0,70,0,1
152493,-84.858392570678,6,1,0,70,0,1
152593,-76.923076923077,6,1,0,70,0,1
152692,-79.089122838413,6,1,0,70,0,1
152791,-81.30081300813,6,1,0,70,0,1
152890,-57.142857142857,6,1,0,90,0,1
153187,-80,6,1,0,70,0,1
153286,-82.402683661385,6,1,0,70,0,1
153385,-84.858392570678,6,1,0,70,0,1
153485,-76.923076923077,6,1,0,70,0,1
153633,-80.177983524278,6,1,0,70,0,1
153683,-81.278203048484,6,1,0,70,0,1
153782,-74.074074074074,6,1,0,70,0,1
154079,-80,6,1,0,70,0,1
154178,-82.402683661385,6,1,0,70,0,1
154277,-84.858392570678,6,1,0,70,0,1
154377,-76.923076923077,6,1,0,70,0,1
154476,-79.089122838413,6,1,0,70,0,1
154575,-81.30081300813,6,1,0,70,0,1
154674,-57.142857142857,6,1,0,90,0,1
154823,-90.702947845805,6,1,0,70,0,1
155145,-87.380651292081,6,1,0,70,0,1
155269,-86.124755757578,6,1,0,70,0,1
155566,-83.169905257186,6,1,0,70,0,1
155864,-80,6,1,0,70,0,1
155963,-82.402683661385,6,1,0,70,0,1
156062,-84.858392570678,6,1,0,70,0,1
156162,-76.923076923077,6,1,0,70,0,1
156261,-79.089122838413,6,1,0,70,0,1
156360,-81.30081300813,6,1,0,70,0,1
156459,-57.142857142857,6,1,0,90,0,1
156756,-80,6,1,0,70,0,1
156855,-82.402683661385,6,1,0,70,0,1
156954,-84.858392570678,6,1,0,70,0,1
157054,-76.923076923077,6,1,0,70,0,1
157153,-79.089122838413,6,1,0,70,0,1
157252,-81.30081300813,6,1,0,70,0,1
157351,-74.074074074074,6,1,0,70,0,1
157451,-75.775086567878,6,1,0,70,0,1
157550,-77.515160548988,6,1,0,70,0,1
157649,-79.295193012454,6,1,0,70,0,1
157947,-84.903792083882,6,1,0,70,0,1
158046,-86.853494633814,6,1,0,70,0,1
158145,-88.8479695071,6,1,0,70,0,1
158244,-57.142857142857,6,1,0,90,0,1
158542,-80,6,1,0,70,0,1
158641,-82.402683661385,6,1,0,70,0,1
158740,-84.858392570678,6,1,0,70,0,1
158840,-76.923076923077,6,1,0,70,0,1
158939,-79.089122838413,6,1,0,70,0,1
159038,-81.30081300813,6,1,0,70,0,1
159137,-74.074074074074,6,1,0,70,0,1
159434,-80,6,1,0,70,0,1
159533,-82.402683661385,6,1,0,70,0,1
159632,-84.858392570678,6,1,0,70,0,1
159732,-76.923076923077,6,1,0,70,0,1
159831,-79.089122838413,6,1,0,70,0,1
159930,-81.30081300813,6,1,0,70,0,1
160029,-57.142857142857,6,1,0,90,0,1
160326,-80,6,1,0,70,0,1
160401,-81.783204157301,6,1,0,70,0,1
160475,-83.606156027934,6,1,0,70,0,1
160549,-85.219974071409,6,1,0,70,0,1
160624,-76.923076923077,6,1,0,70,0,1
160723,-79.089122838413,6,1,0,70,0,1
160822,-81.30081300813,6,1,0,70,0,1
160921,-74.074074074074,6,1,0,70,0,1
161219,-100,6,1,0,70,0,1
161516,-95.547941986549,6,1,0,70,0,1
161664,-93.403963015624,6,1,0,70,0,1
161813,-91.294092178649,6,1,0,70,0,1
161962,-89.231880507356,6,1,0,70,0,1
162110,-87.229626232002,6,1,0,70,0,1
162309,-84.608041383221,6,1,0,70,0,1
162408,-83.333333333333,6,1,0,70,0,1
162706,-64.516129032258,6,1,0,90,0,1
163004,-80,6,1,0,70,0,1
163103,-82.402683661385,6,1,0,70,0,1
163202,-84.858392570678,6,1,0,70,0,1
163302,-76.923076923077,6,1,0,70,0,1
163401,-79.089122838413,6,1,0,70,0,1
163500,-81.30081300813,6,1,0,70,0,1
163599,-57.142857142857,6,1,0,90,0,1
163896,-80,6,1,0,70,0,1
163995,-82.402683661385,6,1,0,70,0,1
164094,-84.858392570678,6,1,0,70,0,1
164194,-76.923076923077,6,1,0,70,0,1
164243,-78.000324004649,6,1,0,70,0,1
164293,-79.070661216838,6,1,0,70,0,1
164342,-80.177983524278,6,1,0,70,0,1
164392,-81.278203048484,6,1,0,70,0,1
164491,-74.074074074074,6,1,0,70,0,1
164788,-80,6,1,0,70,0,1
164887,-82.402683661385,6,1,0,70,0,1
164986,-84.858392570678,6,1,0,70,0,1
165086,-76.923076923077,6,1,0,70,0,1
165185,-79.089122838413,6,1,0,70,0,1
165284,-81.30081300813,6,1,0,70,0,1
165383,-57.142857142857,6,1,0,90,0,1
165680,-80,6,1,0,70,0,1
165779,-82.402683661385,6,1,0,70,0,1
165878,-84.858392570678,6,1,0,70,0,1
165978,-76.923076923077,6,1,0,70,0,1
166077,-79.081658385071,6,1,0,70,0,1
166127,-80.172352207133,6,1,0,70,0,1
166275,-74.074074074074,6,1,0,70,0,1
166573,-80,6,1,0,70,0,1
166672,-82.402683661385,6,1,0,70,0,1
166771,-84.858392570678,6,1,0,70,0,1
166871,-76.923076923077,6,1,0,70,0,1
166970,-79.089122838413,6,1,0,70,0,1
167069,-81.30081300813,6,1,0,70,0,1
167168,-57.142857142857,6,1,0,80,0,1
167465,-80,6,1,0,70,0,1
167564,-82.402683661385,6,1,0,70,0,1
167663,-84.858392570678,6,1,0,70,0,1
167763,-76.923076923077,6,1,0,70,0,1
167887,-79.614009132853,6,1,0,70,0,1
167937,-80.734611011722,6,1,0,70,0,1
168060,-74.074074074074,6,1,0,70,0,1
168160,-75.317314598897,6,1,0,70,0,1
168259,-76.581421358254,6,1,0,70,0,1
168358,-77.866744565749,6,1,0,70,0,1
168458,-79.186952565283,6,1,0,70,0,1
168557,-80.516006349579,6,1,0,70,0,1
168656,-81.867366636453,6,1,0,70,0,1
168755,-83.241407812603,6,1,0,70,0,1
168854,-84.638510548338,6,1,0,70,0,1
168953,-86.059061903041,6,1,0,70,0,1
169102,-88.242135380865,6,1,0,70,0,1
169251,-90.48058721983,6,1,0,70,0,1
169449,-93.543281657425,6,1,0,70,0,1
169548,-95.113288438274,6,1,0,70,0,1
169845,-64.516129032258,6,1,0,90,0,1
170143,-109.935928470309,6,1,0,70,0,1
170441,-104.559540091863,6,1,0,70,0,1
170738,-99.493415831676,6,1,0,70,0,1
171036,-94.684558022213,6,1,0,70,0,1
171333,-90.147923102507,6,1,0,70,0,1
171631,-76.923076923077,6,1,0,90,0,1
171655,-76.923076923077,6,1,0,90,0,0
171680,-133.333333333333,6,1,0,50,0,0
175200,-117.647058823529,6,1,0,70,0,0
175497,-120.302948103062,6,1,0,50,0,0
175645,-121.648720726038,6,1,0,50,0,0
175794,-123.018794239449,6,1,0,50,0,0
175943,-124.404298259822,6,1,0,50,0,0
176092,-125.801987671405,6,1,0,50,0,0
176247,-127.208692078418,6,1,0,50,0,0
176389,-128.640791043493,6,1,0,50,0,0
176538,-130.094345723795,6,1,0,50,0,0
176687,-131.559538421728,6,1,0,50,0,0
176984,-134.529502747302,6,1,0,50,0,0
177281,-137.566514192385,6,1,0,50,0,0
177430,-139.1158624823,6,1,0,50,0,0
177579,-140.682660368416,6,1,0,50,0,0
177728,-142.267104377499,6,1,0,50,0,0
177876,-143.85857970907,6,1,0,50,0,0
178174,-147.117253272774,6,1,0,50,0,0
178323,-148.774167138138,6,1,0,50,0,0
178471,-150.438433927087,6,1,0,50,0,0
178769,-133.333333333333,6,1,0,70,0,0
178812,-133.333333333333,6,1,0,50,0,0
179668,-133.333333333333,6,1,0,60,0,0
179705,-133.333333333333,6,1,0,50,0,0
181453,-133.333333333333,6,1,0,60,0,0
181490,-133.333333333333,6,1,0,50,0,0
182339,-117.647058823529,6,1,0,70,0,0
182636,-120.302195824005,6,1,0,50,0,0
182785,-121.656722392867,6,1,0,50,0,0
182933,-123.017255720656,6,1,0,50,0,0
183082,-124.402352145213,6,1,0,50,0,0
183231,-125.803043878689,6,1,0,50,0,0
183528,-128.642250569574,6,1,0,50,0,0
183677,-130.090680875283,6,1,0,50,0,0
183826,-131.555419589319,6,1,0,50,0,0
183975,-133.036650334037,6,1,0,50,0,0
184124,-134.534558799262,6,1,0,50,0,0
184421,-137.570824121002,6,1,0,50,0,0
184570,-139.119784512755,6,1,0,50,0,0
184718,-140.675613896134,6,1,0,50,0,0
184867,-142.259532255297,6,1,0,50,0,0
185016,-143.861284532502,6,1,0,50,0,0
185313,-147.108041598236,6,1,0,50,0,0
185462,-148.764385021341,6,1,0,50,0,0
185611,-150.439377822858,6,1,0,50,0,0
185759,-152.121798517037,6,1,0,50,0,0
185908,-133.333333333333,6,1,0,70,0,0
185952,-133.333333333333,6,1,0,50,0,0
186807,-133.333333333333,6,1,0,60,0,0
186844,-133.333333333333,6,1,0,50,0,0
188592,-133.333333333333,6,1,0,60,0,0
188629,-133.333333333333,6,1,0,50,0,0
189479,-117.647058823529,6,1,0,70,0,0
189776,-120.302195824005,6,1,0,50,0,0
189925,-121.656722392867,6,1,0,50,0,0
190074,-123.026500073426,6,1,0,50,0,0
190223,-124.411700583543,6,1,0,50,0,0
190371,-125.803043878689,6,1,0,50,0,0
190669,-128.651917622691,6,1,0,50,0,0
190817,-130.090680875283,6,1,0,50,0,0
190966,-131.555419589319,6,1,0,50,0,0
191264,-134.534558799262,6,1,0,50,0,0
191561,-137.570824121002,6,1,0,50,0,0
191710,-139.119784512755,6,1,0,50,0,0
191859,-140.686185217964,6,1,0,50,0,0
192007,-142.259532255297,6,1,0,50,0,0
192156,-143.861284532502,6,1,0,50,0,0
192454,-147.119096296407,6,1,0,50,0,0
192627,-149.044116367029,6,1,0,50,0,0
192751,-150.439377822858,6,1,0,50,0,0
193048,-133.333333333333,6,1,0,70,0,0
193165,-133.333333333333,6,1,0,50,0,0
193946,-133.333333333333,6,1,0,60,0,0
193983,-133.333333333333,6,1,0,50,0,0
194833,-133.333333333333,6,1,0,50,0,0
195130,-137.199206717105,6,1,0,50,0,0
195279,-139.180672053938,6,1,0,50,0,0
195427,-141.177167428522,6,1,0,50,0,0
195576,-143.216083471154,6,1,0,50,0,0
195725,-145.284446050395,6,1,0,50,0,0
195768,-145.284446050395,6,1,0,60,0,0
196022,-149.496830598361,6,1,0,50,0,0
196171,-151.655901302086,6,1,0,50,0,0
196320,-153.846153846154,6,1,0,50,0,0
196618,-166.666666666667,6,1,0,50,0,0
196692,-170.319385404189,6,1,0,41,0,0
196766,-174.052158266765,6,1,0,42,0,0
196840,-177.866739745608,6,1,0,43,0,0
196915,-143.884892086331,6,1,0,45,0,0
196989,-146.599143227642,6,1,0,46,0,0
197063,-149.356180910679,6,1,0,47,0,0
197137,-152.156361578383,6,1,0,49,0,0
197213,-125.391849529781,6,1,0,50,0,0
197287,-127.448244666776,6,1,0,51,0,0
197361,-129.526897158721,6,1,0,53,0,0
197435,-131.627673931265,6,1,0,54,0,0
197510,-111.731843575419,6,1,0,55,0,0
197584,-113.361689976776,6,1,0,57,0,0
197658,-115.003279634004,6,1,0,58,0,0
197732,-116.656350027872,6,1,0,59,0,0
197808,-100.250626566416,6,1,0,60,0,0
197882,-101.560762780092,6,1,0,62,0,0
197956,-102.87638045596,6,1,0,63,0,0
198030,-104.197203007281,6,1,0,64,0,0
198105,-91.324200913242,6,1,0,66,0,0
198179,-92.410148717528,6,1,0,67,0,0
198253,-93.498102727553,6,1,0,68,0,0
198327,-94.587812176587,6,1,0,70,0,0
198403,-66.666666666667,6,1,0,90,0,0
198427,297.47149231532,6,1,0,90,1,9
198427,-66.666666666667,6,1,0,90,0,1
199295,-166.666666666667,6,1,0,60,0,1
199319,297.47149231532,6,1,0,60,1,1
199319,-166.666666666667,6,1,0,60,0,1
199592,-149.099154294618,6,1,0,60,0,1
199889,-133.383346868222,6,1,0,60,0,1
200175,-133.383346868222,6,1,0,90,0,1
200205,297.47149231532,6,1,0,90,1,8
200205,-76.923076923077,6,1,0,60,0,0
200477,-100,6,1,0,60,0,0
200626,-101.022644067219,6,1,0,60,0,0
201072,-104.146641284934,6,1,0,60,0,0
201097,297.47149231532,6,1,0,60,1,0
201097,-104.146641284934,6,1,0,60,0,0
201518,-107.367244156822,6,1,0,60,0,0
201568,-107.734450703276,6,1,0,60,0,0
201617,-108.095531548288,6,1,0,60,0,0
201964,-110.687440090285,6,1,0,60,0,0
202262,-112.962892871081,6,1,0,60,0,0
202336,-113.535151371185,6,1,0,60,0,0
202411,-114.118101193186,6,1,0,60,0,0
202460,-114.50057736623,6,1,0,60,0,0
202510,-114.892180614612,6,1,0,60,0,0
202559,-115.277251178306,6,1,0,60,0,0
202609,-115.671510727597,6,1,0,60,0,0
202658,-116.059193280065,6,1,0,60,0,0
202708,-116.456127148334,6,1,0,60,0,0
202782,-117.046082017194,6,1,0,60,0,0
202857,-117.647058823529,6,1,0,60,0,0
203304,-114.343392405613,6,1,0,60,0,0
203354,-113.248385281244,6,1,0,60,0,0
203750,-114.321388843059,6,1,0,60,0,0
203799,-113.248385281244,6,1,0,60,0,0
203848,-112.185452771357,6,1,0,60,0,0
203898,-111.111111111111,6,1,0,60,0,0
204196,-114.354321923337,6,1,0,60,0,0
204307,-111.923920412167,6,1,0,60,0,0
204369,-110.075901447236,6,1,0,60,0,0
204642,-114.354321923337,6,1,0,60,0,0
204753,-111.923920412167,6,1,0,60,0,0
204815,-110.075901447236,6,1,0,60,0,0
205088,-114.354321923337,6,1,0,60,0,0
205199,-111.923920412167,6,1,0,60,0,0
205261,-110.075901447236,6,1,0,60,0,0
205535,-114.475369482823,6,1,0,60,0,0
205585,-113.423292434232,6,1,0,60,0,0
205634,-112.401638398468,6,1,0,60,0,0
205684,-111.368619815367,6,1,0,60,0,0
205832,-108.366193168328,6,1,0,60,0,0
205981,-105.425240576428,6,1,0,60,0,0
206056,-103.975231136983,6,1,0,60,0,0
206130,-102.564102564103,6,1,0,60,0,0
206427,-124.610591900312,6,1,0,60,0,0
206724,-114.373482205815,6,1,0,60,0,0
207021,-105.016987437229,6,1,0,60,0,0
207320,-76.923076923077,6,1,0,90,0,0
207362,-76.923076923077,6,1,0,60,0,0
207790,-101.783360677452,6,1,0,60,0,0
208087,-105.45865522199,6,1,0,60,0,0
208236,-107.352184306103,6,1,0,60,0,0
208311,-108.318128766667,6,1,0,60,0,0
208385,-109.279712044806,6,1,0,60,0,0
208435,-109.934258341127,6,1,0,60,0,0
208484,-110.579517226688,6,1,0,60,0,0
208534,-111.241848890044,6,1,0,60,0,0
208608,-112.229387199096,6,1,0,60,0,0
208682,-113.22569228002,6,1,0,60,0,0
208831,-115.258679908677,6,1,0,60,0,0
209129,-119.434818551131,6,1,0,60,0,0
209277,-121.564772140358,6,1,0,60,0,0
209575,-125.969397830144,6,1,0,60,0,0
209649,-127.087678471527,6,1,0,60,0,0
209724,-128.23120097942,6,1,0,60,0,0
209798,-129.369560550449,6,1,0,60,0,0
209872,-130.518025793912,6,1,0,60,0,0
209947,-131.692414231691,6,1,0,60,0,0
210021,-132.861500374747,6,1,0,60,0,0
210467,-140.130687181907,6,1,0,60,0,0
210765,-145.208006982877,6,1,0,60,0,0
210913,335.289186923722,6,1,0,60,1,8
210913,-131.127308129322,6,1,0,60,0,0
210968,-131.991512522598,6,1,0,60,0,0
211024,-132.877281836566,6,1,0,60,0,0
211080,-133.768995375753,6,1,0,60,0,0
211248,-136.480201590288,6,1,0,60,0,0
211311,-137.511011449227,6,1,0,60,0,0
211374,-138.549606825428,6,1,0,60,0,0
211709,-144.205494183871,6,1,0,60,0,0
211876,-144.205494183871,6,1,0,30,0,0
211918,454.545454545455,6,1,0,30,1,8
211919,454.545454545455,6,1,0,30,1,0
211919,-109.072882423768,6,1,0,30,0,0
212345,-109.072882423768,6,1,0,25,0,0
212799,-109.072882423768,6,1,0,20,0,0
213254,-109.072882423768,6,1,0,15,0,0
213708,-109.072882423768,6,1,0,10,0,0
214163,-109.072882423768,6,1,0,5,0,0
214646,454.545454545455,6,1,0,5,1,8
215100,469.851213782302,6,1,0,5,1,0
215100,-250,6,1,0,5,0,0
219269,-250,6,1,0,30,0,0
219387,-250,6,1,0,5,0,0
221619,-250,6,1,0,30,0,0
222206,-250,6,1,0,5,0,0
223968,-250,6,1,0,30,0,0
225025,-250,6,1,0,5,0,0
226317,-250,6,1,0,30,0,0
237379,-400,6,1,0,60,0,0
237614,-181.818181818182,6,1,0,60,0,0
237946,-181.818181818182,6,1,0,40,0,0
239003,-181.818181818182,6,1,0,60,0,0
239121,-181.818181818182,6,1,0,40,0,0
241852,-181.818181818182,6,1,0,60,0,0
241969,-181.818181818182,6,1,0,40,0,0
243026,-181.818181818182,6,1,0,45,0,0
243261,-181.818181818182,6,1,0,50,0,0
243349,-181.818181818182,6,1,0,40,0,0
244641,-181.818181818182,6,1,0,60,0,0
244759,-181.818181818182,6,1,0,40,0,0
247461,-181.818181818182,6,1,0,60,0,0
247578,-181.818181818182,6,1,0,40,0,0
247950,-222.222222222222,6,1,0,60,0,0
248499,-181.818181818182,6,1,0,40,0,0
254528,-181.818181818182,6,1,0,30,0,0
254762,-177.541277454221,6,1,0,31,0,0
254997,-173.347343644296,6,1,0,32,0,0
255232,-169.25248020862,6,1,0,32,0,0
255467,-165.254346876817,6,1,0,33,0,0
255702,-161.350658661087,6,1,0,34,0,0
255937,-157.539184550302,6,1,0,35,0,0
256171,-153.833394407863,6,1,0,36,0,0
256406,-150.199495389259,6,1,0,37,0,0
256641,-146.651437433502,6,1,0,37,0,0
256876,-143.187192777016,6,1,0,38,0,0
257111,-139.80478155667,6,1,0,39,0,0
257347,-136.488385454299,6,1,0,40,0,0
257581,-133.277772711712,6,1,0,41,0,0
257816,-130.129444812408,6,1,0,42,0,0
258051,-127.055487667956,6,1,0,42,0,0
258286,-124.054144469868,6,1,0,43,0,0
258521,-121.123699909517,6,1,0,44,0,0
258756,-118.262479197817,6,1,0,45,0,0
258991,-115.468847108055,6,1,0,46,0,0
259226,-112.741207041343,6,1,0,47,0,0
259460,-110.089198559179,6,1,0,47,0,0
259695,-107.488638179276,6,1,0,48,0,0
259930,-104.949509024034,6,1,0,49,0,0
260166,-102.459936501567,6,1,0,50,0,0
260400,-100.049774079016,6,1,0,51,0,0
260635,-97.686368023804,6,1,0,52,0,0
260870,-95.378791061994,6,1,0,52,0,0
261105,-93.125724381836,6,1,0,53,0,0
261340,-90.925880324955,6,1,0,54,0,0
261575,-88.778001650429,6,1,0,55,0,0
261810,-86.680860816263,6,1,0,56,0,0
262045,-84.633259277829,6,1,0,57,0,0
262280,-82.634026802886,6,1,0,57,0,0
262514,-80.690228738739,6,1,0,58,0,0
262749,-78.784139725015,6,1,0,59,0,0
263024,469.851213782302,6,1,0,60,1,8
263024,-76.923076923077,6,1,0,60,0,0
263229,-76.923076923077,6,1,0,70,0,0
263269,468.749999999999,6,1,0,70,1,0
263269,-62.5,6,1,0,70,0,0
263464,-63.262133244334,6,1,0,70,0,0
263698,-64.033560041982,6,1,0,70,0,0
263933,-64.817750965842,6,1,0,70,0,0
264128,-65.608147171187,6,1,0,70,0,0
264401,-66.40818157212,6,1,0,70,0,0
264636,-67.221453444319,6,1,0,70,0,0
264870,-68.041160714757,6,1,0,70,0,0
265105,-68.875266891659,6,1,0,70,0,0
265339,-67.248425160869,6,1,0,70,0,0
265456,-66.449471351733,6,1,0,70,0,0
265573,-65.660009618992,6,1,0,70,0,0
265808,-64.102564102564,6,1,0,70,0,0
266049,-64.102564102564,6,1,0,90,0,0
266081,468.749999999999,6,1,0,90,1,8
266093,703.812316715542,2,1,0,90,1,1
266093,-28.571428571429,2,1,0,90,0,1
266152,-29.250151190669,2,1,0,90,0,1
266230,-29.944997063695,2,1,0,90,0,1
266308,-30.656349203103,2,1,0,90,0,1
266386,-31.384599720065,2,1,0,90,0,1
266465,-32.1398224756,2,1,0,90,0,1
266543,-32.90331333284,2,1,0,90,0,1
266621,-33.684941138084,2,1,0,90,0,1
266699,-34.485136739821,2,1,0,90,0,1
266777,-35.304341221474,2,1,0,90,0,1
266856,-36.153886606709,2,1,0,90,0,1
266934,-37.012732728179,2,1,0,90,0,1
267012,-37.891980989767,2,1,0,90,0,1
267090,-38.792116050263,2,1,0,90,0,1
267168,-39.713634081667,2,1,0,90,0,1
267247,-40.669282406991,2,1,0,90,0,1
267325,-41.635393072718,2,1,0,90,0,1
267403,-42.624453979098,2,1,0,90,0,1
267482,-43.650146767103,2,1,0,90,0,1
267657,-46.011003717117,2,1,0,90,0,1
267745,-47.246002317397,2,1,0,90,0,1
267833,-48.514149978107,2,1,0,90,0,1
267950,-50.253077816512,2,1,0,90,0,1
268068,-52.070005701934,2,1,0,90,0,1
268185,-53.936388654162,2,1,0,90,0,1
268420,-57.889668602487,2,1,0,90,0,1
268654,-62.114006357541,2,1,0,90,0,1
268864,-62.114006357541,2,1,0,70,0,1
268908,469.116497263487,6,1,0,70,1,0
268908,-62.5,6,1,0,70,0,0
269103,-63.261538858562,6,1,0,70,0,0
269338,-64.035670947126,6,1,0,70,0,0
269572,-64.815921375292,6,1,0,70,0,0
269807,-65.609074458378,6,1,0,70,0,0
270041,-66.408496213167,6,1,0,70,0,0
270276,-67.221137650594,6,1,0,70,0,0
270510,-68.040201785598,6,1,0,70,0,0
270745,-66.61440430094,6,1,0,70,0,0
270862,-65.912315692331,6,1,0,70,0,0
270980,-65.211720966442,6,1,0,70,0,0
271097,-64.524416067166,6,1,0,70,0,0
271214,-63.844355080757,6,1,0,70,0,0
271449,-62.5,6,1,0,70,0,0
271664,-62.5,6,1,0,90,0,0
271722,703.812316715542,6,1,0,90,1,1
271722,-28.571428571429,6,1,0,90,0,1
271854,-30.116739657657,6,1,0,90,0,1
272030,-31.755186945848,6,1,0,90,0,1
272148,-32.90331333284,6,1,0,90,0,1
272265,-34.08269063938,6,1,0,90,0,1
272382,-35.304341221474,6,1,0,90,0,1
272500,-36.580789248716,6,1,0,90,0,1
272617,-37.891980989767,6,1,0,90,0,1
272734,-39.250170726682,6,1,0,90,0,1
272852,-40.669282406991,6,1,0,90,0,1
272969,-42.127020971459,6,1,0,90,0,1
273086,-43.637010315792,6,1,0,90,0,1
273164,-44.6736202236,6,1,0,90,0,1
273243,-45.748623086977,6,1,0,90,0,1
273321,-46.835394972065,6,1,0,90,0,1
273399,-47.947983440267,6,1,0,90,0,1
273477,-49.087001772043,6,1,0,90,0,1
273555,-50.253077816512,6,1,0,90,0,1
273634,-51.46234185815,6,1,0,90,0,1
273712,-52.684844799188,6,1,0,90,0,1
273790,-53.936388654162,6,1,0,90,0,1
274025,-57.889668602487,6,1,0,90,0,1
274259,-62.114006357541,6,1,0,90,0,1
274493,-62.114006357541,6,1,0,70,0,1
274537,469.116497263487,6,1,0,70,1,0
274537,-62.5,6,1,0,70,0,0
274742,-62.92419446491,6,1,0,70,0,0
274977,-63.353099291521,6,1,0,70,0,0
275211,-63.783083836391,6,1,0,70,0,0
275446,-64.217843037461,6,1,0,70,0,0
275680,-64.6536966945,6,1,0,70,0,0
275915,-65.095690665278,6,1,0,70,0,0
276149,-64.047611743375,6,1,0,70,0,0
276267,-63.525510719816,6,1,0,70,0,0
276384,-63.012036473131,6,1,0,70,0,0
276501,-62.502712618926,6,1,0,70,0,0
276619,-61.993205248624,6,1,0,70,0,0
276736,-61.492116567809,6,1,0,70,0,0
276853,-60.995078167426,6,1,0,70,0,0
276970,-60.502057309212,6,1,0,70,0,0
277088,-60.008858809086,6,1,0,70,0,0
277205,-59.523809523809,6,1,0,70,0,0
277322,-59.523809523809,6,1,0,90,0,0
277351,703.812316715542,6,1,0,90,1,1
277351,-28.571428571429,6,1,0,90,0,1
277410,-29.250151190669,6,1,0,90,0,1
277488,-29.944997063695,6,1,0,90,0,1
277566,-30.656349203103,6,1,0,90,0,1
277644,-31.384599720065,6,1,0,90,0,1
277723,-32.1398224756,6,1,0,90,0,1
277801,-32.90331333284,6,1,0,90,0,1
277879,-33.684941138084,6,1,0,90,0,1
277957,-34.485136739821,6,1,0,90,0,1
278035,-35.304341221474,6,1,0,90,0,1
278114,-36.153886606709,6,1,0,90,0,1
278192,-37.012732728179,6,1,0,90,0,1
278270,-37.891980989767,6,1,0,90,0,1
278348,-38.792116050263,6,1,0,90,0,1
278426,-39.713634081667,6,1,0,90,0,1
278505,-40.669282406991,6,1,0,90,0,1
278583,-41.635393072718,6,1,0,90,0,1
278661,-42.624453979098,6,1,0,90,0,1
278739,-43.637010315792,6,1,0,90,0,1
278856,-45.201123302563,6,1,0,90,0,1
278974,-46.835394972065,6,1,0,90,0,1
279052,-47.947983440267,6,1,0,90,0,1
279208,-50.253077816512,6,1,0,90,0,1
279287,-51.46234185815,6,1,0,90,0,1
279365,-52.684844799188,6,1,0,90,0,1
279443,-53.936388654162,6,1,0,90,0,1
279678,-57.889668602487,6,1,0,90,0,1
279912,-62.114006357541,6,1,0,90,0,1
280122,-62.114006357541,6,1,0,50,0,1
280166,471.327572663001,6,1,0,50,1,0
280166,-99.552015928323,6,1,0,53,0,0
280362,-97.608815287578,6,1,0,56,0,0
280598,-95.695517305592,6,1,0,59,0,0
280833,-93.827593398571,6,1,0,62,0,0
281069,-91.988413765306,6,1,0,65,0,0
281305,-90.185285165653,6,1,0,68,0,0
281549,-90.185285165653,6,1,0,71,0,0
281579,471.327572663001,6,1,0,71,1,8
281579,-88.42491796178,6,1,0,74,0,0
281775,-86.698912158293,6,1,0,60,0,0
281922,-85.636411175327,6,1,0,60,0,0
282129,-84.162277150845,6,1,0,60,0,0
282286,703.152466893238,6,1,0,60,1,0
282286,-55.859680482628,6,1,0,60,0,0
282374,-56.883010464967,6,1,0,60,0,0
282491,-57.92508749784,6,1,0,60,0,0
282569,-58.630389889904,6,1,0,60,0,0
282647,-59.344280123364,6,1,0,60,0,0
282725,-60.066862764744,6,1,0,60,0,0
282803,-60.798243653782,6,1,0,60,0,0
282882,-61.548079057024,6,1,0,60,0,0
282960,-62.297495402533,6,1,0,60,0,0
283038,-63.056036725904,6,1,0,60,0,0
283116,-63.823814133897,6,1,0,60,0,0
283194,-64.600940086119,6,1,0,60,0,0
283311,-65.784406914184,6,1,0,60,0,0
283428,-66.989554444282,6,1,0,60,0,0
283507,-67.815748369485,6,1,0,60,0,0
283585,-68.641480562749,6,1,0,60,0,0
283663,-69.477266964238,6,1,0,60,0,0
283741,-70.323229995123,6,1,0,60,0,0
283819,-71.179493567191,6,1,0,60,0,0
283897,-72.046183100992,6,1,0,60,0,0
283975,-72.92342554421,6,1,0,60,0,0
284053,-73.81134939026,6,1,0,60,0,0
284132,-74.721677709102,6,1,0,60,0,0
284210,-75.631497276129,6,1,0,60,0,0
284288,-76.552394908718,6,1,0,60,0,0
284366,-77.484505494643,6,1,0,60,0,0
284483,-78.903994774824,6,1,0,60,0,0
284600,-80.349488606544,6,1,0,60,0,0
284835,-83.333333333333,6,1,0,60,0,0
285054,-83.333333333333,6,1,0,70,0,0
285098,469.851213782302,6,1,0,70,1,0
285098,-62.5,6,1,0,70,0,0
285304,-63.260352864014,6,1,0,70,0,0
285539,-64.033264824251,6,1,0,70,0,0
285774,-64.815620185784,6,1,0,70,0,0
286009,-65.60753432764,6,1,0,70,0,0
286244,-66.409124038537,6,1,0,70,0,0
286479,-67.220507534114,6,1,0,70,0,0
286714,-65.69041393645,6,1,0,70,0,0
286831,-64.937577408808,6,1,0,70,0,0
286949,-64.187044808624,6,1,0,70,0,0
287066,-63.45143744923,6,1,0,70,0,0
287184,-62.71808129037,6,1,0,70,0,0
287301,-61.999308798166,6,1,0,70,0,0
287419,-61.282735986265,6,1,0,70,0,0
287536,-60.580413084039,6,1,0,70,0,0
287654,-59.880239520958,6,1,0,70,0,0
287872,-59.880239520958,6,1,0,90,0,0
287917,704.804416774345,6,1,0,90,1,1
287917,-26.315789473684,6,1,0,90,0,1
287995,-27.024437304545,6,1,0,90,0,1
288073,-27.752168041837,6,1,0,90,0,1
288151,-28.499495561849,6,1,0,90,0,1
288230,-29.276919709468,6,1,0,90,0,1
288308,-30.065306684032,6,1,0,90,0,1
288386,-30.874923829932,6,1,0,90,0,1
288465,-31.717146152401,6,1,0,90,0,1
288543,-32.571245051637,6,1,0,90,0,1
288621,-33.448343653499,6,1,0,90,0,1
288700,-34.360765068035,6,1,0,90,0,1
288778,-35.286052970058,6,1,0,90,0,1
288856,-36.236257596139,6,1,0,90,0,1
288935,-37.22472918552,6,1,0,90,0,1
289013,-38.227139682005,6,1,0,90,0,1
289091,-39.2565437074,6,1,0,90,0,1
289209,-40.866777839841,6,1,0,90,0,1
289326,-42.528570169322,6,1,0,90,0,1
289444,-44.273017051884,6,1,0,90,0,1
289561,-46.073319498731,6,1,0,90,0,1
289639,-47.314010299817,6,1,0,90,0,1
289718,-48.604666622065,6,1,0,90,0,1
289796,-49.91352310178,6,1,0,90,0,1
289913,-51.943189109532,6,1,0,90,0,1
290031,-54.073807043588,6,1,0,90,0,1
290109,-55.529939914165,6,1,0,90,0,1
290188,-57.044714662069,6,1,0,90,0,1
290266,-58.580849967749,6,1,0,90,0,1
290383,-60.962961117113,6,1,0,90,0,1
290501,-63.463554178415,6,1,0,90,0,1
290618,-66.044213900319,6,1,0,90,0,1
290736,-68.753230982036,6,1,0,90,0,1
290814,-70.60466044604,6,1,0,90,0,1
290892,-72.505946346043,6,1,0,90,0,1
290971,-74.483801477305,6,1,0,90,0,1
291049,-76.489547282649,6,1,0,90,0,1
291127,-78.549305049734,6,1,0,90,0,1
291206,-80.69201408091,6,1,0,90,0,1
291284,-82.864938469267,6,1,0,90,0,1
291362,-85.096376707492,6,1,0,90,0,1
291441,-87.41768018403,6,1,0,90,0,1
291519,-89.771717462799,6,1,0,90,0,1
291597,-92.189145711201,6,1,0,90,0,1
291675,-94.671671960413,6,1,0,90,0,1
291793,-98.554936842369,6,1,0,90,0,1
291910,-102.562540248709,6,1,0,90,0,1
292144,-33.3333333333333,6,1,0,90,0,1
292145,469.851213782302,6,1,0,90,1,0
292145,-166.673188663424,6,1,0,90,0,0
292351,-28.5714285714286,6,1,0,80,0,0
292379,-28.5714285714286,4,1,0,80,0,0
292409,-166.666666666667,4,1,0,80,0,0
292438,-166.666666666667,4,1,0,79,0,0
292468,-166.666666666667,4,1,0,79,0,0
292497,-166.666666666667,4,1,0,78,0,0
292526,-166.666666666667,4,1,0,78,0,0
292556,-166.666666666667,4,1,0,78,0,0
292585,-166.666666666667,4,1,0,77,0,0
292614,-166.666666666667,4,1,0,77,0,0
292644,-166.666666666667,4,1,0,76,0,0
292673,-166.666666666667,4,1,0,76,0,0
292702,-166.666666666667,4,1,0,76,0,0
292732,-166.666666666667,4,1,0,75,0,0
292761,-166.666666666667,4,1,0,75,0,0
292791,-166.666666666667,4,1,0,74,0,0
292820,-166.666666666667,4,1,0,74,0,0
292849,-166.666666666667,4,1,0,73,0,0
292879,-166.666666666667,4,1,0,73,0,0
292908,-166.666666666667,4,1,0,73,0,0
292937,-166.666666666667,4,1,0,72,0,0
292967,-166.666666666667,4,1,0,72,0,0
292996,-166.666666666667,4,1,0,71,0,0
293025,-166.666666666667,4,1,0,71,0,0
293055,-166.666666666667,4,1,0,71,0,0
293084,-166.666666666667,4,1,0,70,0,0
293114,-166.666666666667,4,1,0,70,0,0
293143,-166.666666666667,4,1,0,69,0,0
293172,-166.666666666667,4,1,0,69,0,0
293202,-166.666666666667,4,1,0,69,0,0
293231,-166.666666666667,4,1,0,68,0,0
293260,-166.666666666667,4,1,0,68,0,0
293290,-166.666666666667,4,1,0,67,0,0
293319,-166.666666666667,4,1,0,67,0,0
293348,-166.666666666667,4,1,0,67,0,0
293378,-166.666666666667,4,1,0,66,0,0
293407,-166.666666666667,4,1,0,66,0,0
293437,-166.666666666667,4,1,0,65,0,0
293466,-166.666666666667,4,1,0,65,0,0
293495,-166.666666666667,4,1,0,65,0,0
293525,-166.666666666667,4,1,0,64,0,0
293554,-166.666666666667,4,1,0,64,0,0
293583,-166.666666666667,4,1,0,63,0,0
293613,-166.666666666667,4,1,0,63,0,0
293642,-166.666666666667,4,1,0,62,0,0
293672,-166.666666666667,4,1,0,62,0,0
293701,-166.666666666667,4,1,0,62,0,0
293730,-166.666666666667,4,1,0,61,0,0
293760,-166.666666666667,4,1,0,61,0,0
293789,-166.666666666667,4,1,0,60,0,0
293818,-166.666666666667,4,1,0,60,0,0
293848,-166.666666666667,4,1,0,60,0,0
293877,-166.666666666667,4,1,0,59,0,0
293906,-166.666666666667,4,1,0,59,0,0
293936,-166.666666666667,4,1,0,58,0,0
293965,-166.666666666667,4,1,0,58,0,0
293995,-166.666666666667,4,1,0,58,0,0
294024,-166.666666666667,4,1,0,57,0,0
294053,-166.666666666667,4,1,0,57,0,0
294083,-166.666666666667,4,1,0,56,0,0
294112,-166.666666666667,4,1,0,56,0,0
294141,-166.666666666667,4,1,0,56,0,0
294171,-166.666666666667,4,1,0,55,0,0
294200,-166.666666666667,4,1,0,55,0,0
294229,-166.666666666667,4,1,0,54,0,0
294259,-166.666666666667,4,1,0,54,0,0
294288,-166.666666666667,4,1,0,54,0,0
294318,-166.666666666667,4,1,0,53,0,0
294347,-166.666666666667,4,1,0,53,0,0
294376,-166.666666666667,4,1,0,52,0,0
294406,-166.666666666667,4,1,0,52,0,0
294435,-166.666666666667,4,1,0,51,0,0
294464,-166.666666666667,4,1,0,51,0,0
294494,-166.666666666667,4,1,0,51,0,0
294523,-166.666666666667,4,1,0,50,0,0
294552,-166.666666666667,4,1,0,50,0,0
294582,-166.666666666667,4,1,0,49,0,0
294611,-166.666666666667,4,1,0,49,0,0
294641,-166.666666666667,4,1,0,49,0,0
294670,-166.666666666667,4,1,0,48,0,0
294699,-166.666666666667,4,1,0,48,0,0
294729,-166.666666666667,4,1,0,47,0,0
294758,-166.666666666667,4,1,0,47,0,0
294787,-166.666666666667,4,1,0,47,0,0
294817,-166.666666666667,4,1,0,46,0,0
294846,-166.666666666667,4,1,0,46,0,0
294876,-166.666666666667,4,1,0,45,0,0
294905,-166.666666666667,4,1,0,45,0,0
294934,-166.666666666667,4,1,0,45,0,0
294964,-166.666666666667,4,1,0,44,0,0
294993,-166.666666666667,4,1,0,44,0,0
295022,-166.666666666667,4,1,0,43,0,0
295052,-166.666666666667,4,1,0,43,0,0
295081,-166.666666666667,4,1,0,43,0,0
295110,-166.666666666667,4,1,0,42,0,0
295140,-166.666666666667,4,1,0,42,0,0
295169,-166.666666666667,4,1,0,41,0,0
295199,-166.666666666667,4,1,0,41,0,0
295228,-166.666666666667,4,1,0,40,0,0
295257,-166.666666666667,4,1,0,40,0,0
295287,-166.666666666667,4,1,0,40,0,0
295316,-166.666666666667,4,1,0,39,0,0
295345,-166.666666666667,4,1,0,39,0,0
295375,-166.666666666667,4,1,0,38,0,0
295404,-166.666666666667,4,1,0,38,0,0
295433,-166.666666666667,4,1,0,38,0,0
295463,-166.666666666667,4,1,0,37,0,0
295492,-166.666666666667,4,1,0,37,0,0
295522,-166.666666666667,4,1,0,36,0,0
295551,-166.666666666667,4,1,0,36,0,0
295580,-166.666666666667,4,1,0,36,0,0
295610,-166.666666666667,4,1,0,35,0,0
295639,-166.666666666667,4,1,0,35,0,0
295668,-166.666666666667,4,1,0,34,0,0
295698,-166.666666666667,4,1,0,34,0,0
295727,-166.666666666667,4,1,0,34,0,0
295756,-166.666666666667,4,1,0,33,0,0
295786,-166.666666666667,4,1,0,33,0,0
295815,-166.666666666667,4,1,0,32,0,0
295845,-166.666666666667,4,1,0,32,0,0
295874,-166.666666666667,4,1,0,31,0,0
295903,-166.666666666667,4,1,0,31,0,0
295933,-166.666666666667,4,1,0,31,0,0
295962,-166.666666666667,4,1,0,30,0,0
295991,-166.666666666667,4,1,0,30,0,0
296021,-166.666666666667,4,1,0,29,0,0
296050,-166.666666666667,4,1,0,29,0,0
296080,-166.666666666667,4,1,0,29,0,0
296109,-166.666666666667,4,1,0,28,0,0
296138,-166.666666666667,4,1,0,28,0,0
296168,-166.666666666667,4,1,0,27,0,0
296197,-166.666666666667,4,1,0,27,0,0
296226,-166.666666666667,4,1,0,27,0,0
296256,-166.666666666667,4,1,0,26,0,0
296285,-166.666666666667,4,1,0,26,0,0
296314,-166.666666666667,4,1,0,25,0,0
296344,-166.666666666667,4,1,0,25,0,0
296373,-166.666666666667,4,1,0,25,0,0
296403,-166.666666666667,4,1,0,24,0,0
296432,-166.666666666667,4,1,0,24,0,0
296461,-166.666666666667,4,1,0,23,0,0
296491,-166.666666666667,4,1,0,23,0,0
296520,-166.666666666667,4,1,0,23,0,0
296549,-166.666666666667,4,1,0,22,0,0
296579,-166.666666666667,4,1,0,22,0,0
296608,-166.666666666667,4,1,0,21,0,0
296637,-166.666666666667,4,1,0,21,0,0
296667,-166.666666666667,4,1,0,20,0,0
296696,-166.666666666667,4,1,0,20,0,0
296726,-166.666666666667,4,1,0,20,0,0
296755,-166.666666666667,4,1,0,19,0,0
296784,-166.666666666667,4,1,0,19,0,0
296814,-166.666666666667,4,1,0,18,0,0
296843,-166.666666666667,4,1,0,18,0,0
296872,-166.666666666667,4,1,0,18,0,0
296902,-166.666666666667,4,1,0,17,0,0
296931,-166.666666666667,4,1,0,17,0,0
296960,-166.666666666667,4,1,0,16,0,0
296990,-166.666666666667,4,1,0,16,0,0
297019,-166.666666666667,4,1,0,16,0,0
297049,-166.666666666667,4,1,0,15,0,0
297078,-166.666666666667,4,1,0,15,0,0
297107,-166.666666666667,4,1,0,14,0,0
297137,-166.666666666667,4,1,0,14,0,0
297166,-166.666666666667,4,1,0,14,0,0
297195,-166.666666666667,4,1,0,13,0,0
297225,-166.666666666667,4,1,0,13,0,0
297254,-166.666666666667,4,1,0,12,0,0
297283,-166.666666666667,4,1,0,12,0,0
297313,-166.666666666667,4,1,0,12,0,0
297342,-166.666666666667,4,1,0,11,0,0
297372,-166.666666666667,4,1,0,11,0,0
297401,-166.666666666667,4,1,0,10,0,0
297430,-166.666666666667,4,1,0,10,0,0
297460,-166.666666666667,4,1,0,9,0,0
297489,-166.666666666667,4,1,0,9,0,0
297518,-166.666666666667,4,1,0,9,0,0
297548,-166.666666666667,4,1,0,8,0,0
297577,-166.666666666667,4,1,0,8,0,0
297607,-166.666666666667,4,1,0,7,0,0
297636,-166.666666666667,4,1,0,7,0,0
297665,-166.666666666667,4,1,0,7,0,0
297695,-166.666666666667,4,1,0,6,0,0
297724,-166.666666666667,4,1,0,6,0,0
297753,-166.666666666667,4,1,0,5,0,0
297783,-166.666666666667,4,1,0,5,0,0

[HitObjects]
314,159,426,5,0,0:0:0:0:
286,151,1765,5,0,0:0:0:0:
311,178,2360,1,8,0:0:0:0:
325,144,7122,5,8,0:0:0:0:
359,144,7419,1,0,0:0:0:0:
432,151,7617,1,8,0:0:0:0:
359,144,7717,1,0,0:0:0:0:
432,151,7915,1,8,0:0:0:0:
359,144,8014,1,0,0:0:0:0:
350,151,8312,1,0,0:0:0:0:
340,139,8510,1,8,0:0:0:0:
326,175,8609,1,0,0:0:0:0:
333,179,8808,1,0,0:0:0:0:
328,171,8907,1,0,0:0:0:0:
357,176,9204,1,0,0:0:0:0:
352,181,9403,1,8,0:0:0:0:
357,176,9502,1,0,0:0:0:0:
350,189,9700,1,8,0:0:0:0:
372,154,9799,1,0,0:0:0:0:
337,181,9874,1,8,0:0:0:0:
366,171,9948,1,0,0:0:0:0:
329,159,10023,1,0,0:0:0:0:
336,178,10097,1,8,0:0:0:0:
336,164,10295,1,0,0:0:0:0:
338,168,10394,1,8,0:0:0:0:
315,156,10593,1,8,0:0:0:0:
346,182,10692,1,0,0:0:0:0:
336,178,10990,1,0,0:0:0:0:
321,173,11188,1,8,0:0:0:0:
347,170,11287,1,0,0:0:0:0:
347,170,11386,1,0,0:0:0:0:
268,163,11485,1,8,0:0:0:0:
333,182,11585,1,0,0:0:0:0:
382,162,11882,1,0,0:0:0:0:
321,173,12081,1,8,0:0:0:0:
354,175,12180,1,0,0:0:0:0:
327,170,12279,1,8,0:0:0:0:
327,170,12378,1,8,0:0:0:0:
352,176,12477,1,0,0:0:0:0:
377,181,12775,1,0,0:0:0:0:
376,185,12973,1,8,0:0:0:0:
372,175,13072,1,8,0:0:0:0:
413,165,13172,1,0,0:0:0:0:
371,174,13271,1,8,0:0:0:0:
413,165,13370,1,0,0:0:0:0:
355,188,13444,1,0,0:0:0:0:
406,186,13519,1,8,0:0:0:0:
355,188,13593,1,0,0:0:0:0:
329,163,13667,1,8,0:0:0:0:
360,204,13816,1,0,0:0:0:0:
329,163,13965,1,8,0:0:0:0:
334,176,14263,1,0,0:0:0:0:
350,177,14560,1,0,0:0:0:0:
309,185,14758,1,8,0:0:0:0:
310,185,14858,1,8,0:0:0:0:
350,177,14957,1,0,0:0:0:0:
350,177,15056,1,0,0:0:0:0:
310,185,15155,1,8,0:0:0:0:
405,199,15453,1,0,0:0:0:0:
316,177,15552,1,0,0:0:0:0:
364,209,15651,1,8,0:0:0:0:
316,177,15750,1,0,0:0:0:0:
350,177,15849,1,8,0:0:0:0:
350,177,15949,1,8,0:0:0:0:
316,177,16048,1,0,0:0:0:0:
316,177,16345,1,0,0:0:0:0:
315,188,16445,1,8,0:0:0:0:
315,188,16544,1,8,0:0:0:0:
316,177,16643,1,0,0:0:0:0:
315,188,16742,1,0,0:0:0:0:
315,188,16841,1,8,0:0:0:0:
318,178,16940,1,0,0:0:0:0:
315,188,17015,1,8,0:0:0:0:
316,177,17089,1,0,0:0:0:0:
316,177,17164,1,0,0:0:0:0:
315,188,17238,1,8,0:0:0:0:
316,177,17337,1,0,0:0:0:0:
320,174,17436,1,0,0:0:0:0:
323,197,17536,1,8,0:0:0:0:
323,197,17635,1,8,0:0:0:0:
323,197,17734,1,8,0:0:0:0:
309,183,17833,1,0,0:0:0:0:
324,193,18131,1,8,0:0:0:0:
324,193,18230,1,8,0:0:0:0:
324,193,18329,1,8,0:0:0:0:
326,189,18428,1,0,0:0:0:0:
323,197,18527,1,8,0:0:0:0:
323,197,18627,1,8,0:0:0:0:
372,176,18726,1,0,0:0:0:0:
340,176,18800,1,0,0:0:0:0:
340,188,18875,1,8,0:0:0:0:
339,188,18949,1,8,0:0:0:0:
354,179,19023,1,0,0:0:0:0:
362,183,19122,1,8,0:0:0:0:
362,183,19222,1,8,0:0:0:0:
331,184,19321,1,0,0:0:0:0:
317,182,19420,1,8,0:0:0:0:
317,182,19519,1,8,0:0:0:0:
308,172,19618,1,0,0:0:0:0:
302,164,19916,1,8,0:0:0:0:
302,164,20015,1,8,0:0:0:0:
302,164,20114,1,8,0:0:0:0:
275,141,20213,1,0,0:0:0:0:
300,154,20313,1,0,0:0:0:0:
300,154,20412,1,0,0:0:0:0:
310,180,20511,1,8,0:0:0:0:
298,152,20709,1,0,0:0:0:0:
308,179,20809,1,8,0:0:0:0:
298,152,20908,1,0,0:0:0:0:
298,152,21007,1,0,0:0:0:0:
310,175,21106,1,8,0:0:0:0:
293,161,21181,1,0,0:0:0:0:
292,169,21255,1,8,0:0:0:0:
292,169,21329,1,8,0:0:0:0:
291,163,21404,1,0,0:0:0:0:
287,182,21701,1,8,0:0:0:0:
300,177,21999,1,0,0:0:0:0:
287,182,22098,1,8,0:0:0:0:
287,182,22197,1,8,0:0:0:0:
300,177,22296,1,0,0:0:0:0:
292,187,22371,1,0,0:0:0:0:
292,187,22445,1,0,0:0:0:0:
292,187,22519,1,0,0:0:0:0:
287,182,22594,1,8,0:0:0:0:
299,184,22693,1,0,0:0:0:0:
299,184,22792,1,0,0:0:0:0:
262,152,22891,1,8,0:0:0:0:
299,184,22991,1,0,0:0:0:0:
262,152,23090,1,8,0:0:0:0:
297,172,23189,1,0,0:0:0:0:
297,172,23486,1,0,0:0:0:0:
279,177,23586,1,8,0:0:0:0:
279,177,23685,1,8,0:0:0:0:
299,184,23784,1,0,0:0:0:0:
299,184,23883,1,0,0:0:0:0:
279,177,23982,1,8,0:0:0:0:
300,159,24082,1,0,0:0:0:0:
300,159,24156,1,0,0:0:0:0:
312,184,24230,1,8,0:0:0:0:
312,184,24305,1,8,0:0:0:0:
306,149,24379,1,0,0:0:0:0:
249,171,24454,1,8,0:0:0:0:
297,168,24528,1,0,0:0:0:0:
297,168,24602,1,0,0:0:0:0:
249,171,24677,1,8,0:0:0:0:
310,180,24726,1,0,0:0:0:0:
322,164,24825,1,8,0:0:0:0:
332,171,24974,1,0,0:0:0:0:
272,170,25272,1,8,0:0:0:0:
272,170,25371,1,8,0:0:0:0:
308,175,25470,1,0,0:0:0:0:
272,170,25569,1,8,0:0:0:0:
310,180,25668,1,0,0:0:0:0:
308,175,25768,1,0,0:0:0:0:
272,170,25867,1,8,0:0:0:0:
290,174,25941,1,0,0:0:0:0:
290,174,26016,1,0,0:0:0:0:
291,174,26090,1,0,0:0:0:0:
308,175,26164,1,8,0:0:0:0:
308,175,26264,1,8,0:0:0:0:
310,168,26363,1,0,0:0:0:0:
308,175,26462,1,8,0:0:0:0:
310,180,26561,1,8,0:0:0:0:
310,180,26660,1,8,0:0:0:0:
310,168,26759,1,0,0:0:0:0:
271,177,27057,1,8,0:0:0:0:
335,182,27156,1,0,0:0:0:0:
335,182,27255,1,0,0:0:0:0:
271,177,27355,1,8,0:0:0:0:
324,171,27503,1,8,0:0:0:0:
283,189,27652,1,0,0:0:0:0:
309,178,27801,1,8,0:0:0:0:
302,149,27950,1,0,0:0:0:0:
302,149,28024,1,0,0:0:0:0:
308,178,28098,1,8,0:0:0:0:
309,178,28173,1,8,0:0:0:0:
302,154,28247,1,0,0:0:0:0:
397,192,28396,1,8,0:0:0:0:
311,176,28545,1,0,0:0:0:0:
284,167,28842,1,8,0:0:0:0:
350,171,28941,1,0,0:0:0:0:
350,171,29041,1,0,0:0:0:0:
284,167,29140,1,8,0:0:0:0:
284,167,29239,1,8,0:0:0:0:
331,176,29338,1,0,0:0:0:0:
284,167,29437,1,8,0:0:0:0:
305,146,29512,1,8,0:0:0:0:
349,230,29586,1,0,0:0:0:0:
349,230,29661,1,0,0:0:0:0:
240,174,29735,1,8,0:0:0:0:
240,174,29809,1,8,0:0:0:0:
297,161,29884,1,0,0:0:0:0:
240,174,29958,1,8,0:0:0:0:
297,161,30032,1,0,0:0:0:0:
308,163,30156,1,8,0:0:0:0:
257,186,30206,1,0,0:0:0:0:
272,170,30330,1,8,0:0:0:0:
322,157,30429,1,8,0:0:0:0:
289,153,30628,1,0,0:0:0:0:
312,163,30776,1,8,0:0:0:0:
289,153,30925,1,0,0:0:0:0:
308,163,31123,1,0,0:0:0:0:
390,166,31223,1,8,0:0:0:0:
338,154,31297,1,8,0:0:0:0:
346,178,31371,1,0,0:0:0:0:
346,178,31446,1,0,0:0:0:0:
338,154,31520,1,8,0:0:0:0:
277,151,31669,1,8,0:0:0:0:
338,187,31743,1,0,0:0:0:0:
277,151,31818,1,8,0:0:0:0:
323,191,31967,1,0,0:0:0:0:
310,178,32115,1,8,0:0:0:0:
317,204,32314,1,0,0:0:0:0:
317,204,32413,1,0,0:0:0:0:
321,189,32562,1,8,0:0:0:0:
320,189,32661,1,8,0:0:0:0:
350,158,32760,1,0,0:0:0:0:
305,152,33008,1,8,0:0:0:0:
305,152,33082,1,8,0:0:0:0:
288,160,33157,1,0,0:0:0:0:
286,160,33231,1,0,0:0:0:0:
305,152,33305,1,8,0:0:0:0:
305,152,33380,1,0,0:0:0:0:
305,152,33454,1,0,0:0:0:0:
305,152,33529,1,0,0:0:0:0:
305,152,33603,1,8,0:0:0:0:
305,152,33677,1,8,0:0:0:0:
305,152,33752,1,8,0:0:0:0:
305,152,33826,1,8,0:0:0:0:
325,144,33901,1,0,0:0:0:0:
312,149,34273,1,0,0:0:0:0:
289,140,34347,1,0,0:0:0:0:
272,142,34421,1,8,0:0:0:0:
314,167,34570,1,0,0:0:0:0:
305,152,34644,1,8,0:0:0:0:
312,148,34793,1,8,0:0:0:0:
301,139,34942,1,0,0:0:0:0:
297,151,35091,1,0,0:0:0:0:
296,157,35388,1,0,0:0:0:0:
297,175,35686,1,0,0:0:0:0:
323,120,35983,1,8,0:0:0:0:
323,120,36083,1,8,0:0:0:0:
285,151,36182,1,0,0:0:0:0:
323,120,36281,1,8,0:0:0:0:
285,163,36380,1,0,0:0:0:0:
285,163,36479,1,0,0:0:0:0:
323,120,36578,1,8,0:0:0:0:
337,150,36876,1,0,0:0:0:0:
323,158,36950,1,0,0:0:0:0:
378,143,37025,1,8,0:0:0:0:
337,150,37099,1,0,0:0:0:0:
378,143,37174,1,8,0:0:0:0:
308,125,37322,1,0,0:0:0:0:
354,126,37471,1,8,0:0:0:0:
337,150,37769,1,0,0:0:0:0:
378,143,37917,1,8,0:0:0:0:
337,150,38066,1,0,0:0:0:0:
340,177,38215,1,8,0:0:0:0:
330,151,38364,1,8,0:0:0:0:
330,151,38438,1,8,0:0:0:0:
329,144,38513,1,0,0:0:0:0:
329,144,38587,1,0,0:0:0:0:
321,147,38661,1,0,0:0:0:0:
332,135,38736,1,8,0:0:0:0:
332,135,38810,1,8,0:0:0:0:
316,131,38884,1,8,0:0:0:0:
344,123,38959,1,0,0:0:0:0:
324,141,39070,1,8,0:0:0:0:
311,129,39145,1,0,0:0:0:0:
315,118,39257,1,0,0:0:0:0:
385,136,39554,1,0,0:0:0:0:
321,147,39653,1,8,0:0:0:0:
319,142,39752,1,8,0:0:0:0:
385,136,39851,1,0,0:0:0:0:
385,136,40000,1,0,0:0:0:0:
256,121,40149,1,8,0:0:0:0:
274,130,40223,1,0,0:0:0:0:
340,138,40298,1,8,0:0:0:0:
340,138,40372,1,8,0:0:0:0:
274,130,40447,1,0,0:0:0:0:
350,134,40546,1,0,0:0:0:0:
293,136,40620,1,8,0:0:0:0:
331,138,40744,1,0,0:0:0:0:
331,138,40843,1,0,0:0:0:0:
331,138,40942,1,0,0:0:0:0:
308,114,41042,1,8,0:0:0:0:
272,117,41091,1,8,0:0:0:0:
287,124,41339,1,0,0:0:0:0:
300,126,41538,1,8,0:0:0:0:
287,124,41637,1,0,0:0:0:0:
287,125,41786,1,0,0:0:0:0:
331,138,41934,1,8,0:0:0:0:
343,128,42083,1,8,0:0:0:0:
343,128,42157,1,8,0:0:0:0:
327,154,42232,1,0,0:0:0:0:
327,154,42306,1,0,0:0:0:0:
343,128,42381,1,8,0:0:0:0:
343,128,42455,1,8,0:0:0:0:
327,154,42529,1,0,0:0:0:0:
305,146,42604,1,8,0:0:0:0:
305,146,42678,1,8,0:0:0:0:
305,146,42753,1,8,0:0:0:0:
318,141,42827,1,0,0:0:0:0:
296,141,43124,1,0,0:0:0:0:
392,170,43224,1,0,0:0:0:0:
361,153,43323,1,8,0:0:0:0:
296,141,43422,1,0,0:0:0:0:
327,160,43720,1,8,0:0:0:0:
345,157,43794,1,0,0:0:0:0:
345,157,43868,1,0,0:0:0:0:
345,157,43943,1,0,0:0:0:0:
338,160,44017,1,8,0:0:0:0:
338,160,44091,1,8,0:0:0:0:
340,160,44166,1,0,0:0:0:0:
342,160,44240,1,0,0:0:0:0:
338,160,44315,1,8,0:0:0:0:
332,164,44414,1,8,0:0:0:0:
332,164,44513,1,8,0:0:0:0:
339,160,44612,1,0,0:0:0:0:
306,161,44910,1,0,0:0:0:0:
336,148,45059,1,8,0:0:0:0:
304,150,45207,1,0,0:0:0:0:
323,154,45505,1,8,0:0:0:0:
284,151,45579,1,0,0:0:0:0:
284,151,45654,1,0,0:0:0:0:
284,151,45728,1,0,0:0:0:0:
274,137,45802,1,8,0:0:0:0:
327,147,45877,1,0,0:0:0:0:
274,137,45951,1,8,0:0:0:0:
327,147,46026,1,0,0:0:0:0:
325,147,46100,1,8,0:0:0:0:
325,147,46199,1,8,0:0:0:0:
323,154,46298,1,8,0:0:0:0:
305,154,46397,1,0,0:0:0:0:
327,147,46695,1,8,0:0:0:0:
327,147,46794,1,8,0:0:0:0:
362,171,46893,1,0,0:0:0:0:
362,171,46993,1,0,0:0:0:0:
357,176,47067,1,8,0:0:0:0:
357,176,47141,1,8,0:0:0:0:
357,176,47216,1,8,0:0:0:0:
375,170,47290,1,0,0:0:0:0:
374,169,47364,1,0,0:0:0:0:
356,159,47588,1,8,0:0:0:0:
356,159,47687,1,8,0:0:0:0:
316,160,47786,1,0,0:0:0:0:
257,144,47885,1,8,0:0:0:0:
293,162,48009,1,0,0:0:0:0:
310,137,48084,1,8,0:0:0:0:
320,168,48183,1,0,0:0:0:0:
316,144,48480,1,8,0:0:0:0:
316,144,48579,1,8,0:0:0:0:
316,144,48679,1,8,0:0:0:0:
332,166,48778,1,0,0:0:0:0:
304,152,49075,1,8,0:0:0:0:
289,168,49150,1,0,0:0:0:0:
289,168,49224,1,0,0:0:0:0:
289,168,49299,1,0,0:0:0:0:
304,152,49373,1,8,0:0:0:0:
302,162,49447,1,0,0:0:0:0:
300,161,49522,1,8,0:0:0:0:
300,161,49596,1,8,0:0:0:0:
299,162,49670,1,0,0:0:0:0:
298,163,49770,1,8,0:0:0:0:
294,161,49968,1,0,0:0:0:0:
294,161,50042,1,0,0:0:0:0:
337,164,50266,1,0,0:0:0:0:
337,164,50365,1,8,0:0:0:0:
338,167,50464,1,8,0:0:0:0:
366,166,50563,1,0,0:0:0:0:
350,168,50662,1,8,0:0:0:0:
350,168,50761,1,8,0:0:0:0:
366,166,50861,1,0,0:0:0:0:
320,154,50935,1,0,0:0:0:0:
320,166,51009,1,8,0:0:0:0:
320,166,51084,1,8,0:0:0:0:
328,154,51158,1,0,0:0:0:0:
317,166,51233,1,8,0:0:0:0:
316,166,51307,1,8,0:0:0:0:
316,166,51381,1,8,0:0:0:0:
326,154,51456,1,0,0:0:0:0:
310,171,51555,1,8,0:0:0:0:
310,171,51654,1,8,0:0:0:0:
322,160,51753,1,0,0:0:0:0:
304,169,52051,1,8,0:0:0:0:
272,165,52150,1,0,0:0:0:0:
272,165,52249,1,0,0:0:0:0:
304,169,52348,1,8,0:0:0:0:
304,169,52448,1,8,0:0:0:0:
272,165,52547,1,0,0:0:0:0:
310,171,52646,1,8,0:0:0:0:
253,161,52720,1,0,0:0:0:0:
253,161,52795,1,0,0:0:0:0:
253,161,52869,1,0,0:0:0:0:
347,146,52943,1,8,0:0:0:0:
260,140,53018,1,8,0:0:0:0:
304,166,53092,1,0,0:0:0:0:
304,166,53167,1,0,0:0:0:0:
260,141,53241,1,8,0:0:0:0:
285,149,53291,1,8,0:0:0:0:
288,157,53539,1,0,0:0:0:0:
281,159,53613,1,0,0:0:0:0:
311,163,53836,1,8,0:0:0:0:
276,166,53935,1,0,0:0:0:0:
276,166,54034,1,0,0:0:0:0:
311,163,54134,1,8,0:0:0:0:
276,166,54233,1,0,0:0:0:0:
311,147,54332,1,0,0:0:0:0:
311,163,54431,1,8,0:0:0:0:
309,160,54506,1,0,0:0:0:0:
309,160,54580,1,0,0:0:0:0:
311,163,54654,1,0,0:0:0:0:
332,165,54729,1,8,0:0:0:0:
330,165,54803,1,8,0:0:0:0:
297,160,54878,1,0,0:0:0:0:
330,165,54952,1,8,0:0:0:0:
297,160,55026,1,0,0:0:0:0:
282,153,55101,1,8,0:0:0:0:
284,153,55175,1,8,0:0:0:0:
283,153,55249,1,8,0:0:0:0:
297,160,55324,1,0,0:0:0:0:
316,152,55473,1,0,0:0:0:0:
304,165,55820,1,0,0:0:0:0:
297,158,55919,1,8,0:0:0:0:
304,165,56018,1,0,0:0:0:0:
304,165,56117,1,0,0:0:0:0:
297,158,56216,1,8,0:0:0:0:
299,169,56291,1,0,0:0:0:0:
299,169,56365,1,0,0:0:0:0:
299,169,56440,1,0,0:0:0:0:
304,165,56514,1,8,0:0:0:0:
304,165,56588,1,8,0:0:0:0:
315,170,56663,1,0,0:0:0:0:
315,170,56737,1,0,0:0:0:0:
304,165,56812,1,8,0:0:0:0:
304,165,57109,1,0,0:0:0:0:
304,165,57555,1,8,0:0:0:0:
296,165,58002,1,12,0:0:0:0:
324,166,58448,1,0,0:0:0:0:
304,165,58522,1,8,0:0:0:0:
316,162,58894,1,0,0:0:0:0:
309,185,59390,1,8,0:0:0:0:
246,178,59787,1,12,0:0:0:0:
254,166,60308,1,0,0:0:0:0:
252,155,60357,1,8,0:0:0:0:
258,152,60407,1,0,0:0:0:0:
276,161,60680,1,0,0:0:0:0:
261,155,61126,1,0,0:0:0:0:
281,156,61200,1,8,0:0:0:0:
266,163,61572,1,12,0:0:0:0:
266,166,62068,1,8,0:0:0:0:
266,163,62465,1,0,0:0:0:0:
266,174,62948,1,0,0:0:0:0:
237,165,62986,1,8,0:0:0:0:
309,167,63358,1,12,0:0:0:0:
319,166,63853,1,8,0:0:0:0:
315,160,63903,1,0,0:0:0:0:
220,151,64250,1,0,0:0:0:0:
235,142,64746,1,0,0:0:0:0:
256,141,64820,1,0,0:0:0:0:
263,143,64895,1,8,0:0:0:0:
282,187,65143,1,12,0:0:0:0:
289,180,65440,1,0,0:0:0:0:
269,187,65688,1,8,0:0:0:0:
282,187,65738,1,8,0:0:0:0:
282,187,65788,1,0,0:0:0:0:
299,185,66035,1,0,0:0:0:0:
281,174,66519,1,0,0:0:0:0:
300,177,66593,1,8,0:0:0:0:
299,169,66928,1,12,0:0:0:0:
309,183,67374,1,0,0:0:0:0:
237,164,67449,1,8,0:0:0:0:
306,171,67523,1,0,0:0:0:0:
294,163,67821,1,0,0:0:0:0:
283,182,68118,1,8,0:0:0:0:
279,157,68416,1,0,0:0:0:0:
279,148,68713,1,12,0:0:0:0:
271,147,69011,1,0,0:0:0:0:
305,148,69308,1,8,0:0:0:0:
285,155,69606,1,0,0:0:0:0:
297,163,69904,1,8,0:0:0:0:
297,163,70052,1,8,0:0:0:0:
283,167,70201,1,0,0:0:0:0:
287,166,70499,1,8,0:0:0:0:
283,167,71094,1,8,0:0:0:0:
285,157,71391,1,0,0:0:0:0:
296,144,71986,1,0,0:0:0:0:
297,157,72284,1,8,0:0:0:0:
298,159,72780,1,8,0:0:0:0:
345,166,72879,1,0,0:0:0:0:
345,166,73177,1,8,0:0:0:0:
316,160,73623,1,0,0:0:0:0:
316,161,74069,1,8,0:0:0:0:
300,164,74367,1,0,0:0:0:0:
300,164,74466,1,0,0:0:0:0:
300,164,74565,1,0,0:0:0:0:
325,169,74664,1,8,0:0:0:0:
325,169,74763,1,8,0:0:0:0:
325,169,74863,1,8,0:0:0:0:
289,178,74962,1,0,0:0:0:0:
305,170,75259,1,8,0:0:0:0:
264,183,75408,1,0,0:0:0:0:
305,170,75557,1,8,0:0:0:0:
264,183,75656,1,0,0:0:0:0:
245,172,75755,1,0,0:0:0:0:
305,165,75854,1,8,0:0:0:0:
312,151,76022,1,8,0:0:0:0:
293,156,76251,1,0,0:0:0:0:
293,156,76450,1,0,0:0:0:0:
322,150,76747,1,0,0:0:0:0:
308,142,77243,1,8,0:0:0:0:
310,151,77342,1,0,0:0:0:0:
310,151,77491,1,0,0:0:0:0:
303,142,77640,1,8,0:0:0:0:
323,156,77788,1,0,0:0:0:0:
267,140,78012,1,8,0:0:0:0:
300,135,78086,1,0,0:0:0:0:
300,135,78160,1,0,0:0:0:0:
363,147,78235,1,8,0:0:0:0:
327,127,78532,1,0,0:0:0:0:
320,144,78830,1,0,0:0:0:0:
328,152,78929,1,8,0:0:0:0:
328,152,79028,1,8,0:0:0:0:
378,164,79127,1,0,0:0:0:0:
328,145,79227,1,0,0:0:0:0:
328,145,79326,1,0,0:0:0:0:
328,149,79425,1,8,0:0:0:0:
326,155,79723,1,0,0:0:0:0:
308,144,79871,1,8,0:0:0:0:
308,144,79946,1,8,0:0:0:0:
325,160,80020,1,0,0:0:0:0:
318,151,80169,1,8,0:0:0:0:
328,145,80318,1,0,0:0:0:0:
320,146,80615,1,8,0:0:0:0:
320,146,80739,1,8,0:0:0:0:
269,139,80789,1,0,0:0:0:0:
308,147,81012,1,0,0:0:0:0:
308,147,81111,1,0,0:0:0:0:
298,153,81210,1,8,0:0:0:0:
296,157,81508,1,0,0:0:0:0:
317,165,81805,1,8,0:0:0:0:
301,172,81991,1,8,0:0:0:0:
301,172,82047,1,8,0:0:0:0:
276,170,82103,1,0,0:0:0:0:
286,172,82400,1,8,0:0:0:0:
269,175,82698,1,0,0:0:0:0:
286,172,82996,1,8,0:0:0:0:
287,157,83293,1,0,0:0:0:0:
301,161,83591,1,0,0:0:0:0:
293,167,83888,1,8,0:0:0:0:
293,166,84186,1,8,0:0:0:0:
289,169,84483,1,0,0:0:0:0:
296,157,84781,1,8,0:0:0:0:
328,157,85078,1,8,0:0:0:0:
328,157,85376,1,8,0:0:0:0:
350,160,85673,1,0,0:0:0:0:
348,166,85971,1,8,0:0:0:0:
350,160,86269,1,0,0:0:0:0:
350,160,86566,1,8,0:0:0:0:
348,166,86864,1,8,0:0:0:0:
343,163,87161,1,0,0:0:0:0:
343,163,87459,1,0,0:0:0:0:
348,166,87756,1,8,0:0:0:0:
343,163,88054,1,0,0:0:0:0:
322,169,88351,1,8,0:0:0:0:
322,169,88649,1,8,0:0:0:0:
322,169,88946,1,8,0:0:0:0:
329,170,89244,1,0,0:0:0:0:
334,171,89393,1,0,0:0:0:0:
334,171,89542,1,0,0:0:0:0:
337,168,89690,1,8,0:0:0:0:
344,150,89988,1,0,0:0:0:0:
316,148,90137,1,8,0:0:0:0:
344,150,90285,1,0,0:0:0:0:
344,150,90434,1,0,0:0:0:0:
340,143,90583,1,8,0:0:0:0:
322,138,90633,1,8,0:0:0:0:
296,147,91029,1,0,0:0:0:0:
296,147,91327,1,0,0:0:0:0:
296,147,91624,1,0,0:0:0:0:
311,157,91922,1,12,0:0:0:0:
296,147,92368,1,8,0:0:0:0:
311,157,92666,1,8,0:0:0:0:
311,157,92815,1,0,0:0:0:0:
293,155,93261,1,8,0:0:0:0:
300,168,93558,1,0,0:0:0:0:
295,153,93707,1,8,0:0:0:0:
293,155,94005,1,0,0:0:0:0:
293,155,94153,1,0,0:0:0:0:
300,155,94302,1,8,0:0:0:0:
320,148,94600,1,0,0:0:0:0:
300,141,95046,1,0,0:0:0:0:
320,148,95492,1,8,0:0:0:0:
325,148,95939,1,8,0:0:0:0:
320,148,96112,1,8,0:0:0:0:
356,147,96255,1,0,0:0:0:0:
340,158,96385,1,0,0:0:0:0:
370,160,96683,1,8,0:0:0:0:
331,161,96881,1,0,0:0:0:0:
326,155,97154,1,0,0:0:0:0:
338,164,97278,1,8,0:0:0:0:
276,164,97575,1,8,0:0:0:0:
288,162,97873,1,0,0:0:0:0:
277,163,98170,1,8,0:0:0:0:
285,166,98468,1,8,0:0:0:0:
286,169,98617,1,0,0:0:0:0:
327,166,98914,1,0,0:0:0:0:
300,176,99063,1,8,0:0:0:0:
300,176,99113,1,8,0:0:0:0:
304,176,99509,1,0,0:0:0:0:
327,166,99807,1,8,0:0:0:0:
314,172,99956,1,0,0:0:0:0:
353,169,100253,1,0,0:0:0:0:
353,169,100402,1,0,0:0:0:0:
327,166,100699,1,0,0:0:0:0:
321,157,100848,1,8,0:0:0:0:
315,165,100997,1,0,0:0:0:0:
307,161,101146,1,0,0:0:0:0:
331,160,101443,1,8,0:0:0:0:
311,165,101741,1,0,0:0:0:0:
307,161,102038,1,8,0:0:0:0:
303,159,102187,1,8,0:0:0:0:
316,152,102634,1,8,0:0:0:0:
334,141,103080,1,0,0:0:0:0:
324,149,103229,1,8,0:0:0:0:
332,149,103526,1,0,0:0:0:0:
319,144,103972,1,8,0:0:0:0:
324,149,104121,1,8,0:0:0:0:
332,149,104270,1,0,0:0:0:0:
319,144,104419,1,8,0:0:0:0:
327,148,104617,1,0,0:0:0:0:
329,144,104716,1,8,0:0:0:0:
329,152,104890,1,0,0:0:0:0:
329,144,105014,1,8,0:0:0:0:
326,151,105311,1,0,0:0:0:0:
320,160,105609,1,0,0:0:0:0:
304,159,105758,1,8,0:0:0:0:
320,160,105907,1,0,0:0:0:0:
316,167,106204,1,8,0:0:0:0:
291,146,106502,1,0,0:0:0:0:
304,159,106650,1,8,0:0:0:0:
308,158,106948,1,8,0:0:0:0:
307,150,107097,1,0,0:0:0:0:
312,152,107543,1,8,0:0:0:0:
308,158,107692,1,0,0:0:0:0:
309,167,107841,1,0,0:0:0:0:
309,161,107989,1,8,0:0:0:0:
316,158,108138,1,8,0:0:0:0:
303,158,108287,1,0,0:0:0:0:
303,158,108436,1,0,0:0:0:0:
313,163,108584,1,8,0:0:0:0:
280,158,108882,1,0,0:0:0:0:
289,157,109180,1,8,0:0:0:0:
302,164,109775,1,8,0:0:0:0:
304,158,110072,1,0,0:0:0:0:
310,171,110370,1,8,0:0:0:0:
302,164,110667,1,0,0:0:0:0:
312,158,110965,1,8,0:0:0:0:
298,153,111163,1,0,0:0:0:0:
311,146,111262,1,8,0:0:0:0:
321,141,111411,1,0,0:0:0:0:
289,125,111560,1,8,0:0:0:0:
292,116,111709,1,8,0:0:0:0:
361,159,111857,1,0,0:0:0:0:
291,118,112006,1,8,0:0:0:0:
291,118,112155,1,8,0:0:0:0:
325,158,112304,1,0,0:0:0:0:
317,142,112453,1,0,0:0:0:0:
309,150,112750,1,0,0:0:0:0:
320,165,112899,1,8,0:0:0:0:
310,155,113048,1,0,0:0:0:0:
317,142,113345,1,8,0:0:0:0:
322,157,113494,1,8,0:0:0:0:
321,176,113643,1,0,0:0:0:0:
322,157,113791,1,8,0:0:0:0:
345,163,114089,1,0,0:0:0:0:
339,163,114238,1,8,0:0:0:0:
339,163,114287,1,8,0:0:0:0:
360,170,114535,1,8,0:0:0:0:
340,156,114684,1,0,0:0:0:0:
340,156,114833,1,0,0:0:0:0:
342,142,114982,1,8,0:0:0:0:
338,144,115130,1,8,0:0:0:0:
327,146,115279,1,0,0:0:0:0:
327,146,115428,1,0,0:0:0:0:
305,149,115726,1,8,0:0:0:0:
273,163,116023,1,0,0:0:0:0:
322,141,116073,1,8,0:0:0:0:
279,157,116321,1,0,0:0:0:0:
282,158,116469,1,8,0:0:0:0:
278,153,116618,1,0,0:0:0:0:
278,153,116767,1,0,0:0:0:0:
280,158,116916,1,8,0:0:0:0:
292,163,117362,1,0,0:0:0:0:
292,163,117702,1,0,0:0:0:0:
256,192,117873,12,0,119558,0:0:0:0:
314,184,119895,5,4,0:0:0:0:
314,167,120192,1,8,0:0:0:0:
316,172,120291,1,8,0:0:0:0:
266,170,120390,1,0,0:0:0:0:
316,172,120489,1,8,0:0:0:0:
266,170,120589,1,0,0:0:0:0:
266,170,120688,1,0,0:0:0:0:
327,181,120787,1,12,0:0:0:0:
312,179,121084,1,0,0:0:0:0:
312,179,121184,1,0,0:0:0:0:
287,158,121283,1,8,0:0:0:0:
312,179,121382,1,0,0:0:0:0:
287,158,121481,1,8,0:0:0:0:
287,158,121580,1,8,0:0:0:0:
312,179,121679,1,0,0:0:0:0:
299,167,121977,1,8,0:0:0:0:
288,171,122076,1,0,0:0:0:0:
286,171,122175,1,0,0:0:0:0:
299,167,122274,1,8,0:0:0:0:
286,171,122373,1,0,0:0:0:0:
286,171,122473,1,0,0:0:0:0:
355,175,122572,1,12,0:0:0:0:
306,151,122869,1,0,0:0:0:0:
326,172,122968,1,8,0:0:0:0:
326,172,123068,1,8,0:0:0:0:
306,151,123167,1,0,0:0:0:0:
326,172,123266,1,8,0:0:0:0:
326,172,123365,1,8,0:0:0:0:
282,158,123464,1,0,0:0:0:0:
300,157,123762,1,8,0:0:0:0:
300,157,123861,1,8,0:0:0:0:
299,157,123960,1,8,0:0:0:0:
284,147,124059,1,0,0:0:0:0:
284,147,124158,1,0,0:0:0:0:
284,147,124257,1,0,0:0:0:0:
292,147,124357,1,12,0:0:0:0:
282,166,124654,1,0,0:0:0:0:
282,166,124753,1,0,0:0:0:0:
282,166,124852,1,0,0:0:0:0:
293,149,124952,1,8,0:0:0:0:
293,149,125051,1,8,0:0:0:0:
271,152,125150,1,8,0:0:0:0:
282,166,125249,1,0,0:0:0:0:
283,157,125546,1,0,0:0:0:0:
283,157,125646,1,0,0:0:0:0:
282,166,125745,1,8,0:0:0:0:
308,157,125844,1,0,0:0:0:0:
278,166,125943,1,8,0:0:0:0:
308,157,126042,1,0,0:0:0:0:
281,157,126141,1,12,0:0:0:0:
315,191,126340,1,0,0:0:0:0:
314,163,126439,1,8,0:0:0:0:
296,155,126588,1,0,0:0:0:0:
356,144,126736,1,8,0:0:0:0:
308,157,127034,1,0,0:0:0:0:
275,152,127331,1,8,0:0:0:0:
298,157,127430,1,0,0:0:0:0:
285,153,127530,1,8,0:0:0:0:
297,136,127629,1,0,0:0:0:0:
297,136,127728,1,0,0:0:0:0:
297,137,127827,1,0,0:0:0:0:
266,159,127926,1,12,0:0:0:0:
326,153,128224,1,0,0:0:0:0:
298,150,128323,1,8,0:0:0:0:
326,153,128422,1,0,0:0:0:0:
358,163,128521,1,8,0:0:0:0:
358,163,128620,1,8,0:0:0:0:
358,163,128719,1,8,0:0:0:0:
323,154,128819,1,0,0:0:0:0:
316,157,128918,1,8,0:0:0:0:
316,155,129017,1,8,0:0:0:0:
343,161,129116,1,0,0:0:0:0:
333,159,129215,1,8,0:0:0:0:
333,158,129314,1,8,0:0:0:0:
285,154,129414,1,0,0:0:0:0:
332,158,129513,1,8,0:0:0:0:
285,154,129612,1,0,0:0:0:0:
257,150,129711,1,12,0:0:0:0:
285,159,130009,1,8,0:0:0:0:
322,160,130108,1,0,0:0:0:0:
322,160,130207,1,0,0:0:0:0:
309,154,130306,1,8,0:0:0:0:
340,159,130405,1,0,0:0:0:0:
309,154,130504,1,8,0:0:0:0:
340,159,130603,1,0,0:0:0:0:
315,150,130901,1,8,0:0:0:0:
315,150,131000,1,8,0:0:0:0:
334,162,131099,1,0,0:0:0:0:
315,150,131198,1,8,0:0:0:0:
326,161,131298,1,8,0:0:0:0:
340,159,131397,1,0,0:0:0:0:
350,146,131496,1,12,0:0:0:0:
350,155,131793,1,0,0:0:0:0:
350,155,131893,1,0,0:0:0:0:
331,148,131992,1,8,0:0:0:0:
351,155,132091,1,0,0:0:0:0:
351,154,132190,1,0,0:0:0:0:
331,148,132289,1,8,0:0:0:0:
348,142,132388,1,0,0:0:0:0:
277,184,132463,1,8,0:0:0:0:
277,184,132537,1,8,0:0:0:0:
277,184,132611,1,0,0:0:0:0:
350,155,132686,1,0,0:0:0:0:
309,177,132785,1,8,0:0:0:0:
334,160,132884,1,0,0:0:0:0:
331,148,132983,1,8,0:0:0:0:
321,155,133082,1,8,0:0:0:0:
339,170,133182,1,0,0:0:0:0:
350,153,133281,1,8,0:0:0:0:
331,182,133429,1,0,0:0:0:0:
334,159,133777,1,0,0:0:0:0:
312,173,133876,1,8,0:0:0:0:
313,149,134173,1,4,0:0:0:0:
316,149,134471,1,8,0:0:0:0:
308,147,134570,1,0,0:0:0:0:
323,151,134669,1,8,0:0:0:0:
317,153,134768,1,0,0:0:0:0:
323,151,134867,1,8,0:0:0:0:
313,149,134966,1,0,0:0:0:0:
323,157,135066,1,12,0:0:0:0:
326,149,135363,1,0,0:0:0:0:
319,168,135462,1,8,0:0:0:0:
326,149,135561,1,0,0:0:0:0:
319,168,135660,1,8,0:0:0:0:
326,149,135760,1,0,0:0:0:0:
319,168,135859,1,8,0:0:0:0:
327,149,135958,1,0,0:0:0:0:
286,158,136255,1,0,0:0:0:0:
327,155,136355,1,8,0:0:0:0:
327,155,136454,1,8,0:0:0:0:
326,149,136553,1,0,0:0:0:0:
327,155,136652,1,8,0:0:0:0:
326,149,136751,1,0,0:0:0:0:
326,135,136850,1,12,0:0:0:0:
320,145,137148,1,8,0:0:0:0:
293,135,137247,1,0,0:0:0:0:
293,135,137346,1,0,0:0:0:0:
320,141,137445,1,8,0:0:0:0:
341,132,137495,1,8,0:0:0:0:
293,136,137544,1,0,0:0:0:0:
345,162,137594,1,0,0:0:0:0:
320,141,137644,1,8,0:0:0:0:
293,136,137743,1,0,0:0:0:0:
286,158,138040,1,8,0:0:0:0:
286,158,138139,1,8,0:0:0:0:
312,137,138239,1,0,0:0:0:0:
290,157,138338,1,8,0:0:0:0:
320,141,138437,1,0,0:0:0:0:
326,138,138536,1,0,0:0:0:0:
345,152,138635,1,12,0:0:0:0:
321,154,138933,1,0,0:0:0:0:
321,154,139032,1,0,0:0:0:0:
319,154,139131,1,8,0:0:0:0:
321,154,139230,1,0,0:0:0:0:
319,154,139329,1,8,0:0:0:0:
319,154,139428,1,8,0:0:0:0:
365,164,139528,1,0,0:0:0:0:
338,147,139825,1,8,0:0:0:0:
338,147,139924,1,8,0:0:0:0:
311,157,140023,1,0,0:0:0:0:
311,157,140123,1,0,0:0:0:0:
293,143,140420,1,8,0:0:0:0:
281,158,140569,1,0,0:0:0:0:
281,158,140718,1,0,0:0:0:0:
281,158,140891,1,0,0:0:0:0:
334,163,141015,1,8,0:0:0:0:
316,173,141312,1,4,0:0:0:0:
319,166,141610,1,8,0:0:0:0:
319,148,141709,1,0,0:0:0:0:
325,168,141759,1,0,0:0:0:0:
331,153,141808,1,8,0:0:0:0:
331,153,141858,1,8,0:0:0:0:
325,165,141907,1,0,0:0:0:0:
324,165,142007,1,0,0:0:0:0:
324,165,142106,1,0,0:0:0:0:
345,174,142205,1,12,0:0:0:0:
346,170,142502,1,8,0:0:0:0:
346,170,142577,1,8,0:0:0:0:
300,166,142651,1,0,0:0:0:0:
331,174,142800,1,8,0:0:0:0:
313,176,142849,1,0,0:0:0:0:
331,174,142899,1,8,0:0:0:0:
337,178,142949,1,0,0:0:0:0:
299,177,143097,1,0,0:0:0:0:
328,156,143395,1,8,0:0:0:0:
328,156,143494,1,8,0:0:0:0:
328,156,143593,1,8,0:0:0:0:
331,174,143692,1,0,0:0:0:0:
323,149,143990,1,12,0:0:0:0:
257,147,144287,1,0,0:0:0:0:
336,148,144585,1,8,0:0:0:0:
329,156,144882,1,0,0:0:0:0:
345,170,145180,1,8,0:0:0:0:
317,165,145328,1,8,0:0:0:0:
345,183,145477,1,0,0:0:0:0:
355,183,145626,1,0,0:0:0:0:
411,164,145775,1,8,0:0:0:0:
353,164,145874,1,8,0:0:0:0:
353,164,145973,1,8,0:0:0:0:
358,159,146072,1,0,0:0:0:0:
358,159,146171,1,0,0:0:0:0:
358,159,146270,1,0,0:0:0:0:
353,164,146369,1,8,0:0:0:0:
353,164,146469,1,8,0:0:0:0:
353,164,146568,1,8,0:0:0:0:
337,159,146667,1,0,0:0:0:0:
376,161,146964,1,0,0:0:0:0:
376,150,147076,1,8,0:0:0:0:
376,161,147188,1,0,0:0:0:0:
353,164,147559,1,8,0:0:0:0:
337,154,147733,1,0,0:0:0:0:
366,168,147857,1,8,0:0:0:0:
352,144,148055,1,0,0:0:0:0:
324,151,148154,1,8,0:0:0:0:
351,135,148452,1,8,0:0:0:0:
319,140,148749,1,0,0:0:0:0:
319,140,149047,1,0,0:0:0:0:
320,145,149344,1,12,0:0:0:0:
319,140,149642,1,0,0:0:0:0:
319,140,149741,1,0,0:0:0:0:
318,147,149840,1,8,0:0:0:0:
319,140,149939,1,0,0:0:0:0:
318,147,150038,1,8,0:0:0:0:
320,145,150137,1,8,0:0:0:0:
308,131,150237,1,0,0:0:0:0:
294,158,150534,1,8,0:0:0:0:
345,157,150633,1,0,0:0:0:0:
345,157,150732,1,0,0:0:0:0:
294,158,150832,1,8,0:0:0:0:
355,158,150931,1,0,0:0:0:0:
355,158,151030,1,0,0:0:0:0:
333,171,151129,1,12,0:0:0:0:
350,174,151426,1,0,0:0:0:0:
330,170,151526,1,8,0:0:0:0:
329,170,151625,1,8,0:0:0:0:
323,169,151724,1,0,0:0:0:0:
329,170,151823,1,8,0:0:0:0:
329,170,151922,1,8,0:0:0:0:
323,169,152021,1,0,0:0:0:0:
327,181,152319,1,8,0:0:0:0:
327,181,152418,1,8,0:0:0:0:
327,181,152517,1,8,0:0:0:0:
329,161,152616,1,0,0:0:0:0:
329,161,152716,1,0,0:0:0:0:
329,161,152815,1,0,0:0:0:0:
249,174,152914,1,12,0:0:0:0:
286,180,153211,1,0,0:0:0:0:
286,180,153310,1,0,0:0:0:0:
286,180,153410,1,0,0:0:0:0:
286,180,153509,1,8,0:0:0:0:
286,180,153658,1,8,0:0:0:0:
276,176,153707,1,8,0:0:0:0:
286,180,153806,1,0,0:0:0:0:
268,166,154104,1,0,0:0:0:0:
268,166,154203,1,0,0:0:0:0:
292,187,154302,1,8,0:0:0:0:
279,167,154401,1,0,0:0:0:0:
292,187,154500,1,8,0:0:0:0:
279,167,154600,1,0,0:0:0:0:
210,167,154699,1,12,0:0:0:0:
291,175,154847,1,0,0:0:0:0:
291,175,155170,1,0,0:0:0:0:
248,177,155294,1,8,0:0:0:0:
287,173,155591,1,0,0:0:0:0:
262,165,155889,1,8,0:0:0:0:
277,166,155988,1,0,0:0:0:0:
262,165,156087,1,8,0:0:0:0:
276,165,156186,1,0,0:0:0:0:
276,165,156285,1,0,0:0:0:0:
276,165,156384,1,0,0:0:0:0:
332,143,156483,1,12,0:0:0:0:
322,157,156781,1,0,0:0:0:0:
299,126,156880,1,8,0:0:0:0:
322,157,156979,1,0,0:0:0:0:
299,126,157078,1,8,0:0:0:0:
299,126,157178,1,8,0:0:0:0:
299,126,157277,1,8,0:0:0:0:
311,134,157376,1,0,0:0:0:0:
323,145,157475,1,8,0:0:0:0:
323,145,157574,1,8,0:0:0:0:
387,136,157673,1,0,0:0:0:0:
345,140,157971,1,0,0:0:0:0:
345,138,158070,1,0,0:0:0:0:
345,138,158169,1,0,0:0:0:0:
314,127,158268,1,12,0:0:0:0:
306,172,158566,1,8,0:0:0:0:
337,155,158665,1,0,0:0:0:0:
337,155,158764,1,0,0:0:0:0:
308,174,158863,1,8,0:0:0:0:
376,177,158962,1,0,0:0:0:0:
306,172,159062,1,8,0:0:0:0:
376,177,159161,1,0,0:0:0:0:
334,177,159458,1,8,0:0:0:0:
334,177,159557,1,8,0:0:0:0:
344,182,159657,1,0,0:0:0:0:
334,177,159756,1,8,0:0:0:0:
334,177,159855,1,8,0:0:0:0:
344,181,159954,1,0,0:0:0:0:
284,140,160053,1,12,0:0:0:0:
342,164,160351,1,0,0:0:0:0:
297,165,160425,1,8,0:0:0:0:
297,165,160499,1,8,0:0:0:0:
297,165,160574,1,8,0:0:0:0:
334,162,160648,1,0,0:0:0:0:
308,175,160747,1,8,0:0:0:0:
308,175,160846,1,8,0:0:0:0:
334,162,160946,1,0,0:0:0:0:
308,158,161243,1,8,0:0:0:0:
253,151,161541,1,0,0:0:0:0:
298,143,161689,1,0,0:0:0:0:
320,149,161838,1,8,0:0:0:0:
299,143,161987,1,0,0:0:0:0:
320,149,162135,1,8,0:0:0:0:
348,160,162334,1,0,0:0:0:0:
312,151,162433,1,8,0:0:0:0:
323,160,162730,1,4,0:0:0:0:
339,180,163028,1,8,0:0:0:0:
405,183,163127,1,0,0:0:0:0:
339,180,163226,1,8,0:0:0:0:
405,183,163325,1,0,0:0:0:0:
339,180,163424,1,8,0:0:0:0:
413,183,163524,1,0,0:0:0:0:
359,143,163623,1,12,0:0:0:0:
348,164,163920,1,0,0:0:0:0:
323,157,164019,1,8,0:0:0:0:
348,164,164119,1,0,0:0:0:0:
323,157,164218,1,8,0:0:0:0:
448,64,164268,1,8,0:0:0:0:
348,164,164317,1,0,0:0:0:0:
64,64,164367,1,0,0:0:0:0:
323,157,164416,1,8,0:0:0:0:
344,147,164515,1,0,0:0:0:0:
277,158,164813,1,0,0:0:0:0:
335,148,164912,1,8,0:0:0:0:
335,148,165011,1,8,0:0:0:0:
293,153,165110,1,0,0:0:0:0:
335,148,165209,1,8,0:0:0:0:
293,153,165308,1,0,0:0:0:0:
354,159,165408,1,12,0:0:0:0:
325,153,165705,1,8,0:0:0:0:
316,159,165804,1,0,0:0:0:0:
316,159,165903,1,0,0:0:0:0:
346,153,166003,1,8,0:0:0:0:
392,164,166102,1,0,0:0:0:0:
346,153,166151,1,8,0:0:0:0:
392,164,166300,1,0,0:0:0:0:
355,153,166598,1,8,0:0:0:0:
355,153,166697,1,8,0:0:0:0:
384,149,166796,1,0,0:0:0:0:
355,153,166895,1,8,0:0:0:0:
384,149,166994,1,0,0:0:0:0:
384,149,167093,1,0,0:0:0:0:
347,158,167192,1,12,0:0:0:0:
348,146,167490,1,0,0:0:0:0:
348,146,167589,1,0,0:0:0:0:
336,163,167688,1,8,0:0:0:0:
364,156,167787,1,0,0:0:0:0:
303,161,167911,1,8,0:0:0:0:
303,161,167961,1,8,0:0:0:0:
325,145,168085,1,0,0:0:0:0:
312,149,168184,1,0,0:0:0:0:
315,153,168283,1,8,0:0:0:0:
315,153,168382,1,8,0:0:0:0:
306,160,168482,1,0,0:0:0:0:
448,64,168581,1,8,0:0:0:0:
306,147,168680,1,0,0:0:0:0:
306,147,168779,1,0,0:0:0:0:
306,147,168878,1,0,0:0:0:0:
303,161,168977,1,8,0:0:0:0:
300,144,169126,1,0,0:0:0:0:
298,146,169275,1,8,0:0:0:0:
314,145,169473,1,0,0:0:0:0:
298,146,169572,1,8,0:0:0:0:
306,147,169870,1,4,0:0:0:0:
298,146,170167,1,0,0:0:0:0:
300,143,170465,1,0,0:0:0:0:
293,142,170762,1,8,0:0:0:0:
298,146,171060,1,8,0:0:0:0:
300,143,171357,1,8,0:0:0:0:
309,141,171655,1,4,0:0:0:0:
317,142,172150,1,0,0:0:0:0:
330,149,172547,1,8,0:0:0:0:
311,147,172993,1,8,0:0:0:0:
337,160,173439,1,0,0:0:0:0:
338,157,173737,1,0,0:0:0:0:
339,157,173935,1,0,0:0:0:0:
323,157,174332,1,8,0:0:0:0:
306,149,174778,1,8,0:0:0:0:
296,135,175224,1,0,0:0:0:0:
284,137,175522,1,0,0:0:0:0:
294,140,175670,1,8,0:0:0:0:
283,137,175819,1,0,0:0:0:0:
309,146,175968,1,8,0:0:0:0:
308,146,176117,1,8,0:0:0:0:
310,137,176265,1,0,0:0:0:0:
308,149,176414,1,8,0:0:0:0:
290,158,176563,1,0,0:0:0:0:
312,149,176712,1,8,0:0:0:0:
291,158,177009,1,0,0:0:0:0:
284,158,177306,1,0,0:0:0:0:
290,158,177455,1,0,0:0:0:0:
277,161,177604,1,8,0:0:0:0:
308,157,177753,1,0,0:0:0:0:
277,161,177901,1,8,0:0:0:0:
291,149,178199,1,0,0:0:0:0:
292,137,178348,1,8,0:0:0:0:
288,135,178496,1,8,0:0:0:0:
290,143,178794,1,0,0:0:0:0:
291,149,179091,1,8,0:0:0:0:
289,151,179240,1,0,0:0:0:0:
290,143,179538,1,0,0:0:0:0:
269,136,179686,1,8,0:0:0:0:
283,135,180132,1,8,0:0:0:0:
275,140,180430,1,8,0:0:0:0:
280,143,180579,1,0,0:0:0:0:
283,135,180876,1,8,0:0:0:0:
283,135,181025,1,8,0:0:0:0:
293,150,181322,1,0,0:0:0:0:
280,143,181471,1,8,0:0:0:0:
293,150,181620,1,0,0:0:0:0:
307,156,181917,1,8,0:0:0:0:
323,160,182066,1,8,0:0:0:0:
325,155,182364,1,0,0:0:0:0:
307,156,182661,1,0,0:0:0:0:
329,163,182810,1,8,0:0:0:0:
301,153,182958,1,0,0:0:0:0:
300,151,183107,1,8,0:0:0:0:
329,163,183256,1,8,0:0:0:0:
315,150,183553,1,8,0:0:0:0:
315,150,183702,1,8,0:0:0:0:
308,155,183851,1,0,0:0:0:0:
315,150,184000,1,8,0:0:0:0:
308,155,184148,1,0,0:0:0:0:
305,162,184446,1,8,0:0:0:0:
305,162,184595,1,8,0:0:0:0:
315,169,184743,1,0,0:0:0:0:
315,169,184892,1,0,0:0:0:0:
305,162,185041,1,8,0:0:0:0:
318,183,185338,1,8,0:0:0:0:
315,181,185487,1,0,0:0:0:0:
323,178,185636,1,8,0:0:0:0:
297,169,185784,1,8,0:0:0:0:
327,176,185933,1,0,0:0:0:0:
306,182,186231,1,8,0:0:0:0:
317,188,186379,1,0,0:0:0:0:
306,166,186677,1,0,0:0:0:0:
314,165,186826,1,8,0:0:0:0:
316,176,187272,1,8,0:0:0:0:
379,181,187421,1,0,0:0:0:0:
242,138,187644,1,8,0:0:0:0:
322,166,187718,1,0,0:0:0:0:
318,165,188015,1,0,0:0:0:0:
313,155,188164,1,8,0:0:0:0:
322,166,188462,1,0,0:0:0:0:
311,164,188610,1,8,0:0:0:0:
303,152,188759,1,0,0:0:0:0:
318,165,188908,1,0,0:0:0:0:
302,155,189057,1,8,0:0:0:0:
322,166,189205,1,0,0:0:0:0:
332,157,189503,1,0,0:0:0:0:
318,165,189800,1,8,0:0:0:0:
319,166,189949,1,8,0:0:0:0:
336,170,190098,1,0,0:0:0:0:
319,166,190247,1,8,0:0:0:0:
319,166,190395,1,8,0:0:0:0:
305,159,190693,1,0,0:0:0:0:
305,160,190841,1,0,0:0:0:0:
308,177,190990,1,8,0:0:0:0:
348,165,191288,1,0,0:0:0:0:
326,153,191585,1,0,0:0:0:0:
361,163,191734,1,8,0:0:0:0:
359,163,191883,1,8,0:0:0:0:
312,151,192031,1,0,0:0:0:0:
359,163,192180,1,8,0:0:0:0:
313,151,192478,1,0,0:0:0:0:
308,169,192651,1,8,0:0:0:0:
312,151,192775,1,0,0:0:0:0:
325,159,193072,1,0,0:0:0:0:
327,162,193147,1,8,0:0:0:0:
298,160,193370,1,0,0:0:0:0:
327,147,193519,1,8,0:0:0:0:
338,147,193667,1,0,0:0:0:0:
343,146,193965,1,8,0:0:0:0:
341,141,194411,1,8,0:0:0:0:
338,147,194560,1,8,0:0:0:0:
304,135,194857,1,0,0:0:0:0:
296,134,195155,1,8,0:0:0:0:
296,134,195304,1,8,0:0:0:0:
320,150,195452,1,0,0:0:0:0:
320,150,195601,1,0,0:0:0:0:
279,176,195750,1,8,0:0:0:0:
322,150,196047,1,0,0:0:0:0:
315,152,196196,1,8,0:0:0:0:
320,150,196345,1,8,0:0:0:0:
347,180,196642,1,8,0:0:0:0:
347,180,196717,1,0,0:0:0:0:
370,166,196791,1,0,0:0:0:0:
370,166,196865,1,0,0:0:0:0:
322,150,196940,1,8,0:0:0:0:
363,160,197014,1,0,0:0:0:0:
363,160,197088,1,0,0:0:0:0:
363,160,197163,1,0,0:0:0:0:
371,147,197237,1,8,0:0:0:0:
298,173,197311,1,0,0:0:0:0:
298,173,197386,1,0,0:0:0:0:
298,173,197460,1,0,0:0:0:0:
322,150,197535,1,8,0:0:0:0:
322,150,197609,1,8,0:0:0:0:
253,113,197683,1,0,0:0:0:0:
253,113,197758,1,0,0:0:0:0:
289,135,197832,1,8,0:0:0:0:
289,135,197906,1,8,0:0:0:0:
291,155,197981,1,0,0:0:0:0:
291,155,198055,1,0,0:0:0:0:
312,120,198130,1,8,0:0:0:0:
312,120,198204,1,8,0:0:0:0:
280,135,198278,1,0,0:0:0:0:
279,135,198353,1,0,0:0:0:0:
327,118,198427,1,12,0:0:0:0:
317,129,199319,1,0,0:0:0:0:
317,129,199617,1,0,0:0:0:0:
317,129,199914,1,0,0:0:0:0:
327,135,200205,1,12,0:0:0:0:
319,145,200502,1,0,0:0:0:0:
285,149,200651,1,8,0:0:0:0:
309,172,201097,1,0,0:0:0:0:
328,165,201543,1,0,0:0:0:0:
323,155,201593,1,0,0:0:0:0:
297,146,201642,1,8,0:0:0:0:
327,142,201989,1,8,0:0:0:0:
377,149,202287,1,0,0:0:0:0:
377,149,202361,1,0,0:0:0:0:
364,155,202436,1,8,0:0:0:0:
364,155,202485,1,8,0:0:0:0:
364,155,202535,1,8,0:0:0:0:
369,143,202584,1,0,0:0:0:0:
369,143,202634,1,0,0:0:0:0:
369,143,202683,1,0,0:0:0:0:
327,142,202733,1,8,0:0:0:0:
369,142,202807,1,8,0:0:0:0:
319,150,202882,1,0,0:0:0:0:
360,154,203328,1,8,0:0:0:0:
362,157,203378,1,8,0:0:0:0:
340,154,203774,1,0,0:0:0:0:
348,164,203824,1,8,0:0:0:0:
360,154,203873,1,8,0:0:0:0:
340,154,203923,1,0,0:0:0:0:
323,158,204220,1,0,0:0:0:0:
350,162,204332,1,8,0:0:0:0:
323,158,204394,1,0,0:0:0:0:
331,157,204667,1,0,0:0:0:0:
331,157,204778,1,0,0:0:0:0:
355,154,204840,1,8,0:0:0:0:
323,158,205113,1,0,0:0:0:0:
337,141,205224,1,8,0:0:0:0:
300,142,205286,1,0,0:0:0:0:
300,144,205559,1,8,0:0:0:0:
343,161,205609,1,0,0:0:0:0:
300,144,205658,1,8,0:0:0:0:
343,161,205708,1,0,0:0:0:0:
318,136,205856,1,0,0:0:0:0:
317,131,206005,1,8,0:0:0:0:
317,131,206080,1,8,0:0:0:0:
341,151,206154,1,0,0:0:0:0:
320,140,206451,1,0,0:0:0:0:
318,136,206749,1,0,0:0:0:0:
320,140,207046,1,0,0:0:0:0:
325,152,207344,1,12,0:0:0:0:
326,136,207790,1,8,0:0:0:0:
326,136,208087,1,8,0:0:0:0:
331,134,208236,1,0,0:0:0:0:
344,144,208311,1,0,0:0:0:0:
269,169,208385,1,8,0:0:0:0:
305,153,208435,1,8,0:0:0:0:
305,153,208484,1,8,0:0:0:0:
243,141,208534,1,0,0:0:0:0:
312,136,208608,1,8,0:0:0:0:
285,119,208682,1,0,0:0:0:0:
326,136,208831,1,8,0:0:0:0:
309,128,209129,1,8,0:0:0:0:
338,131,209277,1,0,0:0:0:0:
327,137,209575,1,0,0:0:0:0:
338,136,209649,1,8,0:0:0:0:
321,143,209724,1,8,0:0:0:0:
321,143,209798,1,8,0:0:0:0:
369,135,209872,1,0,0:0:0:0:
321,143,209947,1,8,0:0:0:0:
371,135,210021,1,0,0:0:0:0:
263,112,210467,1,8,0:0:0:0:
298,125,210765,1,0,0:0:0:0:
293,118,210913,1,8,0:0:0:0:
289,116,210968,1,0,0:0:0:0:
288,146,211024,1,8,0:0:0:0:
254,129,211080,1,0,0:0:0:0:
302,134,211248,1,0,0:0:0:0:
302,134,211311,1,0,0:0:0:0:
284,96,211374,1,8,0:0:0:0:
279,139,211709,1,0,0:0:0:0:
256,192,211919,12,0,214646,0:0:0:0:
292,172,219328,5,8,0:0:0:0:
317,182,221677,1,0,0:0:0:0:
301,177,222147,1,8,0:0:0:0:
385,153,224027,1,8,0:0:0:0:
376,153,224497,1,0,0:0:0:0:
369,155,224966,1,8,0:0:0:0:
403,142,226376,1,0,0:0:0:0:
369,153,226846,1,8,0:0:0:0:
394,164,227316,1,8,0:0:0:0:
394,164,227785,1,8,0:0:0:0:
371,137,228020,1,0,0:0:0:0:
371,137,228255,1,0,0:0:0:0:
394,164,228490,1,8,0:0:0:0:
371,137,228725,1,0,0:0:0:0:
386,137,229195,1,8,0:0:0:0:
369,151,229665,1,0,0:0:0:0:
369,151,230135,1,0,0:0:0:0:
379,135,230605,1,8,0:0:0:0:
350,137,231074,1,0,0:0:0:0:
361,138,231544,1,8,0:0:0:0:
381,126,232014,1,0,0:0:0:0:
402,130,232249,1,0,0:0:0:0:
361,138,232484,1,8,0:0:0:0:
360,134,232719,1,8,0:0:0:0:
363,122,232954,1,0,0:0:0:0:
342,145,233424,1,8,0:0:0:0:
325,137,233894,1,0,0:0:0:0:
341,138,233972,1,8,0:0:0:0:
342,145,234363,1,0,0:0:0:0:
344,148,234833,1,0,0:0:0:0:
373,155,235068,1,8,0:0:0:0:
371,131,235773,1,8,0:0:0:0:
369,120,236243,1,0,0:0:0:0:
256,192,237417,12,8,237887,0:0:0:0:
264,157,238122,5,8,0:0:0:0:
281,147,238592,1,0,0:0:0:0:
296,149,239062,1,8,0:0:0:0:
303,146,239532,1,8,0:0:0:0:
309,137,240002,1,0,0:0:0:0:
329,141,240471,1,0,0:0:0:0:
329,153,240941,1,8,0:0:0:0:
327,154,241176,1,0,0:0:0:0:
171,126,241411,1,8,0:0:0:0:
341,129,241881,1,8,0:0:0:0:
448,64,241921,1,8,0:0:0:0:
348,153,242351,1,0,0:0:0:0:
391,153,242821,1,0,0:0:0:0:
369,148,243056,1,0,0:0:0:0:
369,145,243291,1,8,0:0:0:0:
365,149,243760,1,8,0:0:0:0:
334,151,244230,1,0,0:0:0:0:
322,151,244700,1,8,0:0:0:0:
322,151,245405,1,8,0:0:0:0:
346,149,246110,1,0,0:0:0:0:
338,147,246580,1,0,0:0:0:0:
338,147,246814,1,0,0:0:0:0:
331,156,247049,1,8,0:0:0:0:
338,147,247284,1,0,0:0:0:0:
343,154,247519,1,8,0:0:0:0:
256,192,247989,12,0,248459,0:0:0:0:
373,148,248929,5,0,0:0:0:0:
395,147,249399,1,8,0:0:0:0:
395,147,249634,1,8,0:0:0:0:
323,123,249868,1,0,0:0:0:0:
323,123,250103,1,0,0:0:0:0:
339,140,250338,1,8,0:0:0:0:
357,135,250808,1,8,0:0:0:0:
354,154,251043,1,0,0:0:0:0:
359,151,251278,1,8,0:0:0:0:
338,165,251513,1,0,0:0:0:0:
336,166,251748,1,0,0:0:0:0:
369,142,252218,1,8,0:0:0:0:
376,156,252453,1,0,0:0:0:0:
369,142,252688,1,8,0:0:0:0:
376,156,252923,1,0,0:0:0:0:
369,142,253157,1,8,0:0:0:0:
345,140,253627,1,8,0:0:0:0:
349,124,253862,1,8,0:0:0:0:
345,140,254097,1,8,0:0:0:0:
358,126,254567,1,0,0:0:0:0:
365,125,254802,1,0,0:0:0:0:
328,135,255037,1,8,0:0:0:0:
328,135,255272,1,8,0:0:0:0:
369,132,255507,1,0,0:0:0:0:
334,143,255742,1,0,0:0:0:0:
334,139,255977,1,0,0:0:0:0:
352,149,256211,1,0,0:0:0:0:
352,149,256446,1,0,0:0:0:0:
352,149,256681,1,0,0:0:0:0:
352,149,256916,1,0,0:0:0:0:
352,149,257151,1,0,0:0:0:0:
352,149,257386,1,0,0:0:0:0:
352,149,257621,1,0,0:0:0:0:
352,149,257856,1,0,0:0:0:0:
352,149,258091,1,0,0:0:0:0:
352,149,258326,1,0,0:0:0:0:
352,149,258561,1,0,0:0:0:0:
348,139,258796,1,0,0:0:0:0:
348,139,259031,1,0,0:0:0:0:
348,139,259266,1,0,0:0:0:0:
348,139,259500,1,0,0:0:0:0:
348,139,259735,1,0,0:0:0:0:
348,139,259970,1,0,0:0:0:0:
348,139,260205,1,0,0:0:0:0:
357,143,260440,1,8,0:0:0:0:
357,143,260675,1,8,0:0:0:0:
357,143,260910,1,8,0:0:0:0:
357,143,261145,1,8,0:0:0:0:
357,143,261380,1,8,0:0:0:0:
357,143,261615,1,8,0:0:0:0:
365,188,261850,1,8,0:0:0:0:
365,188,262085,1,8,0:0:0:0:
365,188,262320,1,8,0:0:0:0:
365,188,262554,1,8,0:0:0:0:
365,188,262789,1,8,0:0:0:0:
337,167,263024,1,0,0:0:0:0:
311,132,263269,5,4,0:0:0:0:
326,130,263503,1,8,0:0:0:0:
326,130,263737,1,8,0:0:0:0:
326,130,263972,1,8,0:0:0:0:
341,141,264206,1,4,0:0:0:0:
352,137,264440,1,4,0:0:0:0:
352,137,264675,1,4,0:0:0:0:
352,150,264909,1,8,0:0:0:0:
352,150,265144,1,8,0:0:0:0:
352,150,265378,1,8,0:0:0:0:
356,164,265495,1,0,0:0:0:0:
363,171,265612,1,8,0:0:0:0:
352,171,265847,1,0,0:0:0:0:
367,178,266093,1,0,0:0:0:0:
363,140,266171,1,0,0:0:0:0:
363,140,266249,1,0,0:0:0:0:
396,148,266327,1,8,0:0:0:0:
396,148,266405,1,8,0:0:0:0:
396,148,266484,1,8,0:0:0:0:
354,147,266562,1,0,0:0:0:0:
354,147,266640,1,0,0:0:0:0:
354,147,266718,1,0,0:0:0:0:
345,162,266796,1,8,0:0:0:0:
291,158,266875,1,0,0:0:0:0:
291,158,266953,1,0,0:0:0:0:
315,167,267031,1,8,0:0:0:0:
329,126,267109,1,0,0:0:0:0:
329,126,267187,1,0,0:0:0:0:
369,155,267266,1,8,0:0:0:0:
369,155,267344,1,8,0:0:0:0:
368,146,267422,1,8,0:0:0:0:
319,102,267500,1,0,0:0:0:0:
385,140,267676,1,8,0:0:0:0:
317,105,267764,1,8,0:0:0:0:
317,105,267852,1,8,0:0:0:0:
329,127,267969,1,0,0:0:0:0:
329,126,268087,1,0,0:0:0:0:
322,129,268204,1,8,0:0:0:0:
323,141,268439,1,8,0:0:0:0:
323,141,268673,1,8,0:0:0:0:
336,140,268908,1,4,0:0:0:0:
358,163,269142,1,8,0:0:0:0:
357,162,269377,1,8,0:0:0:0:
357,162,269611,1,8,0:0:0:0:
308,197,269846,1,4,0:0:0:0:
308,197,270080,1,4,0:0:0:0:
308,197,270315,1,4,0:0:0:0:
328,177,270549,1,8,0:0:0:0:
385,174,270784,1,0,0:0:0:0:
334,180,270901,1,8,0:0:0:0:
385,174,271019,1,0,0:0:0:0:
385,174,271136,1,0,0:0:0:0:
385,174,271253,1,0,0:0:0:0:
385,174,271488,1,0,0:0:0:0:
352,176,271722,1,0,0:0:0:0:
371,160,271897,1,0,0:0:0:0:
372,147,272073,1,8,0:0:0:0:
339,150,272191,1,8,0:0:0:0:
339,150,272308,1,8,0:0:0:0:
349,137,272425,1,0,0:0:0:0:
349,137,272543,1,0,0:0:0:0:
358,137,272660,1,8,0:0:0:0:
357,137,272777,1,8,0:0:0:0:
357,137,272895,1,8,0:0:0:0:
357,137,273012,1,8,0:0:0:0:
346,129,273129,1,0,0:0:0:0:
346,129,273207,1,0,0:0:0:0:
346,129,273286,1,0,0:0:0:0:
378,126,273364,1,8,0:0:0:0:
378,126,273442,1,8,0:0:0:0:
378,126,273520,1,8,0:0:0:0:
330,131,273598,1,0,0:0:0:0:
330,131,273677,1,0,0:0:0:0:
330,131,273755,1,0,0:0:0:0:
364,124,273833,1,8,0:0:0:0:
340,96,274068,1,8,0:0:0:0:
340,96,274302,1,8,0:0:0:0:
322,113,274537,1,4,0:0:0:0:
346,147,274771,1,8,0:0:0:0:
346,147,275006,1,8,0:0:0:0:
346,147,275240,1,8,0:0:0:0:
331,151,275475,1,4,0:0:0:0:
331,151,275709,1,4,0:0:0:0:
331,151,275944,1,4,0:0:0:0:
333,151,276178,1,8,0:0:0:0:
290,157,276296,1,0,0:0:0:0:
331,151,276413,1,8,0:0:0:0:
290,157,276530,1,0,0:0:0:0:
290,157,276648,1,0,0:0:0:0:
328,165,276765,1,8,0:0:0:0:
301,151,276882,1,0,0:0:0:0:
328,165,276999,1,8,0:0:0:0:
328,169,277117,1,0,0:0:0:0:
319,180,277234,1,0,0:0:0:0:
339,175,277351,1,8,0:0:0:0:
327,171,277429,1,8,0:0:0:0:
327,171,277507,1,8,0:0:0:0:
253,167,277585,1,0,0:0:0:0:
337,167,277663,1,0,0:0:0:0:
334,168,277742,1,0,0:0:0:0:
340,157,277820,1,8,0:0:0:0:
389,157,277898,1,0,0:0:0:0:
389,157,277976,1,0,0:0:0:0:
380,167,278054,1,8,0:0:0:0:
380,167,278133,1,8,0:0:0:0:
380,167,278211,1,8,0:0:0:0:
326,150,278289,1,0,0:0:0:0:
326,150,278367,1,0,0:0:0:0:
326,150,278445,1,0,0:0:0:0:
378,163,278524,1,8,0:0:0:0:
378,163,278602,1,8,0:0:0:0:
378,163,278680,1,8,0:0:0:0:
350,160,278758,1,0,0:0:0:0:
357,155,278875,1,0,0:0:0:0:
329,140,278993,1,8,0:0:0:0:
326,141,279071,1,8,0:0:0:0:
360,145,279227,1,0,0:0:0:0:
360,145,279306,1,0,0:0:0:0:
287,147,279384,1,0,0:0:0:0:
304,135,279462,1,8,0:0:0:0:
321,162,279697,1,0,0:0:0:0:
390,162,279931,1,8,0:0:0:0:
362,162,280166,1,0,0:0:0:0:
366,197,280401,1,0,0:0:0:0:
366,197,280637,1,0,0:0:0:0:
366,197,280872,1,0,0:0:0:0:
389,192,281108,1,8,0:0:0:0:
389,192,281344,1,8,0:0:0:0:
342,184,281579,1,0,0:0:0:0:
371,188,281814,1,8,0:0:0:0:
440,166,281961,1,0,0:0:0:0:
366,158,282168,1,0,0:0:0:0:
382,159,282286,1,8,0:0:0:0:
344,155,282403,1,8,0:0:0:0:
379,155,282520,1,0,0:0:0:0:
379,155,282598,1,0,0:0:0:0:
379,155,282676,1,0,0:0:0:0:
383,161,282754,1,8,0:0:0:0:
383,161,282832,1,8,0:0:0:0:
383,161,282911,1,8,0:0:0:0:
346,149,282989,1,0,0:0:0:0:
346,149,283067,1,0,0:0:0:0:
346,149,283145,1,0,0:0:0:0:
355,152,283223,1,8,0:0:0:0:
344,155,283340,1,8,0:0:0:0:
425,142,283457,1,0,0:0:0:0:
425,142,283536,1,0,0:0:0:0:
425,142,283614,1,0,0:0:0:0:
405,138,283692,1,8,0:0:0:0:
372,138,283770,1,0,0:0:0:0:
372,138,283848,1,0,0:0:0:0:
355,138,283926,1,8,0:0:0:0:
355,138,284004,1,8,0:0:0:0:
355,138,284082,1,8,0:0:0:0:
401,140,284161,1,0,0:0:0:0:
401,140,284239,1,0,0:0:0:0:
401,140,284317,1,0,0:0:0:0:
373,141,284395,1,8,0:0:0:0:
359,147,284512,1,0,0:0:0:0:
359,147,284629,1,0,0:0:0:0:
359,150,284864,1,8,0:0:0:0:
360,148,285098,1,4,0:0:0:0:
426,188,285332,1,8,0:0:0:0:
426,188,285567,1,8,0:0:0:0:
426,188,285802,1,8,0:0:0:0:
386,180,286037,1,4,0:0:0:0:
386,180,286272,1,4,0:0:0:0:
386,180,286507,1,4,0:0:0:0:
387,189,286742,1,8,0:0:0:0:
366,157,286859,1,0,0:0:0:0:
388,189,286977,1,8,0:0:0:0:
366,157,287094,1,0,0:0:0:0:
366,157,287212,1,0,0:0:0:0:
386,180,287329,1,8,0:0:0:0:
359,159,287447,1,0,0:0:0:0:
366,157,287564,1,0,0:0:0:0:
366,157,287682,1,0,0:0:0:0:
377,171,287917,1,0,0:0:0:0:
377,171,287995,1,0,0:0:0:0:
377,171,288073,1,0,0:0:0:0:
360,171,288151,1,8,0:0:0:0:
360,171,288230,1,8,0:0:0:0:
360,171,288308,1,8,0:0:0:0:
364,150,288386,1,0,0:0:0:0:
364,150,288465,1,0,0:0:0:0:
366,157,288543,1,0,0:0:0:0:
373,168,288621,1,8,0:0:0:0:
373,168,288700,1,8,0:0:0:0:
377,171,288778,1,8,0:0:0:0:
362,169,288856,1,0,0:0:0:0:
362,169,288935,1,0,0:0:0:0:
362,169,289013,1,0,0:0:0:0:
343,158,289091,1,8,0:0:0:0:
356,159,289209,1,8,0:0:0:0:
386,161,289326,1,0,0:0:0:0:
389,147,289444,1,0,0:0:0:0:
373,142,289561,1,8,0:0:0:0:
373,142,289639,1,8,0:0:0:0:
373,142,289718,1,8,0:0:0:0:
334,151,289796,1,0,0:0:0:0:
334,151,289913,1,0,0:0:0:0:
368,148,290031,1,8,0:0:0:0:
367,137,290109,1,0,0:0:0:0:
367,137,290188,1,0,0:0:0:0:
276,140,290266,1,8,0:0:0:0:
350,136,290383,1,8,0:0:0:0:
370,121,290501,1,0,0:0:0:0:
367,156,290618,1,8,0:0:0:0:
370,121,290736,1,0,0:0:0:0:
377,142,290814,1,8,0:0:0:0:
377,142,290892,1,8,0:0:0:0:
367,137,290971,1,0,0:0:0:0:
367,137,291049,1,0,0:0:0:0:
367,137,291127,1,0,0:0:0:0:
271,153,291206,1,8,0:0:0:0:
350,136,291284,1,8,0:0:0:0:
365,142,291362,1,0,0:0:0:0:
350,140,291441,1,8,0:0:0:0:
353,154,291519,1,0,0:0:0:0:
353,154,291597,1,0,0:0:0:0:
346,152,291675,1,8,0:0:0:0:
377,142,291793,1,0,0:0:0:0:
377,142,291910,1,0,0:0:0:0:
350,148,292144,1,12,0:0:0:0:
256,192,292379,12,0,306240,0:0:0:0:
