osu file format v14

[General]
AudioFilename: audio.mp3
AudioLeadIn: 0
PreviewTime: 49667
Countdown: 0
SampleSet: Soft
StackLeniency: 0.4
Mode: 0
LetterboxInBreaks: 0
WidescreenStoryboard: 1

[Editor]
Bookmarks: 20838,40428,83285
DistanceSpacing: 1
BeatDivisor: 4
GridSize: 4
TimelineZoom: 1.2

[Metadata]
Title:PAINT IT!!
TitleUnicode:PAINT IT!!
Artist:Mics!!
ArtistUnicode:Mics!!
Creator:arronchu1207
Version:Normal
Source:
Tags:japanese rock jrock April yuc'e ゆーしえ yuce PENGUIN RESEARCH 堀江晶太 Shota Horie 新保恵大 KEITA SHIMBO shinbo sinbo yu-ya vivid undress kemu はらだ Harada 竹下蒼天 Souma Takeshita 永塚拓馬 Takuma Nagatsuka 神宮前朱 Akari Jingumae 山下誠一郎 Seiichiro Yamashita 明治紅ノ介 Beninosuke Meiji 石谷春貴 Haruki Ishiya 東郷日向 Hinata Togo 天﨑滉平 Kohei Amasaki
BeatmapID:2835870
BeatmapSetID:1371662

[Difficulty]
HPDrainRate:3
CircleSize:3.5
OverallDifficulty:4
ApproachRate:6
SliderMultiplier:1
SliderTickRate:1

[Events]
//Background and Video events
0,0,"paint.jpg",0,0
//Break Periods
2,11296,19842
2,73745,82291
2,154561,172291
//Storyboard Layer 0 (Background)
//Storyboard Layer 1 (Fail)
//Storyboard Layer 2 (Pass)
//Storyboard Layer 3 (Foreground)
//Storyboard Layer 4 (Overlay)
//Storyboard Sound Samples

[TimingPoints]
76,306.122448979592,4,2,1,60,1,0
11096,-100,4,2,1,70,0,0
20892,-111.111111111111,4,2,1,60,0,0
25484,-100,4,2,1,70,0,0
30688,-111.111111111111,4,2,1,60,0,0
35127,-100,4,2,1,70,0,0
50280,-100,4,2,1,80,0,1
69871,-100,4,2,1,70,0,0
72320,-100,4,2,1,50,0,0
73545,-100,4,2,1,70,0,0
83341,-111.111111111111,4,2,1,60,0,0
87933,-100,4,2,1,70,0,0
93137,-111.111111111111,4,2,1,60,0,0
97729,-100,4,2,1,70,0,0
112729,-100,4,2,1,80,0,1
131096,-100,4,2,1,80,0,0
132320,-90.9090909090909,4,2,1,80,0,1
147014,-100,4,2,1,70,0,0
151912,-100,4,2,1,80,0,0
154361,-100,4,2,1,50,0,0
173341,-100,4,2,1,50,0,0
173953,-100,4,2,1,80,0,1
193545,-100,4,2,1,70,0,0
207014,-111.111111111111,4,2,1,50,0,0
209004,-111.111111111111,4,2,1,70,0,0

[Colours]
Combo1 : 255,128,64
Combo2 : 0,128,255
Combo3 : 255,128,128
Combo4 : 255,255,128

[HitObjects]
146,33,688,6,0,L|204:24,1,50,8|0,0:0|3:2,0:0:0:0:
313,118,1300,6,0,B|412:144|404:56|519:94,2,200,6|6|6,3:2|3:2|3:2,0:0:0:0:
119,168,3137,2,0,P|112:215|132:268,1,100,2|2,0:0|0:0,0:0:0:0:
171,299,3596,1,2,0:0:0:0:
171,299,3749,6,0,P|93:294|1:371,2,200,6|6|6,3:2|3:2|3:2,0:0:0:0:
258,348,5280,1,8,0:0:0:0:
357,346,5586,1,8,3:2:0:0:
432,280,5892,1,0,3:2:0:0:
447,181,6198,6,0,B|379:170|379:170|327:197|327:197|246:182,2,200,6|6|6,3:2|3:2|3:2,0:0:0:0:
283,65,8035,2,0,L|177:81,1,100,2|2,0:0|0:0,0:0:0:0:
140,55,8494,1,2,3:2:0:0:
140,55,8647,5,14,0:0:0:0:
140,55,10484,6,0,P|121:107|215:223,1,200,2|6,0:0|3:2,0:0:0:0:
194,218,20892,6,0,L|290:209,1,89.999997253418,6|2,3:2|3:2,0:0:0:0:
372,252,21504,2,0,P|381:204|363:153,1,89.999997253418,2|2,3:2|3:2,0:0:0:0:
346,121,21963,2,0,L|247:111,1,89.999997253418,2|2,0:0|0:0,0:0:0:0:
221,77,22422,1,2,3:2:0:0:
133,30,22729,2,0,B|120:75|120:75|135:123,1,89.999997253418,2|0,3:2|3:2,0:0:0:0:
164,161,23188,1,2,0:0:0:0:
164,161,23341,6,0,P|173:209|153:257,1,89.999997253418,2|2,3:2|3:2,0:0:0:0:
117,336,23953,2,0,L|211:349,1,89.9999972534181,2|2,3:2|3:2,0:0:0:0:
280,283,24565,1,2,3:2:0:0:
357,344,24871,1,2,3:2:0:0:
427,273,25178,2,0,P|428:244|417:222,2,44.999998626709,2|2|8,3:2|3:2|0:0,0:0:0:0:
357,344,25790,5,4,3:2:0:0:
280,283,26096,1,10,0:0:0:0:
206,348,26402,2,0,P|183:299|188:247,1,100,2|10,3:2|0:0,0:0:0:0:
259,186,27014,1,0,3:2:0:0:
202,103,27320,1,10,0:0:0:0:
276,35,27627,2,0,L|377:25,1,100,2|10,3:2|0:0,0:0:0:0:
420,57,28086,1,2,0:0:0:0:
420,57,28239,6,0,B|432:105|432:105|415:159,1,100,2|10,3:2|0:0,0:0:0:0:
368,240,28851,2,0,L|260:235,1,100,2|10,3:2|0:0,0:0:0:0:
178,192,29463,2,0,P|168:243|182:288,1,100,2|8,3:2|0:0,0:0:0:0:
217,330,29922,1,2,3:2:0:0:
217,330,30076,2,0,L|323:335,1,100,2|8,3:2|0:0,0:0:0:0:
413,321,30688,5,6,3:2:0:0:
370,231,30994,1,2,3:2:0:0:
458,187,31300,2,0,P|469:143|461:99,1,89.9999972534181,2|2,3:2|3:2,0:0:0:0:
435,57,31759,2,0,L|341:49,1,89.9999972534181,2|2,0:0|0:0,0:0:0:0:
296,43,32218,1,2,3:2:0:0:
215,101,32524,2,0,B|199:141|199:141|207:187,1,89.9999972534181,2|0,3:2|3:2,0:0:0:0:
290,240,33137,6,0,L|297:335,1,89.9999972534181,2|2,3:2|3:2,0:0:0:0:
206,364,33749,1,2,3:2:0:0:
206,364,33902,2,0,P|159:361|117:329,1,89.9999972534181,2|2,0:0|0:0,0:0:0:0:
112,289,34361,1,2,3:2:0:0:
170,209,34667,1,2,3:2:0:0:
97,141,34973,2,0,P|98:118|104:96,1,44.999998626709,2|10,3:2|0:0,0:0:0:0:
135,57,35280,1,0,3:2:0:0:
232,33,35586,5,4,3:2:0:0:
293,111,35892,1,10,0:0:0:0:
255,203,36198,2,0,P|302:213|349:193,1,100,2|10,3:2|0:0,0:0:0:0:
393,104,36810,1,0,3:2:0:0:
483,147,37116,1,10,0:0:0:0:
437,235,37422,2,0,L|429:340,1,100,2|10,3:2|0:0,0:0:0:0:
399,375,37882,1,2,0:0:0:0:
399,375,38035,6,0,L|289:366,1,100,2|10,3:2|0:0,0:0:0:0:
227,298,38647,2,0,L|127:306,1,100,2|10,3:2|0:0,0:0:0:0:
52,240,39259,2,0,B|33:197|33:197|46:144,1,100,2|8,3:2|0:0,0:0:0:0:
89,118,39718,1,0,3:2:0:0:
89,118,39871,2,0,L|188:127,1,100,8|8,0:0|3:2,0:0:0:0:
283,94,40484,6,0,P|286:143|268:189,1,100,14|0,0:0|3:2,0:0:0:0:
229,221,40943,2,0,P|225:270|243:316,1,100,14|0,0:0|3:2,0:0:0:0:
277,352,41402,1,14,0:0:0:0:
417,209,42014,2,0,B|462:188|462:188|519:198,2,100,10|2|10,3:2|3:2|3:2,0:0:0:0:
325,249,42933,6,0,L|218:235,1,100,14|0,0:0|3:2,0:0:0:0:
191,271,43392,2,0,L|84:285,1,100,14|0,0:0|3:2,0:0:0:0:
50,258,43851,1,14,0:0:0:0:
20,162,44157,2,0,P|17:112|47:68,1,100,10|10,3:2|0:0,0:0:0:0:
126,15,44769,1,8,3:2:0:0:
200,84,45076,1,14,0:0:0:0:
145,167,45382,6,0,L|155:267,1,100,14|0,3:2|3:2,0:0:0:0:
131,310,45841,2,0,B|178:294|178:294|225:312,1,100,14|0,3:2|3:2,0:0:0:0:
269,335,46300,1,14,3:2:0:0:
458,270,46912,1,0,0:0:0:0:
496,178,47218,1,2,3:2:0:0:
496,178,47371,2,0,P|489:128|456:87,1,100,0|0,0:0|0:0,0:0:0:0:
412,70,47831,6,0,L|302:57,1,100,14|0,3:2|3:2,0:0:0:0:
276,93,48290,2,0,L|166:106,1,100,14|0,3:2|3:2,0:0:0:0:
144,144,48749,1,14,3:2:0:0:
144,144,49667,6,0,B|137:194|137:194|163:236,1,100,2|2,3:2|0:0,0:0:0:0:
219,319,50280,6,0,P|275:307|321:301,1,100,6|8,3:2|0:0,0:0:0:0:
395,238,50892,2,0,P|407:182|413:136,1,100,2|8,3:2|0:0,0:0:0:0:
380,102,51351,1,0,0:0:0:0:
380,102,51504,2,0,L|277:115,2,100,2|8|0,3:2|0:0|3:2,0:0:0:0:
445,177,52422,2,0,L|441:232,1,50,10|2,0:0|0:0,0:0:0:0:
406,264,52729,6,0,B|357:277|357:277|304:254,1,100,2|8,3:2|0:0,0:0:0:0:
235,192,53341,2,0,L|133:202,1,100,2|8,3:2|0:0,0:0:0:0:
91,179,53800,1,0,0:0:0:0:
91,179,53953,2,0,P|66:123|83:85,2,100,2|8|0,3:2|0:0|3:2,0:0:0:0:
162,249,54871,2,0,L|172:315,1,50,10|2,0:0|3:2,0:0:0:0:
152,345,55178,6,0,P|213:339|264:367,1,100,6|8,3:2|0:0,0:0:0:0:
345,371,55790,2,0,L|334:267,1,100,2|8,3:2|0:0,0:0:0:0:
371,237,56249,1,0,0:0:0:0:
371,237,56402,2,0,L|382:133,1,100,2|8,3:2|0:0,0:0:0:0:
373,39,57014,2,0,P|334:34|314:40,1,50,2|2,3:2|0:0,0:0:0:0:
288,71,57320,2,0,P|263:73|239:68,1,50,10|2,0:0|0:0,0:0:0:0:
191,51,57627,6,0,L|203:155,1,100,2|10,3:2|0:0,0:0:0:0:
212,249,58239,1,2,3:2:0:0:
146,324,58545,1,10,0:0:0:0:
55,281,58851,2,0,B|37:234|37:234|48:180,1,100,6|8,3:2|0:0,0:0:0:0:
101,101,59463,1,2,3:2:0:0:
192,140,59769,1,10,0:0:0:0:
244,54,60076,6,0,L|349:66,1,100,6|8,3:2|0:0,0:0:0:0:
426,120,60688,2,0,P|443:169|425:217,1,100,2|8,3:2|0:0,0:0:0:0:
390,244,61147,1,0,0:0:0:0:
390,244,61300,2,0,P|329:255|274:259,2,100,2|8|0,3:2|0:0|3:2,0:0:0:0:
442,158,62218,2,0,L|447:98,1,50,10|2,0:0|0:0,0:0:0:0:
416,68,62524,6,0,L|313:78,1,100,2|8,3:2|0:0,0:0:0:0:
234,19,63137,2,0,P|217:64|228:123,1,100,2|8,3:2|0:0,0:0:0:0:
253,161,63596,1,0,0:0:0:0:
253,161,63749,2,0,B|262:224|262:224|237:251,2,100,2|8|0,3:2|0:0|3:2,0:0:0:0:
157,189,64667,2,0,L|105:193,1,50,10|2,0:0|0:0,0:0:0:0:
71,228,64973,6,0,L|79:331,1,100,6|8,3:2|0:0,0:0:0:0:
168,372,65586,2,0,P|223:383|268:368,1,100,2|8,3:2|0:0,0:0:0:0:
294,331,66045,1,0,0:0:0:0:
294,331,66198,2,0,P|342:319|390:330,1,100,2|8,3:2|0:0,0:0:0:0:
456,255,66810,2,0,L|509:263,2,50,2|2|10,3:2|0:0|0:0,0:0:0:0:
411,165,67422,6,0,L|305:176,1,100,6|10,3:2|0:0,0:0:0:0:
227,230,68035,1,6,3:2:0:0:
155,159,68341,1,10,0:0:0:0:
190,65,68647,2,0,L|290:75,1,100,2|8,3:2|0:0,0:0:0:0:
372,18,69259,1,8,3:3:0:0:
428,100,69565,2,0,L|434:156,1,50,12|4,3:3|3:3,0:0:0:0:
415,198,69871,5,6,3:2:0:0:
415,198,70024,2,0,P|362:208|306:179,1,100,8|0,0:0|3:2,0:0:0:0:
276,169,70484,2,0,L|286:274,1,100,10|0,0:0|0:0,0:0:0:0:
204,327,71096,2,0,L|200:380,2,50,2|8|0,3:2|0:0|3:2,0:0:0:0:
140,250,71708,2,0,L|134:193,1,50,8|0,0:0|3:2,0:0:0:0:
104,160,72014,2,0,L|110:103,1,50,0|0,3:2|3:2,0:0:0:0:
142,73,72320,6,0,P|191:66|240:87,1,100,2|2,0:0|0:0,0:0:0:0:
289,169,72933,2,0,P|338:176|387:155,1,100,2|2,0:0|0:0,0:0:0:0:
436,72,73545,1,6,3:2:0:0:
318,166,83341,6,0,L|222:175,1,89.999997253418,6|2,3:2|3:2,0:0:0:0:
150,234,83953,2,0,P|141:282|159:333,1,89.999997253418,2|2,3:2|3:2,0:0:0:0:
195,347,84412,2,0,L|294:357,1,89.999997253418,2|2,3:2|3:2,0:0:0:0:
327,383,84871,1,2,3:2:0:0:
415,336,85178,2,0,B|428:291|428:291|413:243,1,89.999997253418,2|0,3:2|3:2,0:0:0:0:
384,205,85637,1,2,3:2:0:0:
384,205,85790,6,0,P|375:157|395:109,1,89.999997253418,2|2,3:2|3:2,0:0:0:0:
354,25,86402,2,0,P|306:16|258:36,1,89.999997253418,2|2,3:2|3:2,0:0:0:0:
178,71,87014,1,2,3:2:0:0:
79,77,87320,1,2,3:2:0:0:
132,162,87627,2,0,P|133:191|122:213,2,44.999998626709,2|0|10,3:2|3:2|0:0,0:0:0:0:
79,77,88239,5,4,3:2:0:0:
33,166,88545,1,10,0:0:0:0:
132,162,88851,2,0,P|184:175|218:217,1,100,2|10,3:2|0:0,0:0:0:0:
202,308,89463,1,0,3:2:0:0:
291,355,89769,1,10,0:0:0:0:
338,266,90076,2,0,B|326:218|326:218|343:164,1,100,2|10,3:2|0:0,0:0:0:0:
365,126,90535,1,2,0:0:0:0:
365,126,90688,6,0,B|377:78|377:78|360:24,1,100,2|10,3:2|0:0,0:0:0:0:
277,82,91300,2,0,L|169:87,1,100,2|10,3:2|0:0,0:0:0:0:
92,139,91912,2,0,P|82:190|96:235,1,100,2|8,3:2|0:0,0:0:0:0:
137,265,92371,1,0,3:2:0:0:
137,265,92525,2,0,L|132:371,1,100,10|8,3:2|0:0,0:0:0:0:
231,380,93137,5,6,3:2:0:0:
301,311,93443,1,2,3:2:0:0:
247,229,93749,2,0,P|240:176|260:126,1,89.9999972534181,2|2,3:2|3:2,0:0:0:0:
287,109,94208,2,0,L|381:117,1,89.9999972534181,2|2,3:2|3:2,0:0:0:0:
417,88,94667,1,2,3:2:0:0:
486,159,94973,2,0,B|494:205|494:205|477:248,1,89.9999972534181,2|0,3:2|3:2,0:0:0:0:
412,319,95586,6,0,L|317:326,1,89.9999972534181,2|2,3:2|3:2,0:0:0:0:
282,297,96045,1,0,3:2:0:0:
282,297,96198,2,0,L|187:290,1,89.9999972534181,2|2,3:2|3:2,0:0:0:0:
106,340,96810,1,2,3:2:0:0:
56,254,97116,1,2,3:2:0:0:
139,201,97422,2,0,P|145:173|146:154,1,44.999998626709,2|0,3:2|3:2,0:0:0:0:
124,111,97729,1,8,3:2:0:0:
179,27,98035,5,4,3:2:0:0:
265,77,98341,1,10,0:0:0:0:
337,8,98647,2,0,P|382:13|423:48,1,100,2|10,3:2|0:0,0:0:0:0:
463,138,99259,1,0,3:2:0:0:
385,202,99565,1,10,0:0:0:0:
420,296,99871,2,0,P|374:305|322:277,1,100,2|10,3:2|0:0,0:0:0:0:
290,249,100331,1,2,0:0:0:0:
290,249,100484,6,0,L|281:139,1,100,6|10,3:2|0:0,0:0:0:0:
182,160,101096,2,0,L|190:260,1,100,2|10,3:2|0:0,0:0:0:0:
112,323,101708,2,0,B|79:281|95:227,1,100,2|8,3:2|0:0,0:0:0:0:
67,186,102167,1,0,3:2:0:0:
67,186,102320,2,0,B|100:144|84:90,1,100,8|8,0:0|3:2,0:0:0:0:
174,47,102933,6,0,P|223:66|274:60,1,100,14|0,0:0|3:2,0:0:0:0:
310,33,103392,2,0,P|359:14|410:20,1,100,14|0,0:0|3:2,0:0:0:0:
448,46,103851,1,14,0:0:0:0:
401,240,104463,2,0,P|451:260|503:251,2,100,10|2|10,3:2|3:2|3:2,0:0:0:0:
335,164,105382,6,0,L|228:178,1,100,14|0,0:0|3:2,0:0:0:0:
201,142,105841,2,0,L|94:128,1,100,14|0,0:0|3:2,0:0:0:0:
60,155,106300,1,14,0:0:0:0:
23,250,106606,2,0,P|20:300|50:344,1,100,10|10,3:2|3:2,0:0:0:0:
143,367,107218,1,8,3:2:0:0:
210,293,107525,1,14,0:0:0:0:
295,348,107831,6,0,L|395:358,1,100,14|0,3:2|3:2,0:0:0:0:
432,324,108290,2,0,B|450:277|450:277|431:219,1,100,14|0,3:2|3:2,0:0:0:0:
411,187,108749,1,14,3:2:0:0:
297,24,109361,1,0,0:0:0:0:
236,103,109667,1,2,3:2:0:0:
236,103,109820,2,0,P|190:122|138:114,1,100,0|0,0:0|0:0,0:0:0:0:
96,95,110280,6,0,L|83:205,1,100,14|0,3:2|3:2,0:0:0:0:
50,231,110739,2,0,L|63:341,1,100,14|0,3:2|3:2,0:0:0:0:
83,375,111198,1,14,3:2:0:0:
166,319,111504,6,0,P|173:268|170:224,2,75,0|0|0,3:2|3:2|3:2,0:0:0:0:
179,367,112116,2,0,B|221:341|221:341|287:350,1,100,2|2,3:2|0:0,0:0:0:0:
367,320,112729,6,0,P|355:264|349:218,1,100,6|8,3:2|0:0,0:0:0:0:
287,143,113341,2,0,P|299:87|305:41,1,100,2|8,3:2|0:0,0:0:0:0:
272,7,113800,1,0,0:0:0:0:
272,7,113953,2,0,L|169:20,2,100,2|8|0,3:2|0:0|3:2,0:0:0:0:
358,59,114871,2,0,L|413:63,1,50,10|2,0:0|0:0,0:0:0:0:
445,98,115178,6,0,B|458:147|458:147|435:200,1,100,2|8,3:2|0:0,0:0:0:0:
354,247,115790,2,0,L|252:237,1,100,2|8,3:2|0:0,0:0:0:0:
210,260,116249,1,0,0:0:0:0:
210,260,116402,2,0,P|185:316|202:354,2,100,2|8|0,3:2|0:0|3:2,0:0:0:0:
235,163,117320,2,0,L|225:97,1,50,10|2,0:0|3:2,0:0:0:0:
247,67,117627,6,0,P|186:73|135:45,1,100,6|8,3:2|0:0,0:0:0:0:
62,13,118239,2,0,L|73:117,1,100,2|8,3:2|0:0,0:0:0:0:
41,152,118698,1,0,0:0:0:0:
41,152,118851,2,0,L|30:256,1,100,2|8,3:2|0:0,0:0:0:0:
95,327,119463,2,0,P|134:332|154:326,1,50,2|2,3:2|0:0,0:0:0:0:
180,295,119769,2,0,P|205:293|229:298,1,50,10|2,0:0|0:0,0:0:0:0:
277,315,120076,6,0,L|265:211,1,100,6|10,3:2|0:0,0:0:0:0:
290,118,120688,1,6,3:2:0:0:
360,47,120994,1,10,0:0:0:0:
445,98,121300,2,0,P|463:145|452:199,1,100,2|0,3:2|3:2,0:0:0:0:
417,285,121912,2,0,L|359:276,1,50,2|8,3:2|0:0,0:0:0:0:
328,308,122218,2,0,L|270:317,1,50,10|8,0:0|0:0,0:0:0:0:
240,285,122525,6,0,L|252:180,1,100,6|8,3:2|0:0,0:0:0:0:
184,110,123137,2,0,P|135:93|87:111,1,100,2|8,3:2|0:0,0:0:0:0:
49,135,123596,1,0,0:0:0:0:
49,135,123749,2,0,P|38:74|34:19,2,100,2|8|0,3:2|0:0|3:2,0:0:0:0:
107,216,124667,2,0,L|102:276,1,50,10|2,0:0|0:0,0:0:0:0:
132,305,124973,6,0,L|235:295,1,100,2|8,3:2|0:0,0:0:0:0:
329,317,125586,2,0,P|312:272|323:213,1,100,2|8,3:2|0:0,0:0:0:0:
355,187,126045,1,0,0:0:0:0:
355,187,126198,2,0,B|418:196|418:196|445:171,2,100,2|8|0,3:2|0:0|3:2,0:0:0:0:
269,135,127116,2,0,P|264:101|273:65,1,50,10|2,0:0|3:2,0:0:0:0:
286,40,127422,6,0,L|183:48,1,100,6|8,3:2|0:0,0:0:0:0:
105,106,128035,2,0,P|116:161|101:206,1,100,2|8,3:2|0:0,0:0:0:0:
64,232,128494,1,0,0:0:0:0:
64,232,128647,2,0,P|52:280|63:328,1,100,2|8,3:2|0:0,0:0:0:0:
162,342,129259,2,0,L|213:331,1,50,2|2,3:2|0:0,0:0:0:0:
251,301,129565,2,0,L|302:312,1,50,10|0,0:0|0:0,0:0:0:0:
339,280,129871,6,0,L|328:174,1,100,6|10,3:2|0:0,0:0:0:0:
318,81,130484,1,6,3:2:0:0:
407,36,130790,1,10,0:0:0:0:
488,96,131096,2,0,L|477:195,1,100,2|8,3:2|0:0,0:0:0:0:
442,231,131555,1,0,3:2:0:0:
442,231,131708,2,0,L|446:287,1,50,8|8,0:0|0:0,0:0:0:0:
421,324,132014,1,8,0:0:0:0:
329,287,132320,6,0,P|284:270|224:296,1,110.000003356934,14|8,0:0|0:0,0:0:0:0:
132,314,132933,2,0,L|120:196,1,110.000003356934,10|8,0:0|0:0,0:0:0:0:
81,174,133392,1,2,3:2:0:0:
81,174,133545,2,0,L|93:56,1,110.000003356934,10|10,0:0|0:0,0:0:0:0:
131,34,134004,1,2,3:2:0:0:
131,34,134157,2,0,B|186:23|186:23|245:45,1,110.000003356934,10|8,0:0|0:0,0:0:0:0:
316,99,134769,6,0,L|434:81,1,110.000003356934,10|8,0:0|0:0,0:0:0:0:
442,180,135382,2,0,L|333:196,1,110.000003356934,10|8,0:0|0:0,0:0:0:0:
294,227,135841,1,2,3:2:0:0:
294,227,135994,2,0,P|279:282|298:331,1,110.000003356934,10|10,0:0|0:0,0:0:0:0:
316,380,136453,1,2,3:2:0:0:
316,380,136606,2,0,L|205:369,1,110.000003356934,10|8,0:0|0:0,0:0:0:0:
108,353,137218,6,0,B|96:299|96:299|116:245,1,110.000003356934,14|8,0:0|0:0,0:0:0:0:
187,180,137831,2,0,B|241:168|241:168|295:188,1,110.000003356934,10|8,0:0|0:0,0:0:0:0:
340,213,138290,1,2,3:2:0:0:
340,213,138443,2,0,L|332:98,1,110.000003356934,10|10,0:0|0:0,0:0:0:0:
328,53,138902,1,2,3:2:0:0:
328,53,139055,2,0,P|280:72|223:61,1,110.000003356934,10|10,0:0|0:0,0:0:0:0:
130,28,139667,5,10,0:0:0:0:
69,107,139974,1,10,0:0:0:0:
125,188,140279,1,10,0:0:0:0:
221,160,140586,1,10,0:0:0:0:
267,247,140892,2,0,P|270:304|241:358,1,110.000003356934,10|8,0:0|0:0,0:0:0:0:
152,370,141504,2,0,L|94:353,1,55.0000016784668,8|0,0:0|3:2,0:0:0:0:
53,372,141810,1,8,0:0:0:0:
2,287,142116,6,0,L|16:172,1,110.000003356934,14|8,0:0|0:0,0:0:0:0:
85,108,142729,2,0,B|132:138|132:138|186:128,1,110.000003356934,10|8,0:0|0:0,0:0:0:0:
232,114,143188,1,2,3:2:0:0:
232,114,143341,2,0,P|221:164|215:225,1,110.000003356934,10|10,0:0|0:0,0:0:0:0:
237,272,143800,1,2,3:2:0:0:
237,272,143953,2,0,L|349:260,1,110.000003356934,10|8,0:0|0:0,0:0:0:0:
431,209,144565,6,0,P|443:156|423:101,1,110.000003356934,10|8,0:0|0:0,0:0:0:0:
352,36,145178,2,0,P|299:24|244:44,1,110.000003356934,10|8,0:0|0:0,0:0:0:0:
210,74,145637,1,2,3:2:0:0:
210,74,145790,2,0,L|223:186,1,110.000003356934,10|10,0:0|0:0,0:0:0:0:
229,236,146249,1,2,3:2:0:0:
229,236,146402,2,0,B|179:257|179:257|123:242,1,110.000003356934,10|8,0:0|0:0,0:0:0:0:
29,212,147014,6,0,P|22:164|40:114,1,100,6|8,3:2|0:0,0:0:0:0:
101,38,147627,1,0,3:2:0:0:
191,80,147933,2,0,P|230:89|250:83,1,50,10|2,0:0|3:2,0:0:0:0:
283,64,148239,2,0,L|274:173,1,100,2|8,3:2|0:0,0:0:0:0:
332,244,148851,1,0,3:2:0:0:
416,190,149157,1,10,0:0:0:0:
479,266,149463,6,0,P|488:317|462:370,1,100,6|8,3:2|0:0,0:0:0:0:
372,381,150076,1,0,3:2:0:0:
297,314,150382,2,0,P|255:297|232:300,1,50,10|0,0:0|3:2,0:0:0:0:
204,316,150688,2,0,L|215:204,1,100,2|8,3:2|0:0,0:0:0:0:
294,157,151300,2,0,L|283:45,1,100,0|10,3:2|0:0,0:0:0:0:
191,21,151912,6,0,L|185:77,1,50,2|0,3:2|3:2,0:0:0:0:
149,104,152218,1,12,0:0:0:0:
64,157,152524,2,0,L|70:213,1,50,0|0,3:2|3:2,0:0:0:0:
106,240,152830,1,14,0:0:0:0:
189,294,153137,2,0,L|305:281,1,100,2|8,3:2|0:0,0:0:0:0:
320,244,153596,1,8,0:0:0:0:
320,244,153749,2,0,P|328:204|319:178,1,50,10|8,0:0|0:0,0:0:0:0:
300,153,154055,2,0,P|292:113|301:87,1,50,10|8,0:0|0:0,0:0:0:0:
325,66,154361,5,6,3:2:0:0:
93,53,173341,6,0,B|91:96|91:96|101:107|101:107|99:161,1,100,2|2,0:0|0:0,0:0:0:0:
168,221,173953,6,0,P|216:203|269:214,1,100,6|8,3:2|0:0,0:0:0:0:
358,241,174565,2,0,L|354:344,1,100,2|8,3:2|0:0,0:0:0:0:
401,368,175024,1,0,0:0:0:0:
401,368,175178,2,0,P|454:369|496:332,2,100,2|8|0,3:2|0:0|3:2,0:0:0:0:
309,327,176096,2,0,P|268:323|250:331,1,50,10|2,0:0|0:0,0:0:0:0:
218,352,176402,6,0,L|225:243,1,100,2|8,3:2|0:0,0:0:0:0:
232,152,177014,2,0,P|285:162|336:144,1,100,2|8,3:2|0:0,0:0:0:0:
365,115,177473,1,0,0:0:0:0:
365,115,177627,2,0,L|354:7,2,100,2|8|0,3:2|0:0|3:2,0:0:0:0:
376,214,178545,2,0,P|409:203|432:203,1,50,10|2,0:0|3:2,0:0:0:0:
466,228,178851,6,0,L|456:331,1,100,6|8,3:2|0:0,0:0:0:0:
358,384,179463,2,0,B|311:360|311:360|253:371,1,100,2|8,3:2|0:0,0:0:0:0:
216,383,179922,1,0,0:0:0:0:
216,383,180076,2,0,P|219:329|210:279,1,100,2|8,3:2|0:0,0:0:0:0:
176,190,180688,2,0,P|140:183|112:190,1,50,2|2,3:2|0:0,0:0:0:0:
86,213,180994,2,0,P|61:214|37:207,1,50,10|2,0:0|0:0,0:0:0:0:
2,170,181300,5,6,3:2:0:0:
12,70,181606,1,10,0:0:0:0:
95,14,181912,1,6,3:2:0:0:
195,24,182218,1,10,0:0:0:0:
251,107,182524,2,0,P|298:120|364:91,1,100,2|0,3:2|3:2,0:0:0:0:
439,70,183137,2,0,L|445:134,1,50,10|8,3:2|0:0,0:0:0:0:
474,159,183443,2,0,L|468:223,1,50,10|8,0:0|0:0,0:0:0:0:
438,247,183749,6,0,L|334:231,1,100,6|8,3:2|0:0,0:0:0:0:
240,214,184361,2,0,P|247:275|250:322,1,100,2|8,3:2|0:0,0:0:0:0:
216,351,184820,1,0,0:0:0:0:
216,351,184973,2,0,P|166:353|129:315,2,100,2|8|0,3:2|0:0|3:2,0:0:0:0:
312,379,185892,2,0,L|382:387,1,50,10|2,0:0|0:0,0:0:0:0:
401,354,186198,6,0,L|389:247,1,100,2|8,3:2|0:0,0:0:0:0:
401,155,186810,2,0,P|353:171|298:155,1,100,2|8,3:2|0:0,0:0:0:0:
268,126,187269,1,0,0:0:0:0:
268,126,187422,2,0,B|282:73|282:73|261:30,2,100,2|8|0,3:2|0:0|3:2,0:0:0:0:
247,224,188341,2,0,L|189:218,1,50,10|2,0:0|0:0,0:0:0:0:
168,260,188647,6,0,L|179:362,1,100,6|8,3:2|0:0,0:0:0:0:
79,370,189259,2,0,P|47:328|53:271,1,100,2|8,3:2|0:0,0:0:0:0:
73,241,189718,1,0,0:0:0:0:
73,241,189871,2,0,P|83:177|82:137,1,100,2|8,3:2|0:0,0:0:0:0:
138,58,190484,2,0,L|194:48,1,50,2|2,3:2|0:0,0:0:0:0:
223,16,190790,2,0,L|279:26,1,50,10|0,0:0|3:2,0:0:0:0:
306,59,191096,6,0,L|293:161,1,100,6|10,3:2|0:0,0:0:0:0:
357,234,191708,2,0,L|369:334,1,100,6|10,3:2|0:0,0:0:0:0:
274,366,192320,2,0,P|227:373|175:348,1,100,2|8,3:2|0:0,0:0:0:0:
153,316,192780,1,8,3:3:0:0:
153,316,192933,2,0,P|163:276|164:261,1,50,8|4,3:3|3:3,0:0:0:0:
149,219,193239,1,12,3:3:0:0:
204,137,193545,5,6,3:2:0:0:
204,137,193698,2,0,L|309:116,1,100,8|0,0:0|3:2,0:0:0:0:
351,108,194157,2,0,P|341:161|360:212,1,100,10|0,0:0|0:0,0:0:0:0:
430,268,194769,2,0,L|486:259,2,50,2|8|0,3:2|0:0|3:2,0:0:0:0:
335,300,195382,2,0,L|280:294,1,50,8|0,0:0|3:2,0:0:0:0:
250,330,195688,2,0,L|195:336,1,50,0|0,3:2|3:2,0:0:0:0:
160,365,195994,5,14,0:0:0:0:
26,54,197218,6,0,P|46:103|24:162,1,100,6|10,3:2|0:0,0:0:0:0:
14,191,197678,2,0,L|120:199,1,100,2|2,0:0|0:0,0:0:0:0:
161,178,198137,1,10,0:0:0:0:
220,97,198443,2,0,B|265:76|265:76|328:87,1,100,2|10,3:2|0:0,0:0:0:0:
349,120,198902,2,0,P|340:172|335:225,1,100,2|2,0:0|0:0,0:0:0:0:
346,267,199361,1,10,0:0:0:0:
424,328,199667,6,0,P|469:321|503:273,1,100,2|10,3:2|0:0,0:0:0:0:
507,230,200127,2,0,P|499:172|496:121,1,100,2|2,0:0|0:0,0:0:0:0:
507,81,200586,1,10,0:0:0:0:
424,25,200892,1,2,3:2:0:0:
352,95,201198,1,10,0:0:0:0:
267,41,201504,2,0,P|227:35|170:58,1,100,2|2,3:2|3:2,0:0:0:0:
120,141,202116,6,0,L|135:246,1,100,2|10,3:2|0:0,0:0:0:0:
104,280,202576,1,2,0:0:0:0:
182,350,202882,1,2,0:0:0:0:
182,350,203035,2,0,L|245:342,1,50,10|2,0:0|0:0,0:0:0:0:
275,368,203341,2,0,P|272:302|283:255,1,100,2|10,3:2|0:0,0:0:0:0:
301,224,203800,1,2,0:0:0:0:
375,157,204106,1,2,0:0:0:0:
375,157,204259,2,0,P|386:117|386:91,1,50,10|2,0:0|0:0,0:0:0:0:
363,64,204565,6,0,P|304:84|249:59,1,100,0|8,3:2|0:0,0:0:0:0:
231,42,205024,1,8,0:0:0:0:
148,99,205331,1,8,0:0:0:0:
148,99,205484,2,0,L|154:159,1,50,8|8,0:0|0:0,0:0:0:0:
117,184,205790,2,0,L|111:248,1,50,0|8,3:2|0:0,0:0:0:0:
148,268,206096,2,0,L|154:332,1,50,8|8,0:0|0:0,0:0:0:0:
128,361,206402,2,0,P|181:352|233:366,1,100,8|8,0:0|0:0,0:0:0:0:
321,340,207014,6,0,P|371:302|377:226,2,134.999995880127,2|2|2,3:2|0:0|0:0,0:0:0:0:
281,248,208239,2,0,P|231:210|225:134,1,134.999995880127,2|2,0:0|0:0,0:0:0:0:
269,55,209004,2,0,L|322:58,1,44.999998626709,14|14,0:0|0:0,0:0:0:0:
356,32,209310,1,14,0:0:0:0:
