osu file format v14

[General]
AudioFilename: audio.mp3
AudioLeadIn: 0
PreviewTime: 49667
Countdown: 0
SampleSet: Soft
StackLeniency: 0.2
Mode: 0
LetterboxInBreaks: 0
WidescreenStoryboard: 1

[Editor]
Bookmarks: 20838,40428,83285
DistanceSpacing: 1.4
BeatDivisor: 4
GridSize: 4
TimelineZoom: 1.4

[Metadata]
Title:PAINT IT!!
TitleUnicode:PAINT IT!!
Artist:Mics!!
ArtistUnicode:Mics!!
Creator:arronchu1207
Version:Insane
Source:
Tags:japanese rock jrock April yuc'e ゆーしえ yuce PENGUIN RESEARCH 堀江晶太 Shota Horie 新保恵大 KEITA SHIMBO shinbo sinbo yu-ya vivid undress kemu はらだ Harada 竹下蒼天 Souma Takeshita 永塚拓馬 Takuma Nagatsuka 神宮前朱 Akari Jingumae 山下誠一郎 Seiichiro Yamashita 明治紅ノ介 Beninosuke Meiji 石谷春貴 Haruki Ishiya 東郷日向 Hinata Togo 天﨑滉平 Kohei Amasaki
BeatmapID:2835868
BeatmapSetID:1371662

[Difficulty]
HPDrainRate:5
CircleSize:4.2
OverallDifficulty:8
ApproachRate:9
SliderMultiplier:1.6
SliderTickRate:1

[Events]
//Background and Video events
0,0,"paint.jpg",0,0
//Break Periods
2,11296,20292
2,73745,80292
2,154561,172741
//Storyboard Layer 0 (Background)
//Storyboard Layer 1 (Fail)
//Storyboard Layer 2 (Pass)
//Storyboard Layer 3 (Foreground)
//Storyboard Layer 4 (Overlay)
//Storyboard Sound Samples

[TimingPoints]
76,306.122448979592,4,2,1,60,1,0
1300,-166.666666666667,4,2,1,60,0,0
1759,-166.666666666667,4,2,1,5,0,0
1912,-166.666666666667,4,2,1,60,0,0
2371,-166.666666666667,4,2,1,5,0,0
2524,-166.666666666667,4,2,1,60,0,0
2984,-166.666666666667,4,2,1,5,0,0
3137,-125,4,2,1,60,0,0
3749,-166.666666666667,4,2,1,60,0,0
4208,-166.666666666667,4,2,1,5,0,0
4361,-166.666666666667,4,2,1,60,0,0
4820,-166.666666666667,4,2,1,5,0,0
4973,-166.666666666667,4,2,1,60,0,0
5280,-125,4,2,1,60,0,0
6198,-166.666666666667,4,2,1,60,0,0
6657,-166.666666666667,4,2,1,5,0,0
6810,-166.666666666667,4,2,1,60,0,0
7269,-166.666666666667,4,2,1,5,0,0
7422,-166.666666666667,4,2,1,60,0,0
7882,-166.666666666667,4,2,1,5,0,0
8035,-125,4,2,1,60,0,0
10484,-166.666666666667,4,2,1,60,0,0
10943,-166.666666666667,4,2,1,5,0,0
11096,-166.666666666667,4,2,1,70,0,0
20892,-142.857142857143,4,2,1,60,0,0
25484,-142.857142857143,4,2,1,70,0,0
25790,-111.111111111111,4,2,1,70,0,0
29693,-111.111111111111,4,2,1,5,0,0
29769,-111.111111111111,4,2,1,70,0,0
30688,-142.857142857143,4,2,1,60,0,0
35127,-142.857142857143,4,2,1,70,0,0
35586,-111.111111111111,4,2,1,70,0,0
37346,-111.111111111111,4,2,1,5,0,0
37422,-111.111111111111,4,2,1,70,0,0
47218,-166.666666666667,4,2,1,70,0,0
47831,-111.111111111111,4,2,1,70,0,0
50280,-100,4,2,1,80,0,1
56632,-100,4,2,1,5,0,1
56708,-100,4,2,1,80,0,1
67652,-100,4,2,1,5,0,1
67729,-100,4,2,1,80,0,1
68264,-100,4,2,1,5,0,1
68341,-100,4,2,1,80,0,1
69871,-125,4,2,1,70,0,0
72320,-111.111111111111,4,2,1,50,0,0
73545,-111.111111111111,4,2,1,70,0,0
83341,-142.857142857143,4,2,1,60,0,0
87933,-142.857142857143,4,2,1,70,0,0
88239,-111.111111111111,4,2,1,70,0,0
93137,-142.857142857143,4,2,1,60,0,0
97729,-111.111111111111,4,2,1,70,0,0
101019,-111.111111111111,4,2,1,5,0,0
101096,-111.111111111111,4,2,1,70,0,0
101632,-111.111111111111,4,2,1,5,0,0
101708,-111.111111111111,4,2,1,70,0,0
109667,-166.666666666667,4,2,1,70,0,0
110280,-111.111111111111,4,2,1,70,0,0
112729,-100,4,2,1,80,0,1
119081,-100,4,2,1,5,0,1
119157,-100,4,2,1,80,0,1
130101,-100,4,2,1,5,0,1
130178,-100,4,2,1,80,0,1
130713,-100,4,2,1,5,0,1
130790,-100,4,2,1,80,0,1
131096,-100,4,2,1,80,0,0
132320,-90.9090909090909,4,2,1,90,0,1
147014,-133.333333333333,4,2,1,70,0,0
151836,-133.333333333333,4,2,1,5,0,0
151912,-100,4,2,1,80,0,0
154361,-111.111111111111,4,2,1,60,0,0
173341,-200,4,2,1,60,0,0
173953,-100,4,2,1,80,0,1
180305,-100,4,2,1,5,0,1
180382,-100,4,2,1,80,0,1
191326,-100,4,2,1,5,0,1
191402,-100,4,2,1,80,0,1
191938,-100,4,2,1,5,0,1
192014,-100,4,2,1,80,0,1
193545,-125,4,2,1,70,0,0
197218,-111.111111111111,4,2,1,70,0,0
207014,-142.857142857143,4,2,1,50,0,0
209004,-142.857142857143,4,2,1,70,0,0

[Colours]
Combo1 : 255,128,64
Combo2 : 0,128,255
Combo3 : 255,128,128
Combo4 : 255,255,128

[HitObjects]
43,231,688,5,8,0:0:0:0:
92,88,841,1,0,3:2:0:0:
88,79,1300,6,0,B|168:61|138:120|233:93,1,143.999995605469,6|0,3:2|0:0,0:0:0:0:
281,7,1912,2,0,P|314:37|321:131,1,143.999995605469,6|0,3:2|0:0,0:0:0:0:
209,238,2524,2,0,L|226:93,1,143.999995605469,6|0,3:2|0:0,0:0:0:0:
281,7,3137,6,0,L|350:15,1,64,2|2,0:0|0:0,0:0:0:0:
472,81,3443,2,0,L|403:89,1,64,2|2,0:0|0:0,0:0:0:0:
327,152,3749,6,0,L|344:306,1,143.999995605469,6|0,3:2|0:0,0:0:0:0:
260,362,4361,2,0,B|186:376|198:318|121:335,1,143.999995605469,6|0,3:2|0:0,0:0:0:0:
39,300,4973,2,0,P|32:263|43:225,1,63.9999980468751,6|0,3:2|0:0,0:0:0:0:
121,200,5280,6,0,P|130:167|128:153,2,42.6666666666667,8|8|8,0:0|0:0|0:0,0:0:0:0:
195,110,5586,2,0,P|170:85|157:80,2,42.6666666666667,8|8|8,3:2|3:2|3:2,0:0:0:0:
154,0,5892,1,0,3:2:0:0:
154,0,5994,2,0,P|120:8|109:17,1,42.6666666666667,0|0,3:2|3:2,0:0:0:0:
245,40,6198,6,0,L|228:193,1,143.999995605469,6|0,3:2|0:0,0:0:0:0:
294,259,6810,2,0,P|332:271|419:221,1,143.999995605469,6|0,3:2|0:0,0:0:0:0:
352,147,7422,2,0,P|314:135|227:185,1,143.999995605469,6|0,3:2|0:0,0:0:0:0:
206,295,8035,6,0,L|218:368,1,64,2|2,0:0|0:0,0:0:0:0:
101,305,8341,2,0,L|111:241,1,64,2|2,0:0|3:2,0:0:0:0:
34,162,8647,1,14,0:0:0:0:
34,162,10484,6,0,P|71:179|129:109,1,143.999995605469,2|0,0:0|0:0,0:0:0:0:
129,112,11096,1,6,3:2:0:0:
51,93,20892,6,0,L|170:108,1,111.999996582031,6|2,3:2|3:2,0:0:0:0:
235,65,21351,1,2,0:0:0:0:
278,137,21504,2,0,P|254:170|264:248,1,111.999996582031,2|2,3:2|3:2,0:0:0:0:
415,269,21963,6,0,P|398:231|325:201,1,111.999996582031,2|2,0:0|0:0,0:0:0:0:
332,287,22422,2,0,L|340:348,1,55.9999982910157,2|0,3:2|0:0,0:0:0:0:
265,382,22729,2,0,B|232:360|232:360|152:373,1,111.999996582031,2|0,3:2|3:2,0:0:0:0:
65,292,23188,1,2,0:0:0:0:
65,292,23341,6,0,L|83:166,1,111.999996582031,2|2,3:2|3:2,0:0:0:0:
172,128,23800,1,2,0:0:0:0:
172,128,23953,2,0,P|198:130|227:154,1,55.9999982910157,2|2,3:2|0:0,0:0:0:0:
111,50,24259,2,0,P|85:52|56:76,1,55.9999982910157,2|2,3:2|0:0,0:0:0:0:
195,0,24565,6,0,P|223:35|300:38,1,111.999996582031,2|2,3:2|3:2,0:0:0:0:
360,235,25178,1,2,3:2:0:0:
420,167,25331,1,2,3:2:0:0:
337,149,25484,2,0,L|276:160,1,55.9999982910157,8|0,0:0|0:0,0:0:0:0:
173,22,25790,6,0,P|219:11|292:69,1,143.999995605469,4|10,3:2|0:0,0:0:0:0:
74,144,26326,1,8,0:0:0:0:
70,148,26402,2,0,P|64:112|53:67,1,71.9999978027344,2|0,3:2|3:2,0:0:0:0:
158,92,26708,2,0,P|164:56|175:11,1,71.9999978027344,10|0,0:0|0:0,0:0:0:0:
231,166,27014,2,0,L|217:313,1,143.999995605469,0|10,3:2|0:0,0:0:0:0:
397,329,27550,5,8,0:0:0:0:
395,322,27627,2,0,P|366:296|333:295,1,71.9999978027344,2|2,3:2|3:2,0:0:0:0:
473,209,27933,2,0,P|464:247|480:276,1,71.9999978027344,10|2,0:0|0:0,0:0:0:0:
395,157,28239,2,0,P|362:187|252:184,1,143.999995605469,2|10,3:2|0:0,0:0:0:0:
140,33,28774,1,8,0:0:0:0:
145,30,28851,2,0,L|222:38,1,71.9999978027344,2|0,3:2|3:2,0:0:0:0:
171,135,29157,2,0,L|94:143,1,71.9999978027344,10|0,0:0|0:0,0:0:0:0:
10,243,29463,6,0,P|78:249|103:292,1,107.999996704102,2|0,3:2|0:0,0:0:0:0:
175,329,29769,2,0,P|180:288|191:254,1,71.9999978027344,8|2,0:0|3:2,0:0:0:0:
318,194,30076,2,0,P|328:228|332:264,1,71.9999978027344,2|0,3:2|0:0,0:0:0:0:
285,377,30382,1,8,0:0:0:0:
285,377,30688,6,0,L|412:368,2,111.999996582031,6|2|2,3:2|3:2|3:2,0:0:0:0:
214,330,31453,1,2,0:0:0:0:
264,262,31606,1,2,3:2:0:0:
205,335,31759,6,0,P|165:340|108:291,1,111.999996582031,2|2,0:0|0:0,0:0:0:0:
127,215,32218,2,0,L|194:209,1,55.9999982910157,2|2,3:2|0:0,0:0:0:0:
253,165,32524,2,0,L|240:42,1,111.999996582031,2|0,3:2|3:2,0:0:0:0:
310,5,32984,1,2,0:0:0:0:
376,56,33137,6,0,P|369:97|366:123,1,55.9999982910157,2|2,3:2|0:0,0:0:0:0:
418,177,33443,2,0,P|459:170|485:167,1,55.9999982910157,2|0,3:2|0:0,0:0:0:0:
453,264,33749,1,2,3:2:0:0:
453,264,33902,2,0,L|330:250,1,111.999996582031,2|2,0:0|0:0,0:0:0:0:
271,302,34361,6,0,P|262:344|274:370,1,55.9999982910157,2|0,3:2|0:0,0:0:0:0:
214,227,34667,2,0,P|205:185|217:159,1,55.9999982910157,2|0,3:2|0:0,0:0:0:0:
273,103,34973,1,2,3:2:0:0:
194,38,35127,1,10,0:0:0:0:
189,33,35203,1,8,0:0:0:0:
184,29,35280,2,0,L|142:34,1,27.9999991455078,0|0,3:2|3:2,0:0:0:0:
80,80,35433,2,0,L|38:75,1,27.9999991455078,0|0,3:2|3:2,0:0:0:0:
3,149,35586,6,0,P|14:222|24:316,1,143.999995605469,4|10,3:2|0:0,0:0:0:0:
180,379,36198,2,0,B|177:342|177:342|196:295,1,71.9999978027344,2|0,3:2|3:2,0:0:0:0:
277,242,36504,2,0,L|352:254,1,71.9999978027344,10|0,0:0|0:0,0:0:0:0:
420,227,36734,1,8,0:0:0:0:
425,224,36810,6,0,P|437:185|426:148,1,71.9999978027344,0|0,3:2|3:2,0:0:0:0:
352,51,37116,2,0,L|234:66,1,107.999996704102,10|8,0:0|0:0,0:0:0:0:
183,121,37422,2,0,L|193:198,1,71.9999978027344,2|2,3:2|3:2,0:0:0:0:
285,314,37729,2,0,P|288:271|301:239,1,71.9999978027344,10|2,0:0|0:0,0:0:0:0:
368,202,37958,1,8,0:0:0:0:
375,202,38035,6,0,L|451:216,1,71.9999978027344,2|0,3:2|0:0,0:0:0:0:
512,51,38341,2,0,L|436:65,1,71.9999978027344,10|0,0:0|0:0,0:0:0:0:
374,217,38647,6,0,L|450:231,1,71.9999978027344,2|0,3:2|3:2,0:0:0:0:
512,35,38953,2,0,L|436:49,1,71.9999978027344,10|0,0:0|0:0,0:0:0:0:
304,130,39259,5,2,3:2:0:0:
217,107,39412,1,0,3:2:0:0:
162,37,39565,5,8,0:0:0:0:
34,81,39718,2,0,L|38:124,1,35.9999989013672,0|8,3:2|0:0,0:0:0:0:
106,201,39871,5,8,0:0:0:0:
110,206,40024,1,0,3:2:0:0:
114,202,40178,1,8,3:2:0:0:
110,197,40331,1,0,3:2:0:0:
1,305,40484,6,0,B|33:335|33:335|137:317,1,143.999995605469,14|0,0:0|3:2,0:0:0:0:
314,241,40943,2,0,B|293:203|245:203|245:203|222:232|176:227,1,143.999995605469,14|0,0:0|3:2,0:0:0:0:
239,380,41402,2,0,P|243:342|251:306,1,71.9999978027344,14|0,0:0|0:0,0:0:0:0:
401,195,41708,6,0,P|408:230|412:265,1,71.9999978027344,2|0,3:2|3:2,0:0:0:0:
374,359,42014,1,10,3:2:0:0:
191,227,42320,6,0,P|194:191|202:156,1,71.9999978027344,2|0,3:2|3:2,0:0:0:0:
284,75,42627,2,0,P|280:39|272:4,1,71.9999978027344,10|0,3:2|3:2,0:0:0:0:
79,113,42933,6,0,P|104:144|203:155,1,143.999995605469,14|0,0:0|3:2,0:0:0:0:
395,176,43392,2,0,B|354:149|296:159|296:159|296:186|275:213,1,143.999995605469,14|0,0:0|3:2,0:0:0:0:
472,226,43851,2,0,P|486:184|478:146,1,71.9999978027344,14|0,0:0|0:0,0:0:0:0:
372,300,44157,6,0,L|379:382,1,71.9999978027344,10|0,3:2|3:2,0:0:0:0:
244,280,44463,2,0,L|237:362,1,71.9999978027344,10|0,0:0|3:2,0:0:0:0:
125,248,44769,2,0,L|130:291,3,35.9999989013672,8|0|0|0,3:2|3:2|3:2|3:2,0:0:0:0:
72,346,45076,1,14,0:0:0:0:
158,88,45382,6,0,P|196:97|225:129,1,71.9999978027344,14|0,3:2|3:2,0:0:0:0:
244,210,45688,1,0,3:2:0:0:
307,75,45841,2,0,P|318:112|304:153,1,71.9999978027344,14|0,3:2|3:2,0:0:0:0:
244,210,46147,1,0,3:2:0:0:
221,18,46300,1,14,3:2:0:0:
221,18,47065,6,0,L|174:27,1,35.9999989013672,0|0,3:2|3:2,0:0:0:0:
90,47,47218,2,0,B|69:122|122:107|95:203,1,143.999995605469,2|0,3:2|0:0,0:0:0:0:
20,314,47831,6,0,L|11:236,1,71.9999978027344,14|0,3:2|3:2,0:0:0:0:
99,369,48137,1,0,3:2:0:0:
193,226,48290,2,0,L|202:148,1,71.9999978027344,14|0,3:2|3:2,0:0:0:0:
114,281,48596,1,0,3:2:0:0:
288,195,48749,1,14,3:2:0:0:
256,192,48902,12,2,49667,3:2:0:0:
475,85,50280,6,0,B|435:57|388:78|388:78|377:112|339:126,1,160,6|8,3:2|0:0,0:0:0:0:
297,36,50739,1,0,0:0:0:0:
480,95,50892,2,0,B|440:67|393:88|393:88|382:122|344:136,1,160,2|8,3:2|0:0,0:0:0:0:
297,36,51351,1,0,0:0:0:0:
445,180,51504,6,0,P|437:235|423:342,1,160,2|8,3:2|0:0,0:0:0:0:
335,220,51963,1,0,0:0:0:0:
282,374,52116,2,0,L|273:293,1,80,0|0,3:2|0:0,0:0:0:0:
181,157,52422,2,0,L|172:236,1,80,10|2,0:0|0:0,0:0:0:0:
261,83,52729,6,0,B|304:77|336:57|336:57|360:81|409:98,1,160,2|8,3:2|0:0,0:0:0:0:
479,24,53188,1,0,0:0:0:0:
260,95,53341,2,0,B|303:89|335:69|335:69|359:93|408:110,1,160,2|8,3:2|0:0,0:0:0:0:
479,24,53800,1,0,0:0:0:0:
327,178,53953,6,0,P|338:246|351:343,1,160,2|8,3:2|0:0,0:0:0:0:
434,215,54412,1,0,0:0:0:0:
256,299,54565,2,0,P|208:288|164:280,1,80,0|0,3:2|0:0,0:0:0:0:
95,160,54871,2,0,P|143:149|187:141,1,80,10|2,0:0|3:2,0:0:0:0:
184,147,55101,1,8,0:0:0:0:
194,151,55178,1,6,3:2:0:0:
462,319,55484,5,8,0:0:0:0:
377,378,55637,1,0,0:0:0:0:
462,319,55790,2,0,P|473:273|461:238,1,80,2|0,3:2|0:0,0:0:0:0:
384,176,56096,2,0,L|292:190,1,80,8|0,0:0|0:0,0:0:0:0:
206,282,56402,2,0,L|83:269,1,120,2|0,3:2|0:0,0:0:0:0:
7,299,56708,2,0,B|-2:260|-2:260|17:212,1,80,8|0,0:0|0:0,0:0:0:0:
118,132,57014,6,0,L|199:142,1,80,2|2,3:2|0:0,0:0:0:0:
325,16,57320,2,0,L|244:26,1,80,10|2,0:0|0:0,0:0:0:0:
395,224,57627,2,0,P|422:175|397:61,1,160,2|10,3:2|0:0,0:0:0:0:
227,136,58086,1,0,0:0:0:0:
227,136,58239,2,0,P|200:185|225:299,1,160,2|10,3:2|0:0,0:0:0:0:
394,224,58698,1,0,0:0:0:0:
394,224,58851,6,0,L|303:215,1,80,6|0,3:2|0:0,0:0:0:0:
147,143,59157,2,0,L|238:134,1,80,8|0,0:0|0:0,0:0:0:0:
346,307,59463,2,0,B|354:345|354:345|340:387,1,80,2|8,3:2|0:0,0:0:0:0:
268,339,59693,1,8,0:0:0:0:
267,332,59769,2,0,L|264:291,1,40,10|8,0:0|0:0,0:0:0:0:
194,246,59922,2,0,L|197:205,1,40,8|8,0:0|0:0,0:0:0:0:
143,137,60076,6,0,B|117:99|76:102|76:102|37:131|-11:117,1,160,6|8,3:2|0:0,0:0:0:0:
17,21,60535,1,0,0:0:0:0:
150,144,60688,2,0,B|124:106|83:109|83:109|44:138|-4:124,1,160,2|8,3:2|0:0,0:0:0:0:
17,21,61147,1,0,0:0:0:0:
80,217,61300,6,0,P|126:244|227:209,1,160,2|8,3:2|0:0,0:0:0:0:
356,96,61759,1,0,0:0:0:0:
257,51,61912,2,0,L|270:136,1,80,0|0,3:2|0:0,0:0:0:0:
370,263,62218,2,0,P|378:212|392:183,1,80,10|2,0:0|0:0,0:0:0:0:
414,354,62524,6,0,B|386:349|362:365|362:365|316:341|316:341|290:362|252:356,1,160,2|8,3:2|0:0,0:0:0:0:
262,260,62984,1,0,0:0:0:0:
420,360,63137,2,0,B|392:355|368:371|368:371|322:347|322:347|296:368|258:362,1,160,2|8,3:2|0:0,0:0:0:0:
262,260,63597,1,0,0:0:0:0:
114,384,63749,6,0,P|84:311|109:237,1,160,2|8,3:2|0:0,0:0:0:0:
198,188,64208,1,0,0:0:0:0:
272,320,64361,2,0,L|180:306,1,80,0|0,3:2|0:0,0:0:0:0:
416,243,64667,2,0,P|379:237|330:258,1,80,10|2,0:0|0:0,0:0:0:0:
497,304,64973,6,0,P|515:249|472:159,1,160,6|8,3:2|0:0,0:0:0:0:
316,34,65433,1,0,0:0:0:0:
413,10,65586,2,0,L|400:89,1,80,2|0,3:2|0:0,0:0:0:0:
326,232,65892,2,0,L|313:153,1,80,8|0,0:0|0:0,0:0:0:0:
178,83,66198,6,0,P|148:128|41:116,2,160,2|8|2,3:2|0:0|3:2,0:0:0:0:
270,165,66963,1,2,0:0:0:0:
270,165,67116,2,0,L|262:247,1,80,10|0,0:0|0:0,0:0:0:0:
149,377,67422,6,0,L|134:240,1,120,6|0,3:2|0:0,0:0:0:0:
148,173,67729,2,0,B|158:209|158:209|138:255,1,80,10|0,0:0|0:0,0:0:0:0:
8,344,68035,2,0,L|23:207,1,120,6|0,3:2|0:0,0:0:0:0:
9,140,68342,2,0,B|-1:176|-1:176|19:222,1,80,10|0,0:0|0:0,0:0:0:0:
135,257,68647,5,2,3:2:0:0:
193,136,68800,1,0,3:2:0:0:
187,131,68877,1,8,0:0:0:0:
181,126,68953,2,0,L|97:135,1,80,8|8,0:0|3:3,0:0:0:0:
251,219,69259,5,8,3:3:0:0:
274,126,69412,1,4,3:3:0:0:
353,72,69565,1,12,3:3:0:0:
448,77,69718,1,4,3:3:0:0:
506,207,69871,5,6,3:2:0:0:
506,207,70024,2,0,P|488:278|478:354,1,128,8|0,0:0|3:2,0:0:0:0:
360,370,70484,1,10,0:0:0:0:
360,370,70637,2,0,P|350:306|333:244,1,128,0|0,3:2|0:0,0:0:0:0:
252,120,71096,2,0,P|246:168|238:197,1,64,2|8,3:2|0:0,0:0:0:0:
168,278,71402,1,0,3:2:0:0:
168,278,71708,5,8,0:0:0:0:
87,315,71862,1,0,3:2:0:0:
27,248,72015,1,0,3:2:0:0:
71,170,72168,1,0,3:2:0:0:
159,189,72321,5,2,0:0:0:0:
376,89,73545,5,6,3:2:0:0:
245,64,80892,5,8,0:0:0:0:
333,131,81045,2,0,L|384:123,2,35.9999989013672,8|8|8,0:0|0:0|0:0,0:0:0:0:
236,50,81351,5,8,0:0:0:0:
148,117,81504,2,0,L|97:109,2,35.9999989013672,8|8|8,0:0|0:0|0:0,0:0:0:0:
229,37,81810,5,8,0:0:0:0:
333,131,81963,2,0,L|328:177,1,35.9999989013672,8|8,0:0|0:0,0:0:0:0:
258,220,82116,6,0,L|266:298,1,71.9999978027344,8|8,0:0|0:0,0:0:0:0:
195,341,82346,1,8,0:0:0:0:
189,344,82422,2,0,P|148:333|115:328,1,71.9999978027344,8|8,0:0|0:0,0:0:0:0:
35,335,82652,1,8,0:0:0:0:
31,329,82729,2,0,L|39:286,3,35.9999989013672,8|8|8|8,0:0|0:0|0:0|0:0,0:0:0:0:
91,220,83035,2,0,L|83:177,3,35.9999989013672,8|8|8|8,0:0|0:0|0:0|0:0,0:0:0:0:
20,124,83341,6,0,P|74:134|130:90,1,111.999996582031,6|2,3:2|3:2,0:0:0:0:
172,26,83800,1,2,3:2:0:0:
172,26,83953,2,0,L|239:34,1,55.9999982910157,2|2,3:2|3:2,0:0:0:0:
286,106,84259,1,2,3:2:0:0:
355,42,84412,1,2,3:2:0:0:
360,37,84489,1,0,3:2:0:0:
366,33,84565,6,0,P|390:73|377:155,1,111.999996582031,0|2,3:2|3:2,0:0:0:0:
319,203,85024,1,2,3:2:0:0:
313,200,85101,1,0,3:2:0:0:
307,198,85178,2,0,L|191:210,1,111.999996582031,2|0,3:2|3:2,0:0:0:0:
113,162,85637,1,2,3:2:0:0:
108,157,85713,1,0,3:2:0:0:
104,152,85790,6,0,L|114:84,1,55.9999982910157,2|2,3:2|3:2,0:0:0:0:
27,215,86096,2,0,L|39:334,1,111.999996582031,2|2,3:2|3:2,0:0:0:0:
114,375,86555,1,2,3:2:0:0:
181,314,86708,2,0,P|211:303|240:309,1,55.9999982910157,2|2,3:2|3:2,0:0:0:0:
318,353,87014,6,0,L|328:295,1,55.9999982910157,2|0,3:2|3:2,0:0:0:0:
411,194,87320,2,0,L|420:249,1,55.9999982910157,2|0,3:2|3:2,0:0:0:0:
301,178,87627,2,0,L|308:141,3,27.9999991455078,2|0|0|0,3:2|3:2|3:2|3:2,0:0:0:0:
292,63,87933,1,10,0:0:0:0:
292,63,88239,6,0,P|258:89|162:80,1,143.999995605469,4|10,3:2|0:0,0:0:0:0:
49,213,88774,1,8,0:0:0:0:
51,207,88851,2,0,L|41:129,1,71.9999978027344,2|0,3:2|3:2,0:0:0:0:
119,288,89157,2,0,L|109:359,1,71.9999978027344,10|0,0:0|0:0,0:0:0:0:
206,237,89463,2,0,B|250:229|250:229|297:254|297:254|344:246,1,143.999995605469,0|10,3:2|0:0,0:0:0:0:
489,60,89999,5,8,0:0:0:0:
485,54,90076,2,0,P|452:29|417:27,1,71.9999978027344,2|2,3:2|3:2,0:0:0:0:
364,153,90382,2,0,P|402:136|421:107,1,71.9999978027344,10|2,0:0|0:0,0:0:0:0:
343,66,90688,2,0,L|196:79,1,143.999995605469,2|10,3:2|0:0,0:0:0:0:
62,226,91223,5,8,0:0:0:0:
66,222,91300,2,0,L|138:230,1,71.9999978027344,2|0,3:2|3:2,0:0:0:0:
184,338,91606,2,0,L|112:346,1,71.9999978027344,10|0,0:0|0:0,0:0:0:0:
250,240,91912,6,0,P|318:228|370:274,1,143.999995605469,2|8,3:2|0:0,0:0:0:0:
285,343,92371,1,0,3:2:0:0:
470,315,92524,5,10,3:2:0:0:
386,383,92678,1,0,3:2:0:0:
370,274,92831,1,8,0:0:0:0:
370,274,93137,6,0,P|383:202|388:146,1,111.999996582031,6|2,3:2|3:2,0:0:0:0:
321,88,93596,1,2,3:2:0:0:
315,85,93672,1,0,3:2:0:0:
309,82,93749,2,0,L|242:90,1,55.9999982910157,2|0,3:2|3:2,0:0:0:0:
181,28,94055,1,2,3:2:0:0:
116,96,94208,1,2,3:2:0:0:
112,101,94285,1,0,3:2:0:0:
108,106,94361,6,0,P|114:150|116:177,1,55.9999982910157,0|2,3:2|3:2,0:0:0:0:
183,224,94667,2,0,P|177:268|175:295,1,55.9999982910157,2|2,3:2|3:2,0:0:0:0:
110,338,94973,2,0,P|76:341|56:333,2,55.9999982910157,2|0|0,3:2|3:2|3:2,0:0:0:0:
176,279,95433,1,2,3:2:0:0:
181,275,95509,1,0,3:2:0:0:
186,271,95586,6,0,L|254:280,1,55.9999982910157,2|2,3:2|3:2,0:0:0:0:
314,225,95892,1,2,3:2:0:0:
374,291,96045,1,0,3:2:0:0:
379,287,96121,1,0,3:2:0:0:
384,283,96198,6,0,P|403:242|384:168,1,111.999996582031,2|2,3:2|3:2,0:0:0:0:
323,119,96657,1,2,3:2:0:0:
386,55,96810,6,0,L|420:58,3,27.9999991455078,2|0|0|0,3:2|3:2|3:2|3:2,0:0:0:0:
323,119,97116,2,0,L|289:122,3,27.9999991455078,2|0|0|0,3:2|3:2|3:2|3:2,0:0:0:0:
256,43,97423,2,0,L|229:41,3,27.9999991455078,2|0|0|0,3:2|3:2|3:2|3:2,0:0:0:0:
166,105,97729,1,8,3:2:0:0:
166,105,98035,6,0,L|184:264,1,143.999995605469,4|10,3:2|0:0,0:0:0:0:
323,374,98647,2,0,L|334:300,1,71.9999978027344,2|0,3:2|3:2,0:0:0:0:
416,240,98953,2,0,L|405:166,1,71.9999978027344,10|0,0:0|0:0,0:0:0:0:
354,98,99183,1,8,0:0:0:0:
348,92,99259,6,0,P|297:76|224:134,1,143.999995605469,0|10,3:2|0:0,0:0:0:0:
107,286,99871,2,0,P|65:294|34:283,1,71.9999978027344,2|2,3:2|3:2,0:0:0:0:
160,214,100178,2,0,P|187:246|193:278,1,71.9999978027344,10|2,0:0|0:0,0:0:0:0:
76,204,100484,6,0,L|86:131,1,71.9999978027344,6|0,3:2|0:0,0:0:0:0:
197,40,100790,2,0,P|228:67|303:64,1,107.999996704102,10|0,0:0|0:0,0:0:0:0:
301,62,101096,2,0,P|292:109|294:134,1,71.9999978027344,2|0,3:2|3:2,0:0:0:0:
476,156,101402,2,0,P|435:149|368:189,1,107.999996704102,10|0,0:0|0:0,0:0:0:0:
371,184,101708,5,2,3:2:0:0:
357,269,101861,1,0,0:0:0:0:
343,354,102014,1,8,0:0:0:0:
223,280,102167,1,0,3:2:0:0:
222,273,102244,1,8,0:0:0:0:
221,266,102320,5,8,0:0:0:0:
99,187,102473,1,0,3:2:0:0:
41,252,102627,1,8,3:2:0:0:
70,333,102780,1,0,3:2:0:0:
109,174,102933,6,0,B|94:26,1,143.999995605469,14|0,0:0|3:2,0:0:0:0:
324,154,103392,2,0,B|303:192|255:192|255:192|232:163|186:168,1,143.999995605469,14|0,0:0|3:2,0:0:0:0:
246,7,103851,2,0,P|250:45|258:81,1,71.9999978027344,14|0,0:0|0:0,0:0:0:0:
413,206,104157,6,0,P|420:171|424:136,1,71.9999978027344,2|0,3:2|3:2,0:0:0:0:
373,31,104463,1,10,3:2:0:0:
201,167,104769,6,0,P|204:203|212:238,1,71.9999978027344,2|0,3:2|3:2,0:0:0:0:
286,313,105076,2,0,P|282:349|274:384,1,71.9999978027344,10|0,3:2|3:2,0:0:0:0:
89,280,105382,6,0,P|114:249|213:238,1,143.999995605469,14|0,0:0|3:2,0:0:0:0:
393,338,105841,2,0,B|294:355|294:355|283:302,1,143.999995605469,14|0,0:0|3:2,0:0:0:0:
351,185,106300,2,0,P|365:227|357:265,1,71.9999978027344,14|0,0:0|0:0,0:0:0:0:
271,107,106606,6,0,L|278:25,1,71.9999978027344,10|0,3:2|3:2,0:0:0:0:
168,147,106912,2,0,L|161:65,1,71.9999978027344,10|0,3:2|3:2,0:0:0:0:
46,176,107218,2,0,L|51:133,3,35.9999989013672,8|0|0|0,3:2|3:2|3:2|3:2,0:0:0:0:
61,57,107525,1,14,0:0:0:0:
61,57,107678,1,0,3:2:0:0:
185,229,107831,6,0,P|223:220|252:188,1,71.9999978027344,14|0,3:2|3:2,0:0:0:0:
271,107,108137,1,0,3:2:0:0:
334,242,108290,2,0,P|345:205|331:164,1,71.9999978027344,14|0,3:2|3:2,0:0:0:0:
271,107,108596,1,0,3:2:0:0:
248,299,108749,1,14,3:2:0:0:
248,299,109514,6,0,L|201:308,1,35.9999989013672,0|0,3:2|3:2,0:0:0:0:
136,260,109667,2,0,B|113:182|165:194|144:119,1,143.999995605469,2|0,3:2|0:0,0:0:0:0:
51,87,110280,6,0,L|42:165,1,71.9999978027344,14|0,3:2|3:2,0:0:0:0:
130,32,110586,1,0,3:2:0:0:
224,175,110739,2,0,L|233:253,1,71.9999978027344,14|0,3:2|3:2,0:0:0:0:
145,120,111045,1,0,3:2:0:0:
319,206,111198,1,14,3:2:0:0:
319,206,111504,6,0,P|370:207|445:231,2,107.999996704102,0|0|0,3:2|3:2|3:2,0:0:0:0:
232,246,112116,1,2,3:2:0:0:
232,246,112729,6,0,B|195:223|148:233|148:233|130:271|81:280,1,160,6|8,3:2|0:0,0:0:0:0:
64,185,113188,1,0,0:0:0:0:
236,254,113341,2,0,B|199:231|152:241|152:241|134:279|85:288,1,160,2|8,3:2|0:0,0:0:0:0:
64,185,113800,1,0,0:0:0:0:
194,344,113953,6,0,P|268:353|330:294,1,160,2|8,3:2|0:0,0:0:0:0:
436,162,114412,1,0,0:0:0:0:
338,129,114565,2,0,L|352:216,1,80,0|0,3:2|0:0,0:0:0:0:
469,320,114871,2,0,P|475:277|494:242,1,80,10|2,0:0|0:0,0:0:0:0:
359,363,115178,6,0,B|316:357|284:337|284:337|260:361|215:376,1,160,2|8,3:2|0:0,0:0:0:0:
205,264,115637,1,0,0:0:0:0:
364,371,115790,2,0,B|321:365|289:345|289:345|265:369|220:384,1,160,2|8,3:2|0:0,0:0:0:0:
205,264,116249,1,0,0:0:0:0:
74,377,116402,6,0,P|38:343|45:235,1,160,2|8,3:2|0:0,0:0:0:0:
187,101,116861,1,0,0:0:0:0:
108,163,117014,2,0,L|28:145,1,80,0|0,3:2|0:0,0:0:0:0:
187,101,117320,2,0,L|267:83,1,80,10|2,0:0|3:2,0:0:0:0:
275,81,117550,1,8,0:0:0:0:
284,79,117627,5,6,3:2:0:0:
254,329,117933,1,8,0:0:0:0:
180,267,118086,1,0,0:0:0:0:
254,329,118239,2,0,B|294:337|294:337|331:319,1,80,2|0,3:2|0:0,0:0:0:0:
411,270,118545,2,0,L|415:188,1,80,8|0,0:0|0:0,0:0:0:0:
354,115,118851,6,0,B|344:21|344:21|375:44,1,120,2|0,3:2|0:0,0:0:0:0:
340,133,119157,2,0,P|306:148|262:137,1,80,8|0,0:0|0:0,0:0:0:0:
102,68,119463,1,2,3:2:0:0:
102,68,119616,1,2,0:0:0:0:
209,1,119769,2,0,L|193:90,1,80,10|2,0:0|0:0,0:0:0:0:
90,180,120076,6,0,B|80:247|80:247|99:342,1,160,6|10,3:2|0:0,0:0:0:0:
273,296,120535,1,0,0:0:0:0:
273,296,120688,2,0,B|283:229|283:229|265:139,1,160,6|10,3:2|0:0,0:0:0:0:
186,38,121147,1,0,0:0:0:0:
186,38,121300,6,0,L|102:46,1,80,2|8,3:2|0:0,0:0:0:0:
98,52,121530,1,8,0:0:0:0:
91,58,121606,1,0,3:2:0:0:
8,133,121759,2,0,L|13:178,2,40,8|8|2,0:0|0:0|3:2,0:0:0:0:
121,194,122065,1,8,0:0:0:0:
126,199,122142,1,8,0:0:0:0:
131,204,122218,2,0,L|126:249,3,40,10|8|8|8,0:0|0:0|0:0|0:0,0:0:0:0:
197,295,122524,6,0,B|223:260|281:264|281:264|302:294|350:293,1,160,6|8,3:2|0:0,0:0:0:0:
353,198,122984,1,0,0:0:0:0:
189,303,123137,2,0,B|215:268|273:272|273:272|294:302|342:301,1,160,2|8,3:2|0:0,0:0:0:0:
353,198,123597,1,0,0:0:0:0:
439,378,123749,6,0,L|455:209,1,160,2|8,3:2|0:0,0:0:0:0:
492,61,124208,1,0,0:0:0:0:
341,118,124361,2,0,L|353:198,1,80,0|0,3:2|0:0,0:0:0:0:
228,264,124667,2,0,L|239:184,1,80,10|2,0:0|0:0,0:0:0:0:
188,44,124973,6,0,B|157:46|135:29|135:29|115:42|86:46|86:46|57:28|25:31,1,160,2|8,3:2|0:0,0:0:0:0:
27,140,125433,1,0,0:0:0:0:
195,34,125586,2,0,B|164:36|142:19|142:19|122:32|93:36|93:36|64:18|32:21,1,160,2|8,3:2|0:0,0:0:0:0:
27,140,126046,1,0,0:0:0:0:
203,26,126198,6,0,P|246:52|243:163,1,160,2|8,3:2|0:0,0:0:0:0:
141,298,126657,1,0,0:0:0:0:
92,208,126810,2,0,L|175:200,1,80,0|0,3:2|0:0,0:0:0:0:
291,302,127116,2,0,L|284:342,3,40,10|0|2|8,0:0|0:0|3:2|0:0,0:0:0:0:
283,280,127422,6,0,P|346:312|433:273,1,160,6|8,3:2|0:0,0:0:0:0:
443,87,127882,1,0,0:0:0:0:
349,132,128035,2,0,B|342:177|342:177|360:217,1,80,2|0,3:2|0:0,0:0:0:0:
443,87,128341,2,0,B|450:42|450:42|432:2,1,80,8|0,0:0|0:0,0:0:0:0:
190,109,128647,6,0,L|359:133,2,160,2|8|2,3:2|0:0|3:2,0:0:0:0:
91,195,129412,1,2,0:0:0:0:
91,195,129565,2,0,P|77:231|88:269,1,80,10|0,0:0|0:0,0:0:0:0:
160,363,129871,6,0,L|288:352,1,120,6|0,3:2|0:0,0:0:0:0:
368,375,130178,2,0,L|276:360,1,80,10|0,0:0|0:0,0:0:0:0:
178,273,130484,2,0,L|306:262,1,120,6|0,3:2|0:0,0:0:0:0:
386,285,130791,2,0,L|294:270,1,80,10|0,0:0|0:0,0:0:0:0:
267,129,131096,5,2,3:2:0:0:
366,84,131249,1,0,3:2:0:0:
372,92,131326,1,8,0:0:0:0:
378,99,131402,2,0,P|375:142|368:186,1,80,8|0,0:0|3:2,0:0:0:0:
307,272,131708,1,8,0:0:0:0:
287,266,131784,1,8,0:0:0:0:
267,266,131861,1,8,0:0:0:0:
248,272,131937,1,8,0:0:0:0:
231,282,132014,2,0,L|235:330,3,40,8|8|8|8,0:0|0:0|0:0|0:0,0:0:0:0:
169,371,132320,6,0,B|124:361|78:381|78:381|31:364|35:295,1,176.000005371094,14|8,0:0|0:0,0:0:0:0:
82,124,132780,1,0,3:2:0:0:
231,282,132933,5,10,0:0:0:0:
46,215,133086,1,0,3:2:0:0:
205,84,133239,5,8,0:0:0:0:
145,286,133392,1,2,3:2:0:0:
0,129,133545,6,0,P|32:115|89:129,1,88.000002685547,10|0,0:0|3:2,0:0:0:0:
230,252,133851,1,10,0:0:0:0:
46,215,134004,1,2,3:2:0:0:
204,83,134157,6,0,P|210:124|195:169,1,88.000002685547,10|0,0:0|3:2,0:0:0:0:
40,300,134463,2,0,P|34:259|47:212,1,88.000002685547,8|0,0:0|3:2,0:0:0:0:
124,367,134769,6,0,B|156:344|202:342|202:342|226:384|281:382,1,176.000005371094,10|8,0:0|0:0,0:0:0:0:
471,341,135229,1,0,3:2:0:0:
307,170,135382,5,10,0:0:0:0:
371,384,135535,1,0,3:2:0:0:
414,180,135688,5,8,0:0:0:0:
228,249,135841,1,2,3:2:0:0:
471,341,135994,6,0,P|483:297|461:248,1,88.000002685547,10|0,0:0|3:2,0:0:0:0:
307,170,136300,1,10,0:0:0:0:
391,304,136453,1,2,3:2:0:0:
493,162,136606,6,0,B|448:155|448:155|406:184,1,88.000002685547,10|0,0:0|3:2,0:0:0:0:
216,240,136912,2,0,B|253:264|253:264|299:257,1,88.000002685547,8|0,0:0|3:2,0:0:0:0:
283,4,137218,6,0,B|271:66|271:66|287:97|287:97|271:180,1,176.000005371094,14|8,0:0|0:0,0:0:0:0:
103,255,137678,1,0,3:2:0:0:
135,82,137831,5,10,0:0:0:0:
207,266,137984,1,0,3:2:0:0:
67,165,138137,5,8,0:0:0:0:
232,85,138290,1,2,3:2:0:0:
103,255,138443,6,0,L|14:244,1,88.000002685547,10|0,0:0|3:2,0:0:0:0:
135,82,138749,1,10,0:0:0:0:
207,266,138902,1,2,3:2:0:0:
55,128,139055,6,0,P|42:88|51:44,1,88.000002685547,10|0,0:0|3:2,0:0:0:0:
216,36,139361,2,0,P|229:76|218:120,1,88.000002685547,10|0,0:0|3:2,0:0:0:0:
86,242,139667,6,0,P|41:237|-10:226,1,88.000002685547,10|0,0:0|3:2,0:0:0:0:
68,375,139973,2,0,P|112:366|166:360,1,88.000002685547,10|0,0:0|3:2,0:0:0:0:
246,203,140280,2,0,P|205:199|150:189,1,88.000002685547,10|0,0:0|3:2,0:0:0:0:
231,337,140586,2,0,P|275:328|328:326,1,88.000002685547,10|0,0:0|3:2,0:0:0:0:
486,362,140892,5,10,0:0:0:0:
345,236,141045,1,0,3:2:0:0:
490,373,141198,5,8,0:0:0:0:
340,226,141351,1,0,3:2:0:0:
499,157,141504,6,0,P|504:188|500:212,3,44.0000013427735,8|0|0|0,0:0|3:2|3:2|3:2,0:0:0:0:
452,266,141810,1,8,0:0:0:0:
452,266,142116,6,0,B|392:281|392:281|278:269,1,176.000005371094,14|8,0:0|0:0,0:0:0:0:
130,212,142576,1,0,3:2:0:0:
265,77,142729,5,10,0:0:0:0:
194,275,142882,1,0,3:2:0:0:
177,69,143035,5,8,0:0:0:0:
347,138,143188,1,2,3:2:0:0:
130,212,143341,6,0,P|111:177|118:126,1,88.000002685547,10|0,0:0|3:2,0:0:0:0:
256,0,143647,1,10,0:0:0:0:
202,159,143800,1,2,3:2:0:0:
80,38,143953,6,0,L|170:44,1,88.000002685547,10|0,0:0|3:2,0:0:0:0:
289,152,144259,2,0,L|201:159,1,88.000002685547,8|0,0:0|3:2,0:0:0:0:
26,234,144565,6,0,B|66:209|112:225|112:225|135:268|190:271,1,176.000005371094,10|8,0:0|0:0,0:0:0:0:
380,236,145024,1,0,3:2:0:0:
201,158,145178,5,10,0:0:0:0:
225,364,145331,1,0,3:2:0:0:
390,247,145484,5,8,0:0:0:0:
213,145,145637,1,2,3:2:0:0:
350,332,145790,6,0,P|388:343|435:330,1,88.000002685547,10|0,0:0|3:2,0:0:0:0:
503,163,146096,1,10,0:0:0:0:
390,247,146249,1,2,3:2:0:0:
503,163,146402,6,0,P|505:117|513:70,1,88.000002685547,10|8,0:0|0:0,0:0:0:0:
444,23,146632,1,8,0:0:0:0:
430,26,146708,6,0,L|385:35,1,44.0000013427735,8|8,0:0|0:0,0:0:0:0:
341,108,146861,2,0,L|295:100,1,44.0000013427735,8|8,0:0|0:0,0:0:0:0:
229,45,147014,6,0,B|210:89|210:89|229:172,2,120.000004577637,6|8|0,3:2|0:0|3:2,0:0:0:0:
134,17,147780,1,0,3:2:0:0:
134,17,147933,2,0,L|68:27,1,60.0000022888184,10|2,0:0|3:2,0:0:0:0:
68,35,148162,1,0,3:2:0:0:
62,43,148239,6,0,L|75:172,1,120.000004577637,2|8,3:2|0:0,0:0:0:0:
139,231,148698,1,0,3:2:0:0:
139,231,148851,2,0,L|130:302,1,60.0000022888184,0|0,3:2|3:2,0:0:0:0:
200,351,149157,2,0,P|232:331|299:344,1,90.0000034332277,10|0,0:0|3:2,0:0:0:0:
301,346,149463,6,0,L|286:222,2,120.000004577637,6|8|0,3:2|0:0|3:2,0:0:0:0:
394,379,150229,1,0,3:2:0:0:
394,379,150382,2,0,L|399:315,1,60.0000022888184,10|0,0:0|3:2,0:0:0:0:
406,311,150611,1,0,3:2:0:0:
414,303,150688,6,0,B|425:268|425:268|425:178,1,120.000004577637,2|8,3:2|0:0,0:0:0:0:
366,111,151147,1,0,3:2:0:0:
366,111,151223,1,0,3:2:0:0:
366,111,151300,6,0,L|301:119,1,60.0000022888184,0|0,3:2|3:2,0:0:0:0:
241,51,151606,2,0,P|198:30|147:41,1,90.0000034332277,10|0,0:0|0:0,0:0:0:0:
98,91,151912,6,0,L|108:175,1,80,2|0,3:2|3:2,0:0:0:0:
228,288,152218,2,0,P|230:244|252:207,1,80,12|0,0:0|0:0,0:0:0:0:
415,187,152524,1,0,3:2:0:0:
314,269,152678,1,0,3:2:0:0:
406,108,152831,2,0,L|415:187,1,80,14|0,0:0|0:0,0:0:0:0:
242,131,153137,6,0,L|251:51,1,80,2|8,3:2|0:0,0:0:0:0:
190,0,153366,1,8,0:0:0:0:
172,4,153443,2,0,L|129:11,3,40,8|8|8|8,0:0|0:0|0:0|0:0,0:0:0:0:
89,86,153749,2,0,L|50:80,3,40,10|8|8|8,0:0|0:0|0:0|0:0,0:0:0:0:
132,162,154055,2,0,L|172:156,3,40,10|8|8|8,0:0|0:0|0:0|0:0,0:0:0:0:
84,232,154361,1,6,3:2:0:0:
234,229,173341,6,0,B|243:198|243:198|241:149,1,80,2|2,0:0|0:0,0:0:0:0:
232,138,173953,6,0,B|195:161|148:151|148:151|130:113|81:104,1,160,6|8,3:2|0:0,0:0:0:0:
64,199,174412,1,0,0:0:0:0:
236,130,174565,2,0,B|199:153|152:143|152:143|134:105|85:96,1,160,2|8,3:2|0:0,0:0:0:0:
64,199,175024,1,0,0:0:0:0:
194,40,175177,6,0,P|268:31|330:90,1,160,2|8,3:2|0:0,0:0:0:0:
421,207,175636,1,0,0:0:0:0:
326,253,175789,2,0,L|316:164,1,80,0|0,3:2|0:0,0:0:0:0:
469,64,176095,2,0,P|475:107|494:142,1,80,10|2,0:0|0:0,0:0:0:0:
359,21,176402,6,0,B|316:27|284:47|284:47|260:23|215:8,1,160,2|8,3:2|0:0,0:0:0:0:
205,120,176861,1,0,0:0:0:0:
364,13,177014,2,0,B|321:19|289:39|289:39|265:15|220:0,1,160,2|8,3:2|0:0,0:0:0:0:
205,120,177473,1,0,0:0:0:0:
74,7,177626,6,0,P|38:41|45:149,1,160,2|8,3:2|0:0,0:0:0:0:
187,283,178085,1,0,0:0:0:0:
108,221,178238,2,0,L|28:239,1,80,0|0,3:2|0:0,0:0:0:0:
187,283,178544,2,0,L|267:301,1,80,10|2,0:0|3:2,0:0:0:0:
275,303,178774,1,8,0:0:0:0:
284,305,178851,5,6,3:2:0:0:
254,55,179157,1,8,0:0:0:0:
180,117,179310,1,0,0:0:0:0:
254,55,179463,2,0,B|294:47|294:47|331:65,1,80,2|0,3:2|0:0,0:0:0:0:
411,114,179769,2,0,L|415:196,1,80,8|0,0:0|0:0,0:0:0:0:
354,269,180075,6,0,B|344:363|344:363|375:340,1,120,2|0,3:2|0:0,0:0:0:0:
340,251,180381,2,0,P|306:236|262:247,1,80,8|0,0:0|0:0,0:0:0:0:
102,316,180687,1,2,3:2:0:0:
102,316,180840,1,2,0:0:0:0:
209,383,180993,2,0,L|193:294,1,80,10|2,0:0|0:0,0:0:0:0:
90,204,181300,6,0,B|80:137|80:137|99:42,1,160,6|10,3:2|0:0,0:0:0:0:
273,88,181759,1,0,0:0:0:0:
273,88,181912,2,0,B|283:155|283:155|265:245,1,160,6|10,3:2|0:0,0:0:0:0:
173,329,182371,1,0,0:0:0:0:
173,329,182524,6,0,L|179:378,3,40,2|0|0|0,3:2|3:2|3:2|3:2,0:0:0:0:
93,292,182831,2,0,L|87:341,3,40,0|0|0|0,3:2|3:2|3:2|3:2,0:0:0:0:
163,247,183137,1,10,3:2:0:0:
162,237,183214,1,8,0:0:0:0:
161,227,183290,1,8,0:0:0:0:
160,217,183367,1,8,0:0:0:0:
159,208,183443,2,0,L|154:168,3,40,10|8|8|8,0:0|0:0|0:0|0:0,0:0:0:0:
196,95,183749,6,0,B|236:67|283:88|283:88|294:122|332:136,1,160,6|8,3:2|0:0,0:0:0:0:
374,46,184208,1,0,0:0:0:0:
191,105,184361,2,0,B|231:77|278:98|278:98|289:132|327:146,1,160,2|8,3:2|0:0,0:0:0:0:
374,46,184820,1,0,0:0:0:0:
226,190,184973,6,0,P|234:245|248:352,1,160,2|8,3:2|0:0,0:0:0:0:
336,230,185432,1,0,0:0:0:0:
389,384,185585,2,0,L|398:303,1,80,0|0,3:2|0:0,0:0:0:0:
490,167,185891,2,0,L|499:246,1,80,10|2,0:0|0:0,0:0:0:0:
345,89,186198,6,0,B|302:83|270:63|270:63|246:87|197:104,1,160,2|8,3:2|0:0,0:0:0:0:
127,30,186657,1,0,0:0:0:0:
346,101,186810,2,0,B|303:95|271:75|271:75|247:99|198:116,1,160,2|8,3:2|0:0,0:0:0:0:
127,30,187269,1,0,0:0:0:0:
279,184,187422,6,0,P|268:252|255:349,1,160,2|8,3:2|0:0,0:0:0:0:
172,221,187881,1,0,0:0:0:0:
350,305,188034,2,0,P|398:294|442:286,1,80,0|0,3:2|0:0,0:0:0:0:
505,171,188341,1,10,0:0:0:0:
377,98,188494,1,2,0:0:0:0:
505,171,188647,6,0,B|510:64|510:64|492:11,1,160,6|8,3:2|0:0,0:0:0:0:
347,0,189106,1,0,0:0:0:0:
373,178,189259,2,0,L|378:90,1,80,2|0,3:2|0:0,0:0:0:0:
237,0,189565,2,0,L|241:79,1,80,8|0,0:0|0:0,0:0:0:0:
135,224,189871,6,0,P|90:231|17:142,2,160,2|8|2,3:2|0:0|3:2,0:0:0:0:
249,189,190637,1,2,0:0:0:0:
249,189,190790,2,0,P|242:235|241:275,1,80,10|0,0:0|3:2,0:0:0:0:
245,280,191019,1,8,0:0:0:0:
252,290,191096,6,0,P|315:281|377:277,1,120,6|0,3:2|0:0,0:0:0:0:
444,322,191402,2,0,B|459:282|459:282|445:231,1,80,10|0,0:0|0:0,0:0:0:0:
363,113,191708,2,0,P|300:104|238:100,1,120,6|0,3:2|0:0,0:0:0:0:
171,145,192014,2,0,B|156:105|156:105|170:54,1,80,10|0,0:0|0:0,0:0:0:0:
290,0,192320,5,2,3:2:0:0:
363,113,192473,1,0,3:2:0:0:
368,119,192550,1,8,0:0:0:0:
373,125,192626,2,0,L|364:209,1,80,8|8,0:0|3:3,0:0:0:0:
196,289,192932,5,8,3:3:0:0:
103,266,193085,1,4,3:3:0:0:
49,187,193238,1,12,3:3:0:0:
54,92,193391,1,4,3:3:0:0:
184,34,193544,5,6,3:2:0:0:
184,34,193697,2,0,P|255:52|331:62,1,128,8|0,0:0|3:2,0:0:0:0:
347,180,194157,1,10,0:0:0:0:
347,180,194310,2,0,P|283:190|221:207,1,128,0|0,3:2|0:0,0:0:0:0:
97,288,194769,2,0,P|145:294|174:302,1,64,2|8,3:2|0:0,0:0:0:0:
255,372,195075,1,0,3:2:0:0:
255,372,195382,5,8,0:0:0:0:
259,226,195535,1,0,3:2:0:0:
340,348,195688,1,0,3:2:0:0:
204,298,195841,1,0,3:2:0:0:
343,258,195994,5,14,0:0:0:0:
343,258,197218,6,0,L|350:222,3,35.9999989013672,6|2|2|2,3:2|0:0|0:0|0:0,0:0:0:0:
341,192,197524,1,10,0:0:0:0:
440,268,197678,2,0,L|514:256,1,71.9999978027344,2|0,0:0|3:2,0:0:0:0:
456,127,197984,1,2,0:0:0:0:
456,127,198137,2,0,L|382:115,1,71.9999978027344,10|2,0:0|0:0,0:0:0:0:
229,151,198443,6,0,L|234:200,3,35.9999989013672,2|2|2|2,3:2|0:0|0:0|0:0,0:0:0:0:
235,219,198749,1,10,0:0:0:0:
146,331,198902,2,0,B|138:294|138:294|155:256,1,71.9999978027344,2|0,0:0|3:2,0:0:0:0:
303,288,199208,1,2,0:0:0:0:
303,288,199361,2,0,B|311:325|311:325|294:363,1,71.9999978027344,10|2,0:0|0:0,0:0:0:0:
365,204,199667,6,0,L|370:160,3,35.9999989013672,2|2|2|2,3:2|0:0|0:0|0:0,0:0:0:0:
372,137,199973,1,10,0:0:0:0:
243,67,200127,2,0,P|284:59|317:72,1,71.9999978027344,2|0,0:0|3:2,0:0:0:0:
185,149,200433,1,2,0:0:0:0:
185,149,200586,2,0,P|144:157|111:144,1,71.9999978027344,10|2,0:0|0:0,0:0:0:0:
33,56,200892,5,2,3:2:0:0:
33,56,201045,1,2,0:0:0:0:
1,177,201198,1,10,0:0:0:0:
1,177,201351,1,2,0:0:0:0:
116,147,201504,2,0,L|125:73,1,71.9999978027344,2|14,3:2|0:0,0:0:0:0:
1,177,201810,2,0,L|9:248,1,71.9999978027344,2|10,3:2|0:0,0:0:0:0:
98,345,202116,6,0,L|103:307,3,35.9999989013672,2|2|2|2,3:2|0:0|0:0|0:0,0:0:0:0:
105,275,202422,1,10,0:0:0:0:
258,329,202576,2,0,B|227:345|227:345|185:335,1,71.9999978027344,2|0,0:0|3:2,0:0:0:0:
179,206,202882,1,2,0:0:0:0:
179,206,203035,2,0,B|210:190|210:190|252:200,1,71.9999978027344,10|2,0:0|0:0,0:0:0:0:
377,135,203341,6,0,L|372:87,3,35.9999989013672,2|2|2|2,3:2|0:0|0:0|0:0,0:0:0:0:
369,69,203647,1,10,0:0:0:0:
457,188,203800,2,0,P|468:226|457:263,1,71.9999978027344,2|0,0:0|3:2,0:0:0:0:
387,377,204106,1,2,0:0:0:0:
387,377,204259,2,0,P|376:339|387:302,1,71.9999978027344,10|2,0:0|0:0,0:0:0:0:
479,344,204565,5,0,3:2:0:0:
365,215,204718,1,8,0:0:0:0:
357,211,204795,1,8,0:0:0:0:
349,207,204871,2,0,P|308:215|273:225,1,71.9999978027344,8|8,0:0|0:0,0:0:0:0:
155,103,205178,5,8,0:0:0:0:
163,99,205255,1,8,0:0:0:0:
171,95,205331,2,0,P|212:103|247:113,1,71.9999978027344,8|8,0:0|0:0,0:0:0:0:
111,267,205637,1,8,0:0:0:0:
103,261,205713,1,8,0:0:0:0:
96,255,205790,6,0,L|92:183,1,71.9999978027344,0|8,3:2|0:0,0:0:0:0:
33,123,206019,1,8,0:0:0:0:
34,113,206096,2,0,L|38:41,1,71.9999978027344,8|8,0:0|0:0,0:0:0:0:
114,4,206326,1,8,0:0:0:0:
125,6,206402,2,0,L|163:10,3,35.9999989013672,8|8|8|8,0:0|0:0|0:0|0:0,0:0:0:0:
230,59,206708,2,0,L|268:55,1,35.9999989013672,8|8,0:0|0:0,0:0:0:0:
334,102,206861,2,0,L|372:106,1,35.9999989013672,8|8,0:0|0:0,0:0:0:0:
431,164,207014,6,0,L|430:199,4,27.9999991455078,2|2|2|2|2,3:2|0:0|0:0|0:0|0:0,0:0:0:0:
494,272,207473,1,2,0:0:0:0:
494,272,207780,5,2,0:0:0:0:
435,351,207933,1,2,0:0:0:0:
346,326,208086,1,2,0:0:0:0:
332,233,208239,6,0,L|337:188,4,27.9999991455078,2|2|2|2|2,0:0|0:0|0:0|0:0|0:0,0:0:0:0:
268,126,208698,1,2,0:0:0:0:
268,126,209004,5,14,0:0:0:0:
129,226,209157,1,14,0:0:0:0:
113,58,209310,1,14,0:0:0:0:
