osu file format v14

[General]
AudioFilename: audio.mp3
AudioLeadIn: 0
PreviewTime: 49667
Countdown: 0
SampleSet: Soft
StackLeniency: 0.4
Mode: 0
LetterboxInBreaks: 0
WidescreenStoryboard: 1

[Editor]
Bookmarks: 20838,40428,83285
DistanceSpacing: 1.4
BeatDivisor: 4
GridSize: 4
TimelineZoom: 1.2

[Metadata]
Title:PAINT IT!!
TitleUnicode:PAINT IT!!
Artist:Mics!!
ArtistUnicode:Mics!!
Creator:arronchu1207
Version:Hard
Source:
Tags:japanese rock jrock April yuc'e ゆーしえ yuce PENGUIN RESEARCH 堀江晶太 Shota Horie 新保恵大 KEITA SHIMBO shinbo sinbo yu-ya vivid undress kemu はらだ Harada 竹下蒼天 Souma Takeshita 永塚拓馬 Takuma Nagatsuka 神宮前朱 Akari Jingumae 山下誠一郎 Seiichiro Yamashita 明治紅ノ介 Beninosuke Meiji 石谷春貴 Haruki Ishiya 東郷日向 Hinata Togo 天﨑滉平 Kohei Amasaki
BeatmapID:2835866
BeatmapSetID:1371662

[Difficulty]
HPDrainRate:4
CircleSize:3.8
OverallDifficulty:6.5
ApproachRate:8
SliderMultiplier:1.3
SliderTickRate:1

[Events]
//Background and Video events
0,0,"paint.jpg",0,0
//Break Periods
2,11296,20142
2,73745,82591
2,154561,172591
//Storyboard Layer 0 (Background)
//Storyboard Layer 1 (Fail)
//Storyboard Layer 2 (Pass)
//Storyboard Layer 3 (Foreground)
//Storyboard Layer 4 (Overlay)
//Storyboard Sound Samples

[TimingPoints]
76,306.122448979592,4,2,1,60,1,0
1300,-166.666666666667,4,2,1,60,0,0
3137,-100,4,2,1,60,0,0
3749,-166.666666666667,4,2,1,60,0,0
5280,-100,4,2,1,60,0,0
6198,-166.666666666667,4,2,1,60,0,0
8035,-100,4,2,1,60,0,0
10484,-125,4,2,1,60,0,0
11096,-125,4,2,1,70,0,0
20892,-111.111111111111,4,2,1,60,0,0
25484,-111.111111111111,4,2,1,70,0,0
25790,-100,4,2,1,70,0,0
30688,-111.111111111111,4,2,1,60,0,0
35127,-111.111111111111,4,2,1,70,0,0
35586,-100,4,2,1,70,0,0
49667,-133.333333333333,4,2,1,70,0,0
50280,-90.9090909090909,4,2,1,80,0,1
69871,-100,4,2,1,70,0,0
72320,-100,4,2,1,50,0,0
73545,-100,4,2,1,70,0,0
83341,-111.111111111111,4,2,1,60,0,0
87933,-111.111111111111,4,2,1,70,0,0
88239,-100,4,2,1,70,0,0
93137,-111.111111111111,4,2,1,60,0,0
97729,-100,4,2,1,70,0,0
112116,-133.333333333333,4,2,1,70,0,0
112729,-90.9090909090909,4,2,1,80,0,1
131096,-100,4,2,1,80,0,0
132320,-83.3333333333333,4,2,1,90,0,1
147014,-100,4,2,1,70,0,0
151912,-100,4,2,1,80,0,0
154361,-100,4,2,1,60,0,0
173341,-133.333333333333,4,2,1,60,0,0
173953,-90.9090909090909,4,2,1,80,0,1
193545,-100,4,2,1,70,0,0
207014,-111.111111111111,4,2,1,50,0,0
209004,-111.111111111111,4,2,1,70,0,0

[Colours]
Combo1 : 255,128,64
Combo2 : 0,128,255
Combo3 : 255,128,128
Combo4 : 255,255,128

[HitObjects]
271,138,688,6,0,P|300:129|344:135,1,65,8|0,0:0|3:2,0:0:0:0:
334,131,1300,6,0,P|406:137|462:72,2,155.999995239258,6|6|6,3:2|3:2|3:2,0:0:0:0:
334,131,3137,2,0,L|341:195,1,65,2|2,0:0|0:0,0:0:0:0:
401,263,3443,2,0,L|394:327,1,65,2|2,0:0|0:0,0:0:0:0:
322,380,3749,6,0,B|303:338|303:338|185:368,2,155.999995239258,6|6|6,3:2|3:2|3:2,0:0:0:0:
393,327,5280,2,0,L|446:337,2,43.3333333333333,8|8|8,0:0|0:0|0:0,0:0:0:0:
407,251,5586,2,0,L|460:261,2,43.3333333333333,8|8|8,3:2|3:2|3:2,0:0:0:0:
421,175,5892,2,0,L|474:185,2,43.3333333333333,0|0|0,3:2|3:2|3:2,0:0:0:0:
371,113,6198,6,0,P|331:100|229:151,2,155.999995239258,6|6|6,3:2|3:2|3:2,0:0:0:0:
371,113,8035,2,0,P|363:67|371:41,1,65,2|2,0:0|0:0,0:0:0:0:
452,80,8341,2,0,P|460:126|452:152,1,65,2|2,0:0|3:2,0:0:0:0:
386,201,8647,5,14,0:0:0:0:
386,201,10484,2,0,B|352:209|322:192|322:192|268:232|268:232|237:211|182:218,1,208,2|6,0:0|3:2,0:0:0:0:
169,74,20892,6,0,P|177:132|192:191,1,116.999996429443,6|2,3:2|3:2,0:0:0:0:
231,260,21351,1,2,0:0:0:0:
178,322,21504,2,0,B|206:348|206:348|292:336,1,116.999996429443,2|2,3:2|3:2,0:0:0:0:
354,378,21963,6,0,P|367:329|330:269,1,116.999996429443,2|2,0:0|0:0,0:0:0:0:
295,202,22422,2,0,L|301:141,1,58.4999982147217,2|0,3:2|0:0,0:0:0:0:
348,76,22729,2,0,B|298:103|298:103|233:87,1,116.999996429443,2|0,3:2|3:2,0:0:0:0:
161,63,23188,1,2,0:0:0:0:
102,120,23341,6,0,P|90:169|130:230,1,116.999996429443,2|2,3:2|3:2,0:0:0:0:
196,267,23800,1,2,0:0:0:0:
196,267,23953,2,0,L|259:258,1,58.4999982147217,2|2,3:2|0:0,0:0:0:0:
297,355,24259,2,0,L|240:346,1,58.4999982147217,2|2,3:2|0:0,0:0:0:0:
361,275,24565,6,0,P|402:272|464:317,1,116.999996429443,2|2,3:2|3:2,0:0:0:0:
297,355,25178,1,2,3:2:0:0:
297,355,25331,1,2,3:2:0:0:
231,293,25484,2,0,L|173:305,1,58.4999982147217,8|0,0:0|0:0,0:0:0:0:
104,245,25790,6,0,L|124:103,1,130,4|10,3:2|0:0,0:0:0:0:
285,27,26402,2,0,P|320:27|361:54,1,65,2|0,3:2|3:2,0:0:0:0:
360,129,26708,2,0,P|325:129|284:102,1,65,10|0,0:0|0:0,0:0:0:0:
227,173,27014,2,0,L|249:317,1,130,0|10,3:2|0:0,0:0:0:0:
82,380,27627,2,0,L|13:368,1,65,2|2,3:2|3:2,0:0:0:0:
32,279,27933,2,0,L|101:291,1,65,10|2,0:0|0:0,0:0:0:0:
153,219,28239,6,0,B|168:178|168:178|142:88,1,130,2|10,3:2|0:0,0:0:0:0:
183,13,28698,1,0,0:0:0:0:
266,49,28851,2,0,P|302:51|339:31,1,65,2|0,3:2|3:2,0:0:0:0:
400,95,29157,2,0,P|384:131|387:172,1,65,10|0,0:0|0:0,0:0:0:0:
453,214,29463,6,0,P|406:246|330:228,1,130,2|8,3:2|0:0,0:0:0:0:
258,188,29922,1,2,3:2:0:0:
258,188,30076,2,0,L|249:119,2,65,2|0|8,3:2|0:0|0:0,0:0:0:0:
152,313,30688,6,0,L|82:325,1,58.4999982147217,6|0,3:2|0:0,0:0:0:0:
37,264,30994,2,0,P|38:219|51:193,1,58.4999982147217,2|0,3:2|0:0,0:0:0:0:
107,156,31300,2,0,P|121:183|123:220,2,58.4999982147217,2|2|2,3:2|0:0|3:2,0:0:0:0:
39,109,31759,6,0,P|73:80|159:92,1,116.999996429443,2|2,0:0|0:0,0:0:0:0:
214,119,32218,2,0,L|207:187,1,58.4999982147217,2|2,3:2|0:0,0:0:0:0:
198,258,32524,2,0,B|252:281|252:281|310:261,1,116.999996429443,2|0,3:2|3:2,0:0:0:0:
391,249,32984,1,2,0:0:0:0:
391,249,33137,6,0,P|392:289|382:308,1,58.4999982147217,2|2,3:2|0:0,0:0:0:0:
342,375,33443,2,0,L|219:380,1,116.999996429443,2|2,3:2|3:2,0:0:0:0:
163,326,33902,1,2,0:0:0:0:
217,265,34055,2,0,L|213:199,1,58.4999982147217,0|2,3:2|0:0,0:0:0:0:
168,138,34361,6,0,P|114:129|58:163,1,116.999996429443,2|2,3:2|3:2,0:0:0:0:
152,22,34973,1,2,3:2:0:0:
152,22,35127,1,10,0:0:0:0:
224,60,35280,2,0,P|253:57|288:34,1,58.4999982147217,0|0,3:2|3:2,0:0:0:0:
347,101,35586,6,0,L|327:235,1,130,4|10,3:2|0:0,0:0:0:0:
217,374,36198,2,0,L|208:301,1,65,2|0,3:2|3:2,0:0:0:0:
146,243,36504,2,0,P|106:253|68:245,1,65,10|0,0:0|0:0,0:0:0:0:
19,184,36810,6,0,B|2:120|2:120|38:48,1,130,0|10,3:2|0:0,0:0:0:0:
206,110,37422,2,0,L|216:180,1,65,2|2,3:2|3:2,0:0:0:0:
305,158,37729,2,0,L|295:93,1,65,10|2,0:0|0:0,0:0:0:0:
363,33,38035,6,0,P|412:33|469:94,1,130,2|10,3:2|0:0,0:0:0:0:
471,178,38494,1,0,0:0:0:0:
412,247,38647,2,0,P|382:205|383:162,1,65,2|0,3:2|3:2,0:0:0:0:
471,178,38953,2,0,P|500:219|499:262,1,65,10|0,0:0|0:0,0:0:0:0:
474,319,39259,6,0,P|424:343|342:311,1,130,2|8,3:2|0:0,0:0:0:0:
308,258,39718,1,0,3:2:0:0:
308,258,39795,1,8,0:0:0:0:
308,258,39871,2,0,L|237:247,1,65,8|0,0:0|3:2,0:0:0:0:
188,175,40178,2,0,L|117:186,1,65,8|0,3:2|3:2,0:0:0:0:
37,156,40484,6,0,L|53:292,1,130,14|0,0:0|3:2,0:0:0:0:
120,345,40943,2,0,B|184:365|184:365|244:335,1,130,14|0,0:0|3:2,0:0:0:0:
319,291,41402,1,14,0:0:0:0:
219,138,41708,2,0,L|143:146,2,65,2|0|10,3:2|3:2|3:2,0:0:0:0:
359,22,42320,2,0,P|395:13|432:24,1,65,2|0,3:2|3:2,0:0:0:0:
484,84,42627,2,0,P|493:120|482:157,1,65,10|0,3:2|3:2,0:0:0:0:
430,218,42933,6,0,L|285:196,1,130,14|0,0:0|3:2,0:0:0:0:
236,134,43392,2,0,P|210:182|231:256,1,130,14|0,0:0|3:2,0:0:0:0:
289,318,43851,1,14,0:0:0:0:
113,366,44157,2,0,L|103:291,1,65,10|0,3:2|3:2,0:0:0:0:
38,239,44463,2,0,L|48:164,1,65,10|0,0:0|3:2,0:0:0:0:
117,117,44769,2,0,L|110:68,3,32.5,8|0|0|0,3:2|3:2|3:2|3:2,0:0:0:0:
79,52,45076,1,14,0:0:0:0:
259,30,45382,6,0,P|300:28|339:44,2,65,14|0|0,3:2|3:2|3:2,0:0:0:0:
200,99,45841,2,0,P|198:140|214:179,2,65,14|0|0,3:2|3:2|3:2,0:0:0:0:
288,121,46300,1,14,3:2:0:0:
259,328,47218,2,0,B|210:337|168:306|168:306|139:363|64:358,1,195,2|0,3:2|0:0,0:0:0:0:
14,305,47831,6,0,P|3:276|5:230,1,65,14|0,3:2|3:2,0:0:0:0:
72,183,48137,1,0,3:2:0:0:
72,183,48290,2,0,P|83:145|81:108,1,65,14|0,3:2|3:2,0:0:0:0:
25,49,48596,1,0,3:2:0:0:
25,49,48749,1,14,3:2:0:0:
24,41,49667,6,0,P|54:62|118:61,1,97.50000371933,2|2,3:2|0:0,0:0:0:0:
293,89,50280,6,0,B|279:132|279:132|284:232,1,143.000004364014,6|8,3:2|0:0,0:0:0:0:
350,304,50739,1,0,0:0:0:0:
266,248,50892,2,0,P|215:238|143:289,1,143.000004364014,2|8,3:2|0:0,0:0:0:0:
95,376,51351,1,0,0:0:0:0:
21,309,51504,6,0,P|15:252|-1:148,2,143.000004364014,2|8|0,3:2|0:0|3:2,0:0:0:0:
133,166,52422,2,0,P|142:125|147:88,1,71.5000021820069,10|2,0:0|0:0,0:0:0:0:
107,3,52729,6,0,P|144:37|237:37,1,143.000004364014,2|8,3:2|0:0,0:0:0:0:
326,3,53188,1,0,0:0:0:0:
244,61,53341,2,0,L|254:207,1,143.000004364014,2|8,3:2|0:0,0:0:0:0:
298,293,53800,1,0,0:0:0:0:
374,228,53953,6,0,P|423:219|502:268,2,143.000004364014,2|8|0,3:2|0:0|3:2,0:0:0:0:
227,363,54871,2,0,P|189:346|152:340,1,71.5000021820069,10|2,0:0|3:2,0:0:0:0:
66,379,55178,6,0,B|50:236,1,143.000004364014,6|8,3:2|0:0,0:0:0:0:
1,149,55637,1,0,0:0:0:0:
72,218,55790,2,0,P|121:240|204:215,1,143.000004364014,2|8,3:2|0:0,0:0:0:0:
270,142,56249,1,0,0:0:0:0:
211,61,56402,6,0,B|171:30|171:30|63:45,1,143.000004364014,2|8,3:2|0:0,0:0:0:0:
18,234,57014,2,0,L|27:305,1,71.5000021820069,2|2,3:2|0:0,0:0:0:0:
125,289,57320,2,0,L|115:215,1,71.5000021820069,10|2,0:0|0:0,0:0:0:0:
193,154,57627,6,0,P|224:147|269:173,1,71.5000021820069,2|0,3:2|0:0,0:0:0:0:
357,184,57933,2,0,P|346:214|316:241,1,71.5000021820069,10|0,0:0|0:0,0:0:0:0:
245,309,58239,2,0,P|223:284|222:232,1,71.5000021820069,2|0,3:2|0:0,0:0:0:0:
318,240,58545,2,0,P|349:233|387:247,1,71.5000021820069,10|0,0:0|0:0,0:0:0:0:
472,295,58851,6,0,L|485:147,1,143.000004364014,6|8,3:2|0:0,0:0:0:0:
347,6,59463,2,0,P|313:0|274:10,1,71.5000021820069,2|8,3:2|0:0,0:0:0:0:
193,63,59769,2,0,L|186:105,3,35.7500010910034,10|8|8|8,0:0|0:0|0:0|0:0,0:0:0:0:
154,137,60076,6,0,L|174:282,1,143.000004364014,6|8,3:2|0:0,0:0:0:0:
141,373,60535,1,0,0:0:0:0:
200,292,60688,2,0,P|251:270|335:303,1,143.000004364014,2|8,3:2|0:0,0:0:0:0:
401,369,61147,1,0,0:0:0:0:
485,316,61300,6,0,P|499:257|513:163,2,143.000004364014,2|8|0,3:2|0:0|3:2,0:0:0:0:
425,124,62218,2,0,P|422:90|411:53,1,71.5000021820069,10|2,0:0|0:0,0:0:0:0:
320,12,62524,6,0,P|276:48|183:42,1,143.000004364014,2|8,3:2|0:0,0:0:0:0:
101,4,62984,1,0,0:0:0:0:
180,64,63137,2,0,L|165:210,1,143.000004364014,2|8,3:2|0:0,0:0:0:0:
211,295,63596,1,0,0:0:0:0:
130,354,63749,6,0,B|94:354|67:328|67:328|46:359|1:369,2,143.000004364014,2|8|0,3:2|0:0|3:2,0:0:0:0:
312,313,64667,2,0,L|392:299,1,71.5000021820069,10|2,0:0|0:0,0:0:0:0:
443,364,64973,6,0,P|467:313|439:235,1,143.000004364014,6|8,3:2|0:0,0:0:0:0:
391,147,65433,1,0,0:0:0:0:
310,205,65586,2,0,P|260:195|166:182,1,143.000004364014,2|8,3:2|0:0,0:0:0:0:
82,233,66045,1,0,0:0:0:0:
156,165,66198,6,0,P|173:97|138:31,1,143.000004364014,2|8,3:2|0:0,0:0:0:0:
14,134,66810,2,0,P|7:176|3:206,1,71.5000021820069,2|2,3:2|0:0,0:0:0:0:
45,296,67116,2,0,P|52:338|56:367,1,71.5000021820069,10|0,0:0|0:0,0:0:0:0:
155,375,67422,6,0,P|206:331|278:338,1,143.000004364014,6|10,3:2|0:0,0:0:0:0:
367,383,67882,1,0,0:0:0:0:
420,298,68035,2,0,L|405:151,1,143.000004364014,6|10,3:2|0:0,0:0:0:0:
277,2,68647,5,2,3:2:0:0:
230,94,68800,1,0,3:2:0:0:
230,94,68877,1,8,0:0:0:0:
230,94,68953,2,0,P|192:108|159:106,1,71.5000021820069,8|8,0:0|3:3,0:0:0:0:
63,92,69259,2,0,P|64:124|81:160,1,71.5000021820069,8|4,3:3|3:3,0:0:0:0:
155,223,69565,2,0,L|147:300,1,71.5000021820069,12|4,3:3|3:3,0:0:0:0:
221,356,69871,5,6,3:2:0:0:
221,356,70024,2,0,P|287:373|350:325,1,130,8|0,0:0|3:2,0:0:0:0:
410,287,70484,1,10,0:0:0:0:
410,287,70637,2,0,P|394:226|382:144,1,130,0|0,3:2|0:0,0:0:0:0:
440,89,71096,6,0,P|456:28|460:-2,2,65,2|8|0,3:2|0:0|3:2,0:0:0:0:
289,191,71708,1,8,0:0:0:0:
209,232,71861,1,0,3:2:0:0:
224,322,72014,1,0,3:2:0:0:
314,335,72167,1,0,3:2:0:0:
354,253,72320,5,2,0:0:0:0:
222,319,73545,5,6,3:2:0:0:
353,217,83341,6,0,L|225:203,1,116.999996429443,6|2,3:2|3:2,0:0:0:0:
155,197,83800,1,2,3:2:0:0:
106,130,83953,2,0,P|62:131|43:140,2,58.4999982147217,2|2|2,3:2|3:2|3:2,0:0:0:0:
172,81,84412,6,0,P|221:94|281:57,1,116.999996429443,2|2,3:2|3:2,0:0:0:0:
337,9,84871,2,0,L|398:15,1,58.4999982147217,2|2,3:2|3:2,0:0:0:0:
465,60,85178,2,0,B|477:95|477:95|454:175,1,116.999996429443,2|0,3:2|3:2,0:0:0:0:
426,249,85637,1,2,3:2:0:0:
351,215,85790,6,0,P|318:215|290:228,1,58.4999982147217,2|2,3:2|3:2,0:0:0:0:
336,295,86096,2,0,P|306:332|227:330,1,116.999996429443,2|2,3:2|3:2,0:0:0:0:
189,272,86555,1,2,3:2:0:0:
109,290,86708,2,0,L|118:233,1,58.4999982147217,2|2,3:2|3:2,0:0:0:0:
112,150,87014,6,0,P|43:160|1:140,1,116.999996429443,2|2,3:2|3:2,0:0:0:0:
146,16,87627,1,2,3:2:0:0:
201,78,87780,1,0,3:2:0:0:
271,35,87933,2,0,P|307:35|329:47,1,58.4999982147217,10|0,0:0|0:0,0:0:0:0:
380,107,88239,6,0,L|360:249,1,130,4|10,3:2|0:0,0:0:0:0:
227,357,88851,2,0,P|192:357|151:330,1,65,2|0,3:2|3:2,0:0:0:0:
125,263,89157,2,0,P|125:228|152:187,1,65,10|0,0:0|0:0,0:0:0:0:
218,157,89463,2,0,P|149:155|100:106,1,130,0|10,3:2|0:0,0:0:0:0:
257,14,90076,2,0,L|326:26,1,65,2|2,3:2|3:2,0:0:0:0:
361,107,90382,2,0,L|430:95,1,65,10|2,0:0|0:0,0:0:0:0:
495,155,90688,6,0,B|510:196|510:196|484:286,1,130,2|10,3:2|0:0,0:0:0:0:
448,362,91147,1,0,0:0:0:0:
371,315,91300,2,0,P|335:313|298:333,1,65,2|0,3:2|3:2,0:0:0:0:
242,264,91606,2,0,L|255:187,1,65,10|0,0:0|0:0,0:0:0:0:
190,135,91912,6,0,P|155:156|67:149,1,130,2|8,3:2|0:0,0:0:0:0:
7,77,92371,1,0,3:2:0:0:
7,77,92524,2,0,L|16:8,2,65,10|0|8,3:2|3:2|0:0,0:0:0:0:
57,234,93137,6,0,L|186:219,1,116.999996429443,6|2,3:2|3:2,0:0:0:0:
238,171,93596,1,2,3:2:0:0:
193,104,93749,2,0,P|187:47|220:0,1,116.999996429443,2|2,3:2|3:2,0:0:0:0:
266,68,94208,6,0,P|271:124|238:171,1,116.999996429443,2|2,3:2|3:2,0:0:0:0:
173,220,94667,2,0,L|178:278,1,58.4999982147217,2|2,3:2|3:2,0:0:0:0:
234,338,94973,2,0,B|311:354|311:354|346:341,1,116.999996429443,2|0,3:2|3:2,0:0:0:0:
400,280,95433,1,2,3:2:0:0:
400,280,95586,6,0,P|401:240|391:221,1,58.4999982147217,2|2,3:2|3:2,0:0:0:0:
322,183,95892,2,0,L|247:192,1,58.4999982147217,2|0,3:2|3:2,0:0:0:0:
193,149,96198,2,0,L|203:33,1,116.999996429443,2|2,3:2|3:2,0:0:0:0:
280,6,96657,1,2,3:2:0:0:
330,70,96810,6,0,P|340:123|313:193,1,116.999996429443,2|2,3:2|3:2,0:0:0:0:
194,242,97422,2,0,L|116:238,1,58.4999982147217,2|0,3:2|3:2,0:0:0:0:
30,234,97729,1,8,3:2:0:0:
30,234,98035,6,0,B|17:173|17:173|50:100,1,130,4|10,3:2|0:0,0:0:0:0:
184,11,98647,2,0,L|193:84,1,65,2|0,3:2|3:2,0:0:0:0:
263,131,98953,2,0,P|303:121|341:129,1,65,10|0,0:0|0:0,0:0:0:0:
405,168,99259,6,0,L|386:304,1,130,0|10,3:2|0:0,0:0:0:0:
220,371,99871,2,0,L|210:301,1,65,2|2,3:2|3:2,0:0:0:0:
153,235,100178,2,0,L|163:165,1,65,10|2,0:0|0:0,0:0:0:0:
245,133,100484,6,0,P|196:133|139:72,1,130,6|10,3:2|0:0,0:0:0:0:
86,5,100943,1,0,0:0:0:0:
10,55,101096,2,0,P|3:93|12:130,1,65,2|0,3:2|3:2,0:0:0:0:
80,175,101402,2,0,L|87:244,1,65,10|0,0:0|0:0,0:0:0:0:
158,297,101708,6,0,B|151:331|151:331|160:367,2,65,2|0|8,3:2|0:0|0:0,0:0:0:0:
222,232,102167,1,0,3:2:0:0:
222,232,102244,1,8,0:0:0:0:
222,232,102320,2,0,L|293:243,1,65,8|0,0:0|3:2,0:0:0:0:
355,304,102627,2,0,L|426:293,1,65,8|0,3:2|3:2,0:0:0:0:
479,225,102933,6,0,L|463:89,1,130,14|0,0:0|3:2,0:0:0:0:
397,36,103392,2,0,B|379:73|379:73|284:47,1,130,14|0,0:0|3:2,0:0:0:0:
206,27,103851,2,0,P|177:60|183:146,1,130,14|2,0:0|3:2,0:0:0:0:
256,194,104310,1,0,3:2:0:0:
256,194,104463,1,10,3:2:0:0:
160,349,104769,2,0,P|124:358|87:347,1,65,2|0,3:2|3:2,0:0:0:0:
30,291,105076,2,0,P|21:255|32:218,1,65,10|0,3:2|3:2,0:0:0:0:
91,164,105382,6,0,L|236:186,1,130,14|0,0:0|3:2,0:0:0:0:
279,253,105841,2,0,L|424:231,1,130,14|0,0:0|3:2,0:0:0:0:
498,221,106300,1,14,0:0:0:0:
441,49,106606,1,10,3:2:0:0:
368,103,106759,1,0,3:2:0:0:
296,49,106912,2,0,P|251:42|222:53,1,65,10|0,3:2|3:2,0:0:0:0:
162,104,107218,2,0,L|169:153,3,32.5,8|0|0|0,3:2|3:2|3:2|3:2,0:0:0:0:
199,170,107524,1,14,0:0:0:0:
91,317,107831,6,0,P|50:319|11:303,2,65,14|0|0,3:2|3:2|3:2,0:0:0:0:
172,276,108290,2,0,P|213:274|252:290,2,65,14|0|0,3:2|3:2|3:2,0:0:0:0:
95,229,108749,1,14,3:2:0:0:
252,55,109667,2,0,B|296:51|322:75|322:75|343:39|386:11|447:25,1,195,2|0,3:2|0:0,0:0:0:0:
496,77,110280,6,0,L|505:152,1,65,14|0,3:2|3:2,0:0:0:0:
439,206,110586,1,0,3:2:0:0:
439,206,110739,2,0,L|430:281,1,65,14|0,3:2|3:2,0:0:0:0:
488,343,111045,1,0,3:2:0:0:
488,343,111198,1,14,3:2:0:0:
352,228,111504,6,0,B|332:195|332:195|345:123,2,97.5,0|0|0,3:2|3:2|3:2,0:0:0:0:
431,270,112116,2,0,P|441:310|420:370,1,97.50000371933,2|2,3:2|0:0,0:0:0:0:
224,371,112729,6,0,L|233:229,1,143.000004364014,6|8,3:2|0:0,0:0:0:0:
170,150,113188,1,0,0:0:0:0:
249,211,113341,2,0,P|299:220|379:176,1,143.000004364014,2|8,3:2|0:0,0:0:0:0:
426,91,113800,1,0,0:0:0:0:
343,35,113953,6,0,P|263:24|194:11,2,143.000004364014,2|8|0,3:2|0:0|3:2,0:0:0:0:
459,193,114871,2,0,P|450:234|446:271,1,71.5000021820069,10|2,0:0|0:0,0:0:0:0:
372,331,115178,6,0,P|335:297|243:297,1,143.000004364014,2|8,3:2|0:0,0:0:0:0:
157,340,115637,1,0,0:0:0:0:
234,277,115790,2,0,L|225:134,1,143.000004364014,2|8,3:2|0:0,0:0:0:0:
187,41,116249,1,0,0:0:0:0:
101,93,116402,6,0,L|92:238,2,143.000004364014,2|8|0,3:2|0:0|3:2,0:0:0:0:
286,17,117320,2,0,P|323:33|360:39,1,71.5000021820069,10|2,0:0|3:2,0:0:0:0:
447,1,117627,6,0,B|461:146,1,143.000004364014,6|8,3:2|0:0,0:0:0:0:
512,230,118086,1,0,0:0:0:0:
440,159,118239,2,0,P|377:145|307:183,1,143.000004364014,2|8,3:2|0:0,0:0:0:0:
227,236,118698,1,0,0:0:0:0:
176,149,118851,6,0,L|191:3,1,143.000004364014,2|8,3:2|0:0,0:0:0:0:
6,85,119463,2,0,L|14:158,1,71.5000021820069,2|2,3:2|0:0,0:0:0:0:
72,237,119769,2,0,L|64:310,1,71.5000021820069,10|2,0:0|0:0,0:0:0:0:
143,369,120076,6,0,P|199:369|250:303,1,143.000004364014,6|10,3:2|0:0,0:0:0:0:
274,208,120535,1,0,0:0:0:0:
181,169,120688,2,0,P|171:211|180:246,1,71.5000021820069,6|0,3:2|0:0,0:0:0:0:
274,208,120994,2,0,P|284:166|275:131,1,71.5000021820069,10|0,0:0|0:0,0:0:0:0:
239,46,121300,6,0,L|385:33,1,143.000004364014,2|0,3:2|3:2,0:0:0:0:
465,104,121759,1,8,0:0:0:0:
465,104,121836,1,8,0:0:0:0:
465,104,121912,2,0,L|456:178,1,71.5000021820069,2|8,3:2|0:0,0:0:0:0:
393,252,122218,2,0,L|396:289,3,35.7500010910034,10|8|8|8,0:0|0:0|0:0|0:0,0:0:0:0:
369,330,122524,6,0,L|225:310,1,143.000004364014,6|8,3:2|0:0,0:0:0:0:
135,352,122984,1,0,0:0:0:0:
213,290,123137,2,0,P|234:239|202:156,1,143.000004364014,2|8,3:2|0:0,0:0:0:0:
126,98,123596,1,0,0:0:0:0:
197,27,123749,6,0,P|255:41|348:55,2,143.000004364014,2|8|0,3:2|0:0|3:2,0:0:0:0:
50,143,124667,2,0,P|61:174|61:214,1,71.5000021820069,10|2,0:0|0:0,0:0:0:0:
118,294,124973,6,0,P|158:258|246:266,1,143.000004364014,2|8,3:2|0:0,0:0:0:0:
325,321,125433,1,0,0:0:0:0:
259,245,125586,2,0,L|273:100,1,143.000004364014,2|8,3:2|0:0,0:0:0:0:
305,8,126045,1,0,0:0:0:0:
389,60,126198,6,0,B|415:87|451:85|451:85|472:55|516:45,2,143.000004364014,2|8|0,3:2|0:0|3:2,0:0:0:0:
190,32,127116,2,0,L|111:45,1,71.5000021820069,10|2,0:0|3:2,0:0:0:0:
28,2,127422,6,0,B|40:63|40:63|25:149,1,143.000004364014,6|8,3:2|0:0,0:0:0:0:
2,243,127882,1,0,0:0:0:0:
48,154,128035,2,0,P|94:140|180:182,1,143.000004364014,2|8,3:2|0:0,0:0:0:0:
260,231,128494,1,0,0:0:0:0:
325,155,128647,6,0,P|315:97|307:13,1,143.000004364014,2|8,3:2|0:0,0:0:0:0:
499,69,129259,2,0,P|492:111|488:140,1,71.5000021820069,2|2,3:2|0:0,0:0:0:0:
413,206,129565,2,0,P|420:248|424:277,1,71.5000021820069,10|0,0:0|0:0,0:0:0:0:
467,366,129871,6,0,P|414:381|342:332,1,143.000004364014,6|10,3:2|0:0,0:0:0:0:
270,267,130331,1,0,0:0:0:0:
333,190,130484,2,0,B|349:98|349:98|318:49,1,143.000004364014,6|10,3:2|0:0,0:0:0:0:
248,123,130943,1,0,0:0:0:0:
170,57,131096,5,2,3:2:0:0:
108,135,131249,1,0,3:2:0:0:
108,135,131326,1,8,0:0:0:0:
108,135,131402,2,0,B|103:169|103:169|122:205,1,65,8|0,0:0|3:2,0:0:0:0:
204,241,131708,2,0,L|210:282,3,32.5,8|8|8|8,0:0|0:0|0:0|0:0,0:0:0:0:
180,310,132014,2,0,L|174:351,3,32.5,8|8|8|8,0:0|0:0|0:0|0:0,0:0:0:0:
214,371,132320,6,0,B|239:336|271:331|271:331|306:365|365:344,1,155.999995239258,14|8,0:0|0:0,0:0:0:0:
437,281,132780,1,0,3:2:0:0:
437,281,132933,2,0,L|419:126,1,155.999995239258,10|8,0:0|0:0,0:0:0:0:
360,40,133392,1,2,3:2:0:0:
360,40,133545,6,0,P|319:26|279:35,1,77.999997619629,10|0,0:0|3:2,0:0:0:0:
199,98,133851,2,0,P|185:139|194:179,1,77.999997619629,10|2,0:0|3:2,0:0:0:0:
257,259,134157,2,0,L|247:337,1,77.999997619629,10|0,0:0|3:2,0:0:0:0:
148,383,134463,2,0,L|138:305,1,77.999997619629,8|0,0:0|3:2,0:0:0:0:
54,235,134769,6,0,B|60:182|60:182|76:155|76:155|86:80,1,155.999995239258,10|8,0:0|0:0,0:0:0:0:
178,23,135229,1,0,3:2:0:0:
178,23,135382,2,0,P|220:69|318:64,1,155.999995239258,10|8,0:0|0:0,0:0:0:0:
412,29,135841,1,2,3:2:0:0:
412,29,135994,6,0,L|399:188,1,155.999995239258,10|10,0:0|0:0,0:0:0:0:
455,283,136453,1,2,3:2:0:0:
455,283,136606,2,0,P|460:333|445:361,1,77.999997619629,10|0,0:0|3:2,0:0:0:0:
341,380,136912,2,0,L|262:364,1,77.999997619629,8|0,0:0|3:2,0:0:0:0:
215,267,137218,6,0,B|193:194|252:193|224:106,1,155.999995239258,14|8,0:0|0:0,0:0:0:0:
199,13,137678,1,0,3:2:0:0:
199,13,137831,2,0,B|157:27|123:8|123:8|81:12|50:45,1,155.999995239258,10|8,0:0|0:0,0:0:0:0:
5,133,138290,1,2,3:2:0:0:
5,133,138443,6,0,B|44:146|44:146|19:259,1,155.999995239258,10|10,0:0|0:0,0:0:0:0:
76,345,138902,1,2,3:2:0:0:
76,345,139055,2,0,L|160:334,1,77.999997619629,10|0,0:0|3:2,0:0:0:0:
254,376,139361,2,0,P|266:338|258:302,1,77.999997619629,10|0,0:0|3:2,0:0:0:0:
178,227,139667,6,0,P|172:191|184:153,1,77.999997619629,10|0,0:0|3:2,0:0:0:0:
208,45,139973,2,0,P|242:57|269:87,1,77.999997619629,10|0,0:0|3:2,0:0:0:0:
350,161,140280,2,0,P|321:184|282:192,1,77.999997619629,10|0,0:0|3:2,0:0:0:0:
269,88,140586,2,0,P|297:64|336:56,1,77.999997619629,10|0,0:0|3:2,0:0:0:0:
441,87,140892,6,0,L|430:246,1,155.999995239258,10|8,0:0|0:0,0:0:0:0:
353,320,141351,1,0,3:2:0:0:
285,231,141504,2,0,L|281:190,3,38.9999988098145,8|0|0|0,0:0|3:2|3:2|3:2,0:0:0:0:
276,153,141810,1,8,0:0:0:0:
156,38,142116,6,0,B|115:9|65:28|65:28|71:58|50:92,1,155.999995239258,14|8,0:0|0:0,0:0:0:0:
0,182,142576,1,0,3:2:0:0:
0,182,142729,2,0,P|11:236|17:344,1,155.999995239258,10|8,0:0|0:0,0:0:0:0:
119,384,143188,1,2,3:2:0:0:
119,384,143341,6,0,L|274:365,1,155.999995239258,10|10,0:0|0:0,0:0:0:0:
372,315,143800,1,2,3:2:0:0:
372,315,143953,2,0,P|381:266|374:239,1,77.999997619629,10|0,0:0|3:2,0:0:0:0:
299,159,144259,2,0,P|250:150|223:157,1,77.999997619629,8|0,0:0|3:2,0:0:0:0:
125,205,144565,6,0,B|104:169|104:169|132:56,1,155.999995239258,10|8,0:0|0:0,0:0:0:0:
233,13,145024,1,0,3:2:0:0:
233,13,145178,2,0,B|285:9|285:9|315:30|315:30|383:25,1,155.999995239258,10|8,0:0|0:0,0:0:0:0:
475,90,145637,1,2,3:2:0:0:
475,90,145790,6,0,L|458:251,1,155.999995239258,10|10,0:0|0:0,0:0:0:0:
363,297,146249,1,2,3:2:0:0:
305,204,146402,2,0,P|265:195|227:209,1,77.999997619629,10|8,0:0|0:0,0:0:0:0:
158,289,146708,2,0,L|163:337,3,38.9999988098145,8|8|8|8,0:0|0:0|0:0|0:0,0:0:0:0:
132,355,147014,6,0,P|82:366|19:313,2,130,6|8|0,3:2|0:0|3:2,0:0:0:0:
299,281,147933,2,0,L|306:207,1,65,10|2,0:0|3:2,0:0:0:0:
395,203,148239,2,0,L|380:351,2,130,2|8|0,3:2|0:0|3:2,0:0:0:0:
343,127,149004,1,0,3:2:0:0:
343,127,149157,2,0,P|304:117|271:126,1,65,10|0,0:0|3:2,0:0:0:0:
196,156,149463,6,0,P|139:164|72:110,2,130,6|8|0,3:2|0:0|3:2,0:0:0:0:
326,28,150382,2,0,L|401:44,1,65,10|0,0:0|3:2,0:0:0:0:
478,62,150688,2,0,B|497:123|497:123|470:193,1,130,2|8,3:2|0:0,0:0:0:0:
400,238,151147,1,0,3:2:0:0:
400,238,151300,2,0,P|371:225|334:225,1,65,0|0,3:2|3:2,0:0:0:0:
275,289,151606,2,0,L|282:370,1,65,10|0,0:0|0:0,0:0:0:0:
193,381,151912,5,2,3:2:0:0:
123,322,152065,1,0,3:2:0:0:
39,359,152218,2,0,P|31:316|39:287,1,65,12|0,0:0|0:0,0:0:0:0:
100,232,152524,5,0,3:2:0:0:
187,258,152678,1,0,3:2:0:0:
254,196,152831,2,0,L|246:128,1,65,14|0,0:0|0:0,0:0:0:0:
307,64,153137,6,0,L|357:69,3,32.5,2|0|8|8,3:2|0:0|0:0|0:0,0:0:0:0:
378,42,153443,2,0,L|428:37,3,32.5,8|8|8|8,0:0|0:0|0:0|0:0,0:0:0:0:
448,63,153749,2,0,P|452:94|450:108,3,32.5,10|8|8|8,0:0|0:0|0:0|0:0,0:0:0:0:
429,135,154055,2,0,P|425:166|427:180,3,32.5,10|8|8|8,0:0|0:0|0:0|0:0,0:0:0:0:
450,205,154361,1,6,3:2:0:0:
32,29,173341,6,0,B|60:51|60:51|136:40,1,97.50000371933,2|2,0:0|0:0,0:0:0:0:
121,42,173953,6,0,L|106:189,1,143.000004364014,6|8,3:2|0:0,0:0:0:0:
170,261,174412,1,0,0:0:0:0:
244,194,174565,2,0,P|291:176|379:207,1,143.000004364014,2|8,3:2|0:0,0:0:0:0:
438,281,175024,1,0,0:0:0:0:
394,190,175178,6,0,P|399:131|419:39,2,143.000004364014,2|8|0,3:2|0:0|3:2,0:0:0:0:
262,320,176096,2,0,L|189:312,1,71.5000021820069,10|2,0:0|0:0,0:0:0:0:
112,374,176402,6,0,P|93:335|119:241,1,143.000004364014,2|8,3:2|0:0,0:0:0:0:
188,172,176861,1,0,0:0:0:0:
272,225,177014,2,0,L|419:210,1,143.000004364014,2|8,3:2|0:0,0:0:0:0:
489,275,177473,1,0,0:0:0:0:
428,194,177627,6,0,B|415:153|415:153|439:43,2,143.000004364014,2|8|0,3:2|0:0|3:2,0:0:0:0:
231,134,178545,2,0,L|223:60,1,71.5000021820069,10|2,0:0|3:2,0:0:0:0:
134,16,178851,6,0,P|94:11|18:75,1,143.000004364014,6|8,3:2|0:0,0:0:0:0:
7,171,179310,1,0,0:0:0:0:
82,236,179463,2,0,L|227:217,1,143.000004364014,2|8,3:2|0:0,0:0:0:0:
299,151,179922,1,0,0:0:0:0:
239,232,180076,6,0,P|229:289|225:373,1,143.000004364014,2|8,3:2|0:0,0:0:0:0:
420,330,180688,2,0,P|419:289|410:258,1,71.5000021820069,2|2,3:2|0:0,0:0:0:0:
329,201,180994,2,0,P|330:160|339:129,1,71.5000021820069,10|2,0:0|0:0,0:0:0:0:
366,34,181300,6,0,L|225:52,1,143.000004364014,6|10,3:2|0:0,0:0:0:0:
131,14,181759,1,0,0:0:0:0:
76,97,181912,2,0,P|86:131|92:166,1,71.5000021820069,6|0,3:2|0:0,0:0:0:0:
25,241,182218,2,0,P|15:275|9:310,1,71.5000021820069,10|0,0:0|0:0,0:0:0:0:
81,379,182524,6,0,P|108:381|120:377,3,35.7500010910034,2|0|0|0,3:2|3:2|3:2|3:2,0:0:0:0:
153,344,182831,2,0,P|180:342|192:346,3,35.7500010910034,0|0|0|0,3:2|3:2|3:2|3:2,0:0:0:0:
233,365,183137,2,0,L|227:317,3,35.7500010910034,10|8|8|8,3:2|0:0|0:0|0:0,0:0:0:0:
260,290,183443,2,0,L|266:242,3,35.7500010910034,10|8|8|8,0:0|0:0|0:0|0:0,0:0:0:0:
250,206,183749,6,0,P|318:220|380:177,1,143.000004364014,6|8,3:2|0:0,0:0:0:0:
431,98,184208,1,0,0:0:0:0:
398,192,184361,2,0,L|419:340,1,143.000004364014,2|8,3:2|0:0,0:0:0:0:
329,380,184820,1,0,0:0:0:0:
253,313,184973,6,0,P|243:248|245:170,2,143.000004364014,2|8|0,3:2|0:0|3:2,0:0:0:0:
377,155,185892,2,0,P|370:107|370:71,1,71.5000021820069,10|2,0:0|0:0,0:0:0:0:
287,27,186198,6,0,P|256:56|160:49,1,143.000004364014,2|8,3:2|0:0,0:0:0:0:
72,3,186657,1,0,0:0:0:0:
145,71,186810,2,0,L|128:218,1,143.000004364014,2|8,3:2|0:0,0:0:0:0:
176,300,187269,1,0,0:0:0:0:
267,259,187422,6,0,B|298:245|331:249|331:249|350:287|398:293,2,143.000004364014,2|8|0,3:2|0:0|3:2,0:0:0:0:
77,324,188341,2,0,L|66:249,1,71.5000021820069,10|2,0:0|0:0,0:0:0:0:
0,178,188647,6,0,L|20:33,1,143.000004364014,6|8,3:2|0:0,0:0:0:0:
113,0,189106,1,0,0:0:0:0:
157,89,189259,2,0,P|196:118|285:104,1,143.000004364014,2|8,3:2|0:0,0:0:0:0:
369,51,189718,1,0,0:0:0:0:
301,124,189871,6,0,P|290:188|288:270,1,143.000004364014,2|8,3:2|0:0,0:0:0:0:
98,332,190484,2,0,P|92:293|80:255,1,71.5000021820069,2|2,3:2|0:0,0:0:0:0:
15,188,190790,1,10,0:0:0:0:
86,118,190943,1,0,3:2:0:0:
86,118,191019,1,8,0:0:0:0:
86,118,191096,6,0,L|232:137,1,143.000004364014,6|10,3:2|0:0,0:0:0:0:
281,221,191555,1,0,0:0:0:0:
363,165,191708,2,0,P|375:120|368:88,1,71.5000021820069,6|0,3:2|0:0,0:0:0:0:
310,16,192014,2,0,P|265:4|233:11,1,71.5000021820069,10|0,0:0|0:0,0:0:0:0:
151,52,192320,5,2,3:2:0:0:
211,140,192473,1,0,3:2:0:0:
211,140,192550,1,8,0:0:0:0:
211,140,192627,2,0,L|203:217,1,71.5000021820069,8|8,0:0|3:3,0:0:0:0:
117,262,192933,2,0,L|125:339,1,71.5000021820069,8|4,3:3|3:3,0:0:0:0:
211,381,193239,2,0,P|243:362|288:362,1,71.5000021820069,12|4,3:3|3:3,0:0:0:0:
375,372,193545,5,6,3:2:0:0:
375,372,193698,2,0,P|378:324|395:231,1,130,8|0,0:0|3:2,0:0:0:0:
466,191,194157,1,10,0:0:0:0:
466,191,194310,2,0,P|463:143|446:50,1,130,0|0,3:2|0:0,0:0:0:0:
378,5,194769,6,0,P|342:20|313:22,1,65,2|8,3:2|0:0,0:0:0:0:
225,11,195076,2,0,L|240:82,1,65,0|0,3:2|0:0,0:0:0:0:
179,144,195382,1,8,0:0:0:0:
98,101,195535,1,0,3:2:0:0:
37,168,195688,1,0,3:2:0:0:
37,168,195841,1,0,3:2:0:0:
82,288,195994,5,14,0:0:0:0:
82,288,197218,6,0,P|34:279|13:278,2,65,6|2|10,3:2|0:0|0:0,0:0:0:0:
137,360,197678,2,0,P|165:327|159:238,1,130,2|2,0:0|0:0,0:0:0:0:
96,181,198137,2,0,P|90:137|101:113,1,65,10|2,0:0|0:0,0:0:0:0:
168,61,198443,6,0,P|176:30|169:-1,2,65,2|2|10,3:2|0:0|0:0,0:0:0:0:
221,134,198902,2,0,L|368:118,1,130,2|2,0:0|0:0,0:0:0:0:
423,174,199361,2,0,B|432:204|432:204|426:245,1,65,10|2,0:0|0:0,0:0:0:0:
362,301,199667,6,0,B|353:331|353:331|359:372,2,65,2|2|10,3:2|0:0|0:0,0:0:0:0:
293,240,200127,2,0,P|251:251|152:264,1,130,2|2,0:0|0:0,0:0:0:0:
96,203,200586,2,0,P|89:162|97:134,1,65,10|2,0:0|0:0,0:0:0:0:
144,63,200892,5,2,3:2:0:0:
144,63,201045,1,2,0:0:0:0:
218,115,201198,2,0,L|290:106,1,65,10|2,0:0|0:0,0:0:0:0:
365,69,201504,1,2,3:2:0:0:
427,135,201657,1,14,0:0:0:0:
379,212,201810,2,0,P|370:250|383:286,1,65,2|10,3:2|0:0,0:0:0:0:
406,360,202116,6,0,L|341:366,1,65,2|2,3:2|0:0,0:0:0:0:
266,314,202422,1,10,0:0:0:0:
266,314,202576,2,0,L|286:180,1,130,2|2,0:0|0:0,0:0:0:0:
225,117,203035,2,0,L|217:44,1,65,10|2,0:0|0:0,0:0:0:0:
127,63,203341,6,0,L|134:127,1,65,2|2,3:2|0:0,0:0:0:0:
191,204,203647,1,10,0:0:0:0:
191,204,203800,2,0,P|237:191|314:234,1,130,2|2,0:0|0:0,0:0:0:0:
332,312,204259,2,0,P|367:306|413:304,1,65,10|2,0:0|0:0,0:0:0:0:
484,325,204565,5,0,3:2:0:0:
501,235,204718,1,8,0:0:0:0:
501,235,204795,1,8,0:0:0:0:
501,235,204871,2,0,L|494:164,1,65,8|8,0:0|0:0,0:0:0:0:
426,109,205178,2,0,L|431:71,2,32.5,8|8|8,0:0|0:0|0:0,0:0:0:0:
363,175,205484,1,8,0:0:0:0:
286,125,205637,1,8,0:0:0:0:
286,125,205713,1,8,0:0:0:0:
286,125,205790,6,0,P|277:88|285:55,1,65,0|8,3:2|0:0,0:0:0:0:
354,7,206096,1,8,0:0:0:0:
437,63,206249,1,8,0:0:0:0:
437,63,206326,1,8,0:0:0:0:
437,63,206402,2,0,L|430:110,3,32.5,8|8|8|8,0:0|0:0|0:0|0:0,0:0:0:0:
408,134,206708,2,0,L|415:181,3,32.5,8|8|8|8,0:0|0:0|0:0|0:0,0:0:0:0:
443,193,207014,6,0,L|439:265,2,58.4999982147217,2|2|2,3:2|0:0|0:0,0:0:0:0:
509,144,207473,1,2,0:0:0:0:
381,40,207780,1,2,0:0:0:0:
381,40,207933,2,0,L|313:47,1,58.4999982147217,2|2,0:0|0:0,0:0:0:0:
261,99,208239,6,0,P|230:86|187:78,2,58.4999982147217,2|2|2,0:0|0:0|0:0,0:0:0:0:
318,157,208698,1,2,0:0:0:0:
212,281,209004,5,14,0:0:0:0:
131,263,209157,1,14,0:0:0:0:
50,246,209310,1,14,0:0:0:0:
