osu file format v14

[General]
AudioFilename: audio.mp3
AudioLeadIn: 0
PreviewTime: -1
Countdown: 1
SampleSet: None
StackLeniency: 0.7
Mode: 0
LetterboxInBreaks: 0
WidescreenStoryboard: 1

[Editor]
Bookmarks: 2771
DistanceSpacing: 0.8
BeatDivisor: 16
GridSize: 8
TimelineZoom: 1

[Metadata]
Title:Windows XP
TitleUnicode:Windows XP
Artist:Microsoft
ArtistUnicode:Microsoft
Creator:asr1eldr33murr
Version:Windows XP
Source:Microsoft
Tags:Windows XP Microsoft
BeatmapID:1086752
BeatmapSetID:511203

[Difficulty]
HPDrainRate:10
CircleSize:4
OverallDifficulty:10
ApproachRate:10
SliderMultiplier:1.00000000596046
SliderTickRate:1

[Events]
//Background and Video events
0,0,"Windows-XP.jpg",0,0
//Break Periods
//Storyboard Layer 0 (Background)
//Storyboard Layer 1 (Fail)
//Storyboard Layer 2 (Pass)
//Storyboard Layer 3 (Foreground)
//Storyboard Sound Samples

[TimingPoints]
-33.8130163257279,487.80487804878,4,1,0,100,1,0

[Colours]
Combo1 : 234,234,0
Combo2 : 255,77,0
Combo3 : 128,255,0
Combo4 : 81,81,255

[HitObjects]
256,192,88,6,0,L|256:385,1,193.750001154839
256,192,88,2,0,L|332:370,1,193.750001154839
256,192,88,2,0,L|180:370,1,193.750001154839
256,192,88,2,0,L|117:326,1,193.750001154839
256,192,88,2,0,L|77:116,1,193.750001154839
256,192,88,2,0,L|121:53,1,193.750001154839
256,192,88,2,0,L|62:192,1,193.750001154839
256,192,88,2,0,L|78:268,1,193.750001154839
256,192,88,2,0,L|255:-1,1,193.750001154839
256,192,88,2,0,L|180:14,1,193.750001154839
256,192,88,2,0,L|331:13,1,193.750001154839
256,192,88,2,0,L|394:57,1,193.750001154839
256,192,88,2,0,L|434:267,1,193.750001154839
256,192,88,2,0,L|390:330,1,193.750001154839
256,192,88,2,0,L|449:191,1,193.750001154839
256,192,88,2,0,L|434:116,1,193.750001154839
288,160,1551,5,0,0:0:0:0:
224,224,1551,5,0,0:0:0:0:
288,224,1551,5,0,0:0:0:0:
224,160,1551,5,0,0:0:0:0:
288,224,1886,6,0,L|288:384,1,156.250000931322
288,160,1886,6,0,L|448:160,1,156.250000931322
224,224,1886,6,0,L|64:224,1,156.250000931322
224,160,1886,6,0,L|224:0,1,156.250000931322
389,160,2374,5,0,0:0:0:0:
224,59,2374,5,0,0:0:0:0:
123,224,2374,5,0,0:0:0:0:
288,325,2374,5,0,0:0:0:0:
445,160,2649,5,0,0:0:0:0:
224,3,2649,5,0,0:0:0:0:
67,224,2649,5,0,0:0:0:0:
256,192,2649,12,0,4966,0:0:0:0:
256,192,2771,5,0,0:0:0:0:
256,192,2832,1,0,0:0:0:0:
256,192,2893,1,0,0:0:0:0:
256,192,2953,1,0,0:0:0:0:
256,192,3014,1,0,0:0:0:0:
256,192,3075,1,0,0:0:0:0:
256,192,3136,1,0,0:0:0:0:
256,192,3197,1,0,0:0:0:0:
256,192,3258,1,0,0:0:0:0:
256,192,3319,1,0,0:0:0:0:
256,192,3380,1,0,0:0:0:0:
256,192,3441,1,0,0:0:0:0:
256,192,3502,1,0,0:0:0:0:
256,192,3563,1,0,0:0:0:0:
256,192,3624,1,0,0:0:0:0:
256,192,3685,1,0,0:0:0:0:
256,192,3746,1,0,0:0:0:0:
256,192,3807,1,0,0:0:0:0:
256,192,3868,1,0,0:0:0:0:
256,192,3929,1,0,0:0:0:0:
256,192,3990,1,0,0:0:0:0:
256,192,4051,1,0,0:0:0:0:
256,192,4112,1,0,0:0:0:0:
256,192,4173,1,0,0:0:0:0:
256,192,4234,1,0,0:0:0:0:
256,192,4295,1,0,0:0:0:0:
256,192,4356,1,0,0:0:0:0:
256,192,4417,1,0,0:0:0:0:
256,192,4478,1,0,0:0:0:0:
256,192,4539,1,0,0:0:0:0:
256,192,4600,1,0,0:0:0:0:
256,192,4661,1,0,0:0:0:0:
256,192,4722,1,0,0:0:0:0:
256,192,4783,1,0,0:0:0:0:
256,192,4844,1,0,0:0:0:0:
256,192,4905,1,0,0:0:0:0:
184,344,4966,6,0,L|185:293,3,50.000000298023
104,120,4966,6,0,L|155:121,3,50.000000298023
328,40,4966,6,0,L|327:91,3,50.000000298023
408,264,4966,6,0,L|357:263,3,50.000000298023
184,294,5697,6,0,L|152:120,1,175.00000104308
327,89,5697,6,0,L|360:264,1,175.00000104308
358,263,5697,6,0,L|184:296,1,175.00000104308
153,120,5697,6,0,L|328:88,1,175.00000104308
408,107,6551,1,0,0:0:0:0:
103,276,6551,1,0,0:0:0:0:
171,39,6551,1,0,0:0:0:0:
340,344,6551,1,0,0:0:0:0:
88,144,6551,1,0,0:0:0:0:
424,240,6551,1,0,0:0:0:0:
304,24,6551,1,0,0:0:0:0:
208,360,6551,1,0,0:0:0:0:
391,301,6551,1,0,0:0:0:0:
120,82,6551,1,0,0:0:0:0:
146,327,6551,1,0,0:0:0:0:
365,56,6551,1,0,0:0:0:0:
82,210,6551,1,0,0:0:0:0:
429,173,6551,1,0,0:0:0:0:
274,365,6551,1,0,0:0:0:0:
237,18,6551,1,0,0:0:0:0:
145,56,6551,1,0,0:0:0:0:
120,302,6551,1,0,0:0:0:0:
391,81,6551,1,0,0:0:0:0:
366,327,6551,1,0,0:0:0:0:
237,365,6551,1,0,0:0:0:0:
274,18,6551,1,0,0:0:0:0:
82,173,6551,1,0,0:0:0:0:
429,210,6551,1,0,0:0:0:0:
204,24,6551,1,0,0:0:0:0:
307,359,6551,1,0,0:0:0:0:
423,140,6551,1,0,0:0:0:0:
88,243,6551,1,0,0:0:0:0:
337,37,6551,1,0,0:0:0:0:
174,346,6551,1,0,0:0:0:0:
101,110,6551,1,0,0:0:0:0:
410,273,6551,1,0,0:0:0:0:
