osu file format v14

[General]
AudioFilename: audio.mp3
AudioLeadIn: 0
PreviewTime: 176523
Countdown: 0
SampleSet: Soft
StackLeniency: 0.7
Mode: 0
LetterboxInBreaks: 0
WidescreenStoryboard: 1

[Editor]
Bookmarks: 12491,24878,38813,51200,55845,57394,63587,65136,75974,88362,102297,114684,116233,127071,139458,151845,164233,176620,189007
DistanceSpacing: 1
BeatDivisor: 4
GridSize: 16
TimelineZoom: 2.800001

[Metadata]
Title:Wildcard (feat. Feli Ferraro)
TitleUnicode:Wildcard (feat. Feli Ferraro)
Artist:Mickey Valen
ArtistUnicode:Mickey Valen
Creator:Altai
Version:Fall's Normal
Source:
Tags:English Seonah Echo0606 Fall _tranquility dance electronic
BeatmapID:2269733
BeatmapSetID:1062655

[Difficulty]
HPDrainRate:3
CircleSize:3
OverallDifficulty:4
ApproachRate:5
SliderMultiplier:2.4
SliderTickRate:1

[Events]
//Background and Video events
0,0,"wildcard.png",0,0
Video,0,"vid.mp4"
//Break Periods
2,76176,87042
2,127285,138257
2,152080,161131
//Storyboard Layer 0 (Background)
//Storyboard Layer 1 (Fail)
//Storyboard Layer 2 (Pass)
//Storyboard Layer 3 (Foreground)
//Storyboard Layer 4 (Overlay)
//Storyboard Sound Samples

[TimingPoints]
120,387.096774193548,4,2,0,40,1,0
12507,-222.222222222222,4,2,1,40,0,0
15507,-222.222222222222,4,2,1,5,0,0
15603,-222.222222222222,4,2,1,40,0,0
18603,-222.222222222222,4,2,1,5,0,0
18700,-222.222222222222,4,2,1,40,0,0
21700,-222.222222222222,4,2,1,5,0,0
21797,-222.222222222222,4,2,1,40,0,0
24878,-222.222222222222,4,2,1,40,0,0
24880,387.096774193548,4,2,2,50,1,0
24880,-222.222222222222,4,2,2,50,0,0
25944,-222.222222222222,4,2,2,5,0,0
26041,-222.222222222222,4,2,2,50,0,0
32138,-222.222222222222,4,2,2,5,0,0
32234,-222.222222222222,4,2,2,50,0,0
32912,-222.222222222222,4,2,2,5,0,0
33009,-222.222222222222,4,2,2,50,0,0
33686,-222.222222222222,4,2,2,5,0,0
33783,-222.222222222222,4,2,2,50,0,0
37281,387.096774193548,4,2,2,50,1,0
37281,-222.222222222222,4,2,2,50,0,0
38813,-222.222222222222,4,2,2,50,0,0
38829,387.096774193548,4,2,2,55,1,0
38829,-222.222222222222,4,2,2,55,0,0
39119,-222.222222222222,4,2,2,5,0,0
39216,-222.222222222222,4,2,2,55,0,0
39894,-222.222222222222,4,2,2,5,0,0
39990,-222.222222222222,4,2,2,55,0,0
42216,-222.222222222222,4,2,2,5,0,0
42313,-222.222222222222,4,2,2,55,0,0
42990,-222.222222222222,4,2,2,5,0,0
43087,-222.222222222222,4,2,2,55,0,0
45312,-222.222222222222,4,2,2,5,0,0
45409,-222.222222222222,4,2,2,55,0,0
46086,-222.222222222222,4,2,2,5,0,0
46183,-222.222222222222,4,2,2,55,0,0
48409,-222.222222222222,4,2,2,5,0,0
48506,-222.222222222222,4,2,2,55,0,0
49183,-222.222222222222,4,2,2,5,0,0
49280,-222.222222222222,4,2,2,55,0,0
51200,-222.222222222222,4,2,2,55,0,0
51215,-222.222222222222,4,2,1,60,0,0
51506,-222.222222222222,4,2,1,5,0,0
51602,-222.222222222222,4,2,1,60,0,0
51974,-222.222222222222,4,2,1,60,0,0
51989,-222.222222222222,4,2,2,60,0,0
52280,-222.222222222222,4,2,2,5,0,0
52377,-222.222222222222,4,2,2,60,0,0
53054,-222.222222222222,4,2,2,5,0,0
53151,-222.222222222222,4,2,2,60,0,0
54602,-222.222222222222,4,2,2,5,0,0
54699,-222.222222222222,4,2,2,60,0,0
55377,-222.222222222222,4,2,2,5,0,0
55473,-222.222222222222,4,2,2,60,0,0
56151,-222.222222222222,4,2,2,5,0,0
56248,-222.222222222222,4,2,2,60,0,0
57312,-222.222222222222,4,2,2,5,0,0
57409,-222.222222222222,4,2,2,60,0,0
60491,-222.222222222222,4,2,2,60,0,0
60506,-222.222222222222,4,2,2,80,0,0
62039,-222.222222222222,4,2,2,80,0,0
62054,-222.222222222222,4,2,1,80,0,0
62136,-222.222222222222,4,2,1,80,0,0
62151,-222.222222222222,4,2,1,30,0,0
63603,-181.818181818182,4,2,1,100,0,1
63684,-181.818181818182,4,2,1,100,0,1
63699,-181.818181818182,4,2,2,100,0,1
75976,387.096774193548,4,2,1,100,1,0
75976,-181.818181818182,4,2,1,100,0,0
76169,-100,4,2,1,40,0,0
76749,-181.818181818182,4,2,2,40,0,0
78974,-181.818181818182,4,2,2,5,0,0
79071,-181.818181818182,4,2,2,40,0,0
80910,-181.818181818182,4,2,2,5,0,0
81007,-181.818181818182,4,2,2,40,0,0
85168,-181.818181818182,4,2,2,5,0,0
85265,-181.818181818182,4,2,2,40,0,0
86329,-181.818181818182,4,2,2,5,0,0
86426,-181.818181818182,4,2,2,40,0,0
88362,-222.222222222222,4,2,2,50,0,0
89426,-222.222222222222,4,2,2,5,0,0
89523,-222.222222222222,4,2,2,50,0,0
95621,-222.222222222222,4,2,2,5,0,0
95717,-222.222222222222,4,2,2,50,0,0
96395,-222.222222222222,4,2,2,5,0,0
96492,-222.222222222222,4,2,2,50,0,0
97169,-222.222222222222,4,2,2,5,0,0
97266,-222.222222222222,4,2,2,50,0,0
100764,387.096774193548,4,2,2,50,1,0
100764,-222.222222222222,4,2,2,50,0,0
102297,-222.222222222222,4,2,2,50,0,0
102312,387.096774193548,4,2,1,60,1,0
102312,-222.222222222222,4,2,1,60,0,0
102394,-222.222222222222,4,2,2,60,0,0
102602,-222.222222222222,4,2,2,5,0,0
102699,-222.222222222222,4,2,2,60,0,0
103376,-222.222222222222,4,2,2,5,0,0
103473,-222.222222222222,4,2,2,60,0,0
104150,-222.222222222222,4,2,2,5,0,0
104247,-222.222222222222,4,2,2,60,0,0
105699,-222.222222222222,4,2,2,5,0,0
105795,-222.222222222222,4,2,2,60,0,0
106473,-222.222222222222,4,2,2,5,0,0
106570,-222.222222222222,4,2,2,60,0,0
107247,-222.222222222222,4,2,2,5,0,0
107344,-222.222222222222,4,2,2,60,0,0
108408,-222.222222222222,4,2,2,5,0,0
108505,-222.222222222222,4,2,2,60,0,0
111587,-222.222222222222,4,2,1,80,0,0
112362,-222.222222222222,4,2,2,80,0,0
113136,-222.222222222222,4,2,1,80,0,0
113233,-222.222222222222,4,2,2,30,0,0
113910,-222.222222222222,4,2,1,40,0,0
114103,-222.222222222222,4,2,1,50,0,0
114297,-222.222222222222,4,2,1,60,0,0
114491,-222.222222222222,4,2,1,70,0,0
115458,-222.222222222222,4,2,1,80,0,0
115652,-222.222222222222,4,2,1,40,0,0
116247,387.096774193548,4,2,1,60,1,1
116247,-181.818181818182,4,2,1,60,0,1
116343,-181.818181818182,4,2,2,60,0,1
117007,-181.818181818182,4,2,2,60,0,1
117021,-181.818181818182,4,2,2,100,0,1
120892,387.096774193548,4,2,2,100,1,1
120892,-181.818181818182,4,2,2,100,0,1
127071,-181.818181818182,4,2,2,100,0,1
127085,-181.818181818182,4,2,1,40,0,0
130942,-181.818181818182,4,2,1,40,0,0
130956,-181.818181818182,4,2,2,40,0,0
131716,-181.818181818182,4,2,2,30,0,0
133295,394.088669950739,4,2,1,40,1,0
134280,387.096774193548,4,2,1,40,1,0
134865,404.040404040404,4,2,2,40,1,0
135875,387.096774193548,4,2,2,40,1,0
136395,387.096774193548,4,2,2,40,1,0
137137,387.096774193548,4,2,2,40,1,0
139264,387.096774193548,4,2,2,40,1,0
139457,387.096774193548,4,2,1,50,1,0
139457,-222.222222222222,4,2,1,50,0,0
139554,-100,4,2,2,50,0,0
139555,-222.222222222222,4,2,2,50,0,0
143037,-222.222222222222,4,2,2,5,0,0
143134,-222.222222222222,4,2,2,50,0,0
145166,-222.222222222222,4,2,2,5,0,0
145263,-222.222222222222,4,2,2,50,0,0
145553,-222.222222222222,4,2,2,5,0,0
145650,-222.222222222222,4,2,2,50,0,0
145940,-222.222222222222,4,2,2,5,0,0
146037,-222.222222222222,4,2,2,50,0,0
146327,-222.222222222222,4,2,2,5,0,0
146424,-222.222222222222,4,2,2,50,0,0
147489,-222.222222222222,4,2,2,5,0,0
147586,-222.222222222222,4,2,2,50,0,0
147876,-222.222222222222,4,2,2,5,0,0
147973,-222.222222222222,4,2,2,50,0,0
149037,-222.222222222222,4,2,2,5,0,0
149134,-222.222222222222,4,2,2,50,0,0
149424,-222.222222222222,4,2,2,5,0,0
149521,-222.222222222222,4,2,2,50,0,0
151845,-222.222222222222,4,2,2,50,0,0
151880,387.096774193548,4,2,1,30,1,0
162699,387.096774193548,4,2,1,50,1,0
163458,-222.222222222222,4,2,1,50,0,0
163473,-222.222222222222,4,2,2,55,0,0
163764,-222.222222222222,4,2,2,5,0,0
163860,-222.222222222222,4,2,2,55,0,0
164233,-222.222222222222,4,2,1,60,0,0
164247,387.096774193548,4,2,1,60,1,0
164247,-222.222222222222,4,2,1,60,0,0
164329,-222.222222222222,4,2,1,60,0,0
164333,-222.222222222222,4,2,2,60,0,0
164537,-222.222222222222,4,2,2,5,0,0
164624,-222.222222222222,4,2,2,60,0,0
165301,-222.222222222222,4,2,2,5,0,0
165398,-222.222222222222,4,2,2,60,0,0
166075,-222.222222222222,4,2,2,5,0,0
166172,-222.222222222222,4,2,2,60,0,0
167624,-222.222222222222,4,2,2,5,0,0
167720,-222.222222222222,4,2,2,60,0,0
168398,-222.222222222222,4,2,2,5,0,0
168495,-222.222222222222,4,2,2,60,0,0
169172,-222.222222222222,4,2,2,5,0,0
169269,-222.222222222222,4,2,2,60,0,0
173523,-222.222222222222,4,2,2,60,0,0
173527,-222.222222222222,4,2,1,80,0,0
174297,-222.222222222222,4,2,1,80,0,0
174301,-222.222222222222,4,2,2,80,0,0
175168,-222.222222222222,4,2,2,80,0,0
175172,-222.222222222222,4,2,1,30,0,0
175859,-222.222222222222,4,2,1,80,0,0
176634,-181.818181818182,4,2,1,100,0,1
176716,-181.818181818182,4,2,1,100,0,1
176730,-181.818181818182,4,2,2,100,0,1
189021,-181.818181818182,4,2,1,55,0,0

[Colours]
Combo1 : 79,182,221
Combo2 : 249,232,191
Combo3 : 241,116,80
Combo4 : 58,218,154

[HitObjects]
54,80,12507,6,0,P|131:43|285:80,1,215.999993408203,12|2,0:0|0:0,0:0:0:0:
400,147,13861,1,2,0:0:0:0:
400,147,14055,2,0,P|370:173|195:106,1,215.999993408203,8|2,0:0|0:0,0:0:0:0:
254,345,15603,6,0,B|275:260|179:234|213:138,1,215.999993408203,8|2,0:0|0:0,0:0:0:0:
392,20,17152,2,0,P|277:88|158:83,1,215.999993408203,10|2,0:0|0:0,0:0:0:0:
1,0,18700,38,0,P|23:82|19:226,1,215.999993408203,8|2,0:0|0:0,0:0:0:0:
145,326,20055,1,2,0:0:0:0:
145,326,20249,2,0,P|119:282|235:158,1,215.999993408203,8|2,0:0|0:0,0:0:0:0:
381,47,21797,6,0,B|428:96|376:161|376:161|406:209|375:281,1,215.999993408203,8|2,0:0|0:0,0:0:0:0:
181,313,23345,2,0,P|262:374|351:324,1,215.999993408203,8|6,0:0|0:0,0:0:0:0:
493,165,24880,38,0,L|493:272,1,107.999996704102,10|2,0:0|0:0,0:0:0:0:
472,324,25460,1,8,0:0:0:0:
472,324,25654,2,0,P|434:306|333:314,1,107.999996704102,6|2,0:0|0:0,0:0:0:0:
272,253,26428,6,0,P|318:226|342:179,1,107.999996704102,10|0,0:0|0:0,0:0:0:0:
270,97,27202,2,0,P|223:123|199:170,1,107.999996704102,6|2,0:0|0:0,0:0:0:0:
128,251,27976,38,0,P|135:305|205:371,1,107.999996704102,10|0,0:0|0:0,0:0:0:0:
218,358,28557,1,10,0:0:0:0:
218,358,28751,2,0,P|209:316|290:276,1,107.999996704102,4|0,0:0|0:0,0:0:0:0:
356,249,29525,6,0,B|311:294|311:294|289:135,1,215.999993408203,10|4,0:0|0:0,0:0:0:0:
116,22,31073,38,0,P|90:62|102:163,1,107.999996704102,10|2,0:0|0:0,0:0:0:0:
108,175,31654,1,8,0:0:0:0:
108,175,31847,2,0,P|158:159|258:180,1,107.999996704102,6|2,0:0|0:0,0:0:0:0:
321,163,32622,6,0,P|271:144|247:46,1,161.999995056153,10|2,0:0|0:0,0:0:0:0:
278,2,33396,2,0,P|347:23|415:2,1,107.999996704102,4|2,0:0|0:0,0:0:0:0:
489,13,34170,38,0,P|507:66|475:150,1,107.999996704102,10|0,0:0|0:0,0:0:0:0:
469,163,34751,1,10,0:0:0:0:
469,163,34944,2,0,P|443:197|444:308,1,107.999996704102,4|0,0:0|0:0,0:0:0:0:
331,304,35718,6,0,B|384:344|384:344|219:379,1,215.999993408203,8|4,0:0|0:0,0:0:0:0:
114,197,37281,38,0,P|120:265|106:348,2,107.999996704102,2|2|2,0:0|0:0|0:0,0:0:0:0:
180,112,38442,1,2,0:0:0:0:
258,186,38829,6,0,B|382:161|317:270|502:242,2,215.999993408203,10|6|10,0:0|0:0|0:0,0:0:0:0:
191,271,40764,1,2,0:0:0:0:
114,197,41151,2,0,P|91:129|102:58,1,107.999996704102,6|2,0:0|0:0,0:0:0:0:
183,35,41925,38,0,P|309:94|412:45,1,215.999993408203,10|6,0:0|0:0,0:0:0:0:
438,280,43473,5,10,0:0:0:0:
398,179,43860,1,2,0:0:0:0:
314,248,44248,2,0,L|204:251,1,107.999996704102,6|2,0:0|0:0,0:0:0:0:
134,331,45022,38,0,B|146:251|44:245|84:105,2,215.999993408203,10|6|10,0:0|0:0|0:0,0:0:0:0:
236,363,46957,1,2,0:0:0:0:
304,279,47344,2,0,L|305:170,1,107.999996704102,6|2,0:0|0:0,0:0:0:0:
316,63,48118,6,0,P|407:98|400:238,1,215.999993408203,10|6,0:0|0:0,0:0:0:0:
233,100,49667,37,10,0:0:0:0:
162,181,50054,2,0,L|166:311,2,107.999996704102,2|6|2,0:0|0:0|0:0,0:0:0:0:
233,100,51215,5,14,0:0:0:0:
165,304,51989,1,6,0:0:0:0:
117,93,52764,1,10,0:0:0:0:
65,187,53151,1,2,0:0:0:0:
170,207,53538,2,0,P|242:213|281:181,1,107.999996704102,6|2,0:0|0:0,0:0:0:0:
373,166,54312,38,0,P|301:99|185:129,1,215.999993408203,10|6,0:0|0:0,0:0:0:0:
449,25,55860,2,0,L|446:175,1,107.999996704102,10|2,0:0|0:0,0:0:0:0:
369,208,56635,2,0,L|366:352,1,107.999996704102,6|2,0:0|0:0,0:0:0:0:
269,363,57409,6,0,P|174:338|155:292,2,107.999996704102,10|8|6,0:0|0:0|0:0,0:0:0:0:
245,257,58570,1,8,0:0:0:0:
200,158,58957,38,0,P|151:242|172:284,2,107.999996704102,10|10|6,0:0|0:0|0:0,0:0:0:0:
267,242,60118,1,4,0:0:0:0:
322,148,60506,6,0,P|341:185|336:226,2,53.9999983520508,8|2|2,0:0|0:0|0:0,0:0:0:0:
267,242,61280,1,4,0:0:0:0:
359,297,61667,1,4,0:0:0:0:
441,227,62054,37,14,1:2:0:0:
327,133,63603,22,0,P|271:127|131:131,2,132.00000402832,14|0|4,0:0|0:0|0:0,0:0:0:0:
362,188,64570,2,0,L|367:262,2,66.0000020141602,2|2|2,0:0|0:0|0:0,0:0:0:0:
412,145,65151,6,0,P|388:80|289:53,2,132.00000402832,10|0|4,0:0|0:0|0:0,0:0:0:0:
434,274,66312,2,0,P|384:278|346:270,1,66.0000020141602,2|0,0:0|0:0,0:0:0:0:
303,261,66699,38,0,P|262:247|179:344,2,132.00000402832,10|0|4,0:0|0:0|0:0,0:0:0:0:
329,321,67667,1,2,0:0:0:0:
329,321,67860,1,2,0:0:0:0:
208,375,68248,6,0,P|133:384|36:367,1,132.00000402832,10|2,0:0|0:0,0:0:0:0:
40,251,69022,1,4,3:2:0:0:
41,185,69215,2,0,L|44:104,2,66.0000020141602,0|8|8,3:0|0:3|0:3,0:0:0:0:
96,221,69796,38,0,P|153:222|222:120,2,132.00000402832,10|0|4,0:0|0:0|0:0,0:0:0:0:
140,96,70957,2,0,P|202:69|231:71,1,66.0000020141602,2|0,0:0|0:0,0:0:0:0:
265,73,71344,6,0,P|360:96|432:83,2,132.00000402832,10|0|4,0:0|0:0|0:0,0:0:0:0:
228,128,72312,1,2,0:0:0:0:
228,128,72506,1,2,0:0:0:0:
347,184,72893,38,0,P|431:225|432:304,2,132.00000402832,10|2|4,0:0|0:0|0:0,0:0:0:0:
286,209,73860,2,0,L|284:298,1,66.0000020141602,2|0,0:0|0:0,0:0:0:0:
280,341,74248,1,2,0:0:0:0:
224,305,74441,6,0,L|89:311,1,132.00000402832,10|2,0:0|0:0,0:0:0:0:
40,189,75216,2,0,P|54:153|55:118,1,66.0000020141602,4|0,3:2|3:0,0:0:0:0:
37,62,75603,1,8,0:3:0:0:
102,54,75796,1,8,0:3:0:0:
162,45,75976,1,12,0:0:0:0:
94,88,88363,6,0,P|160:74|251:86,1,107.999996704102,10|2,0:0|0:0,0:0:0:0:
247,100,88943,1,8,0:0:0:0:
299,85,89137,2,0,P|314:134|272:219,1,107.999996704102,6|2,0:0|0:0,0:0:0:0:
230,270,89911,2,0,P|344:298|388:197,1,215.999993408203,10|6,0:0|0:0,0:0:0:0:
176,201,91459,6,0,P|109:173|27:167,1,107.999996704102,10|0,0:0|0:0,0:0:0:0:
20,175,92040,1,10,0:0:0:0:
35,226,92234,2,0,P|0:271|18:358,1,107.999996704102,4|0,0:0|0:0,0:0:0:0:
104,304,93008,2,0,P|227:347|333:304,1,215.999993408203,10|4,0:0|0:0,0:0:0:0:
452,166,94556,38,0,P|412:155|319:203,1,107.999996704102,10|2,0:0|0:0,0:0:0:0:
309,208,95137,1,8,0:0:0:0:
262,235,95330,2,0,P|214:238|122:194,1,107.999996704102,6|2,0:0|0:0,0:0:0:0:
79,146,96104,2,0,P|104:256|28:328,1,215.999993408203,10|4,0:0|0:0,0:0:0:0:
254,285,97653,6,0,P|297:311|391:303,1,107.999996704102,10|0,0:0|0:0,0:0:0:0:
407,309,98234,1,8,0:0:0:0:
454,284,98427,2,0,P|437:231|459:146,1,107.999996704102,4|2,0:0|0:0,0:0:0:0:
503,90,99201,2,0,L|278:96,1,215.999993408203,8|4,0:0|0:0,0:0:0:0:
68,71,100764,37,2,0:0:0:0:
165,117,101150,2,0,P|193:167|191:260,2,107.999996704102,2|2|2,0:0|0:0|0:0,0:0:0:0:
251,51,102312,6,0,P|308:46|381:58,1,107.999996704102,14|0,0:0|0:0,0:0:0:0:
427,134,103085,2,0,P|370:139|275:118,1,107.999996704102,6|0,0:0|0:0,0:0:0:0:
224,132,103859,37,10,0:0:0:0:
168,39,104247,1,2,0:0:0:0:
105,127,104634,1,6,0:0:0:0:
160,219,105021,1,2,0:0:0:0:
267,233,105408,2,0,L|269:377,1,107.999996704102,10|0,0:0|0:0,0:0:0:0:
376,344,106182,2,0,L|377:236,1,107.999996704102,6|0,0:0|0:0,0:0:0:0:
379,128,106956,5,10,0:0:0:0:
286,71,107343,2,0,P|228:99|138:84,1,107.999996704102,2|6,0:0|0:0,0:0:0:0:
131,95,107924,1,2,0:0:0:0:
131,95,108117,1,2,0:0:0:0:
47,163,108505,38,0,P|72:252|63:289,2,107.999996704102,10|8|0,0:0|0:0|0:0,0:0:0:0:
119,82,109666,1,8,0:0:0:0:
210,139,110053,6,0,P|263:140|316:128,2,107.999996704102,10|10|6,0:0|0:0|0:0,0:0:0:0:
259,43,111214,1,4,0:0:0:0:
366,52,111601,38,0,L|424:52,1,53.9999983520508,8|2,0:0|0:0,0:0:0:0:
474,52,111988,1,2,0:0:0:0:
424,148,112376,1,4,0:0:0:0:
316,128,112763,1,4,0:0:0:0:
257,218,113150,5,14,1:2:0:0:
44,355,115473,38,0,P|68:306|68:261,1,53.9999983520508,4|2,0:0|0:0,0:0:0:0:
51,255,115860,2,0,P|27:206|27:161,1,53.9999983520508,2|2,0:0|0:0,0:0:0:0:
27,140,116247,22,0,P|66:157|210:143,2,132.00000402832,14|0|4,0:0|0:0|3:2,0:0:0:0:
9,76,117214,1,0,3:0:0:0:
51,25,117408,2,0,L|141:26,1,66.0000020141602,8|8,0:3|0:3,0:0:0:0:
171,63,117795,6,0,P|236:71|301:60,2,132.00000402832,10|0|4,0:0|0:0|0:0,0:0:0:0:
108,85,118763,1,2,0:0:0:0:
108,85,118956,1,2,0:0:0:0:
196,183,119343,38,0,P|194:246|245:283,1,132.00000402832,10|2,0:0|0:0,0:0:0:0:
359,218,120117,2,0,P|418:215|457:237,1,66.0000020141602,0|0,3:0|3:0,0:0:0:0:
483,245,120505,1,8,0:3:0:0:
509,184,120698,1,8,0:3:0:0:
448,156,120892,6,0,P|441:91|475:36,2,132.00000402832,10|0|4,0:0|0:0|0:0,0:0:0:0:
336,226,122053,2,0,P|344:194|341:161,1,66.0000020141602,2|0,0:0|0:0,0:0:0:0:
300,109,122440,38,0,P|242:137|179:123,2,132.00000402832,10|0|4,0:0|0:0|0:0,0:0:0:0:
326,48,123408,1,8,0:2:0:0:
279,1,123601,1,2,0:0:0:0:
154,44,123988,6,0,P|93:18|27:14,2,132.00000402832,10|2|4,0:0|0:0|0:0,0:0:0:0:
124,103,124956,2,0,P|122:155|62:277,1,132.00000402832,2|2,0:0|0:0,0:0:0:0:
56,282,125537,1,10,0:0:0:0:
176,335,125924,1,2,0:0:0:0:
271,244,126311,1,4,3:2:0:0:
252,180,126504,1,0,3:0:0:0:
273,117,126698,2,0,L|282:42,2,66.0000020141602,8|8|14,0:3|0:3|3:2,0:0:0:0:
106,317,139457,6,0,P|89:227|97:160,1,107.999996704102,10|0,0:0|0:0,0:0:0:0:
97,157,140037,1,10,0:0:0:0:
151,157,140231,2,0,P|260:120|277:92,1,107.999996704102,6|0,0:0|0:0,0:0:0:0:
347,82,141005,6,0,P|340:142|342:232,1,107.999996704102,10|0,0:0|0:0,0:0:0:0:
377,227,141585,1,2,0:0:0:0:
412,268,141779,2,0,P|359:253|273:266,1,107.999996704102,6|0,0:0|0:0,0:0:0:0:
208,301,142553,38,0,P|179:345|127:353,1,107.999996704102,10|0,0:0|0:0,0:0:0:0:
80,326,143134,1,10,0:0:0:0:
36,294,143327,2,0,P|33:223|97:172,1,107.999996704102,6|0,0:0|0:0,0:0:0:0:
151,150,144101,6,0,P|107:129|69:39,1,107.999996704102,10|0,0:0|0:0,0:0:0:0:
91,30,144682,1,2,0:0:0:0:
91,30,144876,1,6,0:0:0:0:
232,192,145650,38,0,P|252:123|230:53,1,107.999996704102,10|2,0:0|0:0,0:0:0:0:
213,45,146231,1,8,0:0:0:0:
252,8,146424,2,0,P|297:-15|382:36,1,107.999996704102,6|0,0:0|0:0,0:0:0:0:
429,71,147198,6,0,P|426:178|449:314,1,215.999993408203,10|6,0:0|0:0,0:0:0:0:
228,322,148747,38,0,P|185:296|79:301,1,107.999996704102,10|2,0:0|0:0,0:0:0:0:
74,284,149327,1,0,0:0:0:0:
105,240,149521,2,0,P|101:198|155:107,1,107.999996704102,6|0,0:0|0:0,0:0:0:0:
219,87,150295,5,10,0:0:0:0:
256,192,150392,12,2,151880,0:0:0:0:
256,192,162331,12,2,163473,0:0:0:0:
175,302,164247,38,0,P|198:234|188:147,1,107.999996704102,14|0,0:0|0:0,0:0:0:0:
124,119,165021,2,0,P|174:142|271:126,1,107.999996704102,6|0,0:0|0:0,0:0:0:0:
328,108,165795,5,10,0:0:0:0:
249,33,166182,1,2,0:0:0:0:
226,143,166569,1,6,0:0:0:0:
302,218,166956,1,2,0:0:0:0:
408,202,167343,38,0,P|421:253|406:354,1,107.999996704102,10|0,0:0|0:0,0:0:0:0:
314,324,168117,2,0,P|301:273|316:169,1,107.999996704102,6|0,0:0|0:0,0:0:0:0:
339,116,168892,5,10,0:0:0:0:
231,104,169279,1,2,0:0:0:0:
200,207,169666,2,0,L|202:305,2,53.9999983520508,6|2|2,0:0|0:0|0:0,0:0:0:0:
105,154,170440,38,0,P|52:172|-40:151,2,107.999996704102,10|8|6,0:0|0:0|0:0,0:0:0:0:
135,50,171601,1,8,0:0:0:0:
231,104,171988,6,0,P|247:154|284:193,2,107.999996704102,10|10|6,0:0|0:0|0:0,0:0:0:0:
339,108,173150,1,4,0:0:0:0:
382,206,173537,38,0,L|383:266,1,53.9999983520508,8|2,0:0|0:0,0:0:0:0:
384,314,173924,1,2,0:0:0:0:
286,266,174311,1,4,0:0:0:0:
212,345,174698,1,4,0:0:0:0:
113,301,175085,5,14,1:2:0:0:
36,99,175859,38,0,L|33:152,1,53.9999983520508,2|0,3:0|3:0,0:0:0:0:
67,195,176247,2,0,L|69:248,1,53.9999983520508,8|8,0:3|0:3,0:0:0:0:
113,301,176634,22,0,P|173:322|279:272,2,132.00000402832,14|0|4,0:0|0:0|0:2,0:0:0:0:
127,236,177601,1,2,0:0:0:0:
182,199,177795,1,2,0:0:0:0:
302,236,178182,6,0,P|365:253|430:262,2,132.00000402832,10|0|4,0:0|0:0|0:0,0:0:0:0:
344,110,179343,2,0,P|292:138|274:189,1,66.0000020141602,2|0,0:0|0:0,0:0:0:0:
223,155,179730,38,0,P|231:90|207:29,2,132.00000402832,10|0|4,0:0|0:0|0:0,0:0:0:0:
193,213,180698,1,2,0:0:0:0:
214,275,180892,1,2,0:0:0:0:
83,296,181279,6,0,P|101:232|100:107,1,132.00000402832,10|2,0:0|0:0,0:0:0:0:
115,34,182053,2,0,P|183:51|204:158,1,132.00000402832,4|8,3:2|0:3,0:0:0:0:
208,167,182634,1,8,0:3:0:0:
203,232,182827,38,0,P|266:238|373:176,2,132.00000402832,10|0|4,0:0|0:0|0:0,0:0:0:0:
298,140,183988,2,0,P|298:107|305:74,1,66.0000020141602,2|0,0:0|0:0,0:0:0:0:
342,19,184376,6,0,P|402:0|468:79,2,132.00000402832,10|0|4,0:0|0:0|0:0,0:0:0:0:
305,74,185343,1,2,0:0:0:0:
349,122,185537,1,2,0:0:0:0:
444,213,185924,38,0,P|442:297|456:401,2,132.00000402832,10|2|4,0:0|0:0|0:0,0:0:0:0:
395,167,186892,1,2,0:0:0:0:
264,175,187279,1,2,0:0:0:0:
198,175,187472,2,0,P|188:244|274:310,1,132.00000402832,10|2,0:0|0:0,0:0:0:0:
94,329,188246,2,0,L|88:244,1,66.0000020141602,4|0,3:2|3:0,0:0:0:0:
84,196,188634,1,12,0:3:0:0:
80,130,188827,1,8,0:3:0:0:
74,64,189021,1,14,0:0:0:0:
