osu file format v14

[General]
AudioFilename: audio.mp3
AudioLeadIn: 0
PreviewTime: 180313
Countdown: 0
SampleSet: None
StackLeniency: 0.9
Mode: 3
LetterboxInBreaks: 0
SpecialStyle: 1
WidescreenStoryboard: 0

[Editor]
DistanceSpacing: 0.8
BeatDivisor: 4
GridSize: 32
TimelineZoom: 1.9

[Metadata]
Title:Rip & Tear
TitleUnicode:Rip & Tear
Artist:Mick Gordon
ArtistUnicode:Mick Gordon
Creator:Herkkupala
Version:Revenant
Source:DOOM
Tags:2016 ost original soundtrack cut djent metal treat treatpack 2 play etterna jack jumpstream bursts
BeatmapID:1970086
BeatmapSetID:943380

[Difficulty]
HPDrainRate:8.5
CircleSize:4
OverallDifficulty:9
ApproachRate:5
SliderMultiplier:1.4
SliderTickRate:1

[Events]
//Background and Video events
0,0,"bg.png",0,0
//Break Periods
2,68561,76049
2,127311,134877
//Storyboard Layer 0 (Background)
//Storyboard Layer 1 (Fail)
//Storyboard Layer 2 (Pass)
//Storyboard Layer 3 (Foreground)
//Storyboard Sound Samples

[TimingPoints]
861,277.777778,4,3,0,30,1,0
40444,-100,4,3,0,30,0,1
44749,-100,4,3,0,30,0,0
50583,-100,4,3,0,30,0,1
59333,-100,4,3,0,30,0,0
60027,-100,4,3,0,30,0,1
68361,-100,4,3,0,30,0,0
96138,-100,4,3,0,30,0,1
105027,-100,4,3,0,30,0,0
118222,-100,4,3,0,30,0,1
126972,278.035218,4,3,0,30,1,0
127111,-100,4,3,0,30,0,0
136147,277.777778,4,3,0,30,1,0
193924,-100,4,3,0,30,0,1
230035,-100,4,3,0,30,0,0

[HitObjects]
64,192,166,5,0,0:0:0:0:
192,192,166,1,0,0:0:0:0:
448,192,166,1,0,0:0:0:0:
320,192,212,1,0,0:0:0:0:
64,192,305,1,0,0:0:0:0:
192,192,444,1,0,0:0:0:0:
448,192,583,1,0,0:0:0:0:
320,192,722,1,0,0:0:0:0:
192,192,861,128,0,1069:0:0:0:0:
320,192,1138,1,0,0:0:0:0:
192,192,1277,128,0,1486:0:0:0:0:
320,192,1555,1,0,0:0:0:0:
192,192,1694,128,0,1902:0:0:0:0:
320,192,1972,1,0,0:0:0:0:
320,192,2111,1,0,0:0:0:0:
192,192,2249,1,0,0:0:0:0:
192,192,2388,1,0,0:0:0:0:
64,192,2527,1,0,0:0:0:0:
192,192,2666,1,0,0:0:0:0:
448,192,2805,1,0,0:0:0:0:
320,192,2944,1,0,0:0:0:0:
192,192,3083,128,0,3291:0:0:0:0:
320,192,3361,1,0,0:0:0:0:
192,192,3499,128,0,3708:0:0:0:0:
320,192,3777,1,0,0:0:0:0:
192,192,3916,128,0,4124:0:0:0:0:
320,192,4194,1,0,0:0:0:0:
64,192,4333,1,0,0:0:0:0:
64,192,4472,1,0,0:0:0:0:
64,192,4611,1,0,0:0:0:0:
192,192,4749,1,0,0:0:0:0:
320,192,4749,1,0,0:0:0:0:
64,192,4888,1,0,0:0:0:0:
320,192,4888,1,0,0:0:0:0:
192,192,5027,1,0,0:0:0:0:
320,192,5027,1,0,0:0:0:0:
192,192,5166,1,0,0:0:0:0:
448,192,5166,1,0,0:0:0:0:
320,192,5305,128,0,5583:0:0:0:0:
448,192,5305,1,0,0:0:0:0:
192,192,5583,1,0,0:0:0:0:
448,192,5583,1,0,0:0:0:0:
192,192,5722,128,0,5999:0:0:0:0:
448,192,5861,1,0,0:0:0:0:
64,192,5999,1,0,0:0:0:0:
320,192,6138,128,0,6416:0:0:0:0:
448,192,6138,1,0,0:0:0:0:
192,192,6416,1,0,0:0:0:0:
448,192,6416,1,0,0:0:0:0:
64,192,6555,1,0,0:0:0:0:
192,192,6555,128,0,6833:0:0:0:0:
448,192,6694,1,0,0:0:0:0:
320,192,6833,1,0,0:0:0:0:
448,192,6902,1,0,0:0:0:0:
192,192,6972,1,0,0:0:0:0:
320,192,6972,1,0,0:0:0:0:
64,192,7111,1,0,0:0:0:0:
320,192,7111,1,0,0:0:0:0:
192,192,7249,1,0,0:0:0:0:
320,192,7249,1,0,0:0:0:0:
192,192,7388,1,0,0:0:0:0:
448,192,7388,1,0,0:0:0:0:
320,192,7527,128,0,7805:0:0:0:0:
448,192,7527,1,0,0:0:0:0:
192,192,7805,1,0,0:0:0:0:
448,192,7805,1,0,0:0:0:0:
192,192,7944,128,0,8222:0:0:0:0:
448,192,8083,1,0,0:0:0:0:
64,192,8222,1,0,0:0:0:0:
320,192,8361,128,0,9055:0:0:0:0:
448,192,8361,1,0,0:0:0:0:
448,192,8499,1,0,0:0:0:0:
192,192,8638,1,0,0:0:0:0:
192,192,8777,1,0,0:0:0:0:
64,192,8916,128,0,9055:0:0:0:0:
64,192,9194,1,0,0:0:0:0:
320,192,9194,1,0,0:0:0:0:
448,192,9194,1,0,0:0:0:0:
192,192,9333,1,0,0:0:0:0:
448,192,9333,1,0,0:0:0:0:
64,192,9472,1,0,0:0:0:0:
192,192,9472,1,0,0:0:0:0:
320,192,9472,1,0,0:0:0:0:
192,192,9611,1,0,0:0:0:0:
448,192,9611,1,0,0:0:0:0:
64,192,9749,1,0,0:0:0:0:
320,192,9749,1,0,0:0:0:0:
448,192,9749,1,0,0:0:0:0:
192,192,9819,1,0,0:0:0:0:
320,192,9888,1,0,0:0:0:0:
64,192,9958,1,0,0:0:0:0:
192,192,10027,1,0,0:0:0:0:
448,192,10027,1,0,0:0:0:0:
64,192,10166,1,0,0:0:0:0:
448,192,10166,1,0,0:0:0:0:
320,192,10236,1,0,0:0:0:0:
192,192,10305,1,0,0:0:0:0:
320,192,10374,1,0,0:0:0:0:
64,192,10444,1,0,0:0:0:0:
448,192,10444,1,0,0:0:0:0:
192,192,10583,1,0,0:0:0:0:
448,192,10583,1,0,0:0:0:0:
320,192,10652,1,0,0:0:0:0:
192,192,10722,1,0,0:0:0:0:
448,192,10791,1,0,0:0:0:0:
64,192,10861,1,0,0:0:0:0:
320,192,10861,1,0,0:0:0:0:
64,192,10999,1,0,0:0:0:0:
448,192,10999,1,0,0:0:0:0:
320,192,11069,1,0,0:0:0:0:
192,192,11138,1,0,0:0:0:0:
448,192,11208,1,0,0:0:0:0:
64,192,11277,1,0,0:0:0:0:
320,192,11347,1,0,0:0:0:0:
64,192,11416,1,0,0:0:0:0:
192,192,11416,1,0,0:0:0:0:
448,192,11416,1,0,0:0:0:0:
64,192,11555,1,0,0:0:0:0:
320,192,11555,1,0,0:0:0:0:
192,192,11694,1,0,0:0:0:0:
320,192,11694,1,0,0:0:0:0:
448,192,11694,1,0,0:0:0:0:
64,192,11833,1,0,0:0:0:0:
320,192,11833,1,0,0:0:0:0:
64,192,11972,1,0,0:0:0:0:
192,192,11972,1,0,0:0:0:0:
448,192,11972,1,0,0:0:0:0:
320,192,12041,1,0,0:0:0:0:
192,192,12111,1,0,0:0:0:0:
448,192,12180,1,0,0:0:0:0:
64,192,12249,1,0,0:0:0:0:
320,192,12249,1,0,0:0:0:0:
64,192,12388,1,0,0:0:0:0:
448,192,12388,1,0,0:0:0:0:
192,192,12458,1,0,0:0:0:0:
320,192,12527,1,0,0:0:0:0:
192,192,12597,1,0,0:0:0:0:
64,192,12666,1,0,0:0:0:0:
448,192,12666,1,0,0:0:0:0:
320,192,12736,1,0,0:0:0:0:
192,192,12805,1,0,0:0:0:0:
448,192,12805,1,0,0:0:0:0:
64,192,12874,1,0,0:0:0:0:
192,192,12944,1,0,0:0:0:0:
320,192,13013,1,0,0:0:0:0:
64,192,13083,1,0,0:0:0:0:
192,192,13083,1,0,0:0:0:0:
64,192,13222,1,0,0:0:0:0:
320,192,13222,1,0,0:0:0:0:
192,192,13291,1,0,0:0:0:0:
448,192,13361,1,0,0:0:0:0:
320,192,13430,1,0,0:0:0:0:
448,192,13499,1,0,0:0:0:0:
320,192,13569,1,0,0:0:0:0:
64,192,13638,1,0,0:0:0:0:
192,192,13638,1,0,0:0:0:0:
448,192,13638,1,0,0:0:0:0:
64,192,13777,1,0,0:0:0:0:
320,192,13777,1,0,0:0:0:0:
64,192,13916,1,0,0:0:0:0:
192,192,13916,1,0,0:0:0:0:
448,192,13916,1,0,0:0:0:0:
192,192,14055,1,0,0:0:0:0:
448,192,14055,1,0,0:0:0:0:
64,192,14194,1,0,0:0:0:0:
320,192,14194,1,0,0:0:0:0:
448,192,14194,1,0,0:0:0:0:
192,192,14263,1,0,0:0:0:0:
320,192,14333,1,0,0:0:0:0:
64,192,14402,1,0,0:0:0:0:
192,192,14472,1,0,0:0:0:0:
448,192,14472,1,0,0:0:0:0:
64,192,14611,1,0,0:0:0:0:
448,192,14611,1,0,0:0:0:0:
320,192,14680,1,0,0:0:0:0:
192,192,14749,1,0,0:0:0:0:
320,192,14819,1,0,0:0:0:0:
64,192,14888,1,0,0:0:0:0:
448,192,14888,1,0,0:0:0:0:
192,192,15027,1,0,0:0:0:0:
448,192,15027,1,0,0:0:0:0:
320,192,15097,1,0,0:0:0:0:
192,192,15166,1,0,0:0:0:0:
448,192,15236,1,0,0:0:0:0:
64,192,15305,1,0,0:0:0:0:
320,192,15305,1,0,0:0:0:0:
64,192,15444,1,0,0:0:0:0:
448,192,15444,1,0,0:0:0:0:
320,192,15513,1,0,0:0:0:0:
192,192,15583,1,0,0:0:0:0:
448,192,15652,1,0,0:0:0:0:
64,192,15722,1,0,0:0:0:0:
320,192,15791,1,0,0:0:0:0:
64,192,15861,1,0,0:0:0:0:
192,192,15861,1,0,0:0:0:0:
448,192,15861,1,0,0:0:0:0:
192,192,15999,1,0,0:0:0:0:
320,192,15999,1,0,0:0:0:0:
64,192,16138,1,0,0:0:0:0:
320,192,16138,1,0,0:0:0:0:
448,192,16138,1,0,0:0:0:0:
192,192,16277,1,0,0:0:0:0:
320,192,16277,1,0,0:0:0:0:
64,192,16416,1,0,0:0:0:0:
192,192,16416,1,0,0:0:0:0:
448,192,16416,1,0,0:0:0:0:
320,192,16555,1,0,0:0:0:0:
64,192,16694,1,0,0:0:0:0:
320,192,16694,1,0,0:0:0:0:
192,192,16833,1,0,0:0:0:0:
320,192,16833,1,0,0:0:0:0:
64,192,16972,1,0,0:0:0:0:
192,192,16972,1,0,0:0:0:0:
448,192,16972,1,0,0:0:0:0:
320,192,17111,1,0,0:0:0:0:
192,192,17180,1,0,0:0:0:0:
320,192,17249,1,0,0:0:0:0:
448,192,17249,1,0,0:0:0:0:
192,192,17388,1,0,0:0:0:0:
64,192,17527,1,0,0:0:0:0:
192,192,17527,1,0,0:0:0:0:
448,192,17527,1,0,0:0:0:0:
192,192,17666,1,0,0:0:0:0:
320,192,17666,1,0,0:0:0:0:
192,192,17805,1,0,0:0:0:0:
192,192,17944,1,0,0:0:0:0:
448,192,17944,1,0,0:0:0:0:
192,192,18083,128,0,18361:0:0:0:0:
64,192,18361,1,0,0:0:0:0:
320,192,18361,1,0,0:0:0:0:
448,192,18361,1,0,0:0:0:0:
192,192,18499,1,0,0:0:0:0:
448,192,18499,1,0,0:0:0:0:
192,192,18638,1,0,0:0:0:0:
320,192,18638,1,0,0:0:0:0:
64,192,18777,1,0,0:0:0:0:
320,192,18777,1,0,0:0:0:0:
64,192,18916,1,0,0:0:0:0:
192,192,18916,1,0,0:0:0:0:
320,192,18916,1,0,0:0:0:0:
448,192,18986,1,0,0:0:0:0:
192,192,19055,1,0,0:0:0:0:
320,192,19148,1,0,0:0:0:0:
64,192,19194,1,0,0:0:0:0:
448,192,19194,1,0,0:0:0:0:
192,192,19333,1,0,0:0:0:0:
320,192,19333,1,0,0:0:0:0:
448,192,19333,1,0,0:0:0:0:
64,192,19402,1,0,0:0:0:0:
320,192,19472,1,0,0:0:0:0:
192,192,19564,1,0,0:0:0:0:
64,192,19611,1,0,0:0:0:0:
448,192,19611,1,0,0:0:0:0:
64,192,19749,1,0,0:0:0:0:
192,192,19749,1,0,0:0:0:0:
320,192,19749,1,0,0:0:0:0:
448,192,19819,1,0,0:0:0:0:
192,192,19888,1,0,0:0:0:0:
320,192,19958,1,0,0:0:0:0:
64,192,20027,1,0,0:0:0:0:
192,192,20027,1,0,0:0:0:0:
192,192,20166,1,0,0:0:0:0:
320,192,20166,1,0,0:0:0:0:
448,192,20166,1,0,0:0:0:0:
64,192,20236,1,0,0:0:0:0:
448,192,20305,1,0,0:0:0:0:
192,192,20374,1,0,0:0:0:0:
320,192,20444,1,0,0:0:0:0:
192,192,20513,1,0,0:0:0:0:
64,192,20583,1,0,0:0:0:0:
320,192,20583,1,0,0:0:0:0:
448,192,20583,1,0,0:0:0:0:
192,192,20722,1,0,0:0:0:0:
448,192,20722,1,0,0:0:0:0:
192,192,20861,1,0,0:0:0:0:
320,192,20861,1,0,0:0:0:0:
64,192,20999,1,0,0:0:0:0:
320,192,20999,1,0,0:0:0:0:
64,192,21138,1,0,0:0:0:0:
192,192,21138,1,0,0:0:0:0:
320,192,21138,1,0,0:0:0:0:
448,192,21208,1,0,0:0:0:0:
192,192,21277,1,0,0:0:0:0:
320,192,21370,1,0,0:0:0:0:
64,192,21416,1,0,0:0:0:0:
448,192,21416,1,0,0:0:0:0:
192,192,21555,1,0,0:0:0:0:
320,192,21555,1,0,0:0:0:0:
448,192,21555,1,0,0:0:0:0:
64,192,21624,1,0,0:0:0:0:
320,192,21694,1,0,0:0:0:0:
192,192,21786,1,0,0:0:0:0:
64,192,21833,1,0,0:0:0:0:
448,192,21902,1,0,0:0:0:0:
64,192,21972,1,0,0:0:0:0:
192,192,21972,1,0,0:0:0:0:
320,192,22041,1,0,0:0:0:0:
448,192,22111,1,0,0:0:0:0:
192,192,22180,1,0,0:0:0:0:
64,192,22249,1,0,0:0:0:0:
320,192,22249,1,0,0:0:0:0:
448,192,22249,1,0,0:0:0:0:
64,192,22388,1,0,0:0:0:0:
192,192,22388,1,0,0:0:0:0:
320,192,22458,1,0,0:0:0:0:
192,192,22527,1,0,0:0:0:0:
448,192,22597,1,0,0:0:0:0:
320,192,22666,1,0,0:0:0:0:
64,192,22736,1,0,0:0:0:0:
192,192,22805,1,0,0:0:0:0:
320,192,22805,1,0,0:0:0:0:
448,192,22805,1,0,0:0:0:0:
64,192,22944,1,0,0:0:0:0:
448,192,22944,1,0,0:0:0:0:
192,192,23083,1,0,0:0:0:0:
320,192,23083,1,0,0:0:0:0:
64,192,23222,1,0,0:0:0:0:
192,192,23222,1,0,0:0:0:0:
64,192,23361,1,0,0:0:0:0:
320,192,23361,1,0,0:0:0:0:
448,192,23361,1,0,0:0:0:0:
192,192,23430,1,0,0:0:0:0:
320,192,23499,1,0,0:0:0:0:
64,192,23569,1,0,0:0:0:0:
192,192,23638,1,0,0:0:0:0:
448,192,23638,1,0,0:0:0:0:
320,192,23708,1,0,0:0:0:0:
64,192,23777,1,0,0:0:0:0:
192,192,23777,1,0,0:0:0:0:
448,192,23847,1,0,0:0:0:0:
320,192,23916,1,0,0:0:0:0:
192,192,23986,1,0,0:0:0:0:
320,192,24055,1,0,0:0:0:0:
448,192,24055,1,0,0:0:0:0:
64,192,24124,1,0,0:0:0:0:
192,192,24194,1,0,0:0:0:0:
448,192,24194,1,0,0:0:0:0:
320,192,24263,1,0,0:0:0:0:
192,192,24333,1,0,0:0:0:0:
64,192,24402,1,0,0:0:0:0:
192,192,24472,1,0,0:0:0:0:
320,192,24472,1,0,0:0:0:0:
448,192,24518,1,0,0:0:0:0:
64,192,24611,1,0,0:0:0:0:
448,192,24611,1,0,0:0:0:0:
192,192,24657,1,0,0:0:0:0:
192,192,24749,1,0,0:0:0:0:
320,192,24796,1,0,0:0:0:0:
320,192,24888,1,0,0:0:0:0:
448,192,24888,1,0,0:0:0:0:
64,192,24935,1,0,0:0:0:0:
64,192,25027,1,0,0:0:0:0:
192,192,25027,1,0,0:0:0:0:
448,192,25027,1,0,0:0:0:0:
192,192,25166,1,0,0:0:0:0:
320,192,25166,1,0,0:0:0:0:
64,192,25305,1,0,0:0:0:0:
320,192,25305,1,0,0:0:0:0:
64,192,25444,1,0,0:0:0:0:
192,192,25444,1,0,0:0:0:0:
192,192,25583,1,0,0:0:0:0:
320,192,25583,1,0,0:0:0:0:
448,192,25583,1,0,0:0:0:0:
64,192,25652,1,0,0:0:0:0:
320,192,25722,1,0,0:0:0:0:
192,192,25814,1,0,0:0:0:0:
64,192,25861,1,0,0:0:0:0:
448,192,25861,1,0,0:0:0:0:
192,192,25999,1,0,0:0:0:0:
320,192,25999,1,0,0:0:0:0:
64,192,26046,1,0,0:0:0:0:
448,192,26069,1,0,0:0:0:0:
320,192,26138,1,0,0:0:0:0:
64,192,26208,1,0,0:0:0:0:
192,192,26231,1,0,0:0:0:0:
320,192,26277,1,0,0:0:0:0:
448,192,26370,1,0,0:0:0:0:
64,192,26416,1,0,0:0:0:0:
192,192,26416,1,0,0:0:0:0:
320,192,26486,1,0,0:0:0:0:
64,192,26555,1,0,0:0:0:0:
192,192,26555,1,0,0:0:0:0:
320,192,26624,1,0,0:0:0:0:
448,192,26648,1,0,0:0:0:0:
64,192,26694,1,0,0:0:0:0:
192,192,26694,1,0,0:0:0:0:
320,192,26740,1,0,0:0:0:0:
64,192,26833,128,0,26972:0:0:0:0:
448,192,26833,128,0,27041:0:0:0:0:
192,192,26879,1,0,0:0:0:0:
320,192,27215,1,0,0:0:0:0:
64,192,27249,1,0,0:0:0:0:
192,192,27249,1,0,0:0:0:0:
448,192,27249,1,0,0:0:0:0:
64,192,27388,1,0,0:0:0:0:
192,192,27388,1,0,0:0:0:0:
192,192,27527,1,0,0:0:0:0:
320,192,27527,1,0,0:0:0:0:
320,192,27666,1,0,0:0:0:0:
64,192,27805,1,0,0:0:0:0:
448,192,27805,1,0,0:0:0:0:
192,192,27874,1,0,0:0:0:0:
320,192,27944,1,0,0:0:0:0:
192,192,28013,1,0,0:0:0:0:
64,192,28083,1,0,0:0:0:0:
64,192,28222,1,0,0:0:0:0:
448,192,28222,1,0,0:0:0:0:
192,192,28291,1,0,0:0:0:0:
320,192,28361,1,0,0:0:0:0:
192,192,28430,1,0,0:0:0:0:
64,192,28499,1,0,0:0:0:0:
320,192,28499,1,0,0:0:0:0:
448,192,28499,1,0,0:0:0:0:
320,192,28638,1,0,0:0:0:0:
448,192,28638,1,0,0:0:0:0:
192,192,28777,1,0,0:0:0:0:
320,192,28777,1,0,0:0:0:0:
64,192,28916,1,0,0:0:0:0:
448,192,28916,1,0,0:0:0:0:
192,192,28986,1,0,0:0:0:0:
320,192,29055,1,0,0:0:0:0:
192,192,29124,1,0,0:0:0:0:
64,192,29194,1,0,0:0:0:0:
64,192,29333,1,0,0:0:0:0:
448,192,29333,1,0,0:0:0:0:
192,192,29402,1,0,0:0:0:0:
320,192,29472,1,0,0:0:0:0:
448,192,29472,1,0,0:0:0:0:
192,192,29541,1,0,0:0:0:0:
320,192,29611,1,0,0:0:0:0:
448,192,29680,1,0,0:0:0:0:
192,192,29749,1,0,0:0:0:0:
320,192,29749,1,0,0:0:0:0:
192,192,29888,1,0,0:0:0:0:
64,192,30027,1,0,0:0:0:0:
448,192,30027,1,0,0:0:0:0:
192,192,30097,1,0,0:0:0:0:
320,192,30166,1,0,0:0:0:0:
192,192,30236,1,0,0:0:0:0:
64,192,30305,1,0,0:0:0:0:
64,192,30444,1,0,0:0:0:0:
448,192,30444,1,0,0:0:0:0:
192,192,30513,1,0,0:0:0:0:
320,192,30583,1,0,0:0:0:0:
192,192,30652,1,0,0:0:0:0:
64,192,30722,1,0,0:0:0:0:
448,192,30722,1,0,0:0:0:0:
192,192,30791,1,0,0:0:0:0:
320,192,30791,1,0,0:0:0:0:
64,192,30861,1,0,0:0:0:0:
448,192,30861,1,0,0:0:0:0:
192,192,30999,1,0,0:0:0:0:
320,192,31069,1,0,0:0:0:0:
64,192,31138,1,0,0:0:0:0:
192,192,31138,1,0,0:0:0:0:
192,192,31277,1,0,0:0:0:0:
448,192,31277,1,0,0:0:0:0:
320,192,31416,1,0,0:0:0:0:
192,192,31555,1,0,0:0:0:0:
64,192,31624,1,0,0:0:0:0:
192,192,31694,1,0,0:0:0:0:
320,192,31694,1,0,0:0:0:0:
448,192,31694,1,0,0:0:0:0:
64,192,31833,1,0,0:0:0:0:
320,192,31833,1,0,0:0:0:0:
192,192,31972,1,0,0:0:0:0:
448,192,31972,1,0,0:0:0:0:
320,192,32018,1,0,0:0:0:0:
64,192,32064,1,0,0:0:0:0:
64,192,32249,1,0,0:0:0:0:
448,192,32249,1,0,0:0:0:0:
320,192,32319,1,0,0:0:0:0:
192,192,32388,1,0,0:0:0:0:
320,192,32458,1,0,0:0:0:0:
448,192,32527,1,0,0:0:0:0:
64,192,32666,1,0,0:0:0:0:
448,192,32666,1,0,0:0:0:0:
320,192,32736,1,0,0:0:0:0:
192,192,32805,1,0,0:0:0:0:
320,192,32874,1,0,0:0:0:0:
64,192,32944,1,0,0:0:0:0:
192,192,32944,1,0,0:0:0:0:
448,192,32944,1,0,0:0:0:0:
64,192,33083,1,0,0:0:0:0:
192,192,33083,1,0,0:0:0:0:
192,192,33222,1,0,0:0:0:0:
320,192,33222,1,0,0:0:0:0:
64,192,33361,1,0,0:0:0:0:
448,192,33361,1,0,0:0:0:0:
320,192,33430,1,0,0:0:0:0:
192,192,33499,1,0,0:0:0:0:
320,192,33569,1,0,0:0:0:0:
448,192,33638,1,0,0:0:0:0:
64,192,33777,1,0,0:0:0:0:
448,192,33777,1,0,0:0:0:0:
320,192,33847,1,0,0:0:0:0:
64,192,33916,1,0,0:0:0:0:
192,192,33916,1,0,0:0:0:0:
320,192,33986,1,0,0:0:0:0:
192,192,34055,1,0,0:0:0:0:
64,192,34124,1,0,0:0:0:0:
192,192,34194,1,0,0:0:0:0:
320,192,34194,1,0,0:0:0:0:
320,192,34333,1,0,0:0:0:0:
64,192,34472,1,0,0:0:0:0:
448,192,34472,1,0,0:0:0:0:
320,192,34541,1,0,0:0:0:0:
192,192,34611,1,0,0:0:0:0:
320,192,34680,1,0,0:0:0:0:
448,192,34749,1,0,0:0:0:0:
64,192,34888,1,0,0:0:0:0:
448,192,34888,1,0,0:0:0:0:
320,192,34958,1,0,0:0:0:0:
192,192,35027,1,0,0:0:0:0:
320,192,35097,1,0,0:0:0:0:
64,192,35166,1,0,0:0:0:0:
448,192,35166,1,0,0:0:0:0:
192,192,35236,1,0,0:0:0:0:
320,192,35236,1,0,0:0:0:0:
64,192,35305,1,0,0:0:0:0:
448,192,35305,1,0,0:0:0:0:
320,192,35444,1,0,0:0:0:0:
192,192,35513,1,0,0:0:0:0:
320,192,35583,1,0,0:0:0:0:
448,192,35583,1,0,0:0:0:0:
192,192,35722,1,0,0:0:0:0:
448,192,35722,1,0,0:0:0:0:
320,192,35861,1,0,0:0:0:0:
64,192,35999,1,0,0:0:0:0:
192,192,35999,1,0,0:0:0:0:
448,192,35999,1,0,0:0:0:0:
320,192,36069,1,0,0:0:0:0:
192,192,36138,1,0,0:0:0:0:
64,192,36208,1,0,0:0:0:0:
448,192,36277,1,0,0:0:0:0:
192,192,36323,1,0,0:0:0:0:
320,192,36370,1,0,0:0:0:0:
64,192,36416,1,0,0:0:0:0:
448,192,36416,1,0,0:0:0:0:
64,192,36555,1,0,0:0:0:0:
192,192,36694,1,0,0:0:0:0:
320,192,36694,1,0,0:0:0:0:
448,192,36694,1,0,0:0:0:0:
64,192,36833,1,0,0:0:0:0:
320,192,36833,1,0,0:0:0:0:
192,192,36972,1,0,0:0:0:0:
448,192,36972,1,0,0:0:0:0:
64,192,37111,1,0,0:0:0:0:
320,192,37111,1,0,0:0:0:0:
448,192,37111,1,0,0:0:0:0:
192,192,37180,1,0,0:0:0:0:
320,192,37249,1,0,0:0:0:0:
448,192,37319,1,0,0:0:0:0:
64,192,37388,1,0,0:0:0:0:
320,192,37435,1,0,0:0:0:0:
192,192,37481,1,0,0:0:0:0:
64,192,37527,1,0,0:0:0:0:
448,192,37527,1,0,0:0:0:0:
448,192,37666,1,0,0:0:0:0:
64,192,37736,1,0,0:0:0:0:
192,192,37805,1,0,0:0:0:0:
320,192,37805,1,0,0:0:0:0:
448,192,37805,1,0,0:0:0:0:
64,192,37944,1,0,0:0:0:0:
320,192,37944,1,0,0:0:0:0:
192,192,38083,1,0,0:0:0:0:
448,192,38083,1,0,0:0:0:0:
64,192,38222,1,0,0:0:0:0:
320,192,38222,1,0,0:0:0:0:
448,192,38222,1,0,0:0:0:0:
192,192,38291,1,0,0:0:0:0:
320,192,38361,1,0,0:0:0:0:
448,192,38430,1,0,0:0:0:0:
64,192,38499,1,0,0:0:0:0:
320,192,38546,1,0,0:0:0:0:
192,192,38592,1,0,0:0:0:0:
64,192,38638,1,0,0:0:0:0:
448,192,38638,1,0,0:0:0:0:
448,192,38777,1,0,0:0:0:0:
64,192,38916,1,0,0:0:0:0:
192,192,38916,1,0,0:0:0:0:
320,192,38916,1,0,0:0:0:0:
192,192,39055,1,0,0:0:0:0:
448,192,39055,1,0,0:0:0:0:
64,192,39194,1,0,0:0:0:0:
320,192,39194,1,0,0:0:0:0:
64,192,39333,1,0,0:0:0:0:
448,192,39333,1,0,0:0:0:0:
192,192,39367,1,0,0:0:0:0:
320,192,39402,1,0,0:0:0:0:
64,192,39472,1,0,0:0:0:0:
448,192,39506,1,0,0:0:0:0:
192,192,39541,1,0,0:0:0:0:
320,192,39611,1,0,0:0:0:0:
64,192,39657,1,0,0:0:0:0:
320,192,39703,1,0,0:0:0:0:
192,192,39749,1,0,0:0:0:0:
448,192,39784,1,0,0:0:0:0:
64,192,39854,1,0,0:0:0:0:
192,192,39888,1,0,0:0:0:0:
448,192,39958,1,0,0:0:0:0:
192,192,40027,1,0,0:0:0:0:
320,192,40027,1,0,0:0:0:0:
64,192,40062,1,0,0:0:0:0:
448,192,40166,1,0,0:0:0:0:
192,192,40201,1,0,0:0:0:0:
64,192,40305,1,0,0:0:0:0:
448,192,40305,1,0,0:0:0:0:
320,192,40340,1,0,0:0:0:0:
64,192,40444,1,0,0:0:0:0:
192,192,40444,1,0,0:0:0:0:
448,192,40444,1,0,0:0:0:0:
320,192,40513,1,0,0:0:0:0:
192,192,40548,1,0,0:0:0:0:
64,192,40600,1,0,0:0:0:0:
448,192,40652,1,0,0:0:0:0:
192,192,40722,1,0,0:0:0:0:
64,192,40791,1,0,0:0:0:0:
192,192,40861,1,0,0:0:0:0:
448,192,40861,1,0,0:0:0:0:
320,192,40930,1,0,0:0:0:0:
64,192,40965,1,0,0:0:0:0:
448,192,40999,1,0,0:0:0:0:
320,192,41069,1,0,0:0:0:0:
64,192,41138,1,0,0:0:0:0:
192,192,41138,1,0,0:0:0:0:
448,192,41190,1,0,0:0:0:0:
448,192,41277,1,0,0:0:0:0:
320,192,41329,1,0,0:0:0:0:
64,192,41370,1,0,0:0:0:0:
192,192,41416,1,0,0:0:0:0:
320,192,41416,1,0,0:0:0:0:
192,192,41555,1,0,0:0:0:0:
448,192,41555,1,0,0:0:0:0:
320,192,41624,1,0,0:0:0:0:
64,192,41659,1,0,0:0:0:0:
192,192,41711,1,0,0:0:0:0:
320,192,41763,1,0,0:0:0:0:
448,192,41833,1,0,0:0:0:0:
64,192,41902,1,0,0:0:0:0:
192,192,41972,1,0,0:0:0:0:
320,192,41972,1,0,0:0:0:0:
448,192,42041,1,0,0:0:0:0:
64,192,42076,1,0,0:0:0:0:
320,192,42111,1,0,0:0:0:0:
64,192,42180,1,0,0:0:0:0:
192,192,42249,1,0,0:0:0:0:
448,192,42249,1,0,0:0:0:0:
320,192,42301,1,0,0:0:0:0:
320,192,42388,1,0,0:0:0:0:
192,192,42440,1,0,0:0:0:0:
448,192,42481,1,0,0:0:0:0:
64,192,42527,1,0,0:0:0:0:
192,192,42527,1,0,0:0:0:0:
64,192,42666,1,0,0:0:0:0:
320,192,42666,1,0,0:0:0:0:
192,192,42736,1,0,0:0:0:0:
448,192,42770,1,0,0:0:0:0:
320,192,42805,1,0,0:0:0:0:
64,192,42874,1,0,0:0:0:0:
320,192,42944,1,0,0:0:0:0:
192,192,43013,1,0,0:0:0:0:
64,192,43083,1,0,0:0:0:0:
448,192,43083,1,0,0:0:0:0:
320,192,43152,1,0,0:0:0:0:
192,192,43187,1,0,0:0:0:0:
448,192,43222,1,0,0:0:0:0:
64,192,43291,1,0,0:0:0:0:
320,192,43361,1,0,0:0:0:0:
448,192,43361,1,0,0:0:0:0:
192,192,43413,1,0,0:0:0:0:
192,192,43499,1,0,0:0:0:0:
64,192,43551,1,0,0:0:0:0:
320,192,43592,1,0,0:0:0:0:
64,192,43638,1,0,0:0:0:0:
448,192,43638,1,0,0:0:0:0:
192,192,43742,1,0,0:0:0:0:
320,192,43777,1,0,0:0:0:0:
448,192,43777,1,0,0:0:0:0:
64,192,43847,1,0,0:0:0:0:
192,192,43847,1,0,0:0:0:0:
448,192,43916,1,0,0:0:0:0:
192,192,43951,1,0,0:0:0:0:
64,192,44020,1,0,0:0:0:0:
320,192,44055,1,0,0:0:0:0:
448,192,44055,1,0,0:0:0:0:
192,192,44194,1,0,0:0:0:0:
320,192,44194,1,0,0:0:0:0:
64,192,44229,1,0,0:0:0:0:
320,192,44333,1,0,0:0:0:0:
192,192,44402,1,0,0:0:0:0:
64,192,44472,1,0,0:0:0:0:
320,192,44472,1,0,0:0:0:0:
448,192,44472,1,0,0:0:0:0:
64,192,44611,1,0,0:0:0:0:
320,192,44611,1,0,0:0:0:0:
448,192,44611,1,0,0:0:0:0:
64,192,44749,128,0,44958:0:0:0:0:
320,192,44749,128,0,44888:0:0:0:0:
448,192,44749,128,0,44819:0:0:0:0:
192,192,45513,128,0,45861:0:0:0:0:
448,192,45861,1,0,0:0:0:0:
64,192,45930,1,0,0:0:0:0:
320,192,45999,128,0,46208:0:0:0:0:
448,192,45999,128,0,46277:0:0:0:0:
64,192,46277,1,0,0:0:0:0:
192,192,46416,1,0,0:0:0:0:
448,192,46555,1,0,0:0:0:0:
64,192,46694,1,0,0:0:0:0:
320,192,46694,128,0,46833:0:0:0:0:
192,192,46833,128,0,46902:0:0:0:0:
192,192,46972,1,0,0:0:0:0:
64,192,47111,1,0,0:0:0:0:
320,192,47111,128,0,47388:0:0:0:0:
192,192,47388,128,0,47527:0:0:0:0:
448,192,47666,1,0,0:0:0:0:
64,192,47805,1,0,0:0:0:0:
448,192,47805,1,0,0:0:0:0:
320,192,47944,1,0,0:0:0:0:
64,192,48083,1,0,0:0:0:0:
192,192,48083,1,0,0:0:0:0:
448,192,48083,1,0,0:0:0:0:
192,192,48222,1,0,0:0:0:0:
448,192,48222,1,0,0:0:0:0:
64,192,48291,1,0,0:0:0:0:
320,192,48291,1,0,0:0:0:0:
192,192,48361,1,0,0:0:0:0:
448,192,48361,1,0,0:0:0:0:
192,192,48499,1,0,0:0:0:0:
320,192,48499,1,0,0:0:0:0:
448,192,48638,1,0,0:0:0:0:
448,192,48777,1,0,0:0:0:0:
64,192,48847,1,0,0:0:0:0:
192,192,48916,1,0,0:0:0:0:
320,192,48916,1,0,0:0:0:0:
448,192,48916,1,0,0:0:0:0:
192,192,49055,1,0,0:0:0:0:
320,192,49055,1,0,0:0:0:0:
448,192,49055,1,0,0:0:0:0:
192,192,49194,128,0,49472:0:0:0:0:
320,192,49194,1,0,0:0:0:0:
448,192,49194,128,0,49402:0:0:0:0:
64,192,50583,1,0,0:0:0:0:
320,192,50583,1,0,0:0:0:0:
448,192,50583,1,0,0:0:0:0:
192,192,50629,1,0,0:0:0:0:
320,192,50675,1,0,0:0:0:0:
64,192,50722,1,0,0:0:0:0:
320,192,50768,1,0,0:0:0:0:
192,192,50861,1,0,0:0:0:0:
448,192,50861,1,0,0:0:0:0:
64,192,50999,1,0,0:0:0:0:
320,192,50999,1,0,0:0:0:0:
448,192,50999,1,0,0:0:0:0:
192,192,51046,1,0,0:0:0:0:
320,192,51092,1,0,0:0:0:0:
64,192,51138,1,0,0:0:0:0:
320,192,51185,1,0,0:0:0:0:
192,192,51277,1,0,0:0:0:0:
448,192,51277,1,0,0:0:0:0:
320,192,51347,1,0,0:0:0:0:
64,192,51416,1,0,0:0:0:0:
448,192,51416,1,0,0:0:0:0:
192,192,51486,1,0,0:0:0:0:
64,192,51555,1,0,0:0:0:0:
320,192,51624,1,0,0:0:0:0:
64,192,51694,1,0,0:0:0:0:
192,192,51694,1,0,0:0:0:0:
448,192,51694,1,0,0:0:0:0:
320,192,51740,1,0,0:0:0:0:
192,192,51786,1,0,0:0:0:0:
448,192,51833,1,0,0:0:0:0:
192,192,51879,1,0,0:0:0:0:
64,192,51972,1,0,0:0:0:0:
320,192,51972,1,0,0:0:0:0:
64,192,52111,1,0,0:0:0:0:
192,192,52111,1,0,0:0:0:0:
448,192,52111,1,0,0:0:0:0:
320,192,52157,1,0,0:0:0:0:
192,192,52203,1,0,0:0:0:0:
448,192,52249,1,0,0:0:0:0:
192,192,52296,1,0,0:0:0:0:
64,192,52388,1,0,0:0:0:0:
320,192,52388,1,0,0:0:0:0:
320,192,52527,1,0,0:0:0:0:
448,192,52527,1,0,0:0:0:0:
192,192,52597,1,0,0:0:0:0:
448,192,52666,1,0,0:0:0:0:
192,192,52736,1,0,0:0:0:0:
64,192,52805,1,0,0:0:0:0:
320,192,52805,1,0,0:0:0:0:
448,192,52805,1,0,0:0:0:0:
192,192,52851,1,0,0:0:0:0:
320,192,52898,1,0,0:0:0:0:
64,192,52944,1,0,0:0:0:0:
320,192,52990,1,0,0:0:0:0:
192,192,53083,1,0,0:0:0:0:
448,192,53083,1,0,0:0:0:0:
64,192,53222,1,0,0:0:0:0:
320,192,53222,1,0,0:0:0:0:
448,192,53222,1,0,0:0:0:0:
192,192,53268,1,0,0:0:0:0:
320,192,53314,1,0,0:0:0:0:
64,192,53361,1,0,0:0:0:0:
320,192,53407,1,0,0:0:0:0:
192,192,53499,1,0,0:0:0:0:
448,192,53499,1,0,0:0:0:0:
320,192,53569,1,0,0:0:0:0:
64,192,53638,1,0,0:0:0:0:
448,192,53638,1,0,0:0:0:0:
192,192,53708,1,0,0:0:0:0:
64,192,53777,1,0,0:0:0:0:
320,192,53847,1,0,0:0:0:0:
64,192,53916,1,0,0:0:0:0:
192,192,53916,1,0,0:0:0:0:
448,192,53916,1,0,0:0:0:0:
320,192,53962,1,0,0:0:0:0:
192,192,54009,1,0,0:0:0:0:
448,192,54055,1,0,0:0:0:0:
192,192,54101,1,0,0:0:0:0:
64,192,54194,1,0,0:0:0:0:
320,192,54194,1,0,0:0:0:0:
64,192,54333,1,0,0:0:0:0:
192,192,54333,1,0,0:0:0:0:
448,192,54333,1,0,0:0:0:0:
320,192,54379,1,0,0:0:0:0:
192,192,54425,1,0,0:0:0:0:
448,192,54472,1,0,0:0:0:0:
192,192,54518,1,0,0:0:0:0:
64,192,54611,1,0,0:0:0:0:
320,192,54611,1,0,0:0:0:0:
320,192,54749,1,0,0:0:0:0:
448,192,54749,1,0,0:0:0:0:
192,192,54819,1,0,0:0:0:0:
448,192,54888,1,0,0:0:0:0:
192,192,54958,1,0,0:0:0:0:
64,192,55027,1,0,0:0:0:0:
320,192,55027,1,0,0:0:0:0:
448,192,55027,1,0,0:0:0:0:
192,192,55073,1,0,0:0:0:0:
320,192,55120,1,0,0:0:0:0:
64,192,55166,1,0,0:0:0:0:
320,192,55212,1,0,0:0:0:0:
192,192,55305,1,0,0:0:0:0:
448,192,55305,1,0,0:0:0:0:
64,192,55444,1,0,0:0:0:0:
320,192,55444,1,0,0:0:0:0:
448,192,55444,1,0,0:0:0:0:
192,192,55490,1,0,0:0:0:0:
320,192,55536,1,0,0:0:0:0:
64,192,55583,1,0,0:0:0:0:
320,192,55629,1,0,0:0:0:0:
192,192,55722,1,0,0:0:0:0:
448,192,55722,1,0,0:0:0:0:
320,192,55791,1,0,0:0:0:0:
64,192,55861,1,0,0:0:0:0:
448,192,55861,1,0,0:0:0:0:
192,192,55930,1,0,0:0:0:0:
64,192,55999,1,0,0:0:0:0:
320,192,56069,1,0,0:0:0:0:
64,192,56138,1,0,0:0:0:0:
192,192,56138,1,0,0:0:0:0:
448,192,56138,1,0,0:0:0:0:
320,192,56185,1,0,0:0:0:0:
192,192,56231,1,0,0:0:0:0:
448,192,56277,1,0,0:0:0:0:
192,192,56323,1,0,0:0:0:0:
64,192,56416,1,0,0:0:0:0:
320,192,56416,1,0,0:0:0:0:
64,192,56555,1,0,0:0:0:0:
192,192,56555,1,0,0:0:0:0:
448,192,56555,1,0,0:0:0:0:
320,192,56601,1,0,0:0:0:0:
192,192,56648,1,0,0:0:0:0:
448,192,56694,1,0,0:0:0:0:
192,192,56740,1,0,0:0:0:0:
64,192,56833,1,0,0:0:0:0:
320,192,56833,1,0,0:0:0:0:
192,192,56972,1,0,0:0:0:0:
448,192,56972,1,0,0:0:0:0:
320,192,57041,1,0,0:0:0:0:
192,192,57111,1,0,0:0:0:0:
320,192,57180,1,0,0:0:0:0:
64,192,57249,1,0,0:0:0:0:
192,192,57249,1,0,0:0:0:0:
448,192,57249,1,0,0:0:0:0:
320,192,57296,1,0,0:0:0:0:
64,192,57342,1,0,0:0:0:0:
192,192,57388,1,0,0:0:0:0:
448,192,57388,1,0,0:0:0:0:
192,192,57527,1,0,0:0:0:0:
448,192,57527,1,0,0:0:0:0:
64,192,57666,1,0,0:0:0:0:
192,192,57666,1,0,0:0:0:0:
448,192,57666,1,0,0:0:0:0:
320,192,57712,1,0,0:0:0:0:
64,192,57759,1,0,0:0:0:0:
192,192,57805,1,0,0:0:0:0:
448,192,57805,1,0,0:0:0:0:
64,192,57944,1,0,0:0:0:0:
320,192,58013,1,0,0:0:0:0:
64,192,58083,1,0,0:0:0:0:
192,192,58083,1,0,0:0:0:0:
448,192,58083,1,0,0:0:0:0:
320,192,58152,1,0,0:0:0:0:
448,192,58222,1,0,0:0:0:0:
192,192,58291,1,0,0:0:0:0:
64,192,58361,1,0,0:0:0:0:
320,192,58361,1,0,0:0:0:0:
448,192,58361,1,0,0:0:0:0:
192,192,58407,1,0,0:0:0:0:
448,192,58453,1,0,0:0:0:0:
64,192,58499,1,0,0:0:0:0:
320,192,58499,1,0,0:0:0:0:
64,192,58638,1,0,0:0:0:0:
320,192,58638,1,0,0:0:0:0:
192,192,58777,1,0,0:0:0:0:
320,192,58777,1,0,0:0:0:0:
64,192,58916,1,0,0:0:0:0:
320,192,58916,1,0,0:0:0:0:
448,192,58916,1,0,0:0:0:0:
64,192,59055,1,0,0:0:0:0:
320,192,59055,1,0,0:0:0:0:
64,192,59194,1,0,0:0:0:0:
320,192,59194,1,0,0:0:0:0:
192,192,59333,1,0,0:0:0:0:
448,192,59333,1,0,0:0:0:0:
192,192,59888,1,0,0:0:0:0:
192,192,59958,1,0,0:0:0:0:
64,192,60027,1,0,0:0:0:0:
320,192,60027,1,0,0:0:0:0:
448,192,60027,1,0,0:0:0:0:
192,192,60073,1,0,0:0:0:0:
448,192,60120,1,0,0:0:0:0:
320,192,60166,1,0,0:0:0:0:
64,192,60305,1,0,0:0:0:0:
320,192,60305,1,0,0:0:0:0:
192,192,60374,1,0,0:0:0:0:
64,192,60444,1,0,0:0:0:0:
448,192,60444,1,0,0:0:0:0:
320,192,60513,1,0,0:0:0:0:
192,192,60583,1,0,0:0:0:0:
448,192,60583,1,0,0:0:0:0:
64,192,60629,1,0,0:0:0:0:
320,192,60675,1,0,0:0:0:0:
192,192,60722,1,0,0:0:0:0:
64,192,60861,1,0,0:0:0:0:
320,192,60861,1,0,0:0:0:0:
64,192,60999,1,0,0:0:0:0:
192,192,60999,1,0,0:0:0:0:
448,192,60999,1,0,0:0:0:0:
320,192,61046,1,0,0:0:0:0:
64,192,61092,1,0,0:0:0:0:
192,192,61138,1,0,0:0:0:0:
448,192,61138,1,0,0:0:0:0:
64,192,61277,1,0,0:0:0:0:
320,192,61277,1,0,0:0:0:0:
192,192,61416,1,0,0:0:0:0:
320,192,61486,1,0,0:0:0:0:
192,192,61555,1,0,0:0:0:0:
320,192,61624,1,0,0:0:0:0:
64,192,61694,1,0,0:0:0:0:
192,192,61694,1,0,0:0:0:0:
448,192,61694,1,0,0:0:0:0:
320,192,61740,1,0,0:0:0:0:
64,192,61786,1,0,0:0:0:0:
192,192,61833,1,0,0:0:0:0:
192,192,61972,1,0,0:0:0:0:
448,192,61972,1,0,0:0:0:0:
64,192,62111,1,0,0:0:0:0:
320,192,62111,1,0,0:0:0:0:
64,192,62249,1,0,0:0:0:0:
192,192,62249,1,0,0:0:0:0:
448,192,62249,1,0,0:0:0:0:
320,192,62296,1,0,0:0:0:0:
64,192,62342,1,0,0:0:0:0:
192,192,62388,1,0,0:0:0:0:
192,192,62527,1,0,0:0:0:0:
448,192,62527,1,0,0:0:0:0:
320,192,62597,1,0,0:0:0:0:
64,192,62666,1,0,0:0:0:0:
448,192,62666,1,0,0:0:0:0:
192,192,62736,1,0,0:0:0:0:
64,192,62805,1,0,0:0:0:0:
320,192,62805,1,0,0:0:0:0:
448,192,62851,1,0,0:0:0:0:
192,192,62898,1,0,0:0:0:0:
320,192,62944,1,0,0:0:0:0:
64,192,63013,1,0,0:0:0:0:
320,192,63083,1,0,0:0:0:0:
448,192,63083,1,0,0:0:0:0:
192,192,63222,1,0,0:0:0:0:
448,192,63291,1,0,0:0:0:0:
64,192,63361,1,0,0:0:0:0:
192,192,63361,1,0,0:0:0:0:
320,192,63361,1,0,0:0:0:0:
192,192,63499,1,0,0:0:0:0:
448,192,63499,1,0,0:0:0:0:
448,192,63638,1,0,0:0:0:0:
192,192,63708,1,0,0:0:0:0:
448,192,63777,1,0,0:0:0:0:
192,192,63847,1,0,0:0:0:0:
64,192,63916,1,0,0:0:0:0:
320,192,63916,1,0,0:0:0:0:
448,192,63916,1,0,0:0:0:0:
192,192,64055,1,0,0:0:0:0:
320,192,64055,1,0,0:0:0:0:
192,192,64194,1,0,0:0:0:0:
320,192,64194,1,0,0:0:0:0:
192,192,64333,1,0,0:0:0:0:
64,192,64472,1,0,0:0:0:0:
320,192,64472,1,0,0:0:0:0:
448,192,64472,1,0,0:0:0:0:
192,192,64518,1,0,0:0:0:0:
448,192,64564,1,0,0:0:0:0:
320,192,64611,1,0,0:0:0:0:
64,192,64749,1,0,0:0:0:0:
192,192,64749,1,0,0:0:0:0:
320,192,64819,1,0,0:0:0:0:
64,192,64888,1,0,0:0:0:0:
448,192,64888,1,0,0:0:0:0:
320,192,64958,1,0,0:0:0:0:
64,192,65027,1,0,0:0:0:0:
192,192,65027,1,0,0:0:0:0:
448,192,65027,1,0,0:0:0:0:
320,192,65073,1,0,0:0:0:0:
64,192,65120,1,0,0:0:0:0:
192,192,65166,1,0,0:0:0:0:
192,192,65305,1,0,0:0:0:0:
448,192,65305,1,0,0:0:0:0:
64,192,65444,1,0,0:0:0:0:
320,192,65444,1,0,0:0:0:0:
448,192,65444,1,0,0:0:0:0:
192,192,65490,1,0,0:0:0:0:
448,192,65536,1,0,0:0:0:0:
64,192,65583,1,0,0:0:0:0:
320,192,65583,1,0,0:0:0:0:
192,192,65722,1,0,0:0:0:0:
448,192,65722,1,0,0:0:0:0:
192,192,65861,1,0,0:0:0:0:
448,192,65930,1,0,0:0:0:0:
192,192,65999,1,0,0:0:0:0:
448,192,66069,1,0,0:0:0:0:
64,192,66138,1,0,0:0:0:0:
320,192,66138,1,0,0:0:0:0:
192,192,66208,1,0,0:0:0:0:
320,192,66277,1,0,0:0:0:0:
192,192,66347,1,0,0:0:0:0:
320,192,66416,1,0,0:0:0:0:
448,192,66416,1,0,0:0:0:0:
64,192,66555,1,0,0:0:0:0:
320,192,66555,1,0,0:0:0:0:
64,192,66694,1,0,0:0:0:0:
192,192,66694,1,0,0:0:0:0:
448,192,66694,1,0,0:0:0:0:
64,192,66833,1,0,0:0:0:0:
320,192,66833,1,0,0:0:0:0:
192,192,66902,1,0,0:0:0:0:
320,192,66972,1,0,0:0:0:0:
448,192,66972,1,0,0:0:0:0:
64,192,67041,1,0,0:0:0:0:
448,192,67111,1,0,0:0:0:0:
192,192,67180,1,0,0:0:0:0:
64,192,67249,1,0,0:0:0:0:
320,192,67249,1,0,0:0:0:0:
448,192,67249,1,0,0:0:0:0:
192,192,67296,1,0,0:0:0:0:
448,192,67342,1,0,0:0:0:0:
320,192,67388,1,0,0:0:0:0:
64,192,67527,1,0,0:0:0:0:
320,192,67527,1,0,0:0:0:0:
64,192,67666,1,0,0:0:0:0:
320,192,67666,1,0,0:0:0:0:
448,192,67666,1,0,0:0:0:0:
192,192,67805,1,0,0:0:0:0:
320,192,67944,1,0,0:0:0:0:
448,192,67944,1,0,0:0:0:0:
64,192,68083,128,0,68361:0:0:0:0:
192,192,68083,128,0,68361:0:0:0:0:
320,192,68083,128,0,68361:0:0:0:0:
448,192,68083,128,0,68361:0:0:0:0:
448,192,77249,5,0,0:0:0:0:
320,192,77319,1,0,0:0:0:0:
192,192,77388,1,0,0:0:0:0:
448,192,77458,1,0,0:0:0:0:
320,192,77527,1,0,0:0:0:0:
320,192,77805,1,0,0:0:0:0:
192,192,77944,1,0,0:0:0:0:
192,192,78222,1,0,0:0:0:0:
320,192,78361,1,0,0:0:0:0:
320,192,78638,1,0,0:0:0:0:
192,192,78777,1,0,0:0:0:0:
192,192,79055,1,0,0:0:0:0:
320,192,79194,1,0,0:0:0:0:
320,192,79472,1,0,0:0:0:0:
192,192,79541,1,0,0:0:0:0:
448,192,79611,1,0,0:0:0:0:
320,192,79680,1,0,0:0:0:0:
192,192,79749,1,0,0:0:0:0:
192,192,80027,1,0,0:0:0:0:
448,192,80166,1,0,0:0:0:0:
448,192,80444,1,0,0:0:0:0:
192,192,80583,1,0,0:0:0:0:
192,192,80861,1,0,0:0:0:0:
448,192,80999,1,0,0:0:0:0:
448,192,81277,1,0,0:0:0:0:
192,192,81416,1,0,0:0:0:0:
64,192,81694,1,0,0:0:0:0:
192,192,81694,1,0,0:0:0:0:
448,192,81694,1,0,0:0:0:0:
448,192,81833,1,0,0:0:0:0:
64,192,81972,1,0,0:0:0:0:
448,192,81972,128,0,82111:0:0:0:0:
64,192,82249,1,0,0:0:0:0:
448,192,82249,128,0,82388:0:0:0:0:
64,192,82527,1,0,0:0:0:0:
320,192,82527,1,0,0:0:0:0:
320,192,82666,1,0,0:0:0:0:
64,192,82805,1,0,0:0:0:0:
320,192,82805,128,0,82944:0:0:0:0:
64,192,83083,1,0,0:0:0:0:
320,192,83083,1,0,0:0:0:0:
320,192,83222,1,0,0:0:0:0:
64,192,83361,1,0,0:0:0:0:
320,192,83361,128,0,83499:0:0:0:0:
64,192,83638,1,0,0:0:0:0:
320,192,83638,128,0,83777:0:0:0:0:
192,192,83916,1,0,0:0:0:0:
448,192,83916,1,0,0:0:0:0:
192,192,84055,1,0,0:0:0:0:
192,192,84194,128,0,84333:0:0:0:0:
448,192,84194,1,0,0:0:0:0:
64,192,84472,128,0,84611:0:0:0:0:
320,192,84472,1,0,0:0:0:0:
448,192,84749,1,0,0:0:0:0:
448,192,84888,1,0,0:0:0:0:
448,192,85027,128,0,85166:0:0:0:0:
320,192,85305,1,0,0:0:0:0:
320,192,85444,1,0,0:0:0:0:
320,192,85583,128,0,85722:0:0:0:0:
320,192,85861,128,0,86138:0:0:0:0:
64,192,86138,1,0,0:0:0:0:
192,192,86138,1,0,0:0:0:0:
448,192,86138,1,0,0:0:0:0:
192,192,86208,1,0,0:0:0:0:
448,192,86277,1,0,0:0:0:0:
448,192,86347,1,0,0:0:0:0:
64,192,86416,1,0,0:0:0:0:
320,192,86416,1,0,0:0:0:0:
192,192,86486,1,0,0:0:0:0:
320,192,86555,1,0,0:0:0:0:
64,192,86624,1,0,0:0:0:0:
192,192,86694,1,0,0:0:0:0:
448,192,86694,1,0,0:0:0:0:
320,192,86763,1,0,0:0:0:0:
192,192,86833,1,0,0:0:0:0:
448,192,86833,1,0,0:0:0:0:
64,192,86902,1,0,0:0:0:0:
320,192,86972,1,0,0:0:0:0:
192,192,87041,1,0,0:0:0:0:
64,192,87111,1,0,0:0:0:0:
448,192,87111,1,0,0:0:0:0:
320,192,87180,1,0,0:0:0:0:
64,192,87249,1,0,0:0:0:0:
192,192,87249,1,0,0:0:0:0:
448,192,87249,1,0,0:0:0:0:
320,192,87319,1,0,0:0:0:0:
64,192,87388,1,0,0:0:0:0:
192,192,87458,1,0,0:0:0:0:
320,192,87527,1,0,0:0:0:0:
448,192,87527,1,0,0:0:0:0:
192,192,87597,1,0,0:0:0:0:
320,192,87666,1,0,0:0:0:0:
448,192,87666,1,0,0:0:0:0:
192,192,87736,1,0,0:0:0:0:
64,192,87805,1,0,0:0:0:0:
320,192,87874,1,0,0:0:0:0:
192,192,87944,1,0,0:0:0:0:
448,192,87944,1,0,0:0:0:0:
64,192,88013,1,0,0:0:0:0:
192,192,88083,1,0,0:0:0:0:
448,192,88083,1,0,0:0:0:0:
320,192,88152,1,0,0:0:0:0:
448,192,88222,1,0,0:0:0:0:
192,192,88291,1,0,0:0:0:0:
64,192,88361,1,0,0:0:0:0:
320,192,88361,1,0,0:0:0:0:
320,192,88430,1,0,0:0:0:0:
192,192,88499,1,0,0:0:0:0:
192,192,88569,1,0,0:0:0:0:
64,192,88638,1,0,0:0:0:0:
448,192,88638,1,0,0:0:0:0:
192,192,88708,1,0,0:0:0:0:
320,192,88777,1,0,0:0:0:0:
64,192,88847,1,0,0:0:0:0:
192,192,88916,1,0,0:0:0:0:
448,192,88916,1,0,0:0:0:0:
320,192,88986,1,0,0:0:0:0:
192,192,89055,1,0,0:0:0:0:
448,192,89055,1,0,0:0:0:0:
64,192,89124,1,0,0:0:0:0:
320,192,89194,1,0,0:0:0:0:
192,192,89263,1,0,0:0:0:0:
64,192,89333,1,0,0:0:0:0:
448,192,89333,1,0,0:0:0:0:
320,192,89402,1,0,0:0:0:0:
64,192,89472,1,0,0:0:0:0:
192,192,89472,1,0,0:0:0:0:
448,192,89472,1,0,0:0:0:0:
320,192,89541,1,0,0:0:0:0:
448,192,89611,1,0,0:0:0:0:
192,192,89680,1,0,0:0:0:0:
64,192,89749,1,0,0:0:0:0:
320,192,89749,1,0,0:0:0:0:
448,192,89819,1,0,0:0:0:0:
192,192,89888,1,0,0:0:0:0:
320,192,89888,1,0,0:0:0:0:
64,192,89958,1,0,0:0:0:0:
192,192,90027,1,0,0:0:0:0:
448,192,90027,1,0,0:0:0:0:
320,192,90097,1,0,0:0:0:0:
192,192,90166,1,0,0:0:0:0:
448,192,90236,1,0,0:0:0:0:
320,192,90305,1,0,0:0:0:0:
192,192,90374,1,0,0:0:0:0:
320,192,90444,1,0,0:0:0:0:
64,192,90513,1,0,0:0:0:0:
192,192,90583,1,0,0:0:0:0:
448,192,90583,1,0,0:0:0:0:
192,192,90652,1,0,0:0:0:0:
320,192,90722,1,0,0:0:0:0:
320,192,90791,1,0,0:0:0:0:
64,192,90861,1,0,0:0:0:0:
448,192,90861,1,0,0:0:0:0:
192,192,90930,1,0,0:0:0:0:
320,192,90999,1,0,0:0:0:0:
64,192,91069,1,0,0:0:0:0:
192,192,91138,1,0,0:0:0:0:
448,192,91138,1,0,0:0:0:0:
320,192,91208,1,0,0:0:0:0:
192,192,91277,1,0,0:0:0:0:
448,192,91277,1,0,0:0:0:0:
64,192,91347,1,0,0:0:0:0:
320,192,91416,1,0,0:0:0:0:
192,192,91486,1,0,0:0:0:0:
64,192,91555,1,0,0:0:0:0:
320,192,91555,1,0,0:0:0:0:
448,192,91624,1,0,0:0:0:0:
64,192,91694,1,0,0:0:0:0:
192,192,91694,1,0,0:0:0:0:
320,192,91694,1,0,0:0:0:0:
448,192,91763,1,0,0:0:0:0:
192,192,91833,1,0,0:0:0:0:
320,192,91902,1,0,0:0:0:0:
64,192,91972,1,0,0:0:0:0:
448,192,91972,1,0,0:0:0:0:
192,192,92041,1,0,0:0:0:0:
320,192,92111,1,0,0:0:0:0:
448,192,92111,1,0,0:0:0:0:
192,192,92180,1,0,0:0:0:0:
64,192,92249,1,0,0:0:0:0:
320,192,92319,1,0,0:0:0:0:
192,192,92388,1,0,0:0:0:0:
448,192,92388,1,0,0:0:0:0:
64,192,92458,1,0,0:0:0:0:
192,192,92527,1,0,0:0:0:0:
448,192,92527,1,0,0:0:0:0:
320,192,92597,1,0,0:0:0:0:
64,192,92666,1,0,0:0:0:0:
448,192,92736,1,0,0:0:0:0:
192,192,92805,1,0,0:0:0:0:
320,192,92805,1,0,0:0:0:0:
192,192,92874,1,0,0:0:0:0:
448,192,92944,1,0,0:0:0:0:
448,192,93013,1,0,0:0:0:0:
64,192,93083,1,0,0:0:0:0:
320,192,93083,1,0,0:0:0:0:
192,192,93152,1,0,0:0:0:0:
320,192,93222,1,0,0:0:0:0:
64,192,93291,1,0,0:0:0:0:
192,192,93361,1,0,0:0:0:0:
320,192,93361,1,0,0:0:0:0:
448,192,93361,1,0,0:0:0:0:
64,192,93430,1,0,0:0:0:0:
320,192,93499,1,0,0:0:0:0:
448,192,93499,1,0,0:0:0:0:
192,192,93569,1,0,0:0:0:0:
64,192,93638,1,0,0:0:0:0:
320,192,93638,1,0,0:0:0:0:
448,192,93638,1,0,0:0:0:0:
192,192,93708,1,0,0:0:0:0:
320,192,93777,1,0,0:0:0:0:
192,192,93847,1,0,0:0:0:0:
64,192,93916,1,0,0:0:0:0:
320,192,93916,1,0,0:0:0:0:
448,192,93916,1,0,0:0:0:0:
192,192,93986,1,0,0:0:0:0:
448,192,94055,1,0,0:0:0:0:
320,192,94124,1,0,0:0:0:0:
64,192,94194,1,0,0:0:0:0:
192,192,94194,1,0,0:0:0:0:
448,192,94263,1,0,0:0:0:0:
64,192,94333,1,0,0:0:0:0:
192,192,94333,1,0,0:0:0:0:
320,192,94333,1,0,0:0:0:0:
448,192,94402,1,0,0:0:0:0:
320,192,94472,1,0,0:0:0:0:
64,192,94541,1,0,0:0:0:0:
192,192,94611,1,0,0:0:0:0:
448,192,94680,1,0,0:0:0:0:
64,192,94749,128,0,95027:0:0:0:0:
192,192,94749,128,0,95027:0:0:0:0:
320,192,94749,1,0,0:0:0:0:
320,192,95722,1,0,0:0:0:0:
192,192,95791,1,0,0:0:0:0:
64,192,95861,1,0,0:0:0:0:
320,192,95861,1,0,0:0:0:0:
448,192,95861,1,0,0:0:0:0:
64,192,96138,1,0,0:0:0:0:
320,192,96138,1,0,0:0:0:0:
448,192,96138,1,0,0:0:0:0:
320,192,96208,1,0,0:0:0:0:
192,192,96277,1,0,0:0:0:0:
192,192,96347,1,0,0:0:0:0:
64,192,96416,1,0,0:0:0:0:
448,192,96416,1,0,0:0:0:0:
320,192,96486,1,0,0:0:0:0:
192,192,96555,1,0,0:0:0:0:
448,192,96624,1,0,0:0:0:0:
64,192,96694,1,0,0:0:0:0:
320,192,96694,1,0,0:0:0:0:
192,192,96763,1,0,0:0:0:0:
64,192,96833,1,0,0:0:0:0:
320,192,96833,1,0,0:0:0:0:
448,192,96902,1,0,0:0:0:0:
192,192,96972,1,0,0:0:0:0:
320,192,97041,1,0,0:0:0:0:
64,192,97111,1,0,0:0:0:0:
448,192,97111,1,0,0:0:0:0:
192,192,97180,1,0,0:0:0:0:
320,192,97249,128,0,97666:0:0:0:0:
448,192,97249,1,0,0:0:0:0:
448,192,97527,1,0,0:0:0:0:
64,192,97666,1,0,0:0:0:0:
192,192,97666,1,0,0:0:0:0:
448,192,97736,1,0,0:0:0:0:
320,192,97805,1,0,0:0:0:0:
192,192,97874,1,0,0:0:0:0:
64,192,97944,1,0,0:0:0:0:
320,192,97944,1,0,0:0:0:0:
448,192,98013,1,0,0:0:0:0:
64,192,98083,1,0,0:0:0:0:
320,192,98083,1,0,0:0:0:0:
192,192,98152,1,0,0:0:0:0:
320,192,98222,1,0,0:0:0:0:
64,192,98291,1,0,0:0:0:0:
192,192,98361,1,0,0:0:0:0:
448,192,98361,1,0,0:0:0:0:
448,192,98430,1,0,0:0:0:0:
64,192,98499,1,0,0:0:0:0:
64,192,98569,1,0,0:0:0:0:
192,192,98638,1,0,0:0:0:0:
320,192,98638,1,0,0:0:0:0:
448,192,98708,1,0,0:0:0:0:
192,192,98777,1,0,0:0:0:0:
320,192,98847,1,0,0:0:0:0:
64,192,98916,1,0,0:0:0:0:
448,192,98916,1,0,0:0:0:0:
192,192,98986,1,0,0:0:0:0:
320,192,99055,1,0,0:0:0:0:
448,192,99055,1,0,0:0:0:0:
192,192,99124,1,0,0:0:0:0:
64,192,99194,1,0,0:0:0:0:
320,192,99263,1,0,0:0:0:0:
192,192,99333,1,0,0:0:0:0:
448,192,99333,1,0,0:0:0:0:
64,192,99402,1,0,0:0:0:0:
192,192,99472,128,0,99888:0:0:0:0:
320,192,99472,1,0,0:0:0:0:
320,192,99749,1,0,0:0:0:0:
64,192,99888,1,0,0:0:0:0:
448,192,99888,1,0,0:0:0:0:
320,192,99958,1,0,0:0:0:0:
192,192,100027,1,0,0:0:0:0:
448,192,100097,1,0,0:0:0:0:
64,192,100166,1,0,0:0:0:0:
320,192,100166,1,0,0:0:0:0:
192,192,100236,1,0,0:0:0:0:
320,192,100305,1,0,0:0:0:0:
448,192,100305,1,0,0:0:0:0:
64,192,100374,1,0,0:0:0:0:
320,192,100444,1,0,0:0:0:0:
192,192,100513,1,0,0:0:0:0:
448,192,100583,1,0,0:0:0:0:
448,192,100652,1,0,0:0:0:0:
64,192,100722,1,0,0:0:0:0:
64,192,100791,1,0,0:0:0:0:
320,192,100861,1,0,0:0:0:0:
448,192,100861,1,0,0:0:0:0:
192,192,100930,1,0,0:0:0:0:
64,192,100999,1,0,0:0:0:0:
320,192,101069,1,0,0:0:0:0:
192,192,101138,1,0,0:0:0:0:
448,192,101138,1,0,0:0:0:0:
64,192,101208,1,0,0:0:0:0:
192,192,101277,1,0,0:0:0:0:
320,192,101277,1,0,0:0:0:0:
448,192,101347,1,0,0:0:0:0:
64,192,101416,1,0,0:0:0:0:
320,192,101416,1,0,0:0:0:0:
192,192,101486,1,0,0:0:0:0:
448,192,101555,1,0,0:0:0:0:
320,192,101624,1,0,0:0:0:0:
64,192,101694,1,0,0:0:0:0:
192,192,101694,1,0,0:0:0:0:
448,192,101694,1,0,0:0:0:0:
320,192,101763,1,0,0:0:0:0:
64,192,101833,1,0,0:0:0:0:
192,192,101902,1,0,0:0:0:0:
320,192,101972,1,0,0:0:0:0:
448,192,101972,1,0,0:0:0:0:
64,192,102041,1,0,0:0:0:0:
192,192,102111,1,0,0:0:0:0:
448,192,102111,1,0,0:0:0:0:
320,192,102180,1,0,0:0:0:0:
192,192,102249,1,0,0:0:0:0:
320,192,102319,1,0,0:0:0:0:
64,192,102388,1,0,0:0:0:0:
448,192,102388,1,0,0:0:0:0:
192,192,102458,1,0,0:0:0:0:
320,192,102527,1,0,0:0:0:0:
448,192,102527,1,0,0:0:0:0:
64,192,102597,1,0,0:0:0:0:
192,192,102666,1,0,0:0:0:0:
320,192,102736,1,0,0:0:0:0:
64,192,102805,1,0,0:0:0:0:
192,192,102805,1,0,0:0:0:0:
64,192,102874,1,0,0:0:0:0:
448,192,102944,1,0,0:0:0:0:
448,192,103013,1,0,0:0:0:0:
192,192,103083,1,0,0:0:0:0:
320,192,103083,1,0,0:0:0:0:
64,192,103152,1,0,0:0:0:0:
192,192,103222,1,0,0:0:0:0:
320,192,103222,1,0,0:0:0:0:
448,192,103291,1,0,0:0:0:0:
192,192,103361,1,0,0:0:0:0:
64,192,103430,1,0,0:0:0:0:
320,192,103499,1,0,0:0:0:0:
448,192,103499,1,0,0:0:0:0:
192,192,103569,1,0,0:0:0:0:
64,192,103638,1,0,0:0:0:0:
320,192,103638,1,0,0:0:0:0:
448,192,103638,1,0,0:0:0:0:
192,192,103708,1,0,0:0:0:0:
320,192,103777,1,0,0:0:0:0:
192,192,103847,1,0,0:0:0:0:
64,192,103916,1,0,0:0:0:0:
320,192,103916,1,0,0:0:0:0:
448,192,103916,1,0,0:0:0:0:
192,192,103986,1,0,0:0:0:0:
448,192,104055,1,0,0:0:0:0:
320,192,104124,1,0,0:0:0:0:
64,192,104194,1,0,0:0:0:0:
192,192,104194,1,0,0:0:0:0:
448,192,104263,1,0,0:0:0:0:
64,192,104333,1,0,0:0:0:0:
192,192,104333,1,0,0:0:0:0:
320,192,104333,1,0,0:0:0:0:
448,192,104402,1,0,0:0:0:0:
320,192,104472,1,0,0:0:0:0:
64,192,104541,1,0,0:0:0:0:
192,192,104611,1,0,0:0:0:0:
320,192,104657,1,0,0:0:0:0:
64,192,104703,1,0,0:0:0:0:
192,192,104749,1,0,0:0:0:0:
320,192,104749,128,0,105027:0:0:0:0:
448,192,104749,128,0,105027:0:0:0:0:
64,192,108638,1,0,0:0:0:0:
320,192,108708,1,0,0:0:0:0:
192,192,108777,1,0,0:0:0:0:
448,192,108847,1,0,0:0:0:0:
64,192,108916,1,0,0:0:0:0:
320,192,108916,1,0,0:0:0:0:
192,192,109055,1,0,0:0:0:0:
64,192,109333,128,0,109611:0:0:0:0:
320,192,109333,1,0,0:0:0:0:
448,192,109333,128,0,109749:0:0:0:0:
320,192,109611,1,0,0:0:0:0:
64,192,109749,1,0,0:0:0:0:
192,192,109749,1,0,0:0:0:0:
192,192,110027,1,0,0:0:0:0:
320,192,110027,1,0,0:0:0:0:
448,192,110027,1,0,0:0:0:0:
64,192,110166,1,0,0:0:0:0:
320,192,110166,1,0,0:0:0:0:
192,192,110444,1,0,0:0:0:0:
320,192,110583,1,0,0:0:0:0:
448,192,110583,1,0,0:0:0:0:
64,192,110722,1,0,0:0:0:0:
192,192,110722,1,0,0:0:0:0:
448,192,110722,1,0,0:0:0:0:
64,192,110861,1,0,0:0:0:0:
192,192,110861,1,0,0:0:0:0:
448,192,110861,1,0,0:0:0:0:
64,192,110999,1,0,0:0:0:0:
192,192,110999,1,0,0:0:0:0:
448,192,110999,1,0,0:0:0:0:
64,192,111138,1,0,0:0:0:0:
192,192,111138,1,0,0:0:0:0:
320,192,111138,1,0,0:0:0:0:
448,192,111138,1,0,0:0:0:0:
64,192,111277,1,0,0:0:0:0:
320,192,111277,1,0,0:0:0:0:
64,192,111555,1,0,0:0:0:0:
192,192,111555,1,0,0:0:0:0:
64,192,111694,1,0,0:0:0:0:
320,192,111694,1,0,0:0:0:0:
448,192,111694,1,0,0:0:0:0:
64,192,111833,1,0,0:0:0:0:
320,192,111833,1,0,0:0:0:0:
448,192,111833,1,0,0:0:0:0:
64,192,111972,1,0,0:0:0:0:
320,192,111972,1,0,0:0:0:0:
448,192,111972,1,0,0:0:0:0:
192,192,112249,1,0,0:0:0:0:
320,192,112249,1,0,0:0:0:0:
448,192,112249,1,0,0:0:0:0:
64,192,112388,1,0,0:0:0:0:
320,192,112388,1,0,0:0:0:0:
192,192,112666,1,0,0:0:0:0:
320,192,112805,1,0,0:0:0:0:
448,192,112805,1,0,0:0:0:0:
64,192,112944,1,0,0:0:0:0:
192,192,112944,1,0,0:0:0:0:
320,192,113013,1,0,0:0:0:0:
64,192,113083,1,0,0:0:0:0:
448,192,113083,1,0,0:0:0:0:
320,192,113222,1,0,0:0:0:0:
448,192,113222,1,0,0:0:0:0:
192,192,113291,1,0,0:0:0:0:
64,192,113361,1,0,0:0:0:0:
320,192,113361,1,0,0:0:0:0:
448,192,113361,1,0,0:0:0:0:
192,192,113499,1,0,0:0:0:0:
64,192,113777,1,0,0:0:0:0:
320,192,113777,1,0,0:0:0:0:
448,192,113777,1,0,0:0:0:0:
64,192,113916,1,0,0:0:0:0:
320,192,113916,1,0,0:0:0:0:
64,192,114055,1,0,0:0:0:0:
320,192,114055,1,0,0:0:0:0:
64,192,114194,1,0,0:0:0:0:
192,192,114194,1,0,0:0:0:0:
448,192,114194,1,0,0:0:0:0:
192,192,114472,1,0,0:0:0:0:
320,192,114472,1,0,0:0:0:0:
448,192,114472,1,0,0:0:0:0:
64,192,114611,1,0,0:0:0:0:
320,192,114611,1,0,0:0:0:0:
192,192,114888,1,0,0:0:0:0:
320,192,115027,1,0,0:0:0:0:
448,192,115027,1,0,0:0:0:0:
64,192,115166,1,0,0:0:0:0:
192,192,115166,1,0,0:0:0:0:
448,192,115166,1,0,0:0:0:0:
64,192,115305,1,0,0:0:0:0:
192,192,115305,1,0,0:0:0:0:
448,192,115305,1,0,0:0:0:0:
64,192,115444,1,0,0:0:0:0:
192,192,115444,1,0,0:0:0:0:
448,192,115444,1,0,0:0:0:0:
64,192,115583,1,0,0:0:0:0:
192,192,115583,1,0,0:0:0:0:
320,192,115583,1,0,0:0:0:0:
448,192,115583,1,0,0:0:0:0:
64,192,115722,1,0,0:0:0:0:
320,192,115722,1,0,0:0:0:0:
192,192,115953,1,0,0:0:0:0:
320,192,115999,1,0,0:0:0:0:
448,192,115999,1,0,0:0:0:0:
64,192,117527,1,0,0:0:0:0:
64,192,117805,1,0,0:0:0:0:
64,192,118083,1,0,0:0:0:0:
64,192,118222,1,0,0:0:0:0:
192,192,118222,1,0,0:0:0:0:
448,192,118222,1,0,0:0:0:0:
320,192,118291,1,0,0:0:0:0:
64,192,118361,1,0,0:0:0:0:
448,192,118430,1,0,0:0:0:0:
192,192,118499,1,0,0:0:0:0:
320,192,118546,1,0,0:0:0:0:
64,192,118592,1,0,0:0:0:0:
192,192,118638,1,0,0:0:0:0:
448,192,118638,1,0,0:0:0:0:
192,192,118777,1,0,0:0:0:0:
448,192,118777,1,0,0:0:0:0:
64,192,118916,1,0,0:0:0:0:
192,192,118916,1,0,0:0:0:0:
320,192,118916,1,0,0:0:0:0:
64,192,119055,1,0,0:0:0:0:
320,192,119055,1,0,0:0:0:0:
448,192,119055,1,0,0:0:0:0:
192,192,119194,1,0,0:0:0:0:
320,192,119194,1,0,0:0:0:0:
448,192,119194,1,0,0:0:0:0:
64,192,119333,1,0,0:0:0:0:
192,192,119333,1,0,0:0:0:0:
448,192,119333,1,0,0:0:0:0:
320,192,119402,1,0,0:0:0:0:
64,192,119472,1,0,0:0:0:0:
448,192,119541,1,0,0:0:0:0:
192,192,119611,1,0,0:0:0:0:
320,192,119657,1,0,0:0:0:0:
64,192,119703,1,0,0:0:0:0:
192,192,119749,1,0,0:0:0:0:
448,192,119749,1,0,0:0:0:0:
192,192,119888,1,0,0:0:0:0:
448,192,119888,1,0,0:0:0:0:
64,192,120027,1,0,0:0:0:0:
192,192,120027,1,0,0:0:0:0:
320,192,120027,1,0,0:0:0:0:
64,192,120166,1,0,0:0:0:0:
320,192,120166,1,0,0:0:0:0:
448,192,120166,1,0,0:0:0:0:
192,192,120305,1,0,0:0:0:0:
320,192,120305,1,0,0:0:0:0:
448,192,120305,1,0,0:0:0:0:
64,192,120444,1,0,0:0:0:0:
192,192,120444,1,0,0:0:0:0:
448,192,120444,1,0,0:0:0:0:
320,192,120513,1,0,0:0:0:0:
64,192,120583,1,0,0:0:0:0:
448,192,120652,1,0,0:0:0:0:
192,192,120722,1,0,0:0:0:0:
320,192,120768,1,0,0:0:0:0:
64,192,120814,1,0,0:0:0:0:
192,192,120861,1,0,0:0:0:0:
448,192,120861,1,0,0:0:0:0:
192,192,120999,1,0,0:0:0:0:
448,192,120999,1,0,0:0:0:0:
64,192,121138,1,0,0:0:0:0:
192,192,121138,1,0,0:0:0:0:
320,192,121138,1,0,0:0:0:0:
320,192,121277,1,0,0:0:0:0:
448,192,121277,1,0,0:0:0:0:
64,192,121347,1,0,0:0:0:0:
192,192,121416,1,0,0:0:0:0:
320,192,121416,1,0,0:0:0:0:
448,192,121416,1,0,0:0:0:0:
64,192,121555,1,0,0:0:0:0:
192,192,121555,1,0,0:0:0:0:
448,192,121555,1,0,0:0:0:0:
320,192,121624,1,0,0:0:0:0:
64,192,121694,1,0,0:0:0:0:
448,192,121763,1,0,0:0:0:0:
192,192,121833,1,0,0:0:0:0:
320,192,121879,1,0,0:0:0:0:
64,192,121925,1,0,0:0:0:0:
192,192,121972,1,0,0:0:0:0:
448,192,121972,1,0,0:0:0:0:
64,192,122111,1,0,0:0:0:0:
448,192,122111,1,0,0:0:0:0:
320,192,122180,1,0,0:0:0:0:
64,192,122249,1,0,0:0:0:0:
192,192,122249,1,0,0:0:0:0:
448,192,122249,1,0,0:0:0:0:
64,192,122388,1,0,0:0:0:0:
192,192,122388,1,0,0:0:0:0:
320,192,122388,1,0,0:0:0:0:
192,192,122527,1,0,0:0:0:0:
320,192,122527,1,0,0:0:0:0:
448,192,122527,1,0,0:0:0:0:
64,192,122666,1,0,0:0:0:0:
192,192,122666,1,0,0:0:0:0:
448,192,122666,1,0,0:0:0:0:
320,192,122736,1,0,0:0:0:0:
64,192,122805,1,0,0:0:0:0:
448,192,122874,1,0,0:0:0:0:
192,192,122944,1,0,0:0:0:0:
320,192,122990,1,0,0:0:0:0:
64,192,123036,1,0,0:0:0:0:
192,192,123083,1,0,0:0:0:0:
448,192,123083,1,0,0:0:0:0:
320,192,123152,1,0,0:0:0:0:
64,192,123222,1,0,0:0:0:0:
320,192,123291,1,0,0:0:0:0:
64,192,123361,1,0,0:0:0:0:
192,192,123361,1,0,0:0:0:0:
448,192,123361,1,0,0:0:0:0:
64,192,123499,1,0,0:0:0:0:
320,192,123499,1,0,0:0:0:0:
448,192,123499,1,0,0:0:0:0:
192,192,123569,1,0,0:0:0:0:
320,192,123638,1,0,0:0:0:0:
192,192,123708,1,0,0:0:0:0:
320,192,123777,1,0,0:0:0:0:
448,192,123777,1,0,0:0:0:0:
64,192,123847,1,0,0:0:0:0:
320,192,123916,1,0,0:0:0:0:
192,192,123986,1,0,0:0:0:0:
448,192,124055,1,0,0:0:0:0:
320,192,124101,1,0,0:0:0:0:
64,192,124148,1,0,0:0:0:0:
192,192,124194,1,0,0:0:0:0:
448,192,124194,1,0,0:0:0:0:
64,192,124333,1,0,0:0:0:0:
192,192,124402,1,0,0:0:0:0:
64,192,124472,1,0,0:0:0:0:
320,192,124472,1,0,0:0:0:0:
448,192,124472,1,0,0:0:0:0:
64,192,124611,1,0,0:0:0:0:
192,192,124611,1,0,0:0:0:0:
320,192,124611,1,0,0:0:0:0:
192,192,124749,1,0,0:0:0:0:
320,192,124749,1,0,0:0:0:0:
64,192,124888,1,0,0:0:0:0:
192,192,124888,1,0,0:0:0:0:
448,192,124888,1,0,0:0:0:0:
320,192,124958,1,0,0:0:0:0:
64,192,125027,1,0,0:0:0:0:
448,192,125097,1,0,0:0:0:0:
192,192,125166,1,0,0:0:0:0:
320,192,125166,1,0,0:0:0:0:
64,192,125212,1,0,0:0:0:0:
448,192,125259,1,0,0:0:0:0:
192,192,125305,1,0,0:0:0:0:
320,192,125444,1,0,0:0:0:0:
448,192,125444,1,0,0:0:0:0:
64,192,125583,1,0,0:0:0:0:
320,192,125583,1,0,0:0:0:0:
448,192,125583,1,0,0:0:0:0:
64,192,125722,1,0,0:0:0:0:
192,192,125722,1,0,0:0:0:0:
320,192,125722,1,0,0:0:0:0:
64,192,125861,1,0,0:0:0:0:
192,192,125861,1,0,0:0:0:0:
448,192,125861,1,0,0:0:0:0:
192,192,125999,1,0,0:0:0:0:
320,192,125999,1,0,0:0:0:0:
448,192,125999,1,0,0:0:0:0:
64,192,126069,1,0,0:0:0:0:
320,192,126138,1,0,0:0:0:0:
448,192,126208,1,0,0:0:0:0:
64,192,126277,1,0,0:0:0:0:
192,192,126277,1,0,0:0:0:0:
320,192,126323,1,0,0:0:0:0:
64,192,126370,1,0,0:0:0:0:
448,192,126416,1,0,0:0:0:0:
192,192,126555,1,0,0:0:0:0:
320,192,126555,1,0,0:0:0:0:
64,192,126694,1,0,0:0:0:0:
192,192,126694,1,0,0:0:0:0:
448,192,126694,1,0,0:0:0:0:
64,192,126833,1,0,0:0:0:0:
320,192,126833,1,0,0:0:0:0:
448,192,126833,1,0,0:0:0:0:
192,192,126972,128,0,127111:0:0:0:0:
320,192,126972,1,0,0:0:0:0:
448,192,126972,128,0,127111:0:0:0:0:
448,192,136077,132,0,136702:0:0:0:0:
192,192,136147,128,0,136702:0:0:0:0:
448,192,138299,128,0,138924:0:0:0:0:
192,192,138369,128,0,138924:0:0:0:0:
448,192,140522,128,0,141147:0:0:0:0:
192,192,140591,128,0,141147:0:0:0:0:
448,192,142744,128,0,143369:0:0:0:0:
192,192,142813,128,0,143369:0:0:0:0:
192,192,145035,1,0,0:0:0:0:
448,192,145313,1,0,0:0:0:0:
192,192,145591,1,0,0:0:0:0:
64,192,145869,1,0,0:0:0:0:
192,192,146147,1,0,0:0:0:0:
448,192,146424,1,0,0:0:0:0:
192,192,146702,1,0,0:0:0:0:
64,192,146980,1,0,0:0:0:0:
448,192,146980,128,0,147258:0:0:0:0:
192,192,147258,1,0,0:0:0:0:
448,192,147535,1,0,0:0:0:0:
192,192,147813,1,0,0:0:0:0:
64,192,148091,1,0,0:0:0:0:
192,192,148369,1,0,0:0:0:0:
448,192,148647,1,0,0:0:0:0:
192,192,148924,1,0,0:0:0:0:
64,192,149202,128,0,149480:0:0:0:0:
448,192,149202,1,0,0:0:0:0:
192,192,149480,1,0,0:0:0:0:
448,192,149758,1,0,0:0:0:0:
192,192,150035,1,0,0:0:0:0:
64,192,150313,1,0,0:0:0:0:
192,192,150591,1,0,0:0:0:0:
448,192,150869,1,0,0:0:0:0:
192,192,151147,1,0,0:0:0:0:
64,192,151424,1,0,0:0:0:0:
448,192,151424,128,0,151702:0:0:0:0:
192,192,151702,1,0,0:0:0:0:
448,192,151980,1,0,0:0:0:0:
192,192,152258,1,0,0:0:0:0:
64,192,152535,1,0,0:0:0:0:
192,192,152813,1,0,0:0:0:0:
448,192,153091,1,0,0:0:0:0:
192,192,153369,1,0,0:0:0:0:
64,192,153647,128,0,153924:0:0:0:0:
448,192,153647,1,0,0:0:0:0:
320,192,153924,128,0,154202:0:0:0:0:
64,192,154202,128,0,154480:0:0:0:0:
320,192,154480,128,0,154827:0:0:0:0:
448,192,154758,128,0,155035:0:0:0:0:
192,192,155313,1,0,0:0:0:0:
192,192,155452,1,0,0:0:0:0:
192,192,155591,1,0,0:0:0:0:
192,192,155730,1,0,0:0:0:0:
192,192,155869,1,0,0:0:0:0:
192,192,156008,1,0,0:0:0:0:
64,192,156147,1,0,0:0:0:0:
448,192,156147,1,0,0:0:0:0:
192,192,156424,1,0,0:0:0:0:
448,192,156702,1,0,0:0:0:0:
192,192,156980,1,0,0:0:0:0:
64,192,157258,1,0,0:0:0:0:
192,192,157535,1,0,0:0:0:0:
448,192,157813,1,0,0:0:0:0:
64,192,158091,128,0,158369:0:0:0:0:
448,192,158091,1,0,0:0:0:0:
320,192,158369,128,0,158647:0:0:0:0:
64,192,158647,128,0,158924:0:0:0:0:
320,192,158924,128,0,159272:0:0:0:0:
448,192,159202,128,0,159480:0:0:0:0:
192,192,159758,1,0,0:0:0:0:
192,192,159897,1,0,0:0:0:0:
192,192,160035,1,0,0:0:0:0:
192,192,160174,1,0,0:0:0:0:
192,192,160313,1,0,0:0:0:0:
192,192,160452,1,0,0:0:0:0:
64,192,160591,1,0,0:0:0:0:
192,192,160869,1,0,0:0:0:0:
448,192,161147,1,0,0:0:0:0:
192,192,161424,1,0,0:0:0:0:
192,192,161563,1,0,0:0:0:0:
448,192,161702,1,0,0:0:0:0:
448,192,161841,1,0,0:0:0:0:
448,192,161980,1,0,0:0:0:0:
448,192,162119,1,0,0:0:0:0:
448,192,162258,1,0,0:0:0:0:
448,192,162397,1,0,0:0:0:0:
64,192,162535,128,0,162813:0:0:0:0:
320,192,162535,1,0,0:0:0:0:
448,192,162674,1,0,0:0:0:0:
320,192,162813,128,0,163091:0:0:0:0:
64,192,163091,128,0,163369:0:0:0:0:
320,192,163369,128,0,163716:0:0:0:0:
448,192,163647,128,0,163924:0:0:0:0:
192,192,164202,1,0,0:0:0:0:
192,192,164341,1,0,0:0:0:0:
192,192,164480,1,0,0:0:0:0:
192,192,164619,1,0,0:0:0:0:
192,192,164758,1,0,0:0:0:0:
192,192,164897,1,0,0:0:0:0:
320,192,165035,1,0,0:0:0:0:
64,192,165313,1,0,0:0:0:0:
192,192,165313,1,0,0:0:0:0:
320,192,165591,1,0,0:0:0:0:
64,192,165869,1,0,0:0:0:0:
448,192,165869,1,0,0:0:0:0:
320,192,166147,1,0,0:0:0:0:
64,192,166424,1,0,0:0:0:0:
192,192,166424,1,0,0:0:0:0:
64,192,166980,128,0,167258:0:0:0:0:
448,192,166980,1,0,0:0:0:0:
320,192,167258,128,0,167535:0:0:0:0:
64,192,167535,128,0,167813:0:0:0:0:
320,192,167813,128,0,168160:0:0:0:0:
448,192,168091,128,0,168369:0:0:0:0:
192,192,168647,1,0,0:0:0:0:
192,192,168785,1,0,0:0:0:0:
192,192,168924,1,0,0:0:0:0:
192,192,169063,1,0,0:0:0:0:
192,192,169202,1,0,0:0:0:0:
192,192,169341,1,0,0:0:0:0:
320,192,169480,1,0,0:0:0:0:
64,192,169758,1,0,0:0:0:0:
192,192,169758,1,0,0:0:0:0:
320,192,170035,1,0,0:0:0:0:
192,192,170313,128,0,170591:0:0:0:0:
448,192,170313,1,0,0:0:0:0:
320,192,170591,1,0,0:0:0:0:
320,192,170730,1,0,0:0:0:0:
320,192,170869,1,0,0:0:0:0:
320,192,171008,1,0,0:0:0:0:
320,192,171147,1,0,0:0:0:0:
320,192,171285,1,0,0:0:0:0:
192,192,171424,1,0,0:0:0:0:
320,192,171563,1,0,0:0:0:0:
64,192,171702,1,0,0:0:0:0:
448,192,171702,1,0,0:0:0:0:
192,192,171980,1,0,0:0:0:0:
448,192,172119,1,0,0:0:0:0:
64,192,172258,1,0,0:0:0:0:
320,192,172258,1,0,0:0:0:0:
192,192,172397,1,0,0:0:0:0:
448,192,172397,1,0,0:0:0:0:
448,192,172813,1,0,0:0:0:0:
320,192,173091,1,0,0:0:0:0:
192,192,173230,1,0,0:0:0:0:
320,192,173369,1,0,0:0:0:0:
448,192,173369,1,0,0:0:0:0:
192,192,173508,1,0,0:0:0:0:
448,192,173508,1,0,0:0:0:0:
320,192,173647,1,0,0:0:0:0:
192,192,173785,1,0,0:0:0:0:
64,192,173924,1,0,0:0:0:0:
320,192,173924,1,0,0:0:0:0:
192,192,174341,1,0,0:0:0:0:
64,192,174480,1,0,0:0:0:0:
320,192,174480,1,0,0:0:0:0:
192,192,174619,1,0,0:0:0:0:
448,192,174619,1,0,0:0:0:0:
192,192,175035,1,0,0:0:0:0:
448,192,175035,1,0,0:0:0:0:
320,192,175452,1,0,0:0:0:0:
192,192,175591,1,0,0:0:0:0:
448,192,175591,1,0,0:0:0:0:
64,192,175730,1,0,0:0:0:0:
320,192,175730,1,0,0:0:0:0:
64,192,176147,1,0,0:0:0:0:
448,192,176147,1,0,0:0:0:0:
192,192,176563,1,0,0:0:0:0:
320,192,176702,1,0,0:0:0:0:
448,192,176702,1,0,0:0:0:0:
192,192,176841,1,0,0:0:0:0:
448,192,176841,1,0,0:0:0:0:
64,192,177258,1,0,0:0:0:0:
448,192,177258,1,0,0:0:0:0:
320,192,177674,1,0,0:0:0:0:
64,192,177813,1,0,0:0:0:0:
192,192,177813,1,0,0:0:0:0:
64,192,177952,1,0,0:0:0:0:
448,192,177952,1,0,0:0:0:0:
448,192,178091,1,0,0:0:0:0:
192,192,178369,1,0,0:0:0:0:
448,192,178369,1,0,0:0:0:0:
64,192,178647,1,0,0:0:0:0:
320,192,178647,1,0,0:0:0:0:
192,192,178785,1,0,0:0:0:0:
64,192,178924,1,0,0:0:0:0:
448,192,178924,1,0,0:0:0:0:
192,192,179063,1,0,0:0:0:0:
64,192,179202,1,0,0:0:0:0:
448,192,179202,1,0,0:0:0:0:
192,192,179341,1,0,0:0:0:0:
320,192,179410,1,0,0:0:0:0:
64,192,179480,1,0,0:0:0:0:
192,192,179480,1,0,0:0:0:0:
448,192,179480,128,0,179619:0:0:0:0:
192,192,179619,1,0,0:0:0:0:
320,192,179619,1,0,0:0:0:0:
448,192,179758,128,0,179897:0:0:0:0:
192,192,179897,1,0,0:0:0:0:
320,192,179897,1,0,0:0:0:0:
64,192,180035,1,0,0:0:0:0:
192,192,180035,1,0,0:0:0:0:
320,192,180035,1,0,0:0:0:0:
448,192,180035,1,0,0:0:0:0:
64,192,180591,128,0,180660:0:0:0:0:
320,192,180591,128,0,180660:0:0:0:0:
448,192,180591,128,0,180660:0:0:0:0:
64,192,180730,128,0,180869:0:0:0:0:
320,192,180730,128,0,180869:0:0:0:0:
448,192,180730,128,0,180869:0:0:0:0:
192,192,181008,128,0,181077:0:0:0:0:
64,192,181147,128,0,181216:0:0:0:0:
192,192,181147,128,0,181216:0:0:0:0:
448,192,181147,128,0,181216:0:0:0:0:
64,192,181285,128,0,181355:0:0:0:0:
192,192,181285,128,0,181355:0:0:0:0:
448,192,181285,128,0,181355:0:0:0:0:
64,192,181424,128,0,181494:0:0:0:0:
192,192,181424,128,0,181494:0:0:0:0:
448,192,181424,128,0,181494:0:0:0:0:
64,192,181563,128,0,181702:0:0:0:0:
192,192,181563,128,0,181702:0:0:0:0:
448,192,181563,128,0,181702:0:0:0:0:
320,192,181841,128,0,181910:0:0:0:0:
192,192,181980,128,0,182049:0:0:0:0:
320,192,181980,128,0,182049:0:0:0:0:
448,192,181980,128,0,182049:0:0:0:0:
192,192,182119,128,0,182188:0:0:0:0:
320,192,182119,128,0,182188:0:0:0:0:
448,192,182119,128,0,182188:0:0:0:0:
64,192,182258,128,0,182327:0:0:0:0:
320,192,182258,128,0,182327:0:0:0:0:
448,192,182258,128,0,182327:0:0:0:0:
64,192,182397,128,0,182535:0:0:0:0:
320,192,182397,128,0,182535:0:0:0:0:
448,192,182397,128,0,182535:0:0:0:0:
192,192,182674,128,0,182744:0:0:0:0:
64,192,182813,128,0,182883:0:0:0:0:
192,192,182813,128,0,182883:0:0:0:0:
448,192,182813,128,0,182883:0:0:0:0:
64,192,182952,128,0,183091:0:0:0:0:
192,192,182952,128,0,183091:0:0:0:0:
448,192,182952,128,0,183091:0:0:0:0:
192,192,183230,1,0,0:0:0:0:
448,192,183299,1,0,0:0:0:0:
64,192,183369,128,0,183438:0:0:0:0:
192,192,183369,128,0,183438:0:0:0:0:
320,192,183369,128,0,183438:0:0:0:0:
64,192,183508,128,0,183577:0:0:0:0:
192,192,183508,128,0,183577:0:0:0:0:
320,192,183508,128,0,183577:0:0:0:0:
64,192,183647,128,0,183716:0:0:0:0:
192,192,183647,128,0,183716:0:0:0:0:
448,192,183647,128,0,183716:0:0:0:0:
64,192,183785,128,0,183924:0:0:0:0:
192,192,183785,128,0,183924:0:0:0:0:
448,192,183785,128,0,183924:0:0:0:0:
320,192,184063,128,0,184133:0:0:0:0:
64,192,184202,128,0,184272:0:0:0:0:
320,192,184202,128,0,184272:0:0:0:0:
448,192,184202,128,0,184272:0:0:0:0:
64,192,184341,128,0,184410:0:0:0:0:
320,192,184341,128,0,184410:0:0:0:0:
448,192,184410,1,0,0:0:0:0:
64,192,184480,128,0,184549:0:0:0:0:
192,192,184480,128,0,184549:0:0:0:0:
320,192,184480,128,0,184549:0:0:0:0:
64,192,184619,128,0,184758:0:0:0:0:
192,192,184619,128,0,184758:0:0:0:0:
320,192,184619,128,0,184758:0:0:0:0:
192,192,184897,128,0,184966:0:0:0:0:
64,192,185035,128,0,185105:0:0:0:0:
192,192,185035,128,0,185105:0:0:0:0:
448,192,185035,128,0,185105:0:0:0:0:
64,192,185174,128,0,185313:0:0:0:0:
192,192,185174,128,0,185313:0:0:0:0:
448,192,185174,128,0,185313:0:0:0:0:
320,192,185452,128,0,185522:0:0:0:0:
192,192,185591,128,0,185660:0:0:0:0:
320,192,185591,128,0,185660:0:0:0:0:
448,192,185591,128,0,185660:0:0:0:0:
192,192,185730,128,0,185799:0:0:0:0:
320,192,185730,128,0,185799:0:0:0:0:
448,192,185730,128,0,185799:0:0:0:0:
64,192,185869,128,0,185938:0:0:0:0:
320,192,185869,128,0,185938:0:0:0:0:
448,192,185869,128,0,185938:0:0:0:0:
64,192,186008,128,0,186147:0:0:0:0:
320,192,186008,128,0,186147:0:0:0:0:
448,192,186008,128,0,186147:0:0:0:0:
192,192,186285,1,0,0:0:0:0:
448,192,186355,1,0,0:0:0:0:
64,192,186424,128,0,186494:0:0:0:0:
192,192,186424,128,0,186494:0:0:0:0:
320,192,186424,128,0,186494:0:0:0:0:
64,192,186563,128,0,186633:0:0:0:0:
192,192,186563,128,0,186633:0:0:0:0:
320,192,186563,128,0,186633:0:0:0:0:
64,192,186702,128,0,186772:0:0:0:0:
192,192,186702,128,0,186772:0:0:0:0:
448,192,186702,128,0,186772:0:0:0:0:
64,192,186841,128,0,186980:0:0:0:0:
192,192,186841,128,0,186980:0:0:0:0:
448,192,186841,128,0,186980:0:0:0:0:
320,192,187119,128,0,187188:0:0:0:0:
64,192,187258,128,0,187327:0:0:0:0:
320,192,187258,128,0,187327:0:0:0:0:
448,192,187258,128,0,187327:0:0:0:0:
64,192,187397,128,0,187466:0:0:0:0:
320,192,187397,128,0,187466:0:0:0:0:
448,192,187397,128,0,187466:0:0:0:0:
192,192,187674,128,0,187744:0:0:0:0:
64,192,187813,128,0,187883:0:0:0:0:
192,192,187813,128,0,187883:0:0:0:0:
320,192,187813,128,0,187883:0:0:0:0:
64,192,187952,128,0,188022:0:0:0:0:
192,192,187952,128,0,188022:0:0:0:0:
320,192,188022,1,0,0:0:0:0:
64,192,188091,128,0,188160:0:0:0:0:
192,192,188091,128,0,188160:0:0:0:0:
448,192,188091,128,0,188160:0:0:0:0:
64,192,188230,128,0,188369:0:0:0:0:
192,192,188230,128,0,188369:0:0:0:0:
448,192,188230,128,0,188369:0:0:0:0:
320,192,188508,1,0,0:0:0:0:
64,192,188577,1,0,0:0:0:0:
192,192,188647,128,0,188716:0:0:0:0:
320,192,188647,128,0,188716:0:0:0:0:
448,192,188647,128,0,188716:0:0:0:0:
192,192,188785,128,0,188855:0:0:0:0:
320,192,188785,128,0,188855:0:0:0:0:
448,192,188785,128,0,188855:0:0:0:0:
64,192,188924,128,0,188994:0:0:0:0:
320,192,188924,128,0,188994:0:0:0:0:
448,192,188924,128,0,188994:0:0:0:0:
64,192,189063,128,0,189202:0:0:0:0:
320,192,189063,128,0,189202:0:0:0:0:
448,192,189063,128,0,189202:0:0:0:0:
64,192,193924,1,0,0:0:0:0:
320,192,193924,1,0,0:0:0:0:
448,192,193924,1,0,0:0:0:0:
192,192,193994,1,0,0:0:0:0:
320,192,194063,1,0,0:0:0:0:
448,192,194063,1,0,0:0:0:0:
192,192,194133,1,0,0:0:0:0:
64,192,194202,1,0,0:0:0:0:
320,192,194272,1,0,0:0:0:0:
64,192,194341,1,0,0:0:0:0:
192,192,194341,1,0,0:0:0:0:
448,192,194410,1,0,0:0:0:0:
192,192,194480,1,0,0:0:0:0:
320,192,194480,1,0,0:0:0:0:
64,192,194549,1,0,0:0:0:0:
192,192,194619,1,0,0:0:0:0:
320,192,194619,1,0,0:0:0:0:
448,192,194688,1,0,0:0:0:0:
64,192,194758,1,0,0:0:0:0:
320,192,194758,1,0,0:0:0:0:
192,192,194827,1,0,0:0:0:0:
320,192,194897,1,0,0:0:0:0:
448,192,194897,1,0,0:0:0:0:
64,192,194966,1,0,0:0:0:0:
192,192,195035,1,0,0:0:0:0:
320,192,195035,1,0,0:0:0:0:
448,192,195035,1,0,0:0:0:0:
64,192,195105,1,0,0:0:0:0:
192,192,195174,1,0,0:0:0:0:
448,192,195174,1,0,0:0:0:0:
320,192,195244,1,0,0:0:0:0:
192,192,195313,1,0,0:0:0:0:
448,192,195313,1,0,0:0:0:0:
64,192,195383,1,0,0:0:0:0:
320,192,195452,1,0,0:0:0:0:
320,192,195522,1,0,0:0:0:0:
192,192,195591,1,0,0:0:0:0:
448,192,195591,1,0,0:0:0:0:
320,192,195660,1,0,0:0:0:0:
64,192,195730,1,0,0:0:0:0:
192,192,195730,1,0,0:0:0:0:
448,192,195799,1,0,0:0:0:0:
320,192,195869,1,0,0:0:0:0:
64,192,195938,1,0,0:0:0:0:
192,192,196008,1,0,0:0:0:0:
448,192,196008,1,0,0:0:0:0:
320,192,196077,1,0,0:0:0:0:
64,192,196147,1,0,0:0:0:0:
192,192,196147,1,0,0:0:0:0:
320,192,196216,1,0,0:0:0:0:
64,192,196285,1,0,0:0:0:0:
192,192,196285,1,0,0:0:0:0:
448,192,196355,1,0,0:0:0:0:
320,192,196424,1,0,0:0:0:0:
64,192,196494,1,0,0:0:0:0:
192,192,196563,1,0,0:0:0:0:
320,192,196563,1,0,0:0:0:0:
448,192,196633,1,0,0:0:0:0:
64,192,196702,1,0,0:0:0:0:
192,192,196702,1,0,0:0:0:0:
448,192,196772,1,0,0:0:0:0:
64,192,196841,1,0,0:0:0:0:
320,192,196841,1,0,0:0:0:0:
192,192,196910,1,0,0:0:0:0:
64,192,196980,1,0,0:0:0:0:
320,192,196980,1,0,0:0:0:0:
448,192,197049,1,0,0:0:0:0:
192,192,197119,1,0,0:0:0:0:
320,192,197119,1,0,0:0:0:0:
64,192,197188,1,0,0:0:0:0:
192,192,197258,1,0,0:0:0:0:
320,192,197258,1,0,0:0:0:0:
448,192,197258,1,0,0:0:0:0:
64,192,197327,1,0,0:0:0:0:
320,192,197397,1,0,0:0:0:0:
448,192,197397,1,0,0:0:0:0:
64,192,197466,1,0,0:0:0:0:
192,192,197535,1,0,0:0:0:0:
448,192,197535,1,0,0:0:0:0:
320,192,197605,1,0,0:0:0:0:
192,192,197674,1,0,0:0:0:0:
192,192,197744,1,0,0:0:0:0:
64,192,197813,1,0,0:0:0:0:
320,192,197813,1,0,0:0:0:0:
448,192,197813,1,0,0:0:0:0:
192,192,197952,1,0,0:0:0:0:
320,192,197952,1,0,0:0:0:0:
64,192,198091,1,0,0:0:0:0:
192,192,198091,1,0,0:0:0:0:
448,192,198091,1,0,0:0:0:0:
64,192,198230,1,0,0:0:0:0:
192,192,198230,1,0,0:0:0:0:
448,192,198230,1,0,0:0:0:0:
64,192,198369,1,0,0:0:0:0:
192,192,198369,1,0,0:0:0:0:
320,192,198369,1,0,0:0:0:0:
448,192,198438,1,0,0:0:0:0:
64,192,198508,1,0,0:0:0:0:
320,192,198508,1,0,0:0:0:0:
192,192,198577,1,0,0:0:0:0:
448,192,198647,1,0,0:0:0:0:
64,192,198716,1,0,0:0:0:0:
192,192,198785,1,0,0:0:0:0:
320,192,198785,1,0,0:0:0:0:
448,192,198855,1,0,0:0:0:0:
64,192,198924,1,0,0:0:0:0:
320,192,198924,1,0,0:0:0:0:
192,192,198994,1,0,0:0:0:0:
64,192,199063,1,0,0:0:0:0:
320,192,199063,1,0,0:0:0:0:
448,192,199133,1,0,0:0:0:0:
64,192,199202,1,0,0:0:0:0:
192,192,199202,1,0,0:0:0:0:
448,192,199272,1,0,0:0:0:0:
320,192,199341,1,0,0:0:0:0:
320,192,199410,1,0,0:0:0:0:
64,192,199480,1,0,0:0:0:0:
192,192,199480,1,0,0:0:0:0:
448,192,199480,1,0,0:0:0:0:
320,192,199549,1,0,0:0:0:0:
64,192,199619,1,0,0:0:0:0:
192,192,199619,1,0,0:0:0:0:
448,192,199688,1,0,0:0:0:0:
64,192,199758,1,0,0:0:0:0:
320,192,199758,1,0,0:0:0:0:
192,192,199827,1,0,0:0:0:0:
448,192,199897,1,0,0:0:0:0:
448,192,199966,1,0,0:0:0:0:
64,192,200035,1,0,0:0:0:0:
192,192,200035,1,0,0:0:0:0:
320,192,200035,1,0,0:0:0:0:
448,192,200105,1,0,0:0:0:0:
64,192,200174,1,0,0:0:0:0:
192,192,200174,1,0,0:0:0:0:
320,192,200244,1,0,0:0:0:0:
64,192,200313,1,0,0:0:0:0:
448,192,200383,1,0,0:0:0:0:
192,192,200452,1,0,0:0:0:0:
320,192,200452,1,0,0:0:0:0:
64,192,200522,1,0,0:0:0:0:
192,192,200591,1,0,0:0:0:0:
448,192,200591,1,0,0:0:0:0:
320,192,200660,1,0,0:0:0:0:
192,192,200730,1,0,0:0:0:0:
448,192,200730,1,0,0:0:0:0:
320,192,200799,1,0,0:0:0:0:
64,192,200869,1,0,0:0:0:0:
448,192,200938,1,0,0:0:0:0:
192,192,201008,1,0,0:0:0:0:
320,192,201008,1,0,0:0:0:0:
64,192,201077,1,0,0:0:0:0:
320,192,201147,1,0,0:0:0:0:
448,192,201147,1,0,0:0:0:0:
192,192,201216,1,0,0:0:0:0:
320,192,201285,1,0,0:0:0:0:
448,192,201285,1,0,0:0:0:0:
64,192,201355,1,0,0:0:0:0:
192,192,201424,1,0,0:0:0:0:
448,192,201424,1,0,0:0:0:0:
320,192,201494,1,0,0:0:0:0:
64,192,201563,1,0,0:0:0:0:
192,192,201563,1,0,0:0:0:0:
448,192,201633,1,0,0:0:0:0:
64,192,201702,1,0,0:0:0:0:
192,192,201702,1,0,0:0:0:0:
320,192,201702,1,0,0:0:0:0:
448,192,201772,1,0,0:0:0:0:
64,192,201841,1,0,0:0:0:0:
320,192,201841,1,0,0:0:0:0:
192,192,201910,1,0,0:0:0:0:
320,192,201980,1,0,0:0:0:0:
448,192,201980,1,0,0:0:0:0:
64,192,202049,1,0,0:0:0:0:
192,192,202119,1,0,0:0:0:0:
192,192,202188,1,0,0:0:0:0:
64,192,202258,1,0,0:0:0:0:
320,192,202258,1,0,0:0:0:0:
448,192,202258,1,0,0:0:0:0:
192,192,202397,1,0,0:0:0:0:
320,192,202397,1,0,0:0:0:0:
64,192,202535,1,0,0:0:0:0:
192,192,202535,1,0,0:0:0:0:
448,192,202535,1,0,0:0:0:0:
64,192,202674,128,0,202813:0:0:0:0:
192,192,202674,128,0,202813:0:0:0:0:
448,192,202674,128,0,202813:0:0:0:0:
192,192,203230,128,0,203299:0:0:0:0:
64,192,203369,1,0,0:0:0:0:
320,192,203369,1,0,0:0:0:0:
448,192,203369,1,0,0:0:0:0:
192,192,203438,1,0,0:0:0:0:
320,192,203508,1,0,0:0:0:0:
448,192,203508,1,0,0:0:0:0:
192,192,203577,1,0,0:0:0:0:
64,192,203647,1,0,0:0:0:0:
320,192,203716,1,0,0:0:0:0:
64,192,203785,1,0,0:0:0:0:
192,192,203785,1,0,0:0:0:0:
448,192,203855,1,0,0:0:0:0:
192,192,203924,1,0,0:0:0:0:
320,192,203924,1,0,0:0:0:0:
64,192,203994,1,0,0:0:0:0:
192,192,204063,1,0,0:0:0:0:
320,192,204063,1,0,0:0:0:0:
448,192,204133,1,0,0:0:0:0:
64,192,204202,1,0,0:0:0:0:
320,192,204202,1,0,0:0:0:0:
192,192,204272,1,0,0:0:0:0:
320,192,204341,1,0,0:0:0:0:
448,192,204341,1,0,0:0:0:0:
64,192,204410,1,0,0:0:0:0:
192,192,204480,1,0,0:0:0:0:
320,192,204480,1,0,0:0:0:0:
448,192,204480,1,0,0:0:0:0:
64,192,204549,1,0,0:0:0:0:
192,192,204619,1,0,0:0:0:0:
448,192,204619,1,0,0:0:0:0:
320,192,204688,1,0,0:0:0:0:
192,192,204758,1,0,0:0:0:0:
448,192,204758,1,0,0:0:0:0:
64,192,204827,1,0,0:0:0:0:
320,192,204897,1,0,0:0:0:0:
320,192,204966,1,0,0:0:0:0:
192,192,205035,1,0,0:0:0:0:
448,192,205035,1,0,0:0:0:0:
320,192,205105,1,0,0:0:0:0:
64,192,205174,1,0,0:0:0:0:
192,192,205174,1,0,0:0:0:0:
448,192,205244,1,0,0:0:0:0:
320,192,205313,1,0,0:0:0:0:
64,192,205383,1,0,0:0:0:0:
192,192,205452,1,0,0:0:0:0:
448,192,205452,1,0,0:0:0:0:
320,192,205522,1,0,0:0:0:0:
64,192,205591,1,0,0:0:0:0:
192,192,205591,1,0,0:0:0:0:
320,192,205660,1,0,0:0:0:0:
64,192,205730,1,0,0:0:0:0:
192,192,205730,1,0,0:0:0:0:
448,192,205799,1,0,0:0:0:0:
320,192,205869,1,0,0:0:0:0:
64,192,205938,1,0,0:0:0:0:
192,192,206008,1,0,0:0:0:0:
320,192,206008,1,0,0:0:0:0:
448,192,206077,1,0,0:0:0:0:
64,192,206147,1,0,0:0:0:0:
192,192,206147,1,0,0:0:0:0:
448,192,206216,1,0,0:0:0:0:
64,192,206285,1,0,0:0:0:0:
320,192,206285,1,0,0:0:0:0:
192,192,206355,1,0,0:0:0:0:
64,192,206424,1,0,0:0:0:0:
320,192,206424,1,0,0:0:0:0:
448,192,206494,1,0,0:0:0:0:
192,192,206563,1,0,0:0:0:0:
320,192,206563,1,0,0:0:0:0:
64,192,206633,1,0,0:0:0:0:
192,192,206702,1,0,0:0:0:0:
320,192,206702,1,0,0:0:0:0:
448,192,206702,1,0,0:0:0:0:
64,192,206772,1,0,0:0:0:0:
320,192,206841,1,0,0:0:0:0:
448,192,206841,1,0,0:0:0:0:
64,192,206910,1,0,0:0:0:0:
192,192,206980,1,0,0:0:0:0:
448,192,206980,1,0,0:0:0:0:
320,192,207049,1,0,0:0:0:0:
192,192,207119,1,0,0:0:0:0:
192,192,207188,1,0,0:0:0:0:
64,192,207258,1,0,0:0:0:0:
320,192,207258,1,0,0:0:0:0:
448,192,207258,1,0,0:0:0:0:
192,192,207327,1,0,0:0:0:0:
320,192,207397,1,0,0:0:0:0:
448,192,207397,1,0,0:0:0:0:
64,192,207466,1,0,0:0:0:0:
192,192,207535,1,0,0:0:0:0:
448,192,207605,1,0,0:0:0:0:
192,192,207674,1,0,0:0:0:0:
320,192,207744,1,0,0:0:0:0:
64,192,207813,1,0,0:0:0:0:
192,192,207813,1,0,0:0:0:0:
448,192,207813,1,0,0:0:0:0:
320,192,207883,1,0,0:0:0:0:
64,192,207952,1,0,0:0:0:0:
448,192,207952,1,0,0:0:0:0:
192,192,208022,1,0,0:0:0:0:
448,192,208091,1,0,0:0:0:0:
64,192,208160,1,0,0:0:0:0:
192,192,208230,1,0,0:0:0:0:
320,192,208230,1,0,0:0:0:0:
448,192,208299,1,0,0:0:0:0:
64,192,208369,1,0,0:0:0:0:
320,192,208369,1,0,0:0:0:0:
192,192,208438,1,0,0:0:0:0:
64,192,208508,1,0,0:0:0:0:
320,192,208508,1,0,0:0:0:0:
448,192,208577,1,0,0:0:0:0:
64,192,208647,1,0,0:0:0:0:
192,192,208647,1,0,0:0:0:0:
448,192,208716,1,0,0:0:0:0:
320,192,208785,1,0,0:0:0:0:
320,192,208855,1,0,0:0:0:0:
64,192,208924,1,0,0:0:0:0:
192,192,208924,1,0,0:0:0:0:
448,192,208924,1,0,0:0:0:0:
320,192,208994,1,0,0:0:0:0:
64,192,209063,1,0,0:0:0:0:
192,192,209063,1,0,0:0:0:0:
448,192,209133,1,0,0:0:0:0:
64,192,209202,1,0,0:0:0:0:
320,192,209202,1,0,0:0:0:0:
192,192,209272,1,0,0:0:0:0:
448,192,209341,1,0,0:0:0:0:
448,192,209410,1,0,0:0:0:0:
64,192,209480,1,0,0:0:0:0:
192,192,209480,1,0,0:0:0:0:
320,192,209480,1,0,0:0:0:0:
448,192,209549,1,0,0:0:0:0:
64,192,209619,1,0,0:0:0:0:
192,192,209619,1,0,0:0:0:0:
320,192,209688,1,0,0:0:0:0:
64,192,209758,1,0,0:0:0:0:
448,192,209827,1,0,0:0:0:0:
192,192,209897,1,0,0:0:0:0:
320,192,209897,1,0,0:0:0:0:
64,192,209966,1,0,0:0:0:0:
192,192,210035,1,0,0:0:0:0:
448,192,210035,1,0,0:0:0:0:
320,192,210105,1,0,0:0:0:0:
192,192,210174,1,0,0:0:0:0:
448,192,210174,1,0,0:0:0:0:
320,192,210244,1,0,0:0:0:0:
64,192,210313,1,0,0:0:0:0:
448,192,210383,1,0,0:0:0:0:
192,192,210452,1,0,0:0:0:0:
320,192,210452,1,0,0:0:0:0:
64,192,210522,1,0,0:0:0:0:
320,192,210591,1,0,0:0:0:0:
448,192,210591,1,0,0:0:0:0:
192,192,210660,1,0,0:0:0:0:
320,192,210730,1,0,0:0:0:0:
448,192,210730,1,0,0:0:0:0:
64,192,210799,1,0,0:0:0:0:
192,192,210869,1,0,0:0:0:0:
448,192,210869,1,0,0:0:0:0:
320,192,210938,1,0,0:0:0:0:
64,192,211008,1,0,0:0:0:0:
192,192,211008,1,0,0:0:0:0:
448,192,211077,1,0,0:0:0:0:
64,192,211147,1,0,0:0:0:0:
192,192,211147,1,0,0:0:0:0:
320,192,211147,1,0,0:0:0:0:
448,192,211216,1,0,0:0:0:0:
64,192,211285,1,0,0:0:0:0:
320,192,211285,1,0,0:0:0:0:
192,192,211355,1,0,0:0:0:0:
320,192,211424,1,0,0:0:0:0:
448,192,211424,1,0,0:0:0:0:
64,192,211494,1,0,0:0:0:0:
192,192,211563,1,0,0:0:0:0:
192,192,211633,1,0,0:0:0:0:
64,192,211702,1,0,0:0:0:0:
320,192,211702,1,0,0:0:0:0:
448,192,211702,1,0,0:0:0:0:
192,192,211772,1,0,0:0:0:0:
320,192,211841,1,0,0:0:0:0:
448,192,211841,1,0,0:0:0:0:
64,192,211910,1,0,0:0:0:0:
320,192,211980,1,0,0:0:0:0:
192,192,212049,1,0,0:0:0:0:
64,192,212119,1,0,0:0:0:0:
448,192,212119,1,0,0:0:0:0:
320,192,212188,1,0,0:0:0:0:
64,192,212258,1,0,0:0:0:0:
192,192,212258,1,0,0:0:0:0:
448,192,212258,1,0,0:0:0:0:
320,192,212327,1,0,0:0:0:0:
64,192,212397,1,0,0:0:0:0:
192,192,212397,1,0,0:0:0:0:
448,192,212466,1,0,0:0:0:0:
320,192,212535,1,0,0:0:0:0:
192,192,212605,1,0,0:0:0:0:
64,192,212674,1,0,0:0:0:0:
320,192,212674,1,0,0:0:0:0:
448,192,212744,1,0,0:0:0:0:
64,192,212813,1,0,0:0:0:0:
320,192,212813,1,0,0:0:0:0:
192,192,212883,1,0,0:0:0:0:
64,192,212952,1,0,0:0:0:0:
448,192,212952,1,0,0:0:0:0:
320,192,213022,1,0,0:0:0:0:
192,192,213091,1,0,0:0:0:0:
448,192,213091,1,0,0:0:0:0:
320,192,213160,1,0,0:0:0:0:
64,192,213230,1,0,0:0:0:0:
192,192,213230,1,0,0:0:0:0:
448,192,213299,1,0,0:0:0:0:
64,192,213369,1,0,0:0:0:0:
192,192,213369,1,0,0:0:0:0:
320,192,213369,1,0,0:0:0:0:
448,192,213438,1,0,0:0:0:0:
64,192,213508,1,0,0:0:0:0:
320,192,213508,1,0,0:0:0:0:
192,192,213577,1,0,0:0:0:0:
320,192,213647,1,0,0:0:0:0:
448,192,213647,1,0,0:0:0:0:
64,192,213716,1,0,0:0:0:0:
448,192,213785,1,0,0:0:0:0:
448,192,213855,1,0,0:0:0:0:
64,192,213924,1,0,0:0:0:0:
192,192,213924,1,0,0:0:0:0:
320,192,213924,1,0,0:0:0:0:
448,192,213994,1,0,0:0:0:0:
64,192,214063,1,0,0:0:0:0:
320,192,214063,1,0,0:0:0:0:
192,192,214133,1,0,0:0:0:0:
448,192,214202,1,0,0:0:0:0:
192,192,214272,1,0,0:0:0:0:
64,192,214341,1,0,0:0:0:0:
320,192,214341,1,0,0:0:0:0:
448,192,214410,1,0,0:0:0:0:
64,192,214480,1,0,0:0:0:0:
192,192,214480,1,0,0:0:0:0:
320,192,214480,1,0,0:0:0:0:
448,192,214549,1,0,0:0:0:0:
64,192,214619,1,0,0:0:0:0:
192,192,214619,1,0,0:0:0:0:
320,192,214688,1,0,0:0:0:0:
192,192,214758,1,0,0:0:0:0:
448,192,214827,1,0,0:0:0:0:
64,192,214897,1,0,0:0:0:0:
320,192,214897,1,0,0:0:0:0:
192,192,214966,1,0,0:0:0:0:
320,192,215035,1,0,0:0:0:0:
448,192,215035,1,0,0:0:0:0:
64,192,215105,1,0,0:0:0:0:
320,192,215174,1,0,0:0:0:0:
448,192,215174,1,0,0:0:0:0:
192,192,215244,1,0,0:0:0:0:
64,192,215313,1,0,0:0:0:0:
320,192,215313,1,0,0:0:0:0:
448,192,215383,1,0,0:0:0:0:
64,192,215452,1,0,0:0:0:0:
192,192,215452,1,0,0:0:0:0:
320,192,215522,1,0,0:0:0:0:
64,192,215591,1,0,0:0:0:0:
192,192,215591,1,0,0:0:0:0:
448,192,215591,1,0,0:0:0:0:
320,192,215660,1,0,0:0:0:0:
192,192,215730,1,0,0:0:0:0:
448,192,215730,1,0,0:0:0:0:
64,192,215799,1,0,0:0:0:0:
320,192,215869,1,0,0:0:0:0:
448,192,215869,1,0,0:0:0:0:
192,192,215938,1,0,0:0:0:0:
320,192,216008,1,0,0:0:0:0:
320,192,216077,1,0,0:0:0:0:
64,192,216147,1,0,0:0:0:0:
192,192,216147,1,0,0:0:0:0:
448,192,216147,1,0,0:0:0:0:
320,192,216216,1,0,0:0:0:0:
64,192,216285,1,0,0:0:0:0:
192,192,216285,1,0,0:0:0:0:
448,192,216355,1,0,0:0:0:0:
192,192,216424,1,0,0:0:0:0:
320,192,216494,1,0,0:0:0:0:
64,192,216563,1,0,0:0:0:0:
448,192,216633,1,0,0:0:0:0:
64,192,216702,1,0,0:0:0:0:
192,192,216702,1,0,0:0:0:0:
320,192,216702,1,0,0:0:0:0:
448,192,216772,1,0,0:0:0:0:
192,192,216841,1,0,0:0:0:0:
320,192,216841,1,0,0:0:0:0:
64,192,216910,1,0,0:0:0:0:
448,192,216980,1,0,0:0:0:0:
192,192,217049,1,0,0:0:0:0:
320,192,217119,1,0,0:0:0:0:
448,192,217119,1,0,0:0:0:0:
64,192,217188,1,0,0:0:0:0:
192,192,217258,1,0,0:0:0:0:
320,192,217258,1,0,0:0:0:0:
448,192,217327,1,0,0:0:0:0:
192,192,217397,1,0,0:0:0:0:
320,192,217397,1,0,0:0:0:0:
64,192,217466,1,0,0:0:0:0:
192,192,217535,1,0,0:0:0:0:
448,192,217535,1,0,0:0:0:0:
320,192,217605,1,0,0:0:0:0:
192,192,217674,1,0,0:0:0:0:
192,192,217744,1,0,0:0:0:0:
64,192,217813,1,0,0:0:0:0:
320,192,217813,1,0,0:0:0:0:
448,192,217813,1,0,0:0:0:0:
192,192,217883,1,0,0:0:0:0:
320,192,217952,1,0,0:0:0:0:
448,192,217952,1,0,0:0:0:0:
64,192,218022,1,0,0:0:0:0:
192,192,218091,1,0,0:0:0:0:
448,192,218091,1,0,0:0:0:0:
64,192,218160,1,0,0:0:0:0:
320,192,218230,1,0,0:0:0:0:
320,192,218299,1,0,0:0:0:0:
64,192,218369,1,0,0:0:0:0:
192,192,218369,1,0,0:0:0:0:
448,192,218369,1,0,0:0:0:0:
320,192,218438,1,0,0:0:0:0:
64,192,218508,1,0,0:0:0:0:
192,192,218508,1,0,0:0:0:0:
448,192,218577,1,0,0:0:0:0:
320,192,218647,1,0,0:0:0:0:
192,192,218716,1,0,0:0:0:0:
320,192,218785,1,0,0:0:0:0:
448,192,218785,1,0,0:0:0:0:
64,192,218855,1,0,0:0:0:0:
192,192,218924,1,0,0:0:0:0:
320,192,218924,1,0,0:0:0:0:
448,192,218924,1,0,0:0:0:0:
64,192,218994,1,0,0:0:0:0:
192,192,219063,1,0,0:0:0:0:
320,192,219063,1,0,0:0:0:0:
448,192,219133,1,0,0:0:0:0:
64,192,219202,1,0,0:0:0:0:
320,192,219272,1,0,0:0:0:0:
64,192,219341,1,0,0:0:0:0:
192,192,219341,1,0,0:0:0:0:
448,192,219410,1,0,0:0:0:0:
64,192,219480,1,0,0:0:0:0:
320,192,219480,1,0,0:0:0:0:
192,192,219549,1,0,0:0:0:0:
320,192,219619,1,0,0:0:0:0:
448,192,219619,1,0,0:0:0:0:
64,192,219688,1,0,0:0:0:0:
192,192,219758,1,0,0:0:0:0:
448,192,219758,1,0,0:0:0:0:
320,192,219827,1,0,0:0:0:0:
192,192,219897,1,0,0:0:0:0:
448,192,219897,1,0,0:0:0:0:
64,192,219966,1,0,0:0:0:0:
192,192,220035,1,0,0:0:0:0:
320,192,220035,1,0,0:0:0:0:
448,192,220035,1,0,0:0:0:0:
64,192,220105,1,0,0:0:0:0:
320,192,220174,1,0,0:0:0:0:
448,192,220174,1,0,0:0:0:0:
192,192,220244,1,0,0:0:0:0:
64,192,220313,1,0,0:0:0:0:
320,192,220313,1,0,0:0:0:0:
448,192,220383,1,0,0:0:0:0:
192,192,220452,1,0,0:0:0:0:
192,192,220522,1,0,0:0:0:0:
64,192,220591,1,0,0:0:0:0:
320,192,220591,1,0,0:0:0:0:
448,192,220591,1,0,0:0:0:0:
192,192,220660,1,0,0:0:0:0:
320,192,220730,1,0,0:0:0:0:
448,192,220730,1,0,0:0:0:0:
64,192,220799,1,0,0:0:0:0:
320,192,220869,1,0,0:0:0:0:
192,192,220938,1,0,0:0:0:0:
448,192,221008,1,0,0:0:0:0:
64,192,221077,1,0,0:0:0:0:
192,192,221147,1,0,0:0:0:0:
320,192,221147,1,0,0:0:0:0:
448,192,221216,1,0,0:0:0:0:
64,192,221285,1,0,0:0:0:0:
320,192,221285,1,0,0:0:0:0:
192,192,221355,1,0,0:0:0:0:
64,192,221424,1,0,0:0:0:0:
320,192,221494,1,0,0:0:0:0:
192,192,221563,1,0,0:0:0:0:
448,192,221563,1,0,0:0:0:0:
320,192,221633,1,0,0:0:0:0:
64,192,221702,1,0,0:0:0:0:
192,192,221702,1,0,0:0:0:0:
448,192,221772,1,0,0:0:0:0:
64,192,221841,1,0,0:0:0:0:
320,192,221841,1,0,0:0:0:0:
192,192,221910,1,0,0:0:0:0:
64,192,221980,1,0,0:0:0:0:
448,192,221980,1,0,0:0:0:0:
192,192,222049,1,0,0:0:0:0:
320,192,222119,1,0,0:0:0:0:
320,192,222188,1,0,0:0:0:0:
64,192,222258,1,0,0:0:0:0:
192,192,222258,1,0,0:0:0:0:
448,192,222258,1,0,0:0:0:0:
320,192,222327,1,0,0:0:0:0:
64,192,222397,1,0,0:0:0:0:
192,192,222397,1,0,0:0:0:0:
448,192,222466,1,0,0:0:0:0:
192,192,222535,1,0,0:0:0:0:
320,192,222535,1,0,0:0:0:0:
64,192,222605,1,0,0:0:0:0:
448,192,222674,1,0,0:0:0:0:
448,192,222744,1,0,0:0:0:0:
64,192,222813,1,0,0:0:0:0:
192,192,222813,1,0,0:0:0:0:
320,192,222813,1,0,0:0:0:0:
448,192,222883,1,0,0:0:0:0:
64,192,222952,1,0,0:0:0:0:
192,192,222952,1,0,0:0:0:0:
320,192,223022,1,0,0:0:0:0:
192,192,223091,1,0,0:0:0:0:
64,192,223160,1,0,0:0:0:0:
192,192,223230,1,0,0:0:0:0:
320,192,223230,1,0,0:0:0:0:
448,192,223299,1,0,0:0:0:0:
64,192,223369,1,0,0:0:0:0:
320,192,223369,1,0,0:0:0:0:
192,192,223438,1,0,0:0:0:0:
64,192,223508,1,0,0:0:0:0:
320,192,223508,1,0,0:0:0:0:
448,192,223577,1,0,0:0:0:0:
320,192,223647,1,0,0:0:0:0:
192,192,223716,1,0,0:0:0:0:
64,192,223785,1,0,0:0:0:0:
448,192,223785,1,0,0:0:0:0:
320,192,223855,1,0,0:0:0:0:
64,192,223924,1,0,0:0:0:0:
192,192,223924,1,0,0:0:0:0:
320,192,223994,1,0,0:0:0:0:
64,192,224063,1,0,0:0:0:0:
192,192,224063,1,0,0:0:0:0:
448,192,224133,1,0,0:0:0:0:
64,192,224202,1,0,0:0:0:0:
320,192,224202,1,0,0:0:0:0:
192,192,224272,1,0,0:0:0:0:
320,192,224341,1,0,0:0:0:0:
448,192,224341,1,0,0:0:0:0:
64,192,224410,1,0,0:0:0:0:
192,192,224480,1,0,0:0:0:0:
320,192,224480,1,0,0:0:0:0:
448,192,224480,1,0,0:0:0:0:
64,192,224549,1,0,0:0:0:0:
192,192,224619,1,0,0:0:0:0:
448,192,224619,1,0,0:0:0:0:
320,192,224688,1,0,0:0:0:0:
64,192,224758,1,0,0:0:0:0:
192,192,224758,1,0,0:0:0:0:
448,192,224827,1,0,0:0:0:0:
320,192,224897,1,0,0:0:0:0:
320,192,224966,1,0,0:0:0:0:
64,192,225035,1,0,0:0:0:0:
192,192,225035,1,0,0:0:0:0:
448,192,225035,1,0,0:0:0:0:
320,192,225105,1,0,0:0:0:0:
64,192,225174,1,0,0:0:0:0:
192,192,225174,1,0,0:0:0:0:
448,192,225244,1,0,0:0:0:0:
192,192,225313,1,0,0:0:0:0:
320,192,225383,1,0,0:0:0:0:
64,192,225452,1,0,0:0:0:0:
192,192,225522,1,0,0:0:0:0:
64,192,225591,1,0,0:0:0:0:
320,192,225591,1,0,0:0:0:0:
448,192,225591,1,0,0:0:0:0:
192,192,225660,1,0,0:0:0:0:
320,192,225730,1,0,0:0:0:0:
448,192,225730,1,0,0:0:0:0:
64,192,225799,1,0,0:0:0:0:
192,192,225869,1,0,0:0:0:0:
448,192,225869,1,0,0:0:0:0:
320,192,225938,1,0,0:0:0:0:
192,192,226008,1,0,0:0:0:0:
448,192,226008,1,0,0:0:0:0:
64,192,226077,1,0,0:0:0:0:
192,192,226147,1,0,0:0:0:0:
320,192,226147,1,0,0:0:0:0:
448,192,226216,1,0,0:0:0:0:
64,192,226285,1,0,0:0:0:0:
320,192,226285,1,0,0:0:0:0:
192,192,226355,1,0,0:0:0:0:
320,192,226424,1,0,0:0:0:0:
448,192,226424,1,0,0:0:0:0:
64,192,226494,1,0,0:0:0:0:
192,192,226563,1,0,0:0:0:0:
192,192,226633,1,0,0:0:0:0:
64,192,226702,1,0,0:0:0:0:
320,192,226702,1,0,0:0:0:0:
448,192,226702,1,0,0:0:0:0:
192,192,226772,1,0,0:0:0:0:
320,192,226841,1,0,0:0:0:0:
448,192,226841,1,0,0:0:0:0:
64,192,226910,1,0,0:0:0:0:
192,192,226980,1,0,0:0:0:0:
320,192,226980,1,0,0:0:0:0:
448,192,227049,1,0,0:0:0:0:
64,192,227119,1,0,0:0:0:0:
64,192,227188,1,0,0:0:0:0:
192,192,227258,1,0,0:0:0:0:
320,192,227258,1,0,0:0:0:0:
448,192,227258,1,0,0:0:0:0:
64,192,227327,1,0,0:0:0:0:
320,192,227397,1,0,0:0:0:0:
448,192,227397,1,0,0:0:0:0:
192,192,227466,1,0,0:0:0:0:
448,192,227535,1,0,0:0:0:0:
64,192,227605,1,0,0:0:0:0:
192,192,227674,1,0,0:0:0:0:
448,192,227744,1,0,0:0:0:0:
64,192,227813,1,0,0:0:0:0:
192,192,227813,1,0,0:0:0:0:
320,192,227813,1,0,0:0:0:0:
448,192,227883,1,0,0:0:0:0:
64,192,227952,1,0,0:0:0:0:
320,192,227952,1,0,0:0:0:0:
192,192,228022,1,0,0:0:0:0:
320,192,228091,1,0,0:0:0:0:
64,192,228160,1,0,0:0:0:0:
320,192,228230,1,0,0:0:0:0:
448,192,228230,1,0,0:0:0:0:
64,192,228299,1,0,0:0:0:0:
192,192,228369,1,0,0:0:0:0:
448,192,228369,1,0,0:0:0:0:
320,192,228438,1,0,0:0:0:0:
192,192,228508,1,0,0:0:0:0:
448,192,228508,1,0,0:0:0:0:
64,192,228577,1,0,0:0:0:0:
192,192,228647,1,0,0:0:0:0:
320,192,228647,1,0,0:0:0:0:
448,192,228716,1,0,0:0:0:0:
64,192,228785,1,0,0:0:0:0:
320,192,228785,1,0,0:0:0:0:
192,192,228855,1,0,0:0:0:0:
64,192,228924,1,0,0:0:0:0:
448,192,228924,1,0,0:0:0:0:
320,192,228994,1,0,0:0:0:0:
192,192,229063,1,0,0:0:0:0:
448,192,229063,1,0,0:0:0:0:
320,192,229133,1,0,0:0:0:0:
64,192,229202,1,0,0:0:0:0:
192,192,229202,1,0,0:0:0:0:
448,192,229272,1,0,0:0:0:0:
320,192,229341,1,0,0:0:0:0:
320,192,229410,1,0,0:0:0:0:
64,192,229480,1,0,0:0:0:0:
192,192,229480,1,0,0:0:0:0:
448,192,229526,1,0,0:0:0:0:
192,192,229572,1,0,0:0:0:0:
320,192,229619,1,0,0:0:0:0:
64,192,229665,1,0,0:0:0:0:
320,192,229711,1,0,0:0:0:0:
192,192,229758,1,0,0:0:0:0:
448,192,229792,1,0,0:0:0:0:
192,192,229844,1,0,0:0:0:0:
320,192,229879,1,0,0:0:0:0:
64,192,229920,1,0,0:0:0:0:
320,192,229966,1,0,0:0:0:0:
192,192,230001,1,0,0:0:0:0:
64,192,230035,1,0,0:0:0:0:
