osu file format v14

[General]
AudioFilename: audio.mp3
AudioLeadIn: 0
PreviewTime: 220514
Countdown: 1
SampleSet: Normal
StackLeniency: 0.7
Mode: 1
LetterboxInBreaks: 0
WidescreenStoryboard: 0

[Editor]
Bookmarks: 380,9268,18435,27323,36073,45935,50657,59685,68435,77323,86212,95101,105101,109407,116073,127185,136212,153990,162879,171768,180657,189546,198435,206212,207323,220657,230101,238990
DistanceSpacing: 0.1
BeatDivisor: 4
GridSize: 8
TimelineZoom: 2.9

[Metadata]
Title:Rip & Tear
TitleUnicode:Rip & Tear
Artist:Mick Gordon
ArtistUnicode:Mick Gordon
Creator:Atreevete
Version:Inner Oni
Source:DOOM
Tags:DOOM Original Game Soundtrack Metal
BeatmapID:1922676
BeatmapSetID:920694

[Difficulty]
HPDrainRate:5
CircleSize:5
OverallDifficulty:7
ApproachRate:7
SliderMultiplier:1.4
SliderTickRate:1

[Events]
//Background and Video events
0,0,"cropped-1366-768-682604.jpg",0,0
//Break Periods
//Storyboard Layer 0 (Background)
//Storyboard Layer 1 (Fail)
//Storyboard Layer 2 (Pass)
//Storyboard Layer 3 (Foreground)
//Storyboard Sound Samples

[TimingPoints]
380,277.777777777778,4,1,0,100,1,0
380,-100,4,1,0,100,0,0
2602,-98.0392156862745,4,1,0,100,0,0
4824,-96.1538461538461,4,1,0,100,0,0
7046,-94.3396226415094,4,1,0,100,0,0
9268,-100,4,1,0,100,0,0
18088,-100,4,1,0,100,0,0
18157,-133.333333333333,4,1,0,100,0,0
18227,-117.647058823529,4,1,0,100,0,0
18296,-105.263157894737,4,1,0,100,0,0
18366,-100,4,1,0,100,0,0
18435,277.777777777778,4,1,0,100,1,0
18435,-95.2380952380952,4,1,0,100,0,0
18504,-100,4,1,0,100,0,0
27046,277.777777777778,4,1,0,100,1,0
27046,-100,4,1,0,100,0,0
27080,-103.092783505155,4,1,0,100,0,0
27115,-106.382978723404,4,1,0,100,0,0
27150,-109.89010989011,4,1,0,100,0,0
27185,-112.359550561798,4,1,0,100,0,0
27219,-116.279069767442,4,1,0,100,0,0
27254,-120.481927710843,4,1,0,100,0,0
27289,-123.456790123457,4,1,0,100,0,0
27323,-125,4,1,0,100,0,0
35796,-125,4,1,0,100,0,0
35865,-119.047619047619,4,1,0,100,0,0
35935,-116.279069767442,4,1,0,100,0,0
36004,-113.636363636364,4,1,0,100,0,0
36073,-111.111111111111,4,1,0,100,0,0
40518,-105.263157894737,4,1,0,100,0,0
44962,-100,4,1,0,100,0,0
50657,-100,4,1,0,100,0,0
59476,-100,4,1,0,100,0,0
59511,-98.0392156862745,4,1,0,100,0,0
59580,-96.1538461538461,4,1,0,100,0,0
59650,-94.3396226415094,4,1,0,100,0,0
59719,-92.5925925925926,4,1,0,100,0,0
59789,-100,4,1,0,100,0,0
68434,-100,4,1,0,25,0,0
77046,-100,4,1,0,25,0,0
79546,-100,4,1,0,50,0,0
81768,-100,4,1,0,75,0,0
86212,-100,4,1,0,100,0,1
105101,-100,4,1,0,100,0,0
127184,-100,4,1,0,20,0,0
136212,-100,4,1,0,20,0,0
152671,-66.6666666666667,4,1,0,20,0,0
152809,-100,4,1,0,30,0,0
153504,-66.6666666666667,4,1,0,30,0,0
153643,-100,4,1,0,30,0,0
153990,-100,4,1,0,30,0,0
162885,-100,4,1,0,30,0,0
180657,-100,4,1,0,40,0,0
189546,-100,4,1,0,50,0,0
191559,-100,4,1,0,15,0,0
193712,-100,4,1,0,50,0,0
198434,-100,4,1,0,60,0,0
207323,-100,4,1,0,100,0,0
216768,-100,4,1,0,50,0,0
220657,-100,4,1,0,100,0,1
249546,-100,4,1,0,60,0,0

[HitObjects]
82,159,380,5,0,0:0:0:0:
225,259,518,1,0,0:0:0:0:
82,159,657,1,8,0:0:0:0:
174,211,796,1,8,0:0:0:0:
174,211,935,1,0,0:0:0:0:
174,211,1352,1,0,0:0:0:0:
174,211,1768,1,0,0:0:0:0:
161,211,2185,1,0,0:0:0:0:
154,215,2602,1,0,0:0:0:0:
154,215,2741,1,0,0:0:0:0:
154,210,2880,1,8,0:0:0:0:
150,197,3018,1,8,0:0:0:0:
154,215,3157,1,0,0:0:0:0:
107,195,3574,1,0,0:0:0:0:
107,195,3991,1,0,0:0:0:0:
107,195,4407,1,0,0:0:0:0:
107,195,4824,1,8,0:0:0:0:
107,195,4963,1,0,0:0:0:0:
107,195,5102,1,8,0:0:0:0:
107,195,5241,1,8,0:0:0:0:
107,195,5380,1,0,0:0:0:0:
107,195,5796,1,0,0:0:0:0:
107,195,6213,1,0,0:0:0:0:
107,195,6630,1,0,0:0:0:0:
107,195,7046,1,8,0:0:0:0:
107,195,7185,1,0,0:0:0:0:
107,195,7324,1,8,0:0:0:0:
107,195,7463,1,8,0:0:0:0:
107,195,7602,1,0,0:0:0:0:
107,195,8018,1,0,0:0:0:0:
107,195,8435,1,0,0:0:0:0:
107,195,8852,1,0,0:0:0:0:
107,195,9268,1,8,0:0:0:0:
107,195,9338,1,0,0:0:0:0:
107,195,9407,1,0,0:0:0:0:
110,229,9477,1,0,0:0:0:0:
110,229,9546,1,8,0:0:0:0:
118,183,9685,1,8,0:0:0:0:
130,157,9824,1,0,0:0:0:0:
130,157,9893,1,0,0:0:0:0:
28,199,9963,1,0,0:0:0:0:
107,195,10102,1,8,0:0:0:0:
101,187,10241,1,0,0:0:0:0:
93,192,10310,1,0,0:0:0:0:
107,195,10380,1,0,0:0:0:0:
8,169,10518,1,8,0:0:0:0:
107,195,10657,1,0,0:0:0:0:
108,198,10727,1,0,0:0:0:0:
79,197,10796,1,0,0:0:0:0:
54,159,10935,1,8,0:0:0:0:
117,195,11074,1,0,0:0:0:0:
117,195,11143,1,0,0:0:0:0:
54,159,11213,1,8,0:0:0:0:
101,204,11352,1,0,0:0:0:0:
54,159,11491,1,8,0:0:0:0:
101,204,11630,1,0,0:0:0:0:
101,204,11768,1,8,0:0:0:0:
101,204,11838,1,8,0:0:0:0:
107,195,11907,1,0,0:0:0:0:
101,183,12046,1,8,0:0:0:0:
101,204,12185,1,0,0:0:0:0:
101,204,12255,1,0,0:0:0:0:
131,133,12324,1,8,0:0:0:0:
101,204,12463,1,8,0:0:0:0:
101,204,12602,1,0,0:0:0:0:
51,177,12671,1,0,0:0:0:0:
54,184,12741,1,8,0:0:0:0:
130,150,12880,1,8,0:0:0:0:
32,191,13018,1,0,0:0:0:0:
32,191,13088,1,0,0:0:0:0:
130,150,13157,1,8,0:0:0:0:
92,185,13296,1,0,0:0:0:0:
0,165,13435,1,8,0:0:0:0:
0,165,13505,1,8,0:0:0:0:
67,180,13574,1,0,0:0:0:0:
112,142,13643,1,0,0:0:0:0:
130,150,13713,1,8,0:0:0:0:
56,189,13782,1,8,0:0:0:0:
57,183,13852,1,0,0:0:0:0:
130,150,13991,1,8,0:0:0:0:
107,195,14130,1,0,0:0:0:0:
130,149,14268,1,8,0:0:0:0:
107,171,14407,1,0,0:0:0:0:
107,171,14477,1,0,0:0:0:0:
107,171,14546,1,0,0:0:0:0:
107,171,14685,1,8,0:0:0:0:
74,192,14824,1,0,0:0:0:0:
79,195,14893,1,0,0:0:0:0:
79,195,14963,1,0,0:0:0:0:
130,149,15102,1,8,0:0:0:0:
90,187,15241,1,0,0:0:0:0:
90,187,15310,1,0,0:0:0:0:
90,187,15380,1,0,0:0:0:0:
90,187,15518,1,8,0:0:0:0:
90,187,15657,1,0,0:0:0:0:
90,187,15727,1,0,0:0:0:0:
90,187,15796,1,0,0:0:0:0:
130,149,15935,1,8,0:0:0:0:
107,195,16074,1,0,0:0:0:0:
130,150,16213,1,8,0:0:0:0:
125,182,16282,1,8,0:0:0:0:
107,195,16352,1,0,0:0:0:0:
130,150,16491,1,8,0:0:0:0:
115,174,16630,1,0,0:0:0:0:
115,174,16699,1,0,0:0:0:0:
130,149,16768,1,8,0:0:0:0:
115,174,16907,1,8,0:0:0:0:
115,174,17046,1,0,0:0:0:0:
115,174,17116,1,0,0:0:0:0:
115,175,17185,1,8,0:0:0:0:
130,150,17324,1,8,0:0:0:0:
110,177,17463,1,0,0:0:0:0:
110,177,17532,1,0,0:0:0:0:
130,149,17602,1,8,0:0:0:0:
110,178,17741,1,0,0:0:0:0:
130,150,17880,1,8,0:0:0:0:
27,218,18157,2,0,L|107:218,1,78.7500030040742
130,149,18435,1,8,0:0:0:0:
118,200,18573,1,0,0:0:0:0:
118,200,18712,1,0,0:0:0:0:
118,200,18851,1,0,0:0:0:0:
130,149,18990,1,8,0:0:0:0:
151,190,19268,1,0,0:0:0:0:
142,184,19337,1,0,0:0:0:0:
149,222,19407,1,0,0:0:0:0:
130,149,19546,1,8,0:0:0:0:
130,193,19685,1,0,0:0:0:0:
118,200,19823,1,8,0:0:0:0:
146,198,19962,1,0,0:0:0:0:
146,198,20032,1,0,0:0:0:0:
130,149,20101,1,8,0:0:0:0:
130,193,20240,1,0,0:0:0:0:
138,187,20379,1,0,0:0:0:0:
93,180,20448,1,0,0:0:0:0:
93,180,20518,1,8,0:0:0:0:
130,149,20657,1,8,0:0:0:0:
130,193,20796,1,0,0:0:0:0:
142,218,20865,1,0,0:0:0:0:
127,198,20935,1,0,0:0:0:0:
127,198,21073,1,0,0:0:0:0:
130,149,21212,1,8,0:0:0:0:
110,226,21490,1,0,0:0:0:0:
110,226,21629,1,8,0:0:0:0:
110,226,21907,1,0,0:0:0:0:
124,202,21976,1,0,0:0:0:0:
110,226,22046,1,0,0:0:0:0:
123,210,22185,1,0,0:0:0:0:
130,149,22323,1,8,0:0:0:0:
110,226,22462,1,0,0:0:0:0:
110,226,22740,1,0,0:0:0:0:
165,207,22810,1,0,0:0:0:0:
130,149,22879,1,8,0:0:0:0:
110,226,23018,1,0,0:0:0:0:
154,232,23087,1,0,0:0:0:0:
110,226,23157,1,0,0:0:0:0:
110,226,23296,1,0,0:0:0:0:
130,149,23435,1,8,0:0:0:0:
110,226,23712,1,0,0:0:0:0:
127,224,23851,1,8,0:0:0:0:
85,228,23921,1,0,0:0:0:0:
130,149,23990,1,0,0:0:0:0:
110,226,24129,1,8,0:0:0:0:
110,226,24268,1,0,0:0:0:0:
139,235,24407,1,0,0:0:0:0:
142,234,24476,1,0,0:0:0:0:
130,149,24546,1,8,0:0:0:0:
110,226,24685,1,0,0:0:0:0:
110,226,24962,1,0,0:0:0:0:
128,234,25032,1,0,0:0:0:0:
130,149,25101,1,8,0:0:0:0:
110,226,25240,1,0,0:0:0:0:
126,231,25379,1,8,0:0:0:0:
105,183,25518,1,0,0:0:0:0:
130,149,25657,1,8,0:0:0:0:
136,234,25935,1,0,0:0:0:0:
136,233,26004,1,0,0:0:0:0:
106,220,26073,1,0,0:0:0:0:
130,149,26212,1,8,0:0:0:0:
127,203,26351,1,0,0:0:0:0:
127,203,26490,1,0,0:0:0:0:
130,149,26768,1,8,0:0:0:0:
127,203,26907,1,0,0:0:0:0:
130,149,27323,1,12,0:0:0:0:
127,203,27462,1,0,0:0:0:0:
127,203,27601,1,0,0:0:0:0:
127,203,27879,1,8,0:0:0:0:
127,203,28018,1,0,0:0:0:0:
163,166,28296,1,8,0:0:0:0:
124,195,28365,1,8,0:0:0:0:
157,175,28435,1,8,0:0:0:0:
146,203,28573,1,0,0:0:0:0:
131,151,28712,1,0,0:0:0:0:
146,203,28851,1,0,0:0:0:0:
160,189,28990,1,8,0:0:0:0:
160,189,29129,1,0,0:0:0:0:
160,189,29407,1,0,0:0:0:0:
146,203,29476,1,0,0:0:0:0:
157,175,29546,1,8,0:0:0:0:
160,189,29685,1,0,0:0:0:0:
160,189,29823,1,0,0:0:0:0:
160,189,30101,1,8,0:0:0:0:
160,189,30240,1,0,0:0:0:0:
160,189,30518,1,8,0:0:0:0:
160,189,30657,1,0,0:0:0:0:
163,179,30796,1,0,0:0:0:0:
139,194,30865,1,0,0:0:0:0:
160,189,30935,1,0,0:0:0:0:
160,189,31073,1,0,0:0:0:0:
157,175,31212,1,8,0:0:0:0:
163,179,31351,1,0,0:0:0:0:
44,192,31421,1,0,0:0:0:0:
163,179,31490,1,0,0:0:0:0:
163,179,31629,1,0,0:0:0:0:
157,175,31768,1,8,0:0:0:0:
163,179,31907,1,0,0:0:0:0:
163,179,32046,1,0,0:0:0:0:
163,179,32323,1,8,0:0:0:0:
163,179,32462,1,0,0:0:0:0:
132,193,32740,1,8,0:0:0:0:
163,179,32879,1,8,0:0:0:0:
163,179,33018,1,0,0:0:0:0:
132,193,33087,1,0,0:0:0:0:
163,179,33157,1,0,0:0:0:0:
163,179,33296,1,0,0:0:0:0:
157,175,33435,1,8,0:0:0:0:
132,193,33573,1,0,0:0:0:0:
132,193,33851,1,8,0:0:0:0:
132,193,33990,1,0,0:0:0:0:
155,165,34129,1,0,0:0:0:0:
155,165,34268,1,0,0:0:0:0:
153,189,34546,1,8,0:0:0:0:
154,189,34684,1,0,0:0:0:0:
154,189,34962,1,8,0:0:0:0:
154,189,35101,1,0,0:0:0:0:
154,189,35240,1,0,0:0:0:0:
153,189,35309,1,0,0:0:0:0:
155,165,35379,1,0,0:0:0:0:
153,189,35518,1,0,0:0:0:0:
157,178,35657,1,8,0:0:0:0:
159,196,35796,1,0,0:0:0:0:
137,156,36073,1,12,0:0:0:0:
152,157,36351,1,8,0:0:0:0:
152,156,36490,1,0,0:0:0:0:
78,193,36559,1,0,0:0:0:0:
152,156,36629,1,0,0:0:0:0:
152,156,36768,1,8,0:0:0:0:
147,149,36907,1,0,0:0:0:0:
152,156,37046,1,0,0:0:0:0:
147,149,37185,1,8,0:0:0:0:
152,156,37462,1,8,0:0:0:0:
96,166,37532,1,8,0:0:0:0:
96,166,37601,1,0,0:0:0:0:
147,149,37740,1,0,0:0:0:0:
147,149,37879,1,8,0:0:0:0:
147,149,38018,1,0,0:0:0:0:
147,149,38157,1,8,0:0:0:0:
147,149,38296,1,0,0:0:0:0:
147,149,38573,1,0,0:0:0:0:
147,149,38712,1,0,0:0:0:0:
140,202,38782,1,0,0:0:0:0:
147,149,38851,1,0,0:0:0:0:
140,202,38990,1,8,0:0:0:0:
147,149,39129,1,0,0:0:0:0:
157,184,39268,1,8,0:0:0:0:
147,149,39407,1,0,0:0:0:0:
157,184,39476,1,0,0:0:0:0:
157,175,39546,1,8,0:0:0:0:
147,149,39685,1,0,0:0:0:0:
147,149,39823,1,0,0:0:0:0:
157,184,39893,1,0,0:0:0:0:
147,149,39962,1,0,0:0:0:0:
157,184,40101,1,8,0:0:0:0:
147,149,40240,1,0,0:0:0:0:
157,184,40309,1,0,0:0:0:0:
157,184,40379,1,0,0:0:0:0:
147,149,40518,1,12,0:0:0:0:
147,149,40796,1,8,0:0:0:0:
147,149,40935,1,0,0:0:0:0:
147,149,41073,1,0,0:0:0:0:
105,173,41143,1,0,0:0:0:0:
147,149,41212,1,8,0:0:0:0:
147,149,41351,1,0,0:0:0:0:
147,149,41490,1,8,0:0:0:0:
144,183,41559,1,8,0:0:0:0:
147,149,41629,1,0,0:0:0:0:
86,182,41768,1,8,0:0:0:0:
147,149,41907,1,0,0:0:0:0:
142,190,41976,1,0,0:0:0:0:
147,149,42046,1,8,0:0:0:0:
147,149,42185,1,0,0:0:0:0:
141,192,42323,1,8,0:0:0:0:
147,149,42462,1,0,0:0:0:0:
59,172,42532,1,0,0:0:0:0:
142,190,42601,1,8,0:0:0:0:
142,190,42740,1,8,0:0:0:0:
135,143,42809,1,8,0:0:0:0:
138,200,42879,1,8,0:0:0:0:
147,149,43018,1,8,0:0:0:0:
69,184,43087,1,8,0:0:0:0:
146,196,43157,1,0,0:0:0:0:
147,149,43296,1,0,0:0:0:0:
65,178,43365,1,0,0:0:0:0:
147,149,43435,1,8,0:0:0:0:
64,177,43573,1,0,0:0:0:0:
139,209,43712,1,8,0:0:0:0:
139,210,43851,1,0,0:0:0:0:
139,210,43921,1,0,0:0:0:0:
157,175,43990,1,0,0:0:0:0:
99,206,44129,1,8,0:0:0:0:
98,205,44198,1,8,0:0:0:0:
78,194,44268,1,0,0:0:0:0:
99,206,44407,1,8,0:0:0:0:
147,149,44546,1,8,0:0:0:0:
99,206,44615,1,8,0:0:0:0:
147,149,44685,1,8,0:0:0:0:
99,206,44823,1,0,0:0:0:0:
157,175,44962,1,0,0:0:0:0:
150,158,45934,1,0,0:0:0:0:
146,229,45981,1,0,0:0:0:0:
150,158,46027,1,0,0:0:0:0:
150,158,46073,1,8,0:0:0:0:
164,179,46351,1,0,0:0:0:0:
164,179,46490,1,8,0:0:0:0:
164,179,46629,1,8,0:0:0:0:
164,179,46768,1,8,0:0:0:0:
78,197,46837,1,8,0:0:0:0:
78,197,46907,1,0,0:0:0:0:
188,198,47046,1,0,0:0:0:0:
75,183,47184,1,8,0:0:0:0:
125,165,47323,2,8,L|198:164,1,70
137,207,47601,1,8,0:0:0:0:
137,207,47671,1,8,0:0:0:0:
137,207,47740,1,8,0:0:0:0:
150,158,47879,1,0,0:0:0:0:
150,158,48018,1,8,0:0:0:0:
74,194,48087,1,8,0:0:0:0:
156,199,48157,1,0,0:0:0:0:
170,213,48296,1,8,0:0:0:0:
170,213,48342,1,8,0:0:0:0:
54,184,48388,1,8,0:0:0:0:
54,184,48434,1,8,0:0:0:0:
128,159,48573,1,8,0:0:0:0:
130,168,48712,1,0,0:0:0:0:
130,168,48782,1,0,0:0:0:0:
130,168,48851,1,8,0:0:0:0:
128,181,48990,1,8,0:0:0:0:
56,167,49129,1,8,0:0:0:0:
92,187,49268,1,8,0:0:0:0:
153,191,49546,1,8,0:0:0:0:
153,191,49684,1,8,0:0:0:0:
128,181,49962,1,8,0:0:0:0:
123,183,50101,1,8,0:0:0:0:
121,188,50379,1,8,0:0:0:0:
145,178,50657,1,4,0:0:0:0:
145,178,50935,1,4,0:0:0:0:
145,178,51073,1,4,0:0:0:0:
145,178,51351,1,12,0:0:0:0:
145,178,51490,1,4,0:0:0:0:
145,178,51629,1,4,0:0:0:0:
145,178,51768,1,12,0:0:0:0:
145,178,52046,1,12,0:0:0:0:
145,178,52185,1,4,0:0:0:0:
145,178,52462,1,0,0:0:0:0:
157,180,52601,1,0,0:0:0:0:
138,139,52671,1,0,0:0:0:0:
145,178,52740,1,0,0:0:0:0:
157,180,52879,1,4,0:0:0:0:
157,180,53157,1,4,0:0:0:0:
157,180,53296,1,4,0:0:0:0:
157,180,53573,1,12,0:0:0:0:
157,180,53712,1,4,0:0:0:0:
157,180,53851,1,12,0:0:0:0:
157,180,53990,1,12,0:0:0:0:
157,180,54268,1,4,0:0:0:0:
157,180,54407,1,4,0:0:0:0:
157,180,54685,1,0,0:0:0:0:
157,180,54823,1,0,0:0:0:0:
147,163,54893,1,0,0:0:0:0:
147,165,54962,1,0,0:0:0:0:
160,166,55101,1,4,0:0:0:0:
30,181,55240,1,12,0:0:0:0:
157,180,55379,1,4,0:0:0:0:
157,180,55518,1,12,0:0:0:0:
157,180,55796,1,12,0:0:0:0:
157,178,55935,1,4,0:0:0:0:
157,178,56073,1,12,0:0:0:0:
157,180,56212,1,4,0:0:0:0:
157,180,56490,1,4,0:0:0:0:
157,180,56629,1,4,0:0:0:0:
146,167,56907,1,8,0:0:0:0:
146,167,57046,1,0,0:0:0:0:
146,167,57115,1,0,0:0:0:0:
146,167,57184,1,0,0:0:0:0:
157,180,57323,1,12,0:0:0:0:
146,167,57462,1,0,0:0:0:0:
157,180,57601,1,0,0:0:0:0:
157,180,57740,1,12,0:0:0:0:
146,167,57879,1,0,0:0:0:0:
157,180,58018,1,12,0:0:0:0:
157,180,58157,1,12,0:0:0:0:
157,180,58296,1,12,0:0:0:0:
157,180,58435,1,4,0:0:0:0:
146,167,58573,1,8,0:0:0:0:
157,180,58712,1,8,0:0:0:0:
54,196,58782,1,8,0:0:0:0:
157,180,58851,1,0,0:0:0:0:
122,205,58990,1,8,0:0:0:0:
122,205,59129,1,8,0:0:0:0:
122,205,59268,1,0,0:0:0:0:
54,196,59337,1,0,0:0:0:0:
122,205,59407,1,0,0:0:0:0:
36,176,59546,1,0,0:0:0:0:
39,170,59615,1,8,0:0:0:0:
153,164,59684,1,8,0:0:0:0:
114,151,59823,1,8,0:0:0:0:
153,164,59962,1,0,0:0:0:0:
44,169,60008,1,0,0:0:0:0:
45,170,60055,1,0,0:0:0:0:
46,170,60101,1,8,0:0:0:0:
96,156,60240,1,0,0:0:0:0:
153,164,60379,1,8,0:0:0:0:
153,164,60518,1,8,0:0:0:0:
153,164,60657,1,8,0:0:0:0:
22,174,60726,1,8,0:0:0:0:
22,174,60796,1,0,0:0:0:0:
153,169,60935,1,0,0:0:0:0:
153,164,61073,1,0,0:0:0:0:
45,173,61143,1,0,0:0:0:0:
43,173,61212,1,0,0:0:0:0:
163,158,61351,1,0,0:0:0:0:
111,178,61490,1,0,0:0:0:0:
114,185,61559,1,0,0:0:0:0:
111,178,61629,1,0,0:0:0:0:
114,185,61698,1,0,0:0:0:0:
113,185,61768,1,8,0:0:0:0:
113,185,61907,1,0,0:0:0:0:
113,185,62046,1,8,0:0:0:0:
163,158,62184,1,8,0:0:0:0:
52,204,62254,1,8,0:0:0:0:
163,158,62323,1,8,0:0:0:0:
78,216,62462,1,0,0:0:0:0:
163,158,62601,1,8,0:0:0:0:
56,194,62740,1,8,0:0:0:0:
163,158,62879,1,8,0:0:0:0:
57,195,62948,1,8,0:0:0:0:
57,195,63018,1,0,0:0:0:0:
163,158,63157,1,8,0:0:0:0:
163,158,63296,1,8,0:0:0:0:
148,236,63365,1,8,0:0:0:0:
128,232,63434,1,0,0:0:0:0:
143,158,63573,1,8,0:0:0:0:
126,204,63712,1,0,0:0:0:0:
80,186,63990,1,8,0:0:0:0:
143,158,64129,1,8,0:0:0:0:
134,157,64268,1,0,0:0:0:0:
65,184,64337,1,0,0:0:0:0:
143,158,64407,1,8,0:0:0:0:
143,158,64546,1,8,0:0:0:0:
119,199,64684,1,0,0:0:0:0:
136,217,64754,1,0,0:0:0:0:
125,210,64823,1,8,0:0:0:0:
143,186,64962,1,0,0:0:0:0:
136,157,65101,1,8,0:0:0:0:
134,198,65240,1,0,0:0:0:0:
134,198,65309,1,0,0:0:0:0:
136,157,65379,1,0,0:0:0:0:
134,157,65518,1,8,0:0:0:0:
125,193,65657,1,0,0:0:0:0:
125,193,65726,1,0,0:0:0:0:
112,190,65796,1,0,0:0:0:0:
112,190,65935,1,0,0:0:0:0:
127,191,66212,1,8,0:0:0:0:
111,184,66282,1,8,0:0:0:0:
61,160,66351,1,0,0:0:0:0:
73,226,66421,1,0,0:0:0:0:
127,191,66490,1,8,0:0:0:0:
127,191,66629,1,0,0:0:0:0:
61,160,66768,1,8,0:0:0:0:
61,160,66907,1,8,0:0:0:0:
61,160,66976,1,0,0:0:0:0:
129,182,67046,1,8,0:0:0:0:
129,182,67185,1,8,0:0:0:0:
129,182,67323,1,8,0:0:0:0:
61,160,67393,1,8,0:0:0:0:
68,182,67462,1,0,0:0:0:0:
129,182,67601,1,8,0:0:0:0:
129,182,67740,1,8,0:0:0:0:
111,191,67809,1,8,0:0:0:0:
129,169,67879,1,0,0:0:0:0:
130,169,68018,1,0,0:0:0:0:
119,197,68157,1,12,0:0:0:0:
256,192,68435,8,0,77046,0:0:0:0:
92,195,77323,5,8,0:0:0:0:
133,201,77462,5,0,0:0:0:0:
139,207,77601,1,0,0:0:0:0:
103,196,77879,1,8,0:0:0:0:
137,175,78018,1,0,0:0:0:0:
103,195,78296,1,8,0:0:0:0:
137,197,78435,1,0,0:0:0:0:
103,196,78712,1,8,0:0:0:0:
150,205,78851,1,0,0:0:0:0:
150,205,79129,1,0,0:0:0:0:
158,222,79268,1,0,0:0:0:0:
103,196,79546,1,0,0:0:0:0:
103,196,79685,1,0,0:0:0:0:
103,196,79823,1,0,0:0:0:0:
103,196,80101,1,0,0:0:0:0:
103,196,80240,1,0,0:0:0:0:
103,196,80518,1,0,0:0:0:0:
103,196,80657,1,0,0:0:0:0:
103,196,80935,1,0,0:0:0:0:
103,196,81073,1,0,0:0:0:0:
103,196,81351,1,0,0:0:0:0:
103,196,81490,1,0,0:0:0:0:
103,196,81768,1,0,0:0:0:0:
103,196,81907,1,8,0:0:0:0:
103,196,82046,1,8,0:0:0:0:
158,191,82184,1,0,0:0:0:0:
103,196,82323,1,0,0:0:0:0:
135,181,82393,1,0,0:0:0:0:
103,196,82462,1,8,0:0:0:0:
126,211,82601,1,8,0:0:0:0:
103,196,82740,1,0,0:0:0:0:
103,196,82879,1,8,0:0:0:0:
109,195,83018,1,0,0:0:0:0:
89,204,83157,1,8,0:0:0:0:
106,201,83226,1,8,0:0:0:0:
103,196,83296,1,8,0:0:0:0:
132,195,83434,1,8,0:0:0:0:
103,196,83504,1,8,0:0:0:0:
28,186,83573,1,0,0:0:0:0:
28,186,83712,1,8,0:0:0:0:
113,206,83851,1,0,0:0:0:0:
28,186,83921,1,0,0:0:0:0:
89,207,83990,1,8,0:0:0:0:
89,207,84129,1,8,0:0:0:0:
89,207,84268,1,0,0:0:0:0:
113,216,84407,1,8,0:0:0:0:
89,207,84546,1,8,0:0:0:0:
92,178,84615,1,8,0:0:0:0:
89,207,84684,1,0,0:0:0:0:
103,196,84823,1,8,0:0:0:0:
85,183,84962,1,8,0:0:0:0:
85,183,85032,1,8,0:0:0:0:
84,184,85101,1,8,0:0:0:0:
84,184,85240,1,8,0:0:0:0:
126,204,85309,1,0,0:0:0:0:
85,183,85379,1,8,0:0:0:0:
127,204,85518,1,8,0:0:0:0:
85,186,85657,1,8,0:0:0:0:
85,186,85726,1,8,0:0:0:0:
85,186,85796,1,8,0:0:0:0:
84,184,85934,1,8,0:0:0:0:
140,230,86073,1,0,0:0:0:0:
103,196,86212,1,0,0:0:0:0:
172,142,86258,1,0,0:0:0:0:
172,142,86305,1,0,0:0:0:0:
79,208,86351,1,0,0:0:0:0:
103,196,86490,1,8,0:0:0:0:
112,196,86629,1,0,0:0:0:0:
112,199,86768,1,0,0:0:0:0:
112,199,86837,1,0,0:0:0:0:
103,196,86907,1,8,0:0:0:0:
112,199,87046,1,0,0:0:0:0:
103,196,87185,1,8,0:0:0:0:
103,196,87323,1,0,0:0:0:0:
116,190,87393,1,0,0:0:0:0:
110,192,87462,1,0,0:0:0:0:
104,202,87601,1,0,0:0:0:0:
104,202,87740,1,8,0:0:0:0:
112,199,87809,1,8,0:0:0:0:
104,202,87879,1,0,0:0:0:0:
112,199,88018,1,8,0:0:0:0:
112,201,88157,1,8,0:0:0:0:
112,201,88296,1,0,0:0:0:0:
104,202,88435,1,0,0:0:0:0:
167,163,88481,1,0,0:0:0:0:
167,163,88527,1,0,0:0:0:0:
104,202,88573,1,0,0:0:0:0:
112,201,88712,1,8,0:0:0:0:
98,167,88851,1,0,0:0:0:0:
98,167,88921,1,0,0:0:0:0:
104,202,88990,1,0,0:0:0:0:
104,202,89129,1,8,0:0:0:0:
49,184,89268,1,0,0:0:0:0:
57,187,89337,1,0,0:0:0:0:
57,187,89407,1,8,0:0:0:0:
104,202,89546,1,8,0:0:0:0:
84,190,89684,1,0,0:0:0:0:
107,144,89754,1,0,0:0:0:0:
104,202,89823,1,0,0:0:0:0:
104,202,89962,1,8,0:0:0:0:
117,154,90101,1,0,0:0:0:0:
89,174,90171,1,0,0:0:0:0:
104,202,90240,1,8,0:0:0:0:
104,202,90379,1,8,0:0:0:0:
103,196,90656,1,0,0:0:0:0:
172,142,90702,1,0,0:0:0:0:
172,142,90749,1,0,0:0:0:0:
79,208,90795,1,0,0:0:0:0:
103,196,90934,1,8,0:0:0:0:
112,196,91073,1,0,0:0:0:0:
112,199,91212,1,0,0:0:0:0:
112,199,91281,1,0,0:0:0:0:
103,196,91351,1,8,0:0:0:0:
112,199,91490,1,0,0:0:0:0:
103,196,91629,1,8,0:0:0:0:
103,196,91767,1,8,0:0:0:0:
116,190,91837,1,8,0:0:0:0:
110,192,91906,1,0,0:0:0:0:
104,202,92045,1,0,0:0:0:0:
104,202,92184,1,8,0:0:0:0:
112,199,92254,1,8,0:0:0:0:
104,202,92323,1,0,0:0:0:0:
84,141,92462,1,0,0:0:0:0:
184,134,92601,1,8,0:0:0:0:
52,167,92740,1,0,0:0:0:0:
158,166,92879,1,0,0:0:0:0:
158,166,92925,1,0,0:0:0:0:
154,169,92971,1,0,0:0:0:0:
104,202,93018,1,0,0:0:0:0:
184,134,93157,1,8,0:0:0:0:
184,134,93296,1,0,0:0:0:0:
184,134,93365,1,0,0:0:0:0:
164,223,93434,1,8,0:0:0:0:
104,202,93573,1,0,0:0:0:0:
159,135,93712,1,8,0:0:0:0:
104,202,93851,1,0,0:0:0:0:
104,202,93990,1,8,0:0:0:0:
125,208,94059,1,8,0:0:0:0:
96,183,94129,1,0,0:0:0:0:
99,184,94268,1,8,0:0:0:0:
104,202,94407,1,8,0:0:0:0:
97,184,94476,1,8,0:0:0:0:
99,184,94546,1,8,0:0:0:0:
104,202,94685,1,0,0:0:0:0:
104,202,94823,1,8,0:0:0:0:
104,202,95101,1,0,0:0:0:0:
104,202,95240,1,8,0:0:0:0:
104,202,95379,1,8,0:0:0:0:
127,152,95657,1,0,0:0:0:0:
37,155,95796,1,8,0:0:0:0:
37,155,95865,1,0,0:0:0:0:
127,152,95934,1,8,0:0:0:0:
125,158,96212,1,0,0:0:0:0:
154,169,96258,1,0,0:0:0:0:
154,169,96305,1,0,0:0:0:0:
154,169,96351,1,0,0:0:0:0:
127,152,96490,1,8,0:0:0:0:
72,186,96629,1,0,0:0:0:0:
130,148,96768,1,0,0:0:0:0:
72,186,96837,1,0,0:0:0:0:
72,186,96907,1,8,0:0:0:0:
106,212,97046,1,0,0:0:0:0:
130,148,97185,1,8,0:0:0:0:
44,174,97323,1,8,0:0:0:0:
44,174,97393,1,0,0:0:0:0:
44,174,97462,1,0,0:0:0:0:
130,148,97601,1,8,0:0:0:0:
44,174,97740,1,8,0:0:0:0:
44,174,97809,1,8,0:0:0:0:
44,174,97879,1,0,0:0:0:0:
130,148,98018,1,0,0:0:0:0:
130,148,98157,1,8,0:0:0:0:
51,211,98226,1,8,0:0:0:0:
149,209,98296,1,0,0:0:0:0:
130,148,98435,1,0,0:0:0:0:
154,169,98481,1,0,0:0:0:0:
154,169,98527,1,0,0:0:0:0:
130,148,98573,1,0,0:0:0:0:
171,189,98712,1,8,0:0:0:0:
164,192,98851,1,0,0:0:0:0:
164,192,98921,1,0,0:0:0:0:
164,192,98990,1,8,0:0:0:0:
130,148,99129,1,8,0:0:0:0:
164,192,99268,1,0,0:0:0:0:
69,213,99407,1,8,0:0:0:0:
130,148,99546,1,8,0:0:0:0:
73,214,99615,1,8,0:0:0:0:
73,214,99684,1,0,0:0:0:0:
130,148,99823,1,8,0:0:0:0:
73,214,99962,1,0,0:0:0:0:
73,214,100032,1,0,0:0:0:0:
73,216,100101,1,8,0:0:0:0:
130,148,100240,1,8,0:0:0:0:
73,216,100379,1,8,0:0:0:0:
74,196,100448,1,8,0:0:0:0:
73,214,100518,1,0,0:0:0:0:
130,148,100657,1,0,0:0:0:0:
154,169,100703,1,0,0:0:0:0:
154,169,100749,1,0,0:0:0:0:
130,148,100796,1,0,0:0:0:0:
130,148,100935,1,8,0:0:0:0:
116,206,101073,1,0,0:0:0:0:
116,206,101143,1,0,0:0:0:0:
116,206,101212,1,8,0:0:0:0:
116,206,101351,1,8,0:0:0:0:
123,197,101490,1,0,0:0:0:0:
123,197,101629,1,8,0:0:0:0:
123,197,101698,1,0,0:0:0:0:
123,197,101768,1,8,0:0:0:0:
123,197,101907,1,0,0:0:0:0:
130,148,102046,1,0,0:0:0:0:
122,198,102115,1,0,0:0:0:0:
122,198,102184,1,8,0:0:0:0:
130,148,102323,1,0,0:0:0:0:
86,195,102462,1,8,0:0:0:0:
120,157,102532,1,0,0:0:0:0:
120,157,102601,1,8,0:0:0:0:
103,212,102740,1,0,0:0:0:0:
154,169,102879,1,0,0:0:0:0:
154,169,102925,1,0,0:0:0:0:
154,169,102971,1,0,0:0:0:0:
154,169,103018,1,0,0:0:0:0:
156,214,103157,1,8,0:0:0:0:
148,212,103296,1,0,0:0:0:0:
45,184,103365,1,0,0:0:0:0:
148,195,103434,1,8,0:0:0:0:
130,148,103573,1,8,0:0:0:0:
104,199,103643,1,8,0:0:0:0:
104,199,103712,1,0,0:0:0:0:
130,148,103851,1,0,0:0:0:0:
124,204,103990,1,8,0:0:0:0:
124,204,104059,1,0,0:0:0:0:
124,204,104129,1,8,0:0:0:0:
130,148,104268,1,0,0:0:0:0:
130,148,104407,1,0,0:0:0:0:
124,204,104476,1,0,0:0:0:0:
124,204,104546,1,8,0:0:0:0:
130,148,104685,1,0,0:0:0:0:
124,204,104823,1,12,0:0:0:0:
130,148,105101,1,0,0:0:0:0:
143,187,105240,1,0,0:0:0:0:
124,219,105379,1,8,0:0:0:0:
114,226,105518,1,8,0:0:0:0:
126,229,105657,1,8,0:0:0:0:
126,229,106073,1,8,0:0:0:0:
126,229,106490,1,8,0:0:0:0:
108,214,106768,1,0,0:0:0:0:
145,154,107185,1,8,0:0:0:0:
131,189,107462,1,8,0:0:0:0:
131,189,107601,1,0,0:0:0:0:
131,189,107740,1,0,0:0:0:0:
131,189,107879,1,8,0:0:0:0:
131,189,108157,1,0,0:0:0:0:
131,189,108296,1,8,0:0:0:0:
131,189,108573,1,8,0:0:0:0:
132,219,108712,1,0,0:0:0:0:
131,189,108851,1,0,0:0:0:0:
144,216,108921,1,0,0:0:0:0:
46,186,108990,1,8,0:0:0:0:
46,186,109059,1,0,0:0:0:0:
131,189,109129,1,8,0:0:0:0:
141,156,109407,1,4,0:0:0:0:
141,156,109685,1,4,0:0:0:0:
141,156,109823,1,4,0:0:0:0:
141,156,110101,1,8,0:0:0:0:
141,156,110240,1,0,0:0:0:0:
126,189,110379,1,0,0:0:0:0:
141,156,110518,1,8,0:0:0:0:
90,198,110796,1,0,0:0:0:0:
70,199,110830,1,0,0:0:0:0:
16,183,110934,1,0,0:0:0:0:
72,200,110969,1,0,0:0:0:0:
86,196,111073,1,0,0:0:0:0:
72,200,111108,1,0,0:0:0:0:
163,231,111212,1,8,0:0:0:0:
41,186,111282,1,8,0:0:0:0:
43,185,111351,1,0,0:0:0:0:
111,199,111629,1,8,0:0:0:0:
72,200,111664,1,8,0:0:0:0:
111,199,111768,1,0,0:0:0:0:
72,200,111802,1,0,0:0:0:0:
111,199,111907,1,0,0:0:0:0:
72,200,111941,1,0,0:0:0:0:
111,199,112046,1,8,0:0:0:0:
72,200,112080,1,8,0:0:0:0:
121,198,112323,1,8,0:0:0:0:
41,191,112462,1,0,0:0:0:0:
46,196,112601,1,0,0:0:0:0:
46,196,112671,1,0,0:0:0:0:
46,196,112740,1,8,0:0:0:0:
46,196,112879,1,0,0:0:0:0:
110,215,113018,1,0,0:0:0:0:
72,200,113052,1,0,0:0:0:0:
110,215,113157,1,0,0:0:0:0:
72,200,113191,1,0,0:0:0:0:
110,215,113296,1,0,0:0:0:0:
72,200,113330,1,0,0:0:0:0:
30,183,113434,1,8,0:0:0:0:
93,199,113469,1,8,0:0:0:0:
126,176,113573,1,0,0:0:0:0:
30,183,113851,1,0,0:0:0:0:
72,200,113886,1,0,0:0:0:0:
30,183,113990,1,0,0:0:0:0:
72,200,114025,1,0,0:0:0:0:
72,200,114129,1,0,0:0:0:0:
72,200,114164,1,0,0:0:0:0:
30,183,114268,1,0,0:0:0:0:
72,200,114302,1,0,0:0:0:0:
89,204,114546,1,8,0:0:0:0:
98,216,114684,1,0,0:0:0:0:
72,213,114823,1,0,0:0:0:0:
79,215,114893,1,0,0:0:0:0:
89,204,114962,1,8,0:0:0:0:
89,222,115101,1,0,0:0:0:0:
30,183,115240,1,8,0:0:0:0:
72,200,115275,1,8,0:0:0:0:
72,200,115379,1,0,0:0:0:0:
72,200,115414,1,0,0:0:0:0:
133,154,115518,1,0,0:0:0:0:
72,200,115552,1,0,0:0:0:0:
30,183,115657,1,8,0:0:0:0:
72,200,115691,1,8,0:0:0:0:
80,207,115796,1,0,0:0:0:0:
89,211,116073,1,12,0:0:0:0:
132,237,117601,1,8,0:0:0:0:
132,237,117879,1,8,0:0:0:0:
142,224,118296,1,12,0:0:0:0:
162,221,118573,1,8,0:0:0:0:
51,182,118712,1,0,0:0:0:0:
51,182,118851,1,0,0:0:0:0:
51,182,118921,1,0,0:0:0:0:
174,238,118990,1,8,0:0:0:0:
174,238,119129,1,12,0:0:0:0:
174,238,119268,1,12,0:0:0:0:
174,238,119407,1,12,0:0:0:0:
179,218,119546,1,0,0:0:0:0:
136,177,119684,1,8,0:0:0:0:
148,212,119823,1,0,0:0:0:0:
148,212,119893,1,0,0:0:0:0:
148,212,119962,1,8,0:0:0:0:
174,238,120101,1,12,0:0:0:0:
174,238,120240,1,4,0:0:0:0:
174,238,120379,1,12,0:0:0:0:
174,238,120518,1,12,0:0:0:0:
148,212,120657,1,0,0:0:0:0:
148,212,120796,1,8,0:0:0:0:
148,212,120934,1,0,0:0:0:0:
148,212,121004,1,0,0:0:0:0:
41,163,121073,1,8,0:0:0:0:
85,128,121212,1,12,0:0:0:0:
85,128,121351,1,12,0:0:0:0:
97,175,121490,1,4,0:0:0:0:
91,170,121629,1,12,0:0:0:0:
99,183,121768,1,0,0:0:0:0:
98,184,121907,1,0,0:0:0:0:
99,183,121976,1,0,0:0:0:0:
95,185,122046,1,8,0:0:0:0:
42,184,122184,1,0,0:0:0:0:
143,199,122254,1,0,0:0:0:0:
75,204,122323,1,0,0:0:0:0:
97,175,122462,1,12,0:0:0:0:
97,177,122601,1,4,0:0:0:0:
97,177,122740,1,12,0:0:0:0:
101,202,122879,1,0,0:0:0:0:
104,196,123018,1,8,0:0:0:0:
103,195,123087,1,8,0:0:0:0:
143,199,123157,1,0,0:0:0:0:
150,180,123296,1,0,0:0:0:0:
150,180,123434,1,12,0:0:0:0:
151,187,123573,1,12,0:0:0:0:
147,191,123712,1,4,0:0:0:0:
165,161,123851,1,12,0:0:0:0:
152,214,123990,1,0,0:0:0:0:
152,214,124129,1,8,0:0:0:0:
152,214,124198,1,0,0:0:0:0:
152,214,124268,1,0,0:0:0:0:
152,214,124407,1,0,0:0:0:0:
152,214,124546,1,8,0:0:0:0:
72,167,124684,1,0,0:0:0:0:
66,159,124754,1,0,0:0:0:0:
72,167,124823,1,0,0:0:0:0:
72,167,124962,1,8,0:0:0:0:
72,167,125101,1,0,0:0:0:0:
88,184,125240,1,8,0:0:0:0:
88,184,125309,1,8,0:0:0:0:
88,184,125379,1,0,0:0:0:0:
93,177,125518,1,0,0:0:0:0:
105,187,125657,1,8,0:0:0:0:
96,201,125796,1,8,0:0:0:0:
96,201,125865,1,8,0:0:0:0:
96,201,125934,1,8,0:0:0:0:
94,202,126073,1,8,0:0:0:0:
87,198,126212,1,0,0:0:0:0:
87,199,126351,1,8,0:0:0:0:
87,199,126421,1,8,0:0:0:0:
69,181,126490,1,0,0:0:0:0:
115,182,126629,1,0,0:0:0:0:
115,182,126768,1,0,0:0:0:0:
115,182,126837,1,0,0:0:0:0:
115,182,126907,1,8,0:0:0:0:
115,182,127046,1,0,0:0:0:0:
256,192,127184,12,0,136073,0:0:0:0:
49,233,136212,6,0,L|472:234,1,420
29,217,138434,2,0,L|176:216,1,140
145,235,138851,1,0,0:0:0:0:
102,161,140518,2,0,L|321:162,1,210
86,245,141073,1,0,0:0:0:0:
71,213,142879,2,0,L|228:212,1,140
80,157,143296,1,0,0:0:0:0:
256,192,144129,12,0,144823,0:0:0:0:
113,267,144962,5,0,0:0:0:0:
109,210,147184,1,0,0:0:0:0:
109,210,147740,1,0,0:0:0:0:
99,222,149546,1,0,0:0:0:0:
123,219,151767,1,0,0:0:0:0:
254,249,152184,1,0,0:0:0:0:
167,246,152740,1,8,0:0:0:0:
63,197,152879,2,0,L|298:204,1,210
127,178,153573,1,8,0:0:0:0:
192,194,153712,2,0,L|275:193,1,70
127,178,153990,1,8,0:0:0:0:
151,191,154129,1,0,0:0:0:0:
118,212,154268,1,0,0:0:0:0:
151,232,154407,1,8,0:0:0:0:
151,232,154546,1,0,0:0:0:0:
151,232,154823,1,8,0:0:0:0:
151,232,154962,1,0,0:0:0:0:
151,232,155240,1,0,0:0:0:0:
151,232,155379,1,0,0:0:0:0:
151,232,155657,1,0,0:0:0:0:
130,235,155934,1,0,0:0:0:0:
130,235,156212,1,8,0:0:0:0:
130,235,156351,1,8,0:0:0:0:
130,235,156490,1,0,0:0:0:0:
130,235,156629,1,0,0:0:0:0:
130,235,156768,1,0,0:0:0:0:
130,235,157046,1,0,0:0:0:0:
130,235,157184,1,0,0:0:0:0:
130,235,157462,1,0,0:0:0:0:
130,235,157601,1,8,0:0:0:0:
130,235,157879,1,8,0:0:0:0:
130,235,158157,1,0,0:0:0:0:
130,235,158434,1,8,0:0:0:0:
130,235,158573,1,0,0:0:0:0:
130,235,158712,1,0,0:0:0:0:
130,235,158851,1,8,0:0:0:0:
130,235,158990,1,0,0:0:0:0:
131,229,159268,1,0,0:0:0:0:
131,229,159407,1,0,0:0:0:0:
131,228,159684,1,0,0:0:0:0:
131,227,159823,1,0,0:0:0:0:
131,229,160101,1,0,0:0:0:0:
131,229,160379,1,0,0:0:0:0:
131,228,160657,1,8,0:0:0:0:
131,227,160796,1,8,0:0:0:0:
131,229,160934,1,0,0:0:0:0:
132,223,161073,1,8,0:0:0:0:
132,222,161212,1,0,0:0:0:0:
133,218,161490,1,0,0:0:0:0:
109,223,161629,1,8,0:0:0:0:
133,218,161907,1,0,0:0:0:0:
133,218,162046,1,8,0:0:0:0:
132,222,162323,1,8,0:0:0:0:
51,209,162462,2,0,L|151:210,1,70
133,218,162740,1,0,0:0:0:0:
133,218,162879,1,8,0:0:0:0:
132,222,163018,1,8,0:0:0:0:
134,178,163087,1,8,0:0:0:0:
132,222,163157,1,0,0:0:0:0:
134,213,163296,1,0,0:0:0:0:
134,210,163434,1,0,0:0:0:0:
136,206,163573,1,0,0:0:0:0:
137,203,163712,1,0,0:0:0:0:
140,197,163851,1,0,0:0:0:0:
141,195,164129,1,8,0:0:0:0:
141,195,164268,1,0,0:0:0:0:
141,195,164546,1,8,0:0:0:0:
140,197,164823,1,0,0:0:0:0:
141,195,165101,1,8,0:0:0:0:
141,195,165240,1,8,0:0:0:0:
141,195,165379,1,0,0:0:0:0:
141,188,165518,1,0,0:0:0:0:
142,185,165657,1,8,0:0:0:0:
144,182,165796,1,0,0:0:0:0:
146,178,165934,1,8,0:0:0:0:
84,213,166073,1,0,0:0:0:0:
148,170,166351,1,8,0:0:0:0:
147,173,166490,1,0,0:0:0:0:
148,170,166768,1,8,0:0:0:0:
148,170,167046,1,0,0:0:0:0:
59,181,167323,1,8,0:0:0:0:
59,181,167462,1,8,0:0:0:0:
59,181,167601,1,0,0:0:0:0:
59,181,167740,1,8,0:0:0:0:
59,181,167879,1,0,0:0:0:0:
59,181,168018,1,8,0:0:0:0:
59,181,168157,1,0,0:0:0:0:
59,181,168296,1,0,0:0:0:0:
59,181,168573,1,8,0:0:0:0:
59,181,168712,1,0,0:0:0:0:
59,181,168990,1,8,0:0:0:0:
59,181,169268,1,0,0:0:0:0:
59,181,169546,1,8,0:0:0:0:
59,181,169684,1,8,0:0:0:0:
59,181,169823,1,0,0:0:0:0:
59,181,169962,1,8,0:0:0:0:
59,181,170101,1,8,0:0:0:0:
59,181,170240,1,8,0:0:0:0:
59,181,170379,1,0,0:0:0:0:
59,181,170518,1,0,0:0:0:0:
59,181,170796,1,8,0:0:0:0:
59,181,170934,1,0,0:0:0:0:
59,181,171212,1,8,0:0:0:0:
59,181,171490,1,8,0:0:0:0:
59,181,171768,1,0,0:0:0:0:
69,167,171907,1,0,0:0:0:0:
59,181,172046,1,0,0:0:0:0:
59,181,172323,1,0,0:0:0:0:
73,169,172462,1,0,0:0:0:0:
59,181,172740,1,0,0:0:0:0:
59,181,173018,1,0,0:0:0:0:
59,181,173157,1,0,0:0:0:0:
59,181,173434,1,0,0:0:0:0:
59,181,173712,1,0,0:0:0:0:
59,181,173990,1,0,0:0:0:0:
182,167,174129,1,0,0:0:0:0:
59,181,174268,1,0,0:0:0:0:
59,181,174546,1,0,0:0:0:0:
59,181,174684,1,0,0:0:0:0:
59,181,174962,1,0,0:0:0:0:
109,170,175240,1,0,0:0:0:0:
59,181,175379,1,0,0:0:0:0:
59,181,175657,1,0,0:0:0:0:
59,181,175934,1,0,0:0:0:0:
59,181,176212,1,8,0:0:0:0:
59,181,176351,1,0,0:0:0:0:
59,181,176490,1,0,0:0:0:0:
59,181,176768,1,8,0:0:0:0:
59,181,176907,1,0,0:0:0:0:
59,181,177184,1,0,0:0:0:0:
59,181,177462,1,0,0:0:0:0:
59,181,177601,1,8,0:0:0:0:
59,181,177879,1,8,0:0:0:0:
59,181,178157,1,0,0:0:0:0:
59,181,178434,1,8,0:0:0:0:
59,181,178573,1,0,0:0:0:0:
59,181,178712,1,0,0:0:0:0:
59,181,178851,1,0,0:0:0:0:
59,181,178990,1,0,0:0:0:0:
59,181,179268,1,8,0:0:0:0:
59,181,179407,1,0,0:0:0:0:
59,181,179684,1,0,0:0:0:0:
59,181,179823,1,8,0:0:0:0:
59,181,180101,1,8,0:0:0:0:
59,181,180379,1,0,0:0:0:0:
47,219,180657,2,0,L|473:219,1,420
130,258,181629,1,8,0:0:0:0:
103,168,181907,1,0,0:0:0:0:
157,156,181976,1,0,0:0:0:0:
125,153,182046,1,8,0:0:0:0:
130,124,182184,1,0,0:0:0:0:
103,168,182323,1,8,0:0:0:0:
124,172,182462,1,0,0:0:0:0:
54,220,182601,2,0,L|152:215,1,70
103,168,182879,1,8,0:0:0:0:
119,156,183157,1,8,0:0:0:0:
204,122,183296,1,0,0:0:0:0:
119,156,183573,1,0,0:0:0:0:
119,156,183851,1,0,0:0:0:0:
119,156,184129,1,0,0:0:0:0:
119,156,184268,1,0,0:0:0:0:
119,156,184546,1,0,0:0:0:0:
50,164,184823,1,0,0:0:0:0:
3,221,185101,2,0,L|437:215,1,420
140,201,186073,1,8,0:0:0:0:
97,170,186351,1,8,0:0:0:0:
107,169,186421,1,8,0:0:0:0:
60,252,186490,1,0,0:0:0:0:
60,252,186629,1,0,0:0:0:0:
60,252,186768,1,8,0:0:0:0:
60,252,186907,1,0,0:0:0:0:
177,203,187046,1,0,0:0:0:0:
122,160,187323,1,8,0:0:0:0:
122,160,187462,1,0,0:0:0:0:
122,160,187740,1,0,0:0:0:0:
122,160,187879,1,0,0:0:0:0:
122,160,188157,1,0,0:0:0:0:
122,160,188296,1,8,0:0:0:0:
122,160,188573,1,8,0:0:0:0:
122,160,188712,1,0,0:0:0:0:
122,160,188990,1,8,0:0:0:0:
122,160,189268,1,0,0:0:0:0:
65,239,189546,1,8,0:0:0:0:
65,239,189684,1,0,0:0:0:0:
65,239,189823,1,8,0:0:0:0:
65,239,189962,1,8,0:0:0:0:
65,239,190101,1,0,0:0:0:0:
65,239,190240,1,0,0:0:0:0:
65,239,190379,1,8,0:0:0:0:
65,239,190518,1,0,0:0:0:0:
105,189,190657,2,0,L|248:192,1,140
147,225,191073,1,8,0:0:0:0:
147,225,191212,1,0,0:0:0:0:
149,233,191282,1,0,0:0:0:0:
61,200,191351,1,8,0:0:0:0:
59,204,191490,1,8,0:0:0:0:
189,250,191768,1,8,0:0:0:0:
156,209,191907,1,8,0:0:0:0:
156,208,192046,1,8,0:0:0:0:
189,250,192184,1,8,0:0:0:0:
189,250,192323,1,8,0:0:0:0:
189,250,192462,1,8,0:0:0:0:
59,204,192601,1,8,0:0:0:0:
179,232,192740,1,8,0:0:0:0:
189,250,192879,1,8,0:0:0:0:
156,209,193018,1,8,0:0:0:0:
156,208,193157,1,8,0:0:0:0:
189,250,193295,1,8,0:0:0:0:
189,250,193434,1,8,0:0:0:0:
189,250,193573,1,8,0:0:0:0:
146,216,193990,1,8,0:0:0:0:
156,208,194129,1,8,0:0:0:0:
159,210,194268,1,0,0:0:0:0:
159,210,194407,1,0,0:0:0:0:
159,210,194546,1,8,0:0:0:0:
159,210,194684,1,0,0:0:0:0:
159,210,194823,1,8,0:0:0:0:
131,226,194962,2,8,L|273:226,1,140
157,192,195379,1,8,0:0:0:0:
55,170,195518,1,0,0:0:0:0:
55,170,195587,1,0,0:0:0:0:
157,191,195657,1,8,0:0:0:0:
156,191,195796,1,8,0:0:0:0:
166,212,195934,1,8,0:0:0:0:
149,203,196073,1,8,0:0:0:0:
149,203,196212,1,0,0:0:0:0:
149,203,196351,1,0,0:0:0:0:
149,203,196490,1,8,0:0:0:0:
149,203,196629,1,0,0:0:0:0:
149,203,196768,1,0,0:0:0:0:
149,203,196907,1,8,0:0:0:0:
149,203,197046,1,0,0:0:0:0:
149,203,197184,1,8,0:0:0:0:
149,203,197323,1,8,0:0:0:0:
110,171,197462,1,0,0:0:0:0:
110,171,197601,1,8,0:0:0:0:
110,171,197740,1,8,0:0:0:0:
110,171,197879,1,0,0:0:0:0:
110,171,198018,1,8,0:0:0:0:
140,233,198434,1,8,0:0:0:0:
147,195,198573,1,0,0:0:0:0:
147,195,198643,1,0,0:0:0:0:
147,195,198712,1,0,0:0:0:0:
147,195,198851,1,0,0:0:0:0:
140,233,198990,1,8,0:0:0:0:
149,189,199129,1,0,0:0:0:0:
149,189,199268,1,0,0:0:0:0:
70,183,199407,1,8,0:0:0:0:
90,184,199546,1,0,0:0:0:0:
90,183,199684,1,8,0:0:0:0:
152,231,199962,1,8,0:0:0:0:
140,233,200101,1,8,0:0:0:0:
151,211,200240,1,0,0:0:0:0:
151,210,200379,1,0,0:0:0:0:
147,194,200518,1,8,0:0:0:0:
146,194,200657,1,0,0:0:0:0:
150,196,200796,1,0,0:0:0:0:
109,183,201073,1,0,0:0:0:0:
93,191,201143,1,0,0:0:0:0:
140,233,201212,1,8,0:0:0:0:
109,183,201351,1,0,0:0:0:0:
109,183,201490,1,0,0:0:0:0:
140,233,201768,1,8,0:0:0:0:
118,210,202046,1,0,0:0:0:0:
118,210,202184,1,8,0:0:0:0:
118,210,202323,1,0,0:0:0:0:
140,233,202462,1,0,0:0:0:0:
140,233,202879,1,8,0:0:0:0:
84,226,203018,1,8,0:0:0:0:
84,226,203157,1,0,0:0:0:0:
84,226,203296,1,0,0:0:0:0:
140,233,203434,1,8,0:0:0:0:
84,226,203573,1,0,0:0:0:0:
84,226,203712,1,8,0:0:0:0:
82,231,203851,1,0,0:0:0:0:
83,231,203990,1,0,0:0:0:0:
83,231,204129,1,8,0:0:0:0:
107,229,204407,1,0,0:0:0:0:
140,233,204546,1,8,0:0:0:0:
113,238,204684,1,0,0:0:0:0:
113,238,204823,1,0,0:0:0:0:
113,238,204962,1,8,0:0:0:0:
140,233,205101,1,8,0:0:0:0:
115,204,205379,1,8,0:0:0:0:
115,204,205448,1,8,0:0:0:0:
115,204,205518,1,0,0:0:0:0:
140,233,205657,1,8,0:0:0:0:
134,228,205796,1,0,0:0:0:0:
138,224,205934,1,8,0:0:0:0:
138,224,206073,1,0,0:0:0:0:
137,225,206143,1,0,0:0:0:0:
137,225,206212,1,8,0:0:0:0:
133,208,206351,1,0,0:0:0:0:
133,208,206629,1,0,0:0:0:0:
140,233,206768,1,8,0:0:0:0:
140,233,207323,1,12,0:0:0:0:
140,233,207462,1,4,0:0:0:0:
140,233,207740,1,4,0:0:0:0:
140,233,207879,1,12,0:0:0:0:
148,231,208018,1,4,0:0:0:0:
148,231,208157,1,12,0:0:0:0:
148,231,208296,1,12,0:0:0:0:
154,228,208573,1,4,0:0:0:0:
154,228,208712,1,12,0:0:0:0:
154,228,208851,1,12,0:0:0:0:
154,227,208990,1,4,0:0:0:0:
162,222,209129,1,12,0:0:0:0:
157,220,209546,1,12,0:0:0:0:
157,220,209684,1,12,0:0:0:0:
158,219,209962,1,12,0:0:0:0:
162,222,210101,1,12,0:0:0:0:
170,211,210240,1,4,0:0:0:0:
186,200,210379,1,12,0:0:0:0:
196,192,210518,1,12,0:0:0:0:
197,185,210796,1,4,0:0:0:0:
197,185,210934,1,12,0:0:0:0:
197,184,211073,1,4,0:0:0:0:
202,179,211212,1,12,0:0:0:0:
207,173,211351,1,12,0:0:0:0:
44,135,211629,1,4,0:0:0:0:
212,168,211768,1,12,0:0:0:0:
216,157,211907,1,12,0:0:0:0:
225,146,212184,1,4,0:0:0:0:
229,138,212323,1,12,0:0:0:0:
236,129,212462,1,12,0:0:0:0:
237,128,212601,1,4,0:0:0:0:
237,127,212740,1,12,0:0:0:0:
237,127,213018,1,4,0:0:0:0:
239,122,213157,1,12,0:0:0:0:
241,120,213296,1,4,0:0:0:0:
241,119,213434,1,12,0:0:0:0:
241,119,213573,1,12,0:0:0:0:
241,119,213990,1,12,0:0:0:0:
243,116,214129,1,12,0:0:0:0:
247,110,214407,1,4,0:0:0:0:
249,108,214546,1,12,0:0:0:0:
249,108,214684,1,12,0:0:0:0:
251,105,214823,1,12,0:0:0:0:
255,99,214962,1,12,0:0:0:0:
261,90,215240,1,4,0:0:0:0:
261,88,215379,1,12,0:0:0:0:
262,88,215518,1,4,0:0:0:0:
265,83,215657,1,12,0:0:0:0:
271,77,215796,1,12,0:0:0:0:
256,192,216768,12,0,220379,0:0:0:0:
188,135,220657,5,8,0:0:0:0:
57,182,220703,1,8,0:0:0:0:
36,178,220749,1,8,0:0:0:0:
188,135,220796,1,0,0:0:0:0:
158,188,220934,1,0,0:0:0:0:
161,239,221073,1,0,0:0:0:0:
161,239,221143,1,0,0:0:0:0:
158,188,221212,1,8,0:0:0:0:
161,239,221351,1,8,0:0:0:0:
15,182,221490,1,0,0:0:0:0:
15,182,221629,1,8,0:0:0:0:
116,195,221698,1,8,0:0:0:0:
116,195,221768,1,0,0:0:0:0:
116,195,221907,1,8,0:0:0:0:
116,195,222046,1,0,0:0:0:0:
116,195,222115,1,0,0:0:0:0:
116,195,222184,1,0,0:0:0:0:
54,150,222323,1,0,0:0:0:0:
138,142,222393,1,0,0:0:0:0:
116,195,222462,1,8,0:0:0:0:
116,195,222601,1,0,0:0:0:0:
116,195,222740,1,8,0:0:0:0:
160,216,222879,1,8,0:0:0:0:
147,207,222925,1,8,0:0:0:0:
143,180,222971,1,8,0:0:0:0:
143,180,223018,1,0,0:0:0:0:
117,179,223157,1,0,0:0:0:0:
115,180,223296,1,0,0:0:0:0:
115,180,223365,1,0,0:0:0:0:
76,187,223434,1,8,0:0:0:0:
76,187,223573,1,8,0:0:0:0:
76,187,223712,1,0,0:0:0:0:
76,187,223851,1,8,0:0:0:0:
76,187,223921,1,8,0:0:0:0:
76,187,223990,1,0,0:0:0:0:
76,187,224129,1,8,0:0:0:0:
76,187,224268,1,0,0:0:0:0:
76,187,224407,1,0,0:0:0:0:
76,187,224476,1,0,0:0:0:0:
76,187,224546,1,8,0:0:0:0:
76,187,224684,1,8,0:0:0:0:
49,141,224823,1,0,0:0:0:0:
164,221,224962,1,8,0:0:0:0:
160,216,225101,1,8,0:0:0:0:
16,191,225147,1,8,0:0:0:0:
142,181,225194,1,8,0:0:0:0:
142,181,225240,1,0,0:0:0:0:
79,211,225379,1,0,0:0:0:0:
79,211,225518,1,0,0:0:0:0:
79,211,225587,1,0,0:0:0:0:
79,211,225657,1,8,0:0:0:0:
79,211,225796,1,0,0:0:0:0:
79,211,225934,1,8,0:0:0:0:
79,211,226073,1,8,0:0:0:0:
79,211,226143,1,8,0:0:0:0:
79,211,226212,1,0,0:0:0:0:
79,211,226351,1,0,0:0:0:0:
79,211,226490,1,0,0:0:0:0:
79,211,226559,1,0,0:0:0:0:
79,211,226629,1,8,0:0:0:0:
79,211,226768,1,0,0:0:0:0:
79,211,226907,1,0,0:0:0:0:
79,211,226976,1,0,0:0:0:0:
79,211,227046,1,0,0:0:0:0:
79,211,227184,1,8,0:0:0:0:
160,216,227323,1,8,0:0:0:0:
95,190,227370,1,8,0:0:0:0:
8,175,227416,1,8,0:0:0:0:
8,175,227462,1,0,0:0:0:0:
130,190,227601,1,0,0:0:0:0:
130,190,227740,1,8,0:0:0:0:
130,190,227809,1,8,0:0:0:0:
130,190,227879,1,8,0:0:0:0:
130,190,228018,1,0,0:0:0:0:
130,190,228157,1,8,0:0:0:0:
130,190,228296,1,0,0:0:0:0:
130,190,228365,1,0,0:0:0:0:
130,190,228434,1,8,0:0:0:0:
130,190,228573,1,0,0:0:0:0:
130,190,228712,1,8,0:0:0:0:
130,190,228782,1,8,0:0:0:0:
130,190,228851,1,0,0:0:0:0:
130,190,228990,1,0,0:0:0:0:
130,190,229129,1,8,0:0:0:0:
130,190,229268,1,0,0:0:0:0:
130,190,229337,1,0,0:0:0:0:
160,216,229407,1,8,0:0:0:0:
160,216,230101,1,8,0:0:0:0:
50,187,230147,1,8,0:0:0:0:
114,156,230194,1,8,0:0:0:0:
114,156,230240,1,0,0:0:0:0:
81,198,230379,1,0,0:0:0:0:
84,185,230448,1,0,0:0:0:0:
85,185,230518,1,8,0:0:0:0:
85,185,230657,1,0,0:0:0:0:
85,185,230796,1,8,0:0:0:0:
85,185,230934,1,8,0:0:0:0:
85,185,231004,1,8,0:0:0:0:
85,185,231073,1,0,0:0:0:0:
83,181,231212,1,0,0:0:0:0:
83,181,231351,1,8,0:0:0:0:
85,185,231490,1,0,0:0:0:0:
85,185,231559,1,0,0:0:0:0:
85,185,231629,1,0,0:0:0:0:
85,185,231768,1,8,0:0:0:0:
85,185,231907,1,0,0:0:0:0:
85,185,231976,1,0,0:0:0:0:
85,185,232046,1,8,0:0:0:0:
83,181,232184,1,8,0:0:0:0:
245,174,232323,1,8,0:0:0:0:
48,199,232370,1,8,0:0:0:0:
114,157,232416,1,8,0:0:0:0:
114,157,232462,1,0,0:0:0:0:
111,186,232601,1,0,0:0:0:0:
111,186,232671,1,0,0:0:0:0:
111,186,232740,1,8,0:0:0:0:
111,186,232879,1,0,0:0:0:0:
111,186,233018,1,8,0:0:0:0:
111,186,233087,1,8,0:0:0:0:
111,186,233157,1,0,0:0:0:0:
111,186,233296,1,0,0:0:0:0:
111,186,233434,1,8,0:0:0:0:
111,186,233573,1,0,0:0:0:0:
111,186,233643,1,0,0:0:0:0:
111,186,233712,1,8,0:0:0:0:
111,186,233851,1,0,0:0:0:0:
111,186,233990,1,8,0:0:0:0:
111,186,234059,1,8,0:0:0:0:
111,186,234129,1,8,0:0:0:0:
111,186,234268,1,0,0:0:0:0:
111,186,234407,1,8,0:0:0:0:
258,183,234546,1,8,0:0:0:0:
43,197,234592,1,8,0:0:0:0:
114,157,234638,1,8,0:0:0:0:
114,157,234684,1,0,0:0:0:0:
117,185,234823,1,0,0:0:0:0:
117,185,234893,1,0,0:0:0:0:
117,185,234962,1,8,0:0:0:0:
117,185,235101,1,0,0:0:0:0:
117,185,235240,1,8,0:0:0:0:
117,185,235379,1,8,0:0:0:0:
117,185,235448,1,8,0:0:0:0:
117,185,235518,1,0,0:0:0:0:
117,185,235657,1,0,0:0:0:0:
34,185,235796,1,8,0:0:0:0:
34,185,235865,1,8,0:0:0:0:
34,185,235934,1,8,0:0:0:0:
34,185,236073,1,0,0:0:0:0:
34,185,236212,1,0,0:0:0:0:
34,185,236282,1,0,0:0:0:0:
34,185,236351,1,0,0:0:0:0:
34,185,236490,1,0,0:0:0:0:
45,184,236629,1,8,0:0:0:0:
225,226,236768,1,8,0:0:0:0:
93,232,236814,1,8,0:0:0:0:
114,157,236860,1,8,0:0:0:0:
114,157,236907,1,0,0:0:0:0:
103,170,237046,1,0,0:0:0:0:
103,170,237115,1,0,0:0:0:0:
103,170,237184,1,8,0:0:0:0:
103,170,237323,1,0,0:0:0:0:
103,170,237462,1,8,0:0:0:0:
103,170,237601,1,8,0:0:0:0:
103,171,237671,1,8,0:0:0:0:
103,170,237740,1,0,0:0:0:0:
103,170,237879,1,0,0:0:0:0:
114,178,238018,1,8,0:0:0:0:
137,230,238157,1,0,0:0:0:0:
137,230,238226,1,0,0:0:0:0:
137,230,238296,1,8,0:0:0:0:
137,230,238434,1,0,0:0:0:0:
137,230,238573,1,8,0:0:0:0:
137,230,238643,1,8,0:0:0:0:
137,230,238712,1,0,0:0:0:0:
137,230,238851,1,0,0:0:0:0:
221,211,238990,1,8,0:0:0:0:
48,203,239036,1,8,0:0:0:0:
114,157,239083,1,8,0:0:0:0:
114,157,239129,1,0,0:0:0:0:
59,177,239268,1,0,0:0:0:0:
59,177,239407,1,0,0:0:0:0:
59,177,239476,1,0,0:0:0:0:
59,177,239546,1,8,0:0:0:0:
153,194,239615,1,8,0:0:0:0:
153,194,239684,1,0,0:0:0:0:
59,177,239823,1,8,0:0:0:0:
59,177,239893,1,8,0:0:0:0:
59,177,239962,1,0,0:0:0:0:
59,177,240101,1,0,0:0:0:0:
30,182,240240,1,8,0:0:0:0:
23,179,240309,1,8,0:0:0:0:
125,176,240379,1,8,0:0:0:0:
125,176,240518,1,0,0:0:0:0:
125,176,240657,1,8,0:0:0:0:
125,176,240726,1,8,0:0:0:0:
125,176,240796,1,8,0:0:0:0:
119,183,240865,1,8,0:0:0:0:
122,185,240934,1,8,0:0:0:0:
125,176,241073,1,8,0:0:0:0:
221,211,241212,1,8,0:0:0:0:
66,206,241258,1,8,0:0:0:0:
114,157,241305,1,8,0:0:0:0:
114,157,241351,1,0,0:0:0:0:
108,167,241490,1,0,0:0:0:0:
106,170,241629,1,0,0:0:0:0:
106,170,241698,1,0,0:0:0:0:
106,170,241768,1,8,0:0:0:0:
106,170,241907,1,0,0:0:0:0:
106,170,241976,1,0,0:0:0:0:
106,170,242046,1,8,0:0:0:0:
119,173,242115,1,8,0:0:0:0:
106,170,242184,1,0,0:0:0:0:
106,170,242323,1,0,0:0:0:0:
108,167,242462,1,8,0:0:0:0:
108,167,242532,1,8,0:0:0:0:
106,170,242601,1,0,0:0:0:0:
63,180,242740,1,0,0:0:0:0:
63,180,242809,1,8,0:0:0:0:
63,180,242879,1,8,0:0:0:0:
63,180,242948,1,8,0:0:0:0:
63,180,243018,1,0,0:0:0:0:
63,180,243157,1,0,0:0:0:0:
63,180,243296,1,8,0:0:0:0:
221,211,243434,1,8,0:0:0:0:
104,198,243481,1,8,0:0:0:0:
114,157,243527,1,8,0:0:0:0:
114,157,243573,1,0,0:0:0:0:
77,193,243712,1,0,0:0:0:0:
77,193,243851,1,0,0:0:0:0:
77,193,243921,1,0,0:0:0:0:
77,193,243990,1,8,0:0:0:0:
77,193,244129,1,8,0:0:0:0:
77,193,244198,1,8,0:0:0:0:
149,183,244268,1,8,0:0:0:0:
149,183,244337,1,8,0:0:0:0:
77,193,244407,1,0,0:0:0:0:
77,193,244546,1,0,0:0:0:0:
77,193,244684,1,0,0:0:0:0:
77,193,244754,1,0,0:0:0:0:
77,193,244823,1,8,0:0:0:0:
77,193,244962,1,8,0:0:0:0:
77,193,245032,1,0,0:0:0:0:
77,193,245101,1,8,0:0:0:0:
77,193,245240,1,8,0:0:0:0:
85,159,245379,1,0,0:0:0:0:
141,151,245518,1,8,0:0:0:0:
221,211,245657,1,8,0:0:0:0:
67,201,245703,1,8,0:0:0:0:
114,157,245749,1,8,0:0:0:0:
114,157,245796,1,0,0:0:0:0:
103,151,245934,1,0,0:0:0:0:
103,151,246073,1,8,0:0:0:0:
103,151,246143,1,8,0:0:0:0:
103,151,246212,1,8,0:0:0:0:
103,151,246351,1,0,0:0:0:0:
103,151,246421,1,0,0:0:0:0:
103,151,246490,1,8,0:0:0:0:
66,180,246559,1,8,0:0:0:0:
66,180,246629,1,0,0:0:0:0:
100,154,246768,1,8,0:0:0:0:
103,151,246907,1,0,0:0:0:0:
103,151,246976,1,0,0:0:0:0:
103,151,247046,1,8,0:0:0:0:
103,151,247184,1,8,0:0:0:0:
103,151,247254,1,8,0:0:0:0:
103,151,247323,1,8,0:0:0:0:
103,151,247462,1,8,0:0:0:0:
139,170,247532,1,0,0:0:0:0:
52,191,247601,1,8,0:0:0:0:
137,210,247740,1,0,0:0:0:0:
119,192,247879,1,8,0:0:0:0:
119,192,247925,1,8,0:0:0:0:
119,192,247971,1,8,0:0:0:0:
119,192,248018,1,0,0:0:0:0:
119,192,248157,1,0,0:0:0:0:
79,200,248296,1,8,0:0:0:0:
79,200,248365,1,8,0:0:0:0:
79,200,248434,1,8,0:0:0:0:
79,200,248573,1,0,0:0:0:0:
88,195,248712,1,8,0:0:0:0:
89,195,248782,1,8,0:0:0:0:
89,195,248851,1,8,0:0:0:0:
89,195,248990,1,0,0:0:0:0:
89,195,249129,1,0,0:0:0:0:
89,195,249198,1,8,0:0:0:0:
89,195,249268,1,8,0:0:0:0:
89,195,249337,1,8,0:0:0:0:
89,195,249407,1,0,0:0:0:0:
129,191,249546,5,8,0:0:0:0:
