osu file format v14

[General]
AudioFilename: audio.mp3
AudioLeadIn: 0
PreviewTime: 86415
Countdown: 0
SampleSet: Soft
StackLeniency: 0.5
Mode: 0
LetterboxInBreaks: 0
WidescreenStoryboard: 1

[Editor]
Bookmarks: 13691,26932,40174,53415,60036,73277,86518,113001,139484,152725,165967,179208,192450,218932,245415
DistanceSpacing: 0.3
BeatDivisor: 8
GridSize: 32
TimelineZoom: 3

[Metadata]
Title:Ready to (Mokelmbe Bootleg)
TitleUnicode:Ready to (Mokelmbe Bootleg)
Artist:Michiru Kagemori (CV: Morohoshi Sumire)
ArtistUnicode:影森みちる(CV:諸星すみれ)
Creator:Mir
Version:Furry Bootleg
Source:BNA ビー・エヌ・エー
Tags:BNA: Brand New Animal Jacotanu Studio TRIGGER rihoco Jin Tanaka R・O・N フジテレビ Fuji TV +Ultra NETFLIX lince cosmico lince_cosmico kujinn reform chekito mokele mbembe electronic japanese instrumental remix anime pop jpop op opening
BeatmapID:2588797
BeatmapSetID:1245436

[Difficulty]
HPDrainRate:5
CircleSize:4
OverallDifficulty:8
ApproachRate:9.3
SliderMultiplier:2.2
SliderTickRate:1

[Events]
//Background and Video events
0,0,"BG.png",0,0
//Break Periods
2,139679,150511
//Storyboard Layer 0 (Background)
//Storyboard Layer 1 (Fail)
//Storyboard Layer 2 (Pass)
//Storyboard Layer 3 (Foreground)
//Storyboard Layer 4 (Overlay)
//Storyboard Sound Samples

[TimingPoints]
445,413.793103448276,4,2,1,60,1,0
36858,-133.333333333333,4,2,1,60,0,0
37272,-133.333333333333,4,2,1,50,0,0
37686,-133.333333333333,4,2,1,40,0,0
38100,-133.333333333333,4,2,1,30,0,0
38513,-133.333333333333,4,2,1,20,0,0
39341,-133.333333333333,4,2,1,40,0,0
39755,-333.333333333333,4,2,1,60,0,0
40169,-83.3333333333333,4,2,2,60,0,0
40582,-66.6666666666667,4,2,2,60,0,0
46789,-83.3333333333333,4,2,2,60,0,0
47202,-66.6666666666667,4,2,2,60,0,0
50100,-133.333333333333,4,2,2,60,0,0
53203,-66.6666666666667,4,2,3,60,0,0
59617,-133.333333333333,4,2,3,60,0,0
59824,-50,4,2,2,60,0,0
59979,-50,4,2,2,5,0,0
60031,-50,4,2,2,40,0,0
72651,-100,4,2,2,40,0,0
73582,-100,4,2,2,5,0,0
73686,-100,4,2,2,40,0,0
73996,-100,4,2,2,5,0,0
74100,-100,4,2,2,40,0,0
74410,-100,4,2,2,5,0,0
74514,-100,4,2,2,40,0,0
76893,-100,4,2,2,5,0,0
76997,-100,4,2,2,40,0,0
77307,-100,4,2,2,5,0,0
77411,-100,4,2,2,40,0,0
77720,-100,4,2,2,5,0,0
77824,-100,4,2,2,40,0,0
84031,-100,4,2,2,30,0,0
84858,-100,4,2,2,20,0,0
85686,-100,4,2,2,60,0,0
86307,-50,4,2,2,60,0,0
86513,-100,4,2,4,70,0,0
86927,-66.6666666666667,4,2,4,70,0,1
89513,-133.333333333333,4,2,4,70,0,1
89824,-40,4,2,4,70,0,1
91479,-66.6666666666667,4,2,4,70,0,1
92824,-133.333333333333,4,2,4,70,0,1
93134,-100,4,2,4,70,0,1
93548,-66.6666666666667,4,2,4,70,0,1
96445,-40,4,2,4,70,0,1
98100,-66.6666666666667,4,2,4,70,0,1
99445,-40,4,2,4,70,0,1
99703,-40,4,2,4,5,0,1
99755,-100,4,2,4,70,0,1
100272,-66.6666666666667,4,2,4,70,0,1
100582,-50,4,2,4,70,0,1
101410,-66.6666666666667,4,2,4,70,0,1
103065,-40,4,2,4,70,0,1
104720,-66.6666666666667,4,2,4,70,0,1
106376,-100,4,2,4,70,0,1
106789,-66.6666666666667,4,2,4,70,0,1
109686,-40,4,2,4,70,0,1
111341,-100,4,2,4,70,0,1
112686,-40,4,2,4,70,0,1
112996,-133.333333333333,4,2,4,60,0,0
113410,-66.6666666666667,4,2,4,60,0,0
116307,-50,4,2,4,60,0,0
119203,-133.333333333333,4,2,4,60,0,0
119617,-40,4,2,4,60,0,0
120031,-50,4,2,4,60,0,0
123341,-66.6666666666667,4,2,4,60,0,0
125927,-50,4,2,4,60,0,0
126238,-133.333333333333,4,2,4,60,0,0
126651,-66.6666666666667,4,2,4,60,0,0
129548,-50,4,2,4,60,0,0
132445,-133.333333333333,4,2,4,60,0,0
132858,-40,4,2,4,60,0,0
133272,-50,4,2,4,60,0,0
136582,-66.6666666666667,4,2,4,60,0,0
139376,-66.6666666666667,4,2,4,5,0,0
139479,-200,4,2,4,60,0,0
151065,-200,4,2,2,40,0,0
152513,-40,4,2,2,40,0,0
152720,-133.333333333333,4,2,2,60,0,0
153134,-66.6666666666667,4,2,2,60,0,0
164307,-50,4,2,2,60,0,0
164513,-66.6666666666667,4,2,2,60,0,0
164720,-100,4,2,2,60,0,0
164927,-200,4,2,2,60,0,0
165755,-40,4,2,2,60,0,0
165910,-40,4,2,2,5,0,0
165962,-40,4,2,2,40,0,0
189134,-40,4,2,2,40,0,0
189962,-40,4,2,2,30,0,0
190789,-40,4,2,2,20,0,0
191617,-40,4,2,2,60,0,0
192548,-40,4,2,2,5,0,0
192600,-40,4,2,2,60,0,0
192962,-100,4,2,2,60,0,0
193324,-100,4,2,2,5,0,0
193376,-100,4,2,2,60,0,0
193738,-100,4,2,2,5,0,0
193790,-100,4,2,2,60,0,0
194151,-100,4,2,2,5,0,0
194203,-100,4,2,2,60,0,0
194565,-100,4,2,2,5,0,0
194617,-100,4,2,2,60,0,0
194979,-100,4,2,2,5,0,0
195031,-100,4,2,2,60,0,0
195393,-100,4,2,2,5,0,0
195445,-100,4,2,2,60,0,0
195703,-100,4,2,2,5,0,0
195755,-40,4,2,4,70,0,1
197410,-66.6666666666667,4,2,4,70,0,1
198755,-133.333333333333,4,2,4,70,0,1
199065,-100,4,2,4,70,0,1
199479,-66.6666666666667,4,2,4,70,0,1
202376,-40,4,2,4,70,0,1
204031,-66.6666666666667,4,2,4,70,0,1
205272,-40,4,2,4,70,0,1
205634,-40,4,2,4,5,0,1
205686,-100,4,2,4,70,0,1
206048,-100,4,2,4,5,0,1
206100,-66.6666666666667,4,2,4,70,0,1
206410,-40,4,2,4,70,0,1
207238,-66.6666666666667,4,2,4,70,0,1
208996,-40,4,2,4,70,0,1
210651,-66.6666666666667,4,2,4,70,0,1
211996,-133.333333333333,4,2,4,70,0,1
212307,-100,4,2,4,70,0,1
212720,-66.6666666666667,4,2,4,70,0,1
215617,-40,4,2,4,70,0,1
216962,-100,4,2,4,70,0,1
218617,-40,4,2,4,70,0,1
218927,-133.333333333333,4,2,4,60,0,0
219341,-66.6666666666667,4,2,4,60,0,0
222238,-50,4,2,4,60,0,0
225134,-133.333333333333,4,2,4,60,0,0
225548,-40,4,2,4,60,0,0
225962,-50,4,2,4,60,0,0
229272,-66.6666666666667,4,2,4,60,0,0
231858,-50,4,2,4,60,0,0
232169,-133.333333333333,4,2,4,60,0,0
232582,-66.6666666666667,4,2,4,60,0,0
235479,-50,4,2,4,60,0,0
238376,-133.333333333333,4,2,4,60,0,0
238789,-40,4,2,4,60,0,0
239203,-50,4,2,4,60,0,0
242513,-66.6666666666667,4,2,4,60,0,0
243755,-66.6666666666667,4,2,3,60,0,0
244996,-133.333333333333,4,2,3,60,0,0

[Colours]
Combo1 : 74,255,215
Combo2 : 249,81,143

[HitObjects]
90,310,13272,5,0,0:2:0:0:
92,299,13376,1,0,0:2:0:0:
94,288,13479,1,0,0:2:0:0:
191,359,13686,6,0,L|174:122,1,220,0|8,3:2|3:2,0:2:0:0:
166,49,14307,1,8,0:2:0:0:
351,179,14513,6,0,P|444:204|476:88,1,220,0|8,3:2|3:2,0:2:0:0:
434,43,15134,1,0,0:2:0:0:
418,244,15341,6,0,L|409:354,1,110,0|0,3:2|0:2,0:2:0:0:
299,233,15755,2,0,L|291:343,1,110,8|8,3:2|0:2,0:2:0:0:
180,222,16169,2,0,L|172:332,1,110,0|8,3:2|0:2,0:2:0:0:
65,267,16582,5,8,3:2:0:0:
65,267,16789,1,8,0:2:0:0:
51,38,16996,6,0,B|194:37|94:136|265:129,1,220,0|8,3:2|3:2,0:2:0:0:
453,75,17617,1,8,0:2:0:0:
348,18,17824,6,0,L|336:254,1,220,0|8,3:2|3:2,0:2:0:0:
332,332,18445,1,0,0:2:0:0:
27,341,18651,6,0,P|89:309|147:324,1,110,0|0,3:2|0:2,0:2:0:0:
237,210,19065,2,0,P|299:242|357:227,1,110,8|8,3:2|0:2,0:2:0:0:
409,378,19479,2,0,P|471:346|529:361,1,110,0|8,3:2|0:2,0:2:0:0:
316,331,19893,5,8,3:2:0:0:
316,331,20100,1,8,0:2:0:0:
473,91,20307,6,0,P|426:27|287:31,1,220,0|8,3:2|3:2,0:2:0:0:
227,87,20927,1,8,0:2:0:0:
43,264,21134,6,0,L|72:37,1,220,0|8,3:2|3:2,0:2:0:0:
155,1,21755,1,8,0:2:0:0:
346,119,21962,6,0,B|366:154|366:154|337:237,1,110,0|0,3:2|0:2,0:2:0:0:
168,369,22376,2,0,B|148:334|148:334|177:251,1,110,8|8,3:2|0:2,0:2:0:0:
369,117,22789,2,0,B|389:152|389:152|360:235,1,110,0|8,3:2|0:2,0:2:0:0:
336,309,23203,5,8,3:2:0:0:
336,309,23410,1,8,0:2:0:0:
13,47,23617,6,0,L|247:90,1,220,0|8,3:2|3:2,0:2:0:0:
441,57,24238,1,8,0:2:0:0:
472,318,24445,6,0,P|418:254|257:304,1,220,0|8,3:2|3:2,0:2:0:0:
241,350,25065,1,0,0:2:0:0:
27,357,25272,6,0,P|91:323|111:286,1,110,0|0,3:2|0:2,0:2:0:0:
44,104,25686,2,0,P|41:176|63:212,1,110,8|8,3:2|0:2,0:2:0:0:
254,245,26100,2,0,P|193:207|151:208,1,110,0|8,3:2|0:2,0:2:0:0:
59,207,26513,5,8,0:2:0:0:
108,292,26720,1,8,0:2:0:0:
320,149,26927,6,0,B|366:123|366:123|347:12|347:12|313:70,1,220,0|8,3:2|3:2,0:2:0:0:
404,207,27548,5,8,0:2:0:0:
414,210,27651,1,8,0:2:0:0:
424,213,27755,1,0,3:2:0:0:
434,216,27858,1,8,0:1:0:0:
444,219,27962,1,8,0:1:0:0:
418,316,28169,2,0,L|402:198,1,110,8|0,3:2|0:2,0:2:0:0:
265,343,28582,6,0,P|176:319|127:311,1,110,0|0,3:2|0:2,0:2:0:0:
17,245,28996,2,0,P|71:233|123:218,1,110,8|8,0:2|0:2,0:2:0:0:
127,207,29307,1,8,0:2:0:0:
130,196,29410,1,0,3:2:0:0:
133,185,29513,1,8,0:1:0:0:
135,174,29617,2,0,L|113:110,1,55,8|8,0:1|0:2,0:2:0:0:
88,27,29824,5,8,3:2:0:0:
88,27,30031,1,8,0:2:0:0:
258,128,30238,6,0,B|412:123|301:34|483:32,1,220,0|8,3:2|3:2,0:2:0:0:
460,174,30858,5,8,0:2:0:0:
458,185,30962,1,8,0:2:0:0:
457,195,31065,1,0,3:2:0:0:
456,206,31169,1,8,0:1:0:0:
455,216,31272,1,8,0:1:0:0:
362,337,31479,2,0,P|344:225|334:190,1,110,8|0,3:2|0:2,0:2:0:0:
446,53,31893,6,0,P|389:71|306:81,1,110,0|0,3:2|0:2,0:2:0:0:
247,154,32307,2,0,P|190:136|107:126,1,110,8|8,3:2|0:2,0:2:0:0:
134,136,32617,1,8,0:0:0:0:
127,145,32720,1,0,3:2:0:0:
120,154,32824,1,8,0:1:0:0:
113,163,32927,2,0,P|117:196|128:247,1,55,8|8,0:1|0:2,0:2:0:0:
148,315,33134,5,8,3:2:0:0:
148,315,33341,1,8,0:2:0:0:
463,255,33548,5,0,3:2:0:0:
370,350,33755,1,0,3:2:0:0:
334,223,33962,1,8,3:2:0:0:
477,87,34169,5,8,3:2:0:0:
475,97,34272,1,8,0:2:0:0:
401,116,34376,5,8,3:1:0:0:
399,106,34479,1,8,0:1:0:0:
327,75,34582,5,0,3:2:0:0:
243,127,34789,1,8,3:2:0:0:
167,68,34996,1,0,3:2:0:0:
173,305,35203,5,0,3:2:0:0:
80,210,35410,1,0,3:2:0:0:
44,337,35617,1,8,3:2:0:0:
60,127,35824,5,8,3:2:0:0:
65,117,35927,1,8,0:2:0:0:
60,30,36031,5,8,3:1:0:0:
66,39,36134,1,8,0:1:0:0:
144,78,36238,5,8,3:1:0:0:
133,79,36341,1,8,0:1:0:0:
89,79,36445,5,8,3:2:0:0:
181,179,36651,1,8,3:2:0:0:
123,346,36858,6,8,L|62:333,1,41.2500015735627,8|8,3:2|3:2,3:2:0:0:
166,293,37065,2,8,L|105:306,1,41.2500015735627,8|8,3:2|3:2,3:2:0:0:
394,364,37272,6,8,L|455:351,1,41.2500015735627,8|8,3:2|3:2,3:2:0:0:
351,311,37479,2,8,L|412:324,1,41.2500015735627,8|8,3:2|3:2,3:2:0:0:
232,145,37686,6,8,L|244:205,1,41.2500015735627,8|8,3:2|3:2,3:2:0:0:
205,130,37893,2,8,L|193:190,1,41.2500015735627,8|8,3:2|3:2,3:2:0:0:
88,58,38100,6,8,L|76:118,1,41.2500015735627,8|8,3:2|3:2,3:2:0:0:
115,43,38307,2,8,L|127:103,1,41.2500015735627,8|8,3:2|3:2,3:2:0:0:
209,132,38513,5,8,3:2:0:0:
241,125,38617,1,8,3:2:0:0:
273,118,38720,1,8,3:2:0:0:
305,111,38824,1,8,3:2:0:0:
346,133,38927,5,8,3:2:0:0:
365,138,39031,1,8,3:2:0:0:
384,142,39134,1,8,3:2:0:0:
403,146,39238,1,8,3:2:0:0:
420,150,39341,5,8,3:2:0:0:
373,165,39445,1,8,3:2:0:0:
333,233,39548,1,8,3:2:0:0:
375,312,39652,1,8,3:2:0:0:
460,322,39755,6,0,L|465:268,1,49.4999984893799,8|0,0:2|0:2,0:2:0:0:
464,272,40169,6,0,B|331:252|431:364|223:320,1,197.99999395752,2|0,3:2|0:2,0:2:0:0:
34,79,40582,6,0,P|119:72|119:197,1,165.000006294251,14|0,3:2|0:2,0:2:0:0:
231,199,40893,1,0,1:2:0:0:
231,199,40996,2,0,P|238:152|265:91,1,82.5000031471254,2|0,3:2|1:2,0:2:0:0:
326,10,41203,1,0,0:2:0:0:
326,10,41307,2,0,P|333:57|360:118,1,82.5000031471254,2|8,0:2|3:2,0:2:0:0:
344,89,41617,6,0,L|534:117,1,165.000006294251,2|0,0:2|3:2,0:2:0:0:
508,113,42031,6,0,P|475:130|410:146,1,82.5000031471254,2|0,0:2|0:2,0:2:0:0:
307,228,42238,2,0,P|273:211|208:195,1,82.5000031471254,10|0,3:2|0:2,0:2:0:0:
86,33,42445,1,2,1:2:0:0:
86,33,42548,1,2,1:2:0:0:
25,82,42651,5,0,3:1:0:0:
25,82,42755,2,0,P|122:88|144:166,1,165.000006294251,2|0,1:2|1:1,0:2:0:0:
95,309,43065,1,10,3:2:0:0:
95,309,43272,2,0,L|84:175,1,82.5000031471254,2|0,0:2|0:2,0:2:0:0:
230,198,43479,6,0,L|246:0,1,165.000006294251,2|0,3:2|0:2,0:2:0:0:
243,33,43893,6,0,B|302:39|302:39|317:72|317:72|444:85,1,165.000006294251,10|0,3:2|0:2,0:2:0:0:
391,81,44203,1,0,1:2:0:0:
391,81,44307,6,0,L|370:-20,1,82.5000031471254,2|0,3:2|1:2,0:2:0:0:
470,168,44513,1,0,0:2:0:0:
470,168,44617,2,0,L|491:67,1,82.5000031471254,2|8,0:2|3:2,0:2:0:0:
483,279,44824,5,2,0:2:0:0:
483,279,45031,1,2,0:2:0:0:
459,185,45134,6,0,B|405:199|405:199|391:250|391:250|333:263,1,165.000006294251,2|0,3:2|0:2,0:2:0:0:
330,275,45548,6,0,B|276:260|276:260|262:209|262:209|204:196,1,165.000006294251,10|0,3:2|0:2,0:2:0:0:
206,197,45858,1,0,1:2:0:0:
206,197,45962,6,0,L|180:306,1,82.5000031471254,2|0,3:2|1:2,0:2:0:0:
43,323,46169,1,0,0:2:0:0:
43,323,46272,1,0,1:2:0:0:
43,323,46376,2,0,P|122:351|157:326,1,82.5000031471254,10|0,3:2|0:2,0:2:0:0:
189,103,46582,2,0,P|110:75|75:100,1,82.5000031471254,2|0,0:2|0:2,0:2:0:0:
104,250,46789,6,0,B|248:258|144:165|340:195,1,197.99999395752,2|0,3:2|0:2,0:2:0:0:
282,189,47203,6,0,L|299:353,1,165.000006294251,10|0,3:2|0:2,0:2:0:0:
485,335,47513,1,0,1:2:0:0:
485,335,47617,2,0,P|437:326|397:311,1,82.5000031471254,2|0,3:2|1:2,0:2:0:0:
387,224,47824,1,0,0:2:0:0:
387,224,47928,2,0,P|434:215|475:200,1,82.5000031471254,2|8,0:2|3:2,0:2:0:0:
467,204,48238,6,0,L|484:34,1,165.000006294251,2|0,0:2|3:2,0:2:0:0:
483,39,48651,6,0,P|439:35|383:20,1,82.5000031471254,2|0,0:2|0:2,0:2:0:0:
282,189,48858,2,0,P|238:193|182:208,1,82.5000031471254,10|0,3:2|0:2,0:2:0:0:
38,114,49065,1,2,1:2:0:0:
38,114,49169,1,2,1:2:0:0:
19,28,49272,5,0,3:2:0:0:
19,28,49376,2,0,P|84:97|206:78,1,165.000006294251,2|0,1:2|1:2,0:2:0:0:
235,41,49686,1,10,3:2:0:0:
235,41,49893,2,0,P|276:52|326:83,1,82.5000031471254,2|0,0:2|0:2,0:2:0:0:
474,233,50100,6,0,L|484:123,1,82.5000031471254,10|0,0:2|0:2,0:2:0:0:
388,217,50513,2,0,L|398:107,1,82.5000031471254,10|0,0:2|0:2,0:2:0:0:
384,128,50824,1,0,0:2:0:0:
373,122,50927,6,0,L|302:131,2,41.2500015735627,10|0|0,0:2|0:2|0:2,0:2:0:0:
301,205,51238,6,0,L|230:196,1,41.2500015735627,2|8,0:2|0:2,0:2:0:0:
197,141,51445,2,0,L|126:150,1,41.2500015735627,2|0,0:2|0:2,0:2:0:0:
66,158,51651,1,2,0:2:0:0:
66,158,51755,5,8,0:1:0:0:
86,249,51962,1,8,0:1:0:0:
91,75,52169,5,8,0:1:0:0:
35,313,52376,1,8,0:1:0:0:
99,197,52582,5,0,1:1:0:0:
121,206,52686,1,0,1:1:0:0:
168,173,52789,1,8,0:1:0:0:
196,206,52893,1,8,0:1:0:0:
252,169,52996,1,8,0:2:0:0:
300,210,53100,1,8,0:2:0:0:
374,177,53203,2,0,B|411:187|411:187|411:194|411:194|466:206,1,82.5000031471254,0|0,3:2|0:2,0:2:0:0:
478,72,53410,6,0,B|431:98|431:98|419:160|419:160|335:190,1,165.000006294251,6|0,3:2|0:2,0:2:0:0:
281,377,53720,2,0,B|234:351|234:351|222:289|222:289|138:259,1,165.000006294251,10|0,3:2|0:2,0:2:0:0:
27,205,54031,2,0,L|43:325,1,82.5000031471254,10|0,3:2|0:2,0:2:0:0:
122,352,54238,5,2,3:2:0:0:
143,308,54341,1,2,3:2:0:0:
131,214,54445,5,2,3:2:0:0:
146,205,54548,1,2,3:2:0:0:
205,125,54651,6,0,L|366:148,1,82.5000031471254,10|0,0:2|0:2,0:2:0:0:
474,327,54858,1,2,3:2:0:0:
464,340,54962,1,2,3:2:0:0:
454,353,55065,6,0,B|410:330|410:330|424:186,1,165.000006294251,2|0,3:2|0:2,0:2:0:0:
290,140,55376,2,0,B|334:117|334:117|320:-27,1,165.000006294251,10|0,3:2|0:2,0:2:0:0:
421,215,55686,2,0,B|379:198|379:198|323:229,1,82.5000031471254,10|0,3:2|0:2,0:2:0:0:
209,336,55893,5,2,3:2:0:0:
166,298,55997,1,2,3:2:0:0:
220,280,56100,1,2,3:2:0:0:
93,20,56307,6,0,L|77:147,1,82.5000031471254,10|0,3:2|0:2,0:2:0:0:
40,255,56513,1,2,3:2:0:0:
46,239,56617,1,2,3:2:0:0:
53,224,56720,6,0,B|81:202|81:202|181:225|181:225|196:276,1,165.000006294251,2|0,3:2|0:2,0:2:0:0:
327,342,57031,2,0,B|355:364|355:364|455:341|455:341|470:290,1,165.000006294251,10|0,3:2|0:2,0:2:0:0:
385,272,57341,2,0,B|360:256|360:256|382:171,1,82.5000031471254,10|0,3:2|0:2,0:2:0:0:
476,51,57548,5,2,3:2:0:0:
443,81,57651,1,2,3:2:0:0:
370,41,57755,5,2,3:2:0:0:
360,55,57858,1,2,3:2:0:0:
272,58,57962,6,0,L|122:74,1,82.5000031471254,10|0,3:2|0:2,0:2:0:0:
228,334,58169,1,2,3:2:0:0:
232,318,58272,1,2,3:2:0:0:
236,302,58376,6,0,B|217:285|217:285|116:307,1,82.5000031471254,10|0,3:2|0:2,0:2:0:0:
23,362,58582,2,0,B|42:379|42:379|143:357,1,82.5000031471254,10|0,3:2|0:2,0:2:0:0:
185,197,58789,6,0,B|204:180|204:180|259:192,1,82.5000031471254,10|0,3:2|0:2,0:2:0:0:
398,257,58996,2,0,B|379:274|379:274|323:261,1,82.5000031471254,10|0,3:2|0:2,0:2:0:0:
327,69,59203,5,10,3:2:0:0:
374,2,59307,1,10,3:2:0:0:
452,27,59410,1,10,3:2:0:0:
452,109,59513,1,10,3:2:0:0:
374,134,59617,2,0,L|361:201,1,41.2500015735627,2|0,3:2|0:2,0:2:0:0:
438,376,59824,6,2,B|436:361|443:345|443:345|426:341|426:341|437:315|437:315|415:304|415:304|434:276|434:276|421:270|413:254,1,165,2|0,0:2|0:2,0:1:0:0:
406,235,60031,5,6,0:2:0:0:
316,252,60445,1,2,0:2:0:0:
299,162,60858,1,2,0:2:0:0:
393,151,61272,1,2,0:2:0:0:
393,151,61582,1,2,0:2:0:0:
393,151,61686,5,2,0:2:0:0:
299,162,61893,1,2,0:2:0:0:
316,252,62100,1,2,0:2:0:0:
406,235,62307,1,2,0:2:0:0:
305,180,62513,5,2,0:2:0:0:
395,163,62720,1,2,0:2:0:0:
412,253,62927,1,2,0:2:0:0:
318,264,63134,1,2,0:2:0:0:
33,107,63341,5,2,0:2:0:0:
117,93,63755,1,2,0:2:0:0:
201,79,64169,1,2,0:2:0:0:
290,70,64582,1,2,0:2:0:0:
290,70,64893,1,2,0:2:0:0:
290,70,64996,5,2,0:2:0:0:
201,79,65203,1,2,0:2:0:0:
117,93,65410,1,2,0:2:0:0:
33,107,65617,1,2,0:2:0:0:
290,105,65824,5,2,0:2:0:0:
201,96,66031,1,2,0:2:0:0:
117,82,66238,1,2,0:2:0:0:
33,68,66445,1,2,0:2:0:0:
114,359,66651,5,2,0:2:0:0:
163,290,67065,1,2,0:2:0:0:
105,222,67479,1,2,0:2:0:0:
154,153,67893,1,2,0:2:0:0:
154,153,68203,1,2,0:2:0:0:
154,153,68307,5,2,0:2:0:0:
105,222,68513,1,2,0:2:0:0:
163,290,68720,1,2,0:2:0:0:
114,359,68927,1,2,0:2:0:0:
111,154,69134,5,2,0:2:0:0:
160,223,69340,1,2,0:2:0:0:
102,291,69547,1,2,0:2:0:0:
151,360,69754,1,2,0:2:0:0:
253,271,69962,5,2,0:2:0:0:
337,285,70376,1,2,0:2:0:0:
421,299,70790,1,2,0:2:0:0:
512,321,71203,1,2,0:2:0:0:
512,322,71514,1,2,0:2:0:0:
512,322,71617,5,2,0:2:0:0:
423,303,71824,1,2,0:2:0:0:
339,289,72031,1,2,0:2:0:0:
255,275,72238,1,2,0:2:0:0:
512,278,72445,5,2,0:2:0:0:
340,303,72651,2,0,L|250:290,1,55,0|0,0:2|0:2,0:2:0:0:
106,352,72858,5,8,0:1:0:0:
108,341,72962,1,8,0:1:0:0:
110,330,73066,1,8,0:1:0:0:
35,60,73272,6,0,B|134:45|84:119|187:89,1,165,6|0,3:2|0:2,0:2:0:0:
188,90,73686,2,0,B|84:59|134:133|33:118,1,165,10|0,0:2|0:2,0:2:0:0:
35,119,74100,2,0,B|134:104|84:178|187:148,1,165,2|0,3:2|0:2,0:2:0:0:
187,148,74513,2,0,B|116:127|150:176|83:167,1,110,10|0,0:2|0:2,0:2:0:0:
59,171,74824,1,2,3:2:0:0:
34,177,74927,5,2,3:2:0:0:
187,148,75134,1,2,0:2:0:0:
34,59,75341,1,10,0:2:0:0:
185,19,75548,1,2,0:2:0:0:
201,173,75755,5,2,3:2:0:0:
353,203,75962,1,2,0:2:0:0:
200,292,76169,1,10,0:2:0:0:
351,332,76376,1,2,0:2:0:0:
494,286,76582,6,0,P|501:207|411:217,1,165,2|0,3:2|0:2,0:2:0:0:
431,195,76996,2,0,P|352:188|362:278,1,165,10|0,0:2|0:2,0:2:0:0:
340,257,77410,2,0,P|333:336|423:326,1,165,2|0,3:2|0:2,0:2:0:0:
402,347,77824,2,0,P|456:351|449:289,1,110,10|0,0:2|0:2,0:2:0:0:
476,294,78134,1,2,3:2:0:0:
492,284,78238,5,2,3:2:0:0:
402,347,78445,1,2,0:2:0:0:
340,257,78651,1,10,0:2:0:0:
431,195,78858,1,2,0:2:0:0:
489,91,79065,5,2,3:2:0:0:
399,28,79272,1,2,0:2:0:0:
337,118,79478,1,10,0:2:0:0:
428,180,79685,1,2,0:2:0:0:
314,365,79893,6,8,L|304:233,1,110,14|8,3:2|0:2,0:2:0:0:
217,368,80307,2,8,L|207:236,1,110,10|8,3:2|0:2,0:2:0:0:
143,33,80720,6,8,L|133:165,1,110,14|8,3:2|0:2,0:2:0:0:
46,30,81134,2,8,L|36:162,1,110,10|8,3:2|0:2,0:2:0:0:
31,234,81445,1,2,3:2:0:0:
31,234,81548,5,14,3:2:0:0:
197,212,81755,1,10,0:2:0:0:
306,351,81962,5,10,3:2:0:0:
140,329,82169,1,10,0:2:0:0:
206,236,82376,5,14,3:2:0:0:
372,214,82583,1,10,0:2:0:0:
481,353,82790,5,10,3:2:0:0:
315,331,82997,1,10,0:2:0:0:
311,11,83203,5,12,3:2:0:0:
354,12,83306,1,8,0:2:0:0:
393,32,83409,1,8,0:2:0:0:
422,65,83513,1,8,0:2:0:0:
434,107,83616,1,8,0:2:0:0:
429,150,83720,1,8,0:2:0:0:
407,188,83823,1,8,0:2:0:0:
372,214,83927,1,8,0:2:0:0:
321,217,84031,5,8,0:2:0:0:
300,232,84135,1,8,0:2:0:0:
286,255,84238,1,8,0:2:0:0:
283,281,84342,1,8,0:2:0:0:
291,306,84445,1,8,0:2:0:0:
308,326,84549,1,8,0:2:0:0:
331,338,84652,1,8,0:2:0:0:
357,338,84755,1,8,0:2:0:0:
392,320,84858,5,8,0:2:0:0:
405,320,84961,1,8,0:2:0:0:
416,326,85064,1,8,0:2:0:0:
425,336,85168,1,8,0:2:0:0:
429,348,85271,1,8,0:2:0:0:
427,361,85375,1,8,0:2:0:0:
420,373,85478,1,8,0:2:0:0:
410,380,85582,1,8,0:2:0:0:
397,382,85686,5,0,3:2:0:0:
291,306,86100,5,8,0:1:0:0:
217,318,86203,1,8,0:1:0:0:
139,327,86307,2,0,B|182:334|182:334|191:346|191:346|246:357,1,110,0|0,1:0|0:2,0:2:0:0:
434,298,86513,6,0,B|478:283|474:255|474:255|448:270|444:317|474:358,1,165,0|0,3:2|0:2,0:2:0:0:
401,197,86927,5,14,3:2:0:0:
388,213,87031,2,0,B|372:202|372:202|387:92,1,82.5000031471254,2|0,0:2|0:2,0:2:0:0:
413,31,87238,5,0,0:2:0:0:
330,56,87341,1,0,3:2:0:0:
413,47,87445,2,0,L|493:62,1,82.5000031471254,2|0,0:2|0:2,0:2:0:0:
250,102,87651,5,0,0:2:0:0:
333,77,87754,1,8,3:2:0:0:
250,86,87858,2,0,L|169:70,1,82.5000031471254,2|0,0:2|0:2,0:2:0:0:
249,203,88065,5,0,0:2:0:0:
166,178,88169,1,0,3:2:0:0:
249,185,88272,2,0,L|329:169,1,82.5000031471254,2|0,0:2|0:2,0:2:0:0:
86,132,88478,5,0,0:2:0:0:
169,157,88582,1,8,3:2:0:0:
86,148,88685,2,0,L|5:163,1,82.5000031471254,2|0,0:2|0:2,0:2:0:0:
107,339,88893,5,0,0:2:0:0:
190,314,88996,1,0,3:2:0:0:
97,352,89100,2,0,L|113:271,1,82.5000031471254,2|0,0:2|0:2,0:2:0:0:
292,284,89307,2,0,L|308:365,1,82.5000031471254,2|8,0:2|3:2,0:2:0:0:
434,311,89513,5,2,0:2:0:0:
436,298,89616,1,2,0:2:0:0:
438,286,89720,1,2,0:2:0:0:
512,360,89824,6,0,B|390:296|357:97|458:51|583:164|518:249|367:215,1,412.5,0|0,3:2|0:2,0:2:0:0:
352,323,90238,5,8,3:2:0:0:
315,251,90341,2,0,P|332:201|419:217,1,137.5,2|0,0:2|0:2,0:2:0:0:
266,354,90548,2,0,P|202:362|173:304,1,137.5,2|0,0:2|3:2,0:2:0:0:
173,304,90755,5,2,0:2:0:0:
149,222,90858,2,0,B|61:255|134:264|30:306,1,137.5,2|0,0:2|0:2,0:2:0:0:
26,85,91065,5,8,3:2:0:0:
36,98,91169,2,0,B|92:80|186:139|89:181|167:240|311:223,1,275,2|0,0:2|0:2,0:2:0:0:
474,112,91479,6,0,P|472:61|423:14,1,82.5000031471254,2|0,3:2|0:2,0:2:0:0:
360,59,91686,2,0,P|362:109|411:157,1,82.5000031471254,2|0,0:2|0:2,0:2:0:0:
455,293,91893,5,8,3:2:0:0:
499,364,91996,2,0,B|472:384|472:384|425:368,1,82.5000031471254,2|0,0:2|0:2,0:2:0:0:
408,222,92203,2,0,B|435:202|435:202|481:217,1,82.5000031471254,2|0,0:2|3:2,0:2:0:0:
343,343,92410,5,2,0:2:0:0:
341,323,92513,2,0,P|313:277|205:305,1,165.000006294251,2|8,0:2|3:2,0:2:0:0:
164,355,92824,2,0,P|137:364|161:350,1,82.5000031471254,2|0,0:2|0:2,0:2:0:0:
180,86,93134,6,0,B|220:45|223:16|223:16|220:46|247:92,1,165,2|0,3:2|0:2,0:2:0:0:
319,43,93548,5,10,3:2:0:0:
330,31,93651,2,0,L|358:133,1,82.5000031471254,2|0,0:2|0:2,0:2:0:0:
411,178,93858,5,0,0:2:0:0:
485,207,93961,1,0,3:2:0:0:
404,199,94065,2,0,B|373:193|373:193|361:201|361:201|312:191,1,82.5000031471254,2|0,0:2|0:2,0:2:0:0:
239,210,94272,5,0,0:2:0:0:
165,239,94375,1,8,3:2:0:0:
246,231,94479,2,0,B|277:225|277:225|289:233|289:233|338:223,1,82.5000031471254,2|0,0:2|0:2,0:2:0:0:
413,289,94686,5,0,0:2:0:0:
487,318,94789,1,0,3:2:0:0:
406,310,94893,2,0,B|375:304|375:304|363:312|363:312|314:302,1,82.5000031471254,2|0,0:2|0:2,0:2:0:0:
241,321,95100,5,0,0:2:0:0:
167,350,95203,1,8,3:2:0:0:
248,342,95307,2,0,B|279:336|279:336|291:344|291:344|340:334,1,82.5000031471254,2|0,0:2|0:2,0:2:0:0:
389,289,95513,5,2,0:2:0:0:
447,365,95617,1,2,3:2:0:0:
385,275,95720,2,0,L|365:166,1,82.5000031471254,2|0,0:2|0:2,0:2:0:0:
486,276,95927,2,0,L|500:194,1,82.5000031471254,2|8,0:2|3:2,0:2:0:0:
423,87,96134,5,2,0:0:0:0:
429,111,96237,1,2,0:0:0:0:
435,136,96341,1,2,0:0:0:0:
512,28,96445,6,0,B|492:5|401:2|347:39|482:119|257:187|314:45|237:52|165:89|161:148,1,412.5,2|0,3:2|0:2,0:2:0:0:
154,355,96858,5,8,3:2:0:0:
114,285,96962,2,0,B|164:295|164:295|165:322|165:322|235:337,1,137.5,2|0,0:2|0:2,0:2:0:0:
370,187,97169,2,0,B|313:200|313:200|312:227|312:227|262:238,1,137.5,2|0,0:2|3:2,0:2:0:0:
262,238,97376,5,2,0:2:0:0:
198,152,97479,2,0,B|227:91|227:91|244:159,1,137.5,2|0,0:2|0:2,0:2:0:0:
391,294,97686,5,8,3:2:0:0:
384,308,97789,2,0,B|279:287|279:287|270:257|270:257|121:226,1,275,2|0,0:2|0:2,0:2:0:0:
67,22,98100,6,0,B|36:50|36:50|138:56,1,82.5000031471254,2|0,3:2|0:2,0:2:0:0:
309,66,98307,2,0,B|340:38|340:38|238:32,1,82.5000031471254,2|0,0:2|0:2,0:2:0:0:
195,70,98513,5,8,3:2:0:0:
181,78,98617,2,0,B|173:110|173:110|180:125|180:125|165:197,1,82.5000031471254,2|0,0:2|0:2,0:2:0:0:
71,372,98824,2,0,B|63:340|63:340|70:325|70:325|55:253,1,82.5000031471254,2|0,0:2|3:2,0:2:0:0:
63,292,99031,1,2,0:2:0:0:
33,197,99134,2,0,B|71:204|71:204|69:208|69:208|148:219,1,82.5000031471254,2|0,0:2|0:2,0:2:0:0:
215,274,99341,5,8,3:2:0:0:
212,289,99445,2,0,B|249:286|309:325|299:371|299:371|250:337|278:205|393:182,1,343.75,2|0,0:2|0:2,0:2:0:0:
437,87,99755,6,0,B|394:95|406:127|406:127|426:110|404:51|361:28,1,165,2|0,3:2|0:2,0:2:0:0:
245,37,100169,5,14,3:2:0:0:
237,52,100272,2,0,L|149:40,1,82.5000031471254,2|0,0:2|0:2,0:2:0:0:
157,126,100479,5,0,0:2:0:0:
187,224,100582,1,0,3:2:0:0:
266,152,100686,2,0,L|111:171,1,110,2|0,0:2|0:2,0:2:0:0:
96,244,100893,5,0,0:2:0:0:
71,326,100996,1,8,3:2:0:0:
5,266,101100,2,0,L|134:282,1,110,2|0,0:2|0:2,0:2:0:0:
190,304,101307,5,0,0:2:0:0:
212,377,101410,1,0,3:2:0:0:
271,323,101514,2,0,L|154:337,1,82.5000031471254,2|0,0:2|0:2,0:2:0:0:
338,182,101720,5,0,0:2:0:0:
318,248,101823,1,8,3:2:0:0:
266,200,101927,2,0,L|370:213,1,82.5000031471254,2|0,0:2|0:2,0:2:0:0:
396,290,102134,5,2,0:2:0:0:
412,342,102237,1,2,3:2:0:0:
453,304,102341,2,0,L|370:314,1,82.5000031471254,2|0,0:2|0:2,0:2:0:0:
195,181,102548,2,0,L|276:191,1,82.5000031471254,2|8,0:2|3:2,0:2:0:0:
324,16,102755,5,2,0:2:0:0:
301,22,102859,1,2,0:2:0:0:
309,0,102962,1,2,0:2:0:0:
425,99,103065,6,0,B|457:154|562:190|604:-33|374:-49|405:181|245:89,1,412.5,2|0,3:2|0:2,0:2:0:0:
98,108,103479,5,8,3:2:0:0:
173,72,103582,2,0,P|182:116|127:182,1,137.5,2|0,0:2|0:2,0:2:0:0:
16,379,103789,2,0,P|12:312|62:268,1,137.5,2|0,0:2|3:2,0:2:0:0:
62,268,103996,5,2,0:2:0:0:
220,278,104100,2,0,B|135:298|199:347|87:362,1,137.5,2|0,0:2|0:2,0:2:0:0:
127,183,104307,5,8,3:2:0:0:
131,202,104410,2,0,P|261:197|215:77,1,275,2|0,0:2|0:2,0:2:0:0:
304,158,104720,6,0,B|344:170|344:170|349:176|349:176|424:198,1,82.5000031471254,2|0,3:2|0:2,0:2:0:0:
507,330,104927,2,0,B|467:342|467:342|462:348|462:348|387:370,1,82.5000031471254,2|0,0:2|0:2,0:2:0:0:
304,285,105134,5,10,3:2:0:0:
315,273,105238,2,0,L|337:376,1,82.5000031471254,2|0,0:2|0:2,0:2:0:0:
94,378,105445,2,0,L|116:275,1,82.5000031471254,2|0,0:2|3:2,0:2:0:0:
241,217,105651,5,2,0:2:0:0:
238,232,105755,2,0,P|208:241|161:188,1,82.5000031471254,2|0,0:2|0:2,0:2:0:0:
63,42,105962,5,8,3:2:0:0:
66,27,106066,2,0,P|95:17|124:140,1,165.000006294251,2|0,0:2|0:2,0:2:0:0:
45,311,106376,2,0,B|48:321|49:358|49:358|64:310|92:291|92:291|66:299|42:280,1,165,2|0,3:2|0:2,0:2:0:0:
151,368,106789,5,10,3:2:0:0:
160,350,106893,2,0,L|264:333,1,82.5000031471254,2|0,0:2|0:2,0:2:0:0:
452,273,107100,5,0,0:2:0:0:
422,347,107203,1,0,3:2:0:0:
434,265,107307,2,0,L|452:166,1,82.5000031471254,2|0,0:2|0:2,0:2:0:0:
308,227,107513,5,0,0:2:0:0:
338,301,107616,1,8,3:2:0:0:
326,219,107720,2,0,L|308:120,1,82.5000031471254,2|0,0:2|0:2,0:2:0:0:
448,183,107927,5,0,0:2:0:0:
418,257,108030,1,0,3:2:0:0:
430,175,108134,2,0,L|448:76,1,82.5000031471254,2|0,0:2|0:2,0:2:0:0:
311,137,108341,5,0,0:2:0:0:
341,211,108444,1,8,3:2:0:0:
329,129,108548,2,0,L|311:30,1,82.5000031471254,2|0,0:2|0:2,0:2:0:0:
148,67,108755,5,2,0:2:0:0:
233,83,108858,1,2,3:2:0:0:
140,92,108962,2,0,B|116:52|116:52|164:5,1,82.5000031471254,2|0,0:2|0:2,0:2:0:0:
220,188,109169,2,0,B|244:228|244:228|196:275,1,82.5000031471254,2|8,0:2|3:2,0:2:0:0:
50,370,109376,5,2,0:2:0:0:
56,346,109479,1,2,0:2:0:0:
62,322,109582,1,2,0:2:0:0:
81,224,109686,6,0,B|-6:198|-56:306|55:362|138:318|105:254|202:227|335:325,1,412.5,2|0,3:2|0:2,0:2:0:0:
491,363,110100,5,8,3:2:0:0:
475,281,110203,2,0,B|420:305|420:305|421:322|421:322|353:352,1,137.5,2|0,0:2|0:2,0:2:0:0:
210,138,110410,2,0,B|265:162|265:162|264:179|264:179|332:209,1,137.5,2|0,0:2|3:2,0:2:0:0:
319,203,110617,5,2,0:2:0:0:
386,134,110720,2,0,B|451:162|451:162|402:213,1,137.5,2|0,0:2|0:2,0:2:0:0:
168,343,110927,5,8,3:2:0:0:
104,288,111031,2,0,B|170:303|170:303|171:309|171:309|283:327|283:327|287:335|287:335|441:356,1,275,2|0,0:2|0:2,0:2:0:0:
475,281,111341,6,0,L|490:367,1,55,10|0,3:2|0:2,0:2:0:0:
451,201,111548,2,0,L|517:145,1,55,2|0,0:2|0:2,0:2:0:0:
393,261,111755,2,0,L|311:230,1,55,10|0,3:2|0:2,0:2:0:0:
317,60,111962,5,10,3:2:0:0:
325,41,112065,2,0,P|337:64|327:131,1,55,2|0,0:2|0:2,0:2:0:0:
140,99,112272,5,2,0:2:0:0:
132,118,112375,2,0,P|120:95|130:28,1,55,10|0,3:2|0:2,0:2:0:0:
244,21,112582,5,2,3:2:0:0:
234,31,112686,2,0,B|221:68|234:82|234:82|223:88|223:88|197:153|244:142|224:203|224:203|211:211|211:211|235:242|212:319,1,275,2|0,0:2|0:2,0:2:0:0:
204,380,112996,6,0,P|229:379|201:370,1,82.5000031471254,0|0,3:2|0:2,0:2:0:0:
218,368,113307,1,0,0:2:0:0:
141,309,113410,6,0,B|104:317|104:317|99:329|99:329|18:346,1,82.5000031471254,14|0,3:2|0:2,0:2:0:0:
104,221,113617,5,0,0:2:0:0:
114,225,113720,2,0,B|76:223|76:223|68:233|68:233|-14:228,1,82.5000031471254,2|0,0:2|3:2,0:2:0:0:
131,133,113927,5,0,0:2:0:0:
139,139,114030,2,0,B|102:127|102:127|92:135|92:135|13:109,1,82.5000031471254,2|0,0:2|0:2,0:2:0:0:
198,65,114238,5,8,3:2:0:0:
204,72,114341,2,0,B|172:51|172:51|160:56|160:56|90:11,1,82.5000031471254,2|0,0:2|0:2,0:2:0:0:
195,241,114548,1,0,0:2:0:0:
205,232,114651,6,0,B|244:238|244:238|249:242|249:242|327:252,1,82.5000031471254,2|0,3:2|0:2,0:2:0:0:
423,146,114858,2,0,B|462:140|462:140|467:136|467:136|545:126,1,82.5000031471254,2|0,0:2|0:2,0:2:0:0:
220,221,115065,2,0,B|259:227|259:227|264:231|264:231|342:241,1,82.5000031471254,10|0,3:2|0:2,0:2:0:0:
422,365,115272,5,0,0:2:0:0:
433,358,115376,2,0,P|443:314|394:276,1,82.5000031471254,2|0,0:2|3:2,0:2:0:0:
278,382,115582,5,0,0:2:0:0:
290,384,115686,2,0,P|327:360|320:298,1,82.5000031471254,2|0,0:2|0:2,0:2:0:0:
164,292,115892,5,8,3:2:0:0:
171,302,115996,2,0,P|214:312|253:263,1,82.5000031471254,2|0,0:2|0:2,0:2:0:0:
143,150,116203,1,0,0:2:0:0:
140,162,116307,6,0,P|163:199|234:196,1,110,2|0,3:2|0:2,0:2:0:0:
397,38,116513,2,0,P|352:39|320:102,1,110,2|0,0:2|0:2,0:2:0:0:
375,322,116720,2,0,P|396:282|357:223,1,110,10|0,3:2|0:2,0:2:0:0:
243,292,116927,5,0,0:2:0:0:
236,305,117031,2,0,B|181:320|208:354|141:358,1,110,2|0,0:2|3:2,0:2:0:0:
25,207,117238,5,0,0:2:0:0:
32,220,117342,2,0,B|87:235|60:269|127:273,1,110,2|0,0:2|0:2,0:2:0:0:
246,115,117548,5,8,3:2:0:0:
239,128,117652,2,0,B|184:143|211:177|144:181,1,110,2|0,0:2|0:2,0:2:0:0:
32,30,117858,1,0,0:2:0:0:
35,44,117962,6,0,L|168:62,1,110,2|0,3:2|0:2,0:2:0:0:
236,305,118169,2,0,L|369:287,1,110,2|0,0:2|0:2,0:2:0:0:
403,53,118376,2,0,L|536:71,1,110,10|0,3:2|0:2,0:2:0:0:
239,128,118582,5,0,0:2:0:0:
253,149,118686,2,0,B|271:116|271:116|255:82|255:82|274:17,1,110,2|0,0:2|3:2,0:2:0:0:
446,240,118892,5,0,0:2:0:0:
432,261,118996,2,0,B|414:228|414:228|430:194|430:194|411:129,1,110,2|0,0:2|0:2,0:2:0:0:
250,324,119203,6,0,L|245:389,1,41.2500015735627,0|0,3:2|0:2,0:2:0:0:
247,366,119410,1,0,0:2:0:0:
512,38,119617,6,2,B|437:48|437:48|412:171|412:171|317:187,1,275,6|0,3:2|0:2,0:1:0:0:
339,183,120031,6,0,B|318:158|318:158|334:31,1,110,10|0,3:2|0:2,0:2:0:0:
197,23,120238,1,0,0:2:0:0:
212,113,120341,2,0,B|233:87|233:87|217:-39,1,110,2|0,0:2|3:2,0:2:0:0:
10,232,120651,6,0,L|144:247,1,110,2|0,0:2|0:2,0:2:0:0:
211,352,120858,5,8,3:2:0:0:
300,283,120962,2,0,B|205:304|205:304|204:335|204:335|72:354,1,220,2|0,0:2|0:2,0:2:0:0:
115,156,121272,6,0,L|134:291,1,110,2|0,3:2|0:2,0:2:0:0:
303,374,121479,2,0,L|322:239,1,110,2|0,0:2|0:2,0:2:0:0:
503,164,121686,2,0,L|484:299,1,110,10|0,3:2|0:2,0:2:0:0:
221,195,121893,5,0,0:2:0:0:
250,121,121996,2,0,B|302:127|302:127|304:134|304:134|371:140,1,110,2|0,0:2|3:2,0:2:0:0:
455,89,122203,5,0,0:2:0:0:
426,15,122306,2,0,B|374:21|374:21|372:28|372:28|305:34,1,110,2|0,0:2|0:2,0:2:0:0:
164,134,122513,5,8,3:2:0:0:
113,77,122617,2,0,B|82:19|82:19|208:40|208:40|183:72,1,220,2|0,0:2|0:2,0:2:0:0:
98,323,122927,6,0,L|91:352,8,27.5,2|0|0|0|0|0|0|0|0,3:2|0:2|0:2|0:2|0:2|0:2|0:2|0:2|0:2,0:2:0:0:
501,255,123341,6,0,B|404:278|476:335|375:353,1,165.000006294251,10|0,3:2|0:2,0:2:0:0:
289,353,123651,6,0,P|267:333|297:347,1,82.5000031471254,2|0,0:2|3:2,0:2:0:0:
409,181,123858,1,0,0:2:0:0:
417,190,123962,2,0,P|439:170|409:184,1,82.5000031471254,2|0,0:2|0:2,0:2:0:0:
213,256,124169,5,8,3:2:0:0:
199,273,124272,2,0,B|133:260|133:260|131:237|131:237|40:216,1,165.000006294251,2|0,0:2|0:2,0:2:0:0:
40,208,124582,6,0,L|141:195,1,82.5000031471254,2|0,3:2|0:2,0:2:0:0:
123,352,124789,2,0,L|224:365,1,82.5000031471254,2|0,0:2|0:2,0:2:0:0:
205,57,124996,2,0,L|306:44,1,82.5000031471254,2|0,3:2|0:2,0:2:0:0:
480,108,125203,5,2,3:2:0:0:
476,126,125307,2,0,P|425:129|396:84,1,82.5000031471254,2|0,0:2|0:2,0:2:0:0:
420,27,125513,5,2,0:2:0:0:
423,9,125617,2,0,P|474:6|503:51,1,82.5000031471254,2|0,3:2|0:2,0:2:0:0:
415,384,125824,5,2,3:2:0:0:
346,327,125927,2,0,P|345:290|510:320,1,220,2|0,0:2|0:2,0:0:0:0:
482,332,126238,6,2,B|465:351|462:379|462:379|460:337|412:296,1,123.750004720688,2|0,3:2|0:2,0:1:0:0:
334,169,126651,6,0,L|223:183,1,82.5000031471254,14|0,3:2|0:2,0:2:0:0:
57,248,126858,5,0,0:2:0:0:
64,260,126962,2,0,L|92:155,1,82.5000031471254,2|0,0:2|3:2,0:2:0:0:
284,101,127169,5,0,0:2:0:0:
289,85,127272,2,0,L|178:99,1,82.5000031471254,2|0,0:2|0:2,0:2:0:0:
0,157,127479,5,8,3:2:0:0:
7,169,127583,2,0,L|35:64,1,82.5000031471254,2|0,0:2|0:2,0:2:0:0:
151,313,127789,1,0,0:2:0:0:
144,297,127893,6,0,B|180:303|180:303|184:309|184:309|263:321,1,82.5000031471254,2|0,3:2|0:2,0:2:0:0:
289,85,128100,2,0,B|325:79|325:79|329:73|329:73|408:61,1,82.5000031471254,2|0,0:2|0:2,0:2:0:0:
390,346,128307,2,0,B|426:352|426:352|430:358|430:358|509:370,1,82.5000031471254,10|0,3:2|0:2,0:2:0:0:
496,98,128513,5,0,0:2:0:0:
491,85,128617,2,0,B|469:96|469:96|482:179,1,82.5000031471254,2|0,0:2|3:2,0:2:0:0:
390,346,128824,5,0,0:2:0:0:
385,359,128928,2,0,B|363:348|363:348|376:265,1,82.5000031471254,2|0,0:2|0:2,0:2:0:0:
289,85,129134,5,8,3:2:0:0:
284,72,129238,2,0,B|262:83|262:83|275:166,1,82.5000031471254,2|0,0:2|0:2,0:2:0:0:
110,333,129445,1,0,0:2:0:0:
104,318,129548,6,0,L|-17:356,1,110,2|0,3:2|0:2,0:2:0:0:
304,284,129755,2,0,L|398:370,1,110,2|0,0:2|0:2,0:2:0:0:
181,143,129962,2,0,L|208:18,1,110,10|0,3:2|0:2,0:2:0:0:
397,41,130169,5,0,0:2:0:0:
386,55,130272,2,0,L|507:85,1,110,2|0,0:2|3:2,0:2:0:0:
207,145,130479,5,0,0:2:0:0:
218,159,130582,2,0,L|90:190,1,110,2|0,0:2|0:2,0:2:0:0:
411,231,130789,5,8,3:2:0:0:
400,245,130892,2,0,L|522:275,1,110,2|0,0:2|0:2,0:2:0:0:
250,366,131100,1,0,0:2:0:0:
241,384,131203,6,0,B|215:360|215:360|237:265,1,110,2|0,3:2|0:2,0:2:0:0:
73,315,131410,2,0,B|70:279|70:279|153:227,1,110,2|0,0:2|0:2,0:2:0:0:
1,147,131617,2,0,B|24:121|24:121|119:143,1,110,10|0,3:2|0:2,0:2:0:0:
229,0,131824,5,0,0:2:0:0:
246,14,131927,2,2,L|228:139,1,110,0|0,0:2|3:2,0:2:0:0:
366,236,132134,5,2,0:2:0:0:
292,225,132238,1,2,0:2:0:0:
218,214,132341,1,2,0:2:0:0:
296,212,132445,6,0,L|346:204,1,41.2500015735627,10|0,3:2|0:2,0:2:0:0:
353,203,132651,1,2,0:2:0:0:
0,384,132858,6,2,B|35:347|74:368|74:368|59:307|78:244|78:244|123:261|176:210,1,275,6|0,3:2|0:2,0:1:0:0:
142,236,133272,6,0,B|145:285|145:285|159:292|159:292|162:337,1,110,10|0,3:2|0:2,0:2:0:0:
54,223,133479,1,0,0:2:0:0:
52,113,133583,2,0,B|49:158|49:158|35:165|35:165|29:248,1,110,2|0,0:2|3:2,0:2:0:0:
174,324,133893,6,0,B|244:310|244:310|285:372|285:372|410:349,1,220,2|8,0:2|3:2,0:2:0:0:
494,118,134203,2,0,P|383:106|419:229,1,220,2|0,0:2|0:2,0:2:0:0:
462,294,134513,6,0,B|486:277|486:277|453:191,1,110,2|0,3:2|0:2,0:2:0:0:
190,189,134720,2,0,B|166:172|166:172|199:86,1,110,2|0,0:2|0:2,0:2:0:0:
494,118,134927,2,0,B|518:101|518:101|485:15,1,110,10|0,3:2|0:2,0:2:0:0:
277,65,135134,5,0,0:2:0:0:
306,145,135238,2,0,B|352:137|352:137|361:121|361:121|442:101,1,110,2|0,0:2|3:2,0:2:0:0:
491,214,135445,5,2,0:2:0:0:
462,294,135549,2,0,B|416:286|416:286|407:270|407:270|326:250,1,110,2|0,0:2|0:2,0:2:0:0:
197,205,135755,5,8,3:2:0:0:
244,278,135858,2,0,B|275:308|275:308|280:213|280:213|298:206|298:206|307:132,1,220,2|0,0:2|0:2,0:2:0:0:
54,34,136169,6,0,L|13:40,8,27.5,2|0|0|0|0|0|0|0|0,3:2|0:2|0:2|0:2|0:2|0:2|0:2|0:2|0:2,0:2:0:0:
35,384,136582,6,0,P|94:303|84:193,1,165.000006294251,10|0,3:2|0:2,0:2:0:0:
30,122,136893,2,0,P|56:158|121:131,1,82.5000031471254,2|0,0:2|3:2,0:2:0:0:
288,72,137100,5,0,0:2:0:0:
291,48,137203,2,0,L|187:69,1,82.5000031471254,2|0,0:2|0:2,0:2:0:0:
309,283,137410,1,8,3:2:0:0:
315,304,137513,2,0,B|199:278|199:278|202:202,1,165.000006294251,2|0,0:2|0:2,0:2:0:0:
510,66,137824,6,0,L|497:167,1,82.5000031471254,10|0,3:2|0:2,0:2:0:0:
390,166,138031,2,0,L|403:267,1,82.5000031471254,2|0,0:2|0:2,0:2:0:0:
490,275,138238,2,0,L|477:376,1,82.5000031471254,10|0,3:2|0:2,0:2:0:0:
411,79,138445,1,2,3:2:0:0:
410,62,138548,6,0,B|374:69|374:69|367:79|367:79|305:86,1,82.5000031471254,2|0,0:2|3:2,0:2:0:0:
216,275,138755,1,2,0:2:0:0:
215,292,138858,2,0,B|179:285|179:285|172:275|172:275|110:268,1,82.5000031471254,2|0,0:2|0:2,0:2:0:0:
35,79,139065,2,0,B|68:69|94:5|94:5|54:92|94:180,1,247.500009441376,2|0,3:2|0:2,0:2:0:0:
96,160,139479,5,6,0:2:0:0:
330,200,151065,5,0,3:2:0:0:
339,110,151479,1,0,3:2:0:0:
348,20,151789,1,0,1:2:0:0:
361,30,151893,6,0,L|407:22,1,27.5,0|0,3:2|1:2,0:2:0:0:
347,122,152100,2,0,L|393:114,1,27.5,0|0,1:2|1:2,0:2:0:0:
341,218,152307,5,8,0:1:0:0:
341,231,152410,1,8,0:1:0:0:
455,187,152513,6,0,B|397:199|397:199|396:221|396:221|258:244,1,137.5,8|0,0:2|0:2,0:2:0:0:
51,270,152720,6,0,P|119:285|126:355,1,123.750004720688,0|0,3:2|0:2,0:2:0:0:
133,330,153134,6,0,P|93:219|197:71,1,247.500009441376,14|0,3:2|1:2,0:2:0:0:
292,229,153548,2,0,B|352:242|352:242|387:215|387:215|444:227,1,165.000006294251,2|0,3:2|1:2,0:2:0:0:
494,59,153858,2,0,L|508:140,1,82.5000031471254,2|8,0:2|3:2,0:2:0:0:
508,140,154169,6,0,L|394:116,1,82.5000031471254,2|0,0:2|0:2,0:2:0:0:
250,86,154376,1,0,3:2:0:0:
250,86,154582,6,0,P|240:48|241:3,1,82.5000031471254,2|0,0:2|0:2,0:2:0:0:
376,219,154789,2,0,P|386:257|385:302,1,82.5000031471254,10|0,3:2|0:2,0:2:0:0:
215,365,154996,1,2,1:2:0:0:
215,365,155100,1,2,1:2:0:0:
148,288,155203,5,0,3:2:0:0:
148,288,155307,2,0,B|85:309|85:309|69:340|69:340|-2:361,1,165.000006294251,2|0,1:2|1:2,0:2:0:0:
69,208,155617,5,10,3:2:0:0:
69,208,155824,2,0,L|85:90,1,82.5000031471254,2|0,0:2|0:2,0:2:0:0:
284,119,156031,6,0,P|396:99|476:56,1,165.000006294251,2|0,3:2|0:2,0:2:0:0:
441,77,156445,2,0,P|471:174|469:278,1,165.000006294251,10|0,3:2|0:2,0:2:0:0:
473,238,156755,1,0,1:2:0:0:
473,238,156858,6,0,L|359:222,1,82.5000031471254,2|0,3:2|1:2,0:2:0:0:
410,349,157065,1,0,0:2:0:0:
410,349,157169,2,2,L|491:337,1,82.5000031471254,2|10,0:2|3:2,0:2:0:0:
317,302,157376,5,2,0:2:0:0:
317,302,157582,1,2,0:2:0:0:
252,372,157686,6,0,B|213:358|213:358|236:162,1,165.000006294251,2|0,3:2|0:2,0:2:0:0:
227,235,158100,2,0,L|34:259,1,165.000006294251,10|0,3:2|1:2,0:2:0:0:
63,255,158410,1,0,1:2:0:0:
12,189,158513,5,2,3:2:0:0:
12,189,158617,2,0,B|-7:168|-7:168|19:85,1,82.5000031471254,2|0,1:2|0:2,0:2:0:0:
194,24,158824,5,2,0:2:0:0:
194,24,158928,2,0,B|175:45|175:45|201:128,1,82.5000031471254,10|0,3:2|0:2,0:2:0:0:
227,235,159134,2,0,B|248:254|248:254|331:228,1,82.5000031471254,2|0,1:2|0:2,0:2:0:0:
453,82,159341,6,0,B|451:36|451:36|351:60|351:60|343:114,1,165.000006294251,2|0,3:2|0:2,0:2:0:0:
348,76,159755,2,0,B|346:107|346:107|277:131,1,82.5000031471254,10|0,3:2|0:2,0:2:0:0:
11,250,159962,1,2,1:2:0:0:
11,250,160065,1,2,1:2:0:0:
58,323,160169,5,0,3:2:0:0:
58,323,160272,2,0,P|138:303|149:293,1,82.5000031471254,2|0,1:2|0:2,0:2:0:0:
214,198,160479,2,0,P|294:218|305:228,1,82.5000031471254,2|8,0:2|3:2,0:2:0:0:
386,325,160686,5,2,0:2:0:0:
386,325,160893,1,2,0:2:0:0:
242,380,160996,5,2,3:2:0:0:
242,380,161203,2,0,L|229:261,1,82.5000031471254,2|0,0:2|0:2,0:2:0:0:
63,121,161410,2,0,L|76:2,1,82.5000031471254,10|0,3:2|0:2,0:2:0:0:
320,24,161617,1,2,1:2:0:0:
320,24,161720,1,2,1:2:0:0:
402,64,161824,5,0,3:2:0:0:
402,64,161927,2,0,P|421:159|352:195,1,165.000006294251,2|2,1:2|1:2,0:2:0:0:
282,169,162238,5,10,3:2:0:0:
282,169,162445,2,0,L|269:285,1,82.5000031471254,2|0,0:2|0:2,0:2:0:0:
153,353,162651,6,0,B|40:346|112:294|15:277,1,165.000006294251,2|0,3:2|0:2,0:2:0:0:
17,277,163065,2,0,P|20:167|80:136,1,165.000006294251,10|0,3:2|0:2,0:2:0:0:
56,141,163376,1,2,1:2:0:0:
137,207,163479,5,0,3:2:0:0:
137,207,163582,2,0,P|178:203|225:168,1,82.5000031471254,2|0,1:2|0:2,0:2:0:0:
298,108,163789,5,2,0:2:0:0:
326,201,163893,1,8,3:2:0:0:
319,106,163996,5,2,0:2:0:0:
319,106,164203,1,2,0:2:0:0:
212,182,164307,6,0,B|207:218|207:218|225:247|225:247|216:322,1,110,2|0,3:2|0:2,0:2:0:0:
480,106,164513,2,0,B|483:82|483:82|471:62|471:62|477:13,1,82.5000031471254,2|0,3:2|0:2,0:2:0:0:
197,217,164720,2,0,B|194:234|194:234|203:248|203:248|198:284,1,55,10|0,3:2|0:2,0:2:0:0:
466,86,164927,2,0,B|467:76|467:76|462:69|462:69|464:49,1,27.5,2|0,3:2|0:2,0:2:0:0:
359,148,165134,5,0,1:2:0:0:
355,161,165238,1,0,1:2:0:0:
346,151,165341,1,0,1:2:0:0:
344,116,165445,5,8,3:2:0:0:
397,172,165548,1,8,0:1:0:0:
323,190,165651,1,8,0:1:0:0:
352,154,165755,6,0,P|373:213|324:367,1,206.25,8|0,0:2|0:2,0:2:0:0:
326,363,165962,5,6,3:2:0:0:
243,312,166376,1,2,0:2:0:0:
164,355,166789,1,2,0:2:0:0:
81,304,167203,1,2,0:2:0:0:
81,304,167513,1,2,0:2:0:0:
81,304,167617,5,2,0:2:0:0:
164,355,167824,1,2,0:2:0:0:
243,312,168031,1,2,0:2:0:0:
326,363,168238,1,2,0:2:0:0:
81,320,168445,5,2,0:2:0:0:
164,269,168652,1,2,0:2:0:0:
243,312,168859,1,2,0:2:0:0:
326,261,169066,1,2,0:2:0:0:
325,30,169272,5,2,0:2:0:0:
209,43,169686,1,2,0:2:0:0:
222,159,170100,1,2,0:2:0:0:
338,146,170513,1,2,0:2:0:0:
338,146,170824,1,2,0:2:0:0:
338,146,170927,5,2,0:2:0:0:
325,30,171134,1,2,0:2:0:0:
209,43,171341,1,2,0:2:0:0:
222,159,171548,1,2,0:2:0:0:
339,47,171755,5,2,0:2:0:0:
326,163,171962,1,2,0:2:0:0:
210,150,172169,1,2,0:2:0:0:
223,34,172376,1,2,0:2:0:0:
484,78,172582,5,2,0:2:0:0:
473,160,172996,1,2,0:2:0:0:
462,242,173410,1,2,0:2:0:0:
451,324,173824,1,2,0:2:0:0:
451,324,174134,1,2,0:2:0:0:
451,324,174238,5,2,0:2:0:0:
462,242,174445,1,2,0:2:0:0:
473,160,174652,1,2,0:2:0:0:
484,78,174858,1,2,0:2:0:0:
486,331,175065,5,2,0:2:0:0:
475,249,175271,1,2,0:2:0:0:
464,167,175478,1,2,0:2:0:0:
453,85,175685,1,2,0:2:0:0:
347,199,175893,5,2,0:2:0:0:
268,173,176307,1,2,0:2:0:0:
188,192,176720,1,2,0:2:0:0:
143,261,177134,1,2,0:2:0:0:
143,261,177445,1,2,0:2:0:0:
143,261,177548,5,2,0:2:0:0:
188,192,177755,1,2,0:2:0:0:
268,173,177962,1,2,0:2:0:0:
347,199,178169,1,2,0:2:0:0:
385,271,178376,1,2,1:2:0:0:
371,352,178582,1,2,0:2:0:0:
240,330,178789,5,0,1:0:0:0:
312,300,178893,1,0,1:0:0:0:
385,271,178996,1,0,1:0:0:0:
42,233,179203,5,4,3:2:0:0:
42,233,179617,5,8,0:2:0:0:
127,211,179824,1,0,0:2:0:0:
143,35,180031,5,0,3:2:0:0:
228,57,180238,1,0,0:2:0:0:
244,292,180445,5,8,0:2:0:0:
329,270,180652,1,0,0:2:0:0:
489,44,180858,5,4,3:2:0:0:
489,44,181272,5,8,0:2:0:0:
395,61,181479,1,0,0:2:0:0:
228,57,181686,5,0,3:2:0:0:
245,151,181893,1,0,0:2:0:0:
241,318,182100,5,8,0:2:0:0:
335,301,182307,1,0,0:2:0:0:
502,305,182513,5,4,3:2:0:0:
324,217,182720,5,0,0:2:0:0:
241,318,182927,1,8,0:2:0:0:
195,195,183134,1,0,0:2:0:0:
368,349,183341,5,0,3:2:0:0:
111,286,183548,1,0,0:2:0:0:
174,29,183755,1,8,0:2:0:0:
431,92,183962,1,0,0:2:0:0:
278,183,184169,5,4,3:2:0:0:
350,155,184376,5,0,0:2:0:0:
267,256,184583,1,8,0:2:0:0:
221,133,184790,1,0,0:2:0:0:
360,249,184996,5,0,3:2:0:0:
181,218,185203,1,0,0:2:0:0:
221,0,185410,5,8,0:2:0:0:
42,31,185617,1,0,0:2:0:0:
67,353,185824,5,12,3:2:0:0:
71,328,186031,1,8,0:2:0:0:
181,218,186238,5,8,3:2:0:0:
177,193,186445,1,8,0:2:0:0:
224,359,186651,5,12,3:2:0:0:
220,384,186858,1,8,0:2:0:0:
334,249,187065,5,8,3:2:0:0:
330,224,187272,1,8,0:2:0:0:
83,97,187479,5,12,3:2:0:0:
60,88,187686,1,8,0:2:0:0:
330,224,187893,5,8,3:2:0:0:
353,233,188100,1,8,0:2:0:0:
69,224,188307,5,12,3:2:0:0:
46,233,188514,1,8,0:2:0:0:
316,97,188721,5,8,3:2:0:0:
339,88,188928,1,8,0:2:0:0:
174,23,189134,5,12,3:2:0:0:
167,63,189238,1,8,0:2:0:0:
160,103,189341,1,8,0:2:0:0:
153,143,189445,1,8,0:2:0:0:
146,183,189548,1,12,0:2:0:0:
140,223,189651,1,8,0:2:0:0:
133,264,189755,1,8,0:2:0:0:
127,304,189858,1,8,0:2:0:0:
123,345,189962,5,12,0:2:0:0:
119,321,190066,1,8,0:2:0:0:
115,297,190169,1,8,0:2:0:0:
111,273,190273,1,8,0:2:0:0:
107,249,190376,1,12,0:2:0:0:
103,225,190479,1,8,0:2:0:0:
99,200,190583,1,8,0:2:0:0:
95,176,190686,1,8,0:2:0:0:
92,142,190789,5,12,0:2:0:0:
106,145,190893,1,8,0:2:0:0:
121,147,190996,1,8,0:2:0:0:
135,149,191100,1,8,0:2:0:0:
150,152,191203,1,12,0:2:0:0:
164,154,191306,1,8,0:2:0:0:
179,157,191410,1,8,0:2:0:0:
193,159,191513,1,8,0:2:0:0:
203,241,191617,5,8,3:2:0:0:
203,241,192031,5,0,1:2:0:0:
277,277,192134,1,0,1:2:0:0:
351,313,192238,2,0,B|371:298|396:303|396:303|420:334|461:338|461:338|517:275|456:243,1,206.25,8|0,0:2|0:2,0:2:0:0:
473,246,192445,6,0,B|463:231|418:224|418:224|384:255|393:294,1,137.5,0|0,3:2|0:2,0:2:0:0:
35,96,192858,1,4,0:2:0:0:
45,84,192962,6,0,B|117:115|117:115|118:148|118:148|194:177,1,192.5,2|0,0:2|0:2,0:2:0:0:
194,177,193376,2,0,B|160:102|160:102|183:78|183:78|154:5,1,192.5,2|0,0:2|0:2,0:2:0:0:
287,28,193789,2,0,B|256:100|256:100|223:101|223:101|194:177,1,192.5,2|0,0:2|0:2,0:2:0:0:
194,177,194203,2,0,B|268:143|268:143|292:166|292:166|365:137,1,192.5,2|0,0:2|0:2,0:2:0:0:
342,270,194617,2,0,B|271:239|271:239|270:206|270:206|194:177,1,192.5,2|0,0:2|0:2,0:2:0:0:
194,177,195031,2,0,B|227:252|227:252|205:276|205:276|234:349,1,192.5,2|0,0:2|0:2,0:2:0:0:
128,283,195445,2,0,B|149:233|149:233|173:232|173:232|194:177,1,137.5,2|0,0:2|0:2,0:2:0:0:
72,24,195755,6,0,B|9:8|-61:85|54:198|140:145|86:26|245:28|327:118,1,412.5,2|0,3:2|0:2,0:2:0:0:
491,171,196169,5,14,3:2:0:0:
433,111,196272,2,0,B|397:127|397:127|418:287,1,137.5,2|0,0:2|0:2,0:2:0:0:
512,380,196479,2,0,B|476:364|476:364|497:204,1,137.5,2|0,0:2|3:2,0:2:0:0:
488,266,196686,5,0,0:2:0:0:
409,224,196789,2,0,B|325:252|325:252|320:343|320:343|202:378,1,275,2|8,0:2|3:2,0:2:0:0:
161,255,197100,2,0,B|207:212|231:137|231:137|207:211|235:298,1,275,2|0,0:2|0:2,0:2:0:0:
171,171,197410,6,0,L|75:151,1,82.5000031471254,2|0,3:2|0:2,0:2:0:0:
280,30,197617,2,0,L|360:13,1,82.5000031471254,2|0,0:2|0:2,0:2:0:0:
492,151,197824,5,10,3:2:0:0:
493,137,197927,2,0,P|458:125|421:171,1,82.5000031471254,2|0,0:2|0:2,0:2:0:0:
444,244,198134,2,0,P|478:255|516:210,1,82.5000031471254,2|0,0:2|3:2,0:2:0:0:
512,221,198341,1,2,0:2:0:0:
431,252,198445,6,0,B|329:242|393:185|273:178,1,165.000006294251,2|8,0:2|3:2,0:2:0:0:
236,245,198755,2,0,B|238:257|225:285|225:285|237:256|252:250,1,82.5000031471254,2|0,0:2|0:2,0:2:0:0:
506,32,199065,6,0,P|447:41|499:17,1,165,2|0,3:2|0:2,0:2:0:0:
478,34,199479,5,10,3:2:0:0:
455,25,199582,2,0,P|425:33|403:99,1,82.5000031471254,2|0,0:2|0:2,0:2:0:0:
370,158,199789,5,0,0:2:0:0:
285,170,199893,1,0,3:2:0:0:
372,180,199996,2,0,L|477:169,1,82.5000031471254,2|0,0:2|0:2,0:2:0:0:
323,250,200203,5,0,0:2:0:0:
408,262,200307,1,8,3:2:0:0:
321,272,200410,2,0,L|216:261,1,82.5000031471254,2|0,0:2|0:2,0:2:0:0:
157,300,200617,5,0,0:2:0:0:
145,215,200721,1,0,3:2:0:0:
135,302,200824,2,0,L|146:407,1,82.5000031471254,2|0,0:2|0:2,0:2:0:0:
65,253,201031,5,0,0:2:0:0:
53,338,201135,1,8,3:2:0:0:
43,251,201238,2,0,L|54:146,1,82.5000031471254,2|0,0:2|0:2,0:2:0:0:
220,96,201445,5,0,0:2:0:0:
133,113,201548,1,0,3:2:0:0:
220,79,201651,2,0,L|327:97,1,82.5000031471254,2|0,0:2|0:2,0:2:0:0:
118,32,201858,2,0,L|36:45,1,82.5000031471254,2|8,0:2|3:2,0:2:0:0:
175,198,202065,5,2,0:2:0:0:
178,222,202169,1,2,0:2:0:0:
181,246,202272,1,2,0:2:0:0:
51,168,202376,6,0,B|226:189|74:307|289:342|380:294|325:147|280:146|190:183,1,412.5,2|0,3:2|0:2,0:2:0:0:
271,303,202789,5,8,3:2:0:0:
340,254,202893,2,0,B|410:278|364:316|463:328,1,137.5,2|0,0:2|0:2,0:2:0:0:
509,110,203100,2,0,B|439:134|485:172|386:184,1,137.5,2|0,0:2|3:2,0:2:0:0:
397,182,203307,5,0,0:2:0:0:
290,95,203410,2,0,B|290:17|290:17|423:58|423:58|349:120,1,275,2|8,0:2|3:2,0:2:0:0:
152,274,203720,2,0,B|152:352|152:352|285:310|285:310|240:273,1,275,2|0,0:2|0:2,0:2:0:0:
44,26,204031,6,0,L|22:164,1,82.5000031471254,2|0,3:2|0:2,0:2:0:0:
126,113,204238,2,0,L|148:-25,1,82.5000031471254,2|0,0:2|0:2,0:2:0:0:
62,197,204445,5,10,3:2:0:0:
49,207,204548,2,0,B|37:228|37:228|53:258|53:258|37:294,1,82.5000031471254,2|0,0:2|0:2,0:2:0:0:
142,379,204755,2,0,B|130:357|130:357|146:328|146:328|130:292,1,82.5000031471254,2|0,0:2|3:2,0:2:0:0:
197,226,204962,5,2,0:2:0:0:
207,214,205065,2,0,L|344:240,1,82.5000031471254,2|0,0:2|0:2,0:2:0:0:
437,299,205272,5,8,3:2:0:0:
448,304,205376,2,0,B|465:347|475:403|345:448|263:304|442:282|423:215|343:134,1,343.75,2|0,0:2|0:2,0:2:0:0:
274,43,205686,6,0,B|293:11|373:21|373:21|312:14|290:75,1,192.5,2|0,3:2|0:2,0:2:0:0:
235,123,206100,5,14,3:2:0:0:
231,136,206203,2,0,P|190:159|133:156,1,82.5000031471254,2|0,0:2|0:2,0:2:0:0:
29,340,206410,5,0,0:2:0:0:
17,215,206513,1,0,3:2:0:0:
132,268,206617,2,0,B|78:279|78:279|67:304|67:304|-6:313,1,137.5,2|0,0:2|0:2,0:2:0:0:
180,207,206824,5,0,0:2:0:0:
168,332,206927,1,8,3:2:0:0:
283,279,207031,2,0,B|229:268|229:268|218:243|218:243|145:234,1,137.5,2|0,0:2|0:2,0:2:0:0:
291,197,207238,5,0,0:2:0:0:
282,109,207341,1,0,3:2:0:0:
363,146,207445,2,0,B|331:152|331:152|324:167|324:167|281:172,1,82.5000031471254,2|0,0:2|0:2,0:2:0:0:
394,237,207651,5,0,0:2:0:0:
386,307,207754,1,8,3:2:0:0:
451,277,207858,2,0,B|420:270|420:270|414:256|414:256|373:251,1,82.5000031471254,2|0,0:2|0:2,0:2:0:0:
368,127,208065,5,2,0:2:0:0:
394,221,208169,1,2,3:2:0:0:
374,110,208272,2,0,L|487:134,1,82.5000031471254,2|0,0:2|0:2,0:2:0:0:
382,243,208479,2,0,L|269:267,1,82.5000031471254,2|8,0:2|3:2,0:2:0:0:
185,187,208686,5,2,0:2:0:0:
160,182,208789,1,2,0:2:0:0:
135,178,208893,1,2,0:2:0:0:
50,76,208996,6,0,B|99:67|138:88|150:140|150:140|169:208|239:211|294:185|300:103|259:69|202:67,1,412.5,2|0,3:2|0:2,0:2:0:0:
53,279,209410,5,10,3:2:0:0:
12,348,209513,2,0,B|96:329|44:289|157:268,1,137.5,2|0,0:2|0:2,0:2:0:0:
274,199,209720,2,0,B|358:218|306:258|419:279,1,137.5,2|0,0:2|3:2,0:2:0:0:
386,271,209927,5,0,0:2:0:0:
258,294,210031,2,0,B|170:303|174:383|174:383|250:349|220:218,1,275,2|8,0:2|3:2,0:2:0:0:
166,79,210341,2,0,B|78:70|82:-10|82:-10|158:24|128:155,1,275,2|0,0:2|0:2,0:2:0:0:
138,261,210651,6,0,B|122:274|110:293|110:293|124:270|123:236,1,82.5000031471254,2|0,3:2|0:2,0:2:0:0:
301,96,210858,2,0,B|285:83|273:64|273:64|287:87|286:121,1,82.5000031471254,2|0,0:2|0:2,0:2:0:0:
425,192,211065,5,10,3:2:0:0:
438,206,211169,2,0,L|528:188,1,82.5000031471254,2|0,0:2|0:2,0:2:0:0:
460,313,211376,2,0,L|379:296,1,82.5000031471254,2|0,0:2|3:2,0:2:0:0:
253,203,211582,5,2,0:2:0:0:
262,187,211686,2,0,B|327:180|327:180|277:345,1,165.000006294251,2|8,0:2|3:2,0:2:0:0:
246,345,211996,2,0,B|229:336|219:316|219:316|225:342|211:375,1,82.5000031471254,2|0,0:2|0:2,0:2:0:0:
499,123,212307,6,0,B|524:96|510:51|510:51|473:86|486:132,1,165,2|0,3:2|0:2,0:2:0:0:
401,123,212720,5,10,3:2:0:0:
391,106,212824,2,0,L|293:118,1,82.5000031471254,2|0,0:2|0:2,0:2:0:0:
222,174,213031,5,0,0:2:0:0:
141,160,213134,1,0,3:2:0:0:
216,185,213238,2,0,L|308:202,1,82.5000031471254,2|0,0:2|0:2,0:2:0:0:
381,215,213445,5,0,0:2:0:0:
462,201,213548,1,8,3:2:0:0:
387,226,213652,2,0,L|296:243,1,82.5000031471254,2|0,0:2|0:2,0:2:0:0:
240,301,213858,5,0,0:2:0:0:
159,287,213961,1,0,3:2:0:0:
234,312,214065,2,0,L|326:329,1,82.5000031471254,2|0,0:2|0:2,0:2:0:0:
399,342,214272,5,0,0:2:0:0:
480,328,214375,1,8,3:2:0:0:
405,353,214479,2,0,L|314:370,1,82.5000031471254,2|0,0:2|0:2,0:2:0:0:
468,209,214686,5,2,0:2:0:0:
389,250,214789,1,2,3:2:0:0:
474,195,214893,2,0,L|487:87,1,82.5000031471254,2|0,0:2|0:2,0:2:0:0:
286,297,215100,2,0,L|273:189,1,82.5000031471254,2|8,0:2|3:2,0:2:0:0:
156,159,215307,5,2,0:2:0:0:
131,156,215410,1,2,0:2:0:0:
106,153,215514,1,2,0:2:0:0:
14,74,215617,6,0,B|-17:121|13:209|130:187|194:118|62:85|188:31|254:53|297:135|223:194,1,412.5,2|0,3:2|0:2,0:2:0:0:
190,378,216031,5,8,3:2:0:0:
136,323,216134,2,0,B|174:318|174:318|214:351|214:351|289:331,1,137.5,2|0,0:2|0:2,0:2:0:0:
340,217,216341,2,0,B|378:222|378:222|418:188|418:188|493:208,1,137.5,2|0,0:2|3:2,0:2:0:0:
463,200,216548,5,0,0:2:0:0:
356,310,216651,2,0,B|361:344|346:372|346:372|503:348|503:348|468:332|436:298,1,275,2|8,0:2|3:2,0:2:0:0:
400,159,216962,2,0,B|410:112|410:112|397:96|397:96|406:55,1,110,2|0,0:2|0:2,0:2:0:0:
487,47,217272,6,0,L|380:56,1,55,2|0,3:2|0:2,0:2:0:0:
347,102,217479,2,0,L|240:93,1,55,2|0,0:2|0:2,0:2:0:0:
215,37,217686,2,0,L|108:46,1,55,2|0,3:2|0:2,0:2:0:0:
57,200,217893,5,2,3:2:0:0:
41,213,217996,2,0,P|29:182|48:137,1,55,2|0,0:2|0:2,0:2:0:0:
199,143,218203,5,2,0:2:0:0:
215,130,218306,2,0,P|226:160|208:206,1,55,2|0,3:2|0:2,0:2:0:0:
144,350,218513,5,2,3:2:0:0:
118,260,218617,2,0,B|213:244|264:313|184:351|272:401|400:380,1,275,2|0,0:2|0:2,0:2:0:0:
448,307,218927,6,0,P|459:288|440:306,1,82.5000031471254,0|0,3:2|0:2,0:2:0:0:
447,294,219238,1,0,0:2:0:0:
461,196,219341,6,0,P|403:200|366:245,1,82.5000031471254,14|0,3:2|0:2,0:2:0:0:
351,101,219548,5,0,0:2:0:0:
347,90,219651,2,0,P|309:133|314:191,1,82.5000031471254,2|0,0:2|3:2,0:2:0:0:
202,100,219859,5,0,0:2:0:0:
191,95,219962,2,0,P|195:152|240:190,1,82.5000031471254,2|0,0:2|0:2,0:2:0:0:
95,204,220169,5,8,3:2:0:0:
84,208,220272,2,0,P|127:245|185:240,1,82.5000031471254,2|0,0:2|0:2,0:2:0:0:
268,375,220479,1,0,0:2:0:0:
283,365,220582,6,0,L|303:248,1,82.5000031471254,2|0,3:2|0:2,0:2:0:0:
97,289,220789,2,0,L|77:172,1,82.5000031471254,2|0,0:2|0:2,0:2:0:0:
379,217,220996,2,0,L|399:100,1,82.5000031471254,10|0,3:2|0:2,0:2:0:0:
225,7,221203,5,0,0:2:0:0:
219,24,221307,2,0,B|206:43|206:43|106:32,1,82.5000031471254,2|0,0:2|3:2,0:2:0:0:
298,206,221513,5,0,0:2:0:0:
292,189,221617,2,0,B|279:170|279:170|179:181,1,82.5000031471254,2|0,0:2|0:2,0:2:0:0:
453,11,221824,5,8,3:2:0:0:
447,28,221928,2,0,B|434:47|434:47|334:36,1,82.5000031471254,2|0,0:2|0:2,0:2:0:0:
442,263,222134,1,0,0:2:0:0:
436,283,222238,6,0,B|418:338|418:338|354:277,1,110,2|0,3:2|0:2,0:2:0:0:
247,150,222445,2,2,B|303:138|303:138|282:224,1,110,0|0,0:2|0:2,0:2:0:0:
226,380,222651,2,2,B|187:336|187:336|272:311,1,110,8|0,3:2|0:2,3:2:0:0:
442,263,222858,5,0,0:2:0:0:
436,283,222962,2,0,B|391:292|391:292|377:278|377:278|303:288,1,110,2|0,0:2|3:2,0:2:0:0:
69,196,223169,5,0,0:2:0:0:
75,216,223273,2,0,B|120:225|120:225|134:211|134:211|208:221,1,110,2|0,0:2|0:2,0:2:0:0:
463,38,223479,5,8,3:2:0:0:
457,58,223583,2,0,B|412:67|412:67|398:53|398:53|324:63,1,110,2|0,0:2|0:2,0:2:0:0:
75,44,223789,1,0,0:2:0:0:
87,27,223893,6,0,P|141:53|148:141,1,110,2|0,3:2|0:2,0:2:0:0:
269,94,224100,2,0,P|288:150|231:217,1,110,2|0,0:2|0:2,0:2:0:0:
350,270,224307,2,0,P|323:324|236:331,1,110,10|0,3:2|0:2,0:2:0:0:
43,341,224513,5,0,0:2:0:0:
27,344,224616,2,0,B|40:307|40:307|123:313,1,110,2|0,0:2|3:2,0:2:0:0:
304,174,224824,5,0,0:2:0:0:
219,176,224927,2,0,B|233:213|233:213|316:207,1,110,2|0,0:2|0:2,0:2:0:0:
493,303,225134,6,0,L|482:369,1,41.2500015735627,10|0,3:2|0:2,0:2:0:0:
483,362,225341,1,0,0:2:0:0:
500,5,225548,6,2,B|470:29|475:63|475:63|410:15|407:78|348:37|348:37|365:85|337:118,1,275,6|0,3:2|0:2,0:1:0:0:
345,106,225962,6,0,L|236:99,1,110,10|0,3:2|0:2,0:2:0:0:
12,77,226169,1,0,0:2:0:0:
74,24,226272,2,0,B|158:35|158:35|166:78,1,110,2|0,0:2|3:2,0:2:0:0:
64,372,226582,6,0,B|31:364|31:364|54:222,1,110,2|0,0:2|0:2,0:2:0:0:
185,208,226789,1,8,3:2:0:0:
298,191,226893,2,0,B|170:207|260:288|112:310,1,220,2|0,0:2|0:2,0:2:0:0:
219,297,227203,6,0,P|249:314|353:318,1,110,2|0,3:2|0:2,0:2:0:0:
495,222,227410,2,0,P|445:245|391:249,1,110,2|0,0:2|0:2,0:2:0:0:
266,119,227617,2,0,P|315:142|369:146,1,110,10|0,3:2|0:2,0:2:0:0:
454,112,227824,5,0,0:2:0:0:
384,56,227927,2,0,B|351:78|351:78|379:182,1,110,2|0,0:2|3:2,0:2:0:0:
321,305,228134,5,0,0:2:0:0:
391,249,228237,2,0,B|424:271|424:271|396:375,1,110,2|0,0:2|0:2,0:2:0:0:
144,350,228445,5,8,3:2:0:0:
231,272,228548,2,0,B|140:291|140:291|122:333|122:333|43:353,1,220,2|0,0:2|0:2,0:2:0:0:
39,53,228858,6,0,L|34:12,8,27.5,0|0|0|0|0|0|0|0|0,3:2|0:2|0:2|0:2|0:2|0:2|0:2|0:2|0:2,0:2:0:0:
323,335,229272,6,0,P|406:328|417:254,1,165.000006294251,10|0,3:2|0:2,0:2:0:0:
401,170,229582,2,0,P|437:161|497:157,1,82.5000031471254,2|0,0:2|3:2,0:2:0:0:
459,53,229789,1,0,0:2:0:0:
451,62,229893,2,0,P|409:58|369:48,1,82.5000031471254,2|0,0:2|0:2,0:2:0:0:
250,184,230100,5,8,3:2:0:0:
262,173,230203,2,0,B|305:79|208:119|262:-1,1,165.000006294251,2|0,0:2|0:2,0:2:0:0:
172,126,230513,6,0,L|59:145,1,82.5000031471254,2|0,3:2|0:2,0:2:0:0:
242,276,230720,2,0,L|323:289,1,82.5000031471254,2|0,0:2|0:2,0:2:0:0:
118,365,230927,2,2,L|36:378,1,82.5000031471254,10|2,3:2|0:2,0:2:0:0:
14,221,231134,5,2,0:2:0:0:
25,208,231238,2,0,L|45:324,1,82.5000031471254,2|0,0:2|3:2,0:2:0:0:
216,344,231445,5,2,0:2:0:0:
227,357,231549,2,0,L|247:241,1,82.5000031471254,2|0,0:2|0:2,0:2:0:0:
503,169,231755,5,10,3:2:0:0:
483,85,231858,2,0,P|379:98|346:209,1,220,2|0,0:2|0:2,0:2:0:0:
386,281,232169,6,2,B|414:265|424:246|424:246|409:279|412:330,1,123.750004720688,2|0,3:2|0:2,0:1:0:0:
68,344,232582,6,0,P|131:329|139:297,1,82.5000031471254,14|0,3:2|0:2,0:2:0:0:
26,210,232789,5,0,0:2:0:0:
14,218,232893,2,0,P|69:251|97:234,1,82.5000031471254,2|0,0:2|3:2,0:2:0:0:
79,93,233099,5,0,0:2:0:0:
64,90,233203,2,0,P|79:153|111:161,1,82.5000031471254,2|0,0:2|0:2,0:2:0:0:
199,47,233409,5,0,3:2:0:0:
190,35,233513,2,8,P|156:90|173:118,1,82.5000031471254,2|0,0:2|0:2,0:2:0:0:
242,273,233720,1,0,0:2:0:0:
253,256,233824,6,0,L|346:236,1,82.5000031471254,2|0,3:2|0:2,0:2:0:0:
512,145,234031,2,0,L|431:127,1,82.5000031471254,2|0,0:2|0:2,0:2:0:0:
466,364,234238,2,0,L|446:271,1,82.5000031471254,10|0,3:2|0:2,0:2:0:0:
315,52,234445,5,0,0:2:0:0:
302,32,234548,2,0,B|289:21|289:21|193:44,1,82.5000031471254,2|0,0:2|3:2,0:2:0:0:
157,261,234755,5,0,0:2:0:0:
144,281,234858,2,0,B|131:292|131:292|35:269,1,82.5000031471254,2|0,0:2|0:2,0:2:0:0:
89,48,235065,5,8,3:2:0:0:
76,28,235168,2,0,B|63:17|63:17|-33:40,1,82.5000031471254,2|0,0:2|0:2,0:2:0:0:
156,152,235376,1,0,0:2:0:0:
141,140,235479,6,0,P|192:135|248:217,1,110,2|0,3:2|0:2,0:2:0:0:
291,378,235686,2,0,P|261:336|304:246,1,110,2|0,0:2|0:2,3:2:0:0:
423,130,235893,2,0,P|401:176|302:184,1,110,10|0,3:2|0:2,0:2:0:0:
273,28,236100,5,0,0:2:0:0:
279,17,236203,2,0,P|317:71|292:128,1,110,2|0,0:2|3:2,0:2:0:0:
124,319,236410,5,0,0:2:0:0:
111,319,236513,2,0,P|138:259|200:252,1,110,2|0,0:2|0:2,0:2:0:0:
451,303,236720,5,8,3:2:0:0:
457,313,236823,2,0,P|391:318|354:268,1,110,2|0,0:2|0:2,0:2:0:0:
163,78,237031,1,0,0:2:0:0:
154,62,237134,6,0,B|109:68|109:68|105:81|105:81|42:92,1,110,2|0,3:2|0:2,0:2:0:0:
350,199,237341,2,0,B|400:207|400:207|404:220|404:220|449:226,1,110,2|0,0:2|0:2,0:2:0:0:
193,338,237548,2,0,B|142:346|142:346|138:359|138:359|93:365,1,110,10|0,3:2|0:2,0:2:0:0:
35,245,237755,5,0,0:2:0:0:
46,227,237858,2,0,B|66:202|66:202|131:216|131:216|133:246,1,110,2|0,0:2|3:2,0:2:0:0:
355,73,238065,5,0,0:2:0:0:
268,86,238168,2,0,B|288:111|288:111|353:97|353:97|355:67,1,110,2|0,0:2|0:2,0:2:0:0:
482,10,238376,6,0,L|472:84,1,41.2500015735627,10|0,3:2|0:2,0:2:0:0:
474,73,238582,1,0,0:2:0:0:
495,334,238789,6,2,B|439:323|439:323|439:332|439:332|380:317|380:317|377:256|377:256|304:242|304:242|330:290,1,275,6|0,3:2|0:2,0:1:0:0:
310,253,239203,6,0,B|282:283|282:283|191:263,1,110,10|0,3:2|0:2,0:2:0:0:
12,77,239410,1,0,0:2:0:0:
69,20,239513,2,2,B|97:-9|97:-9|188:10,1,110,2|0,0:2|3:2,0:2:0:0:
448,191,239824,6,0,B|481:182|481:182|457:47,1,110,2|0,0:2|0:2,0:2:0:0:
273,47,240031,1,8,3:2:0:0:
354,19,240134,2,0,B|397:13|397:13|352:146|352:146|321:92,1,220,2|0,0:2|0:2,0:2:0:0:
116,178,240445,6,0,B|74:194|74:194|73:207|73:207|5:226,1,110,2|0,3:2|0:2,0:2:0:0:
185,331,240651,2,0,B|192:286|192:286|181:279|181:279|198:210,1,110,2|0,0:2|0:2,0:2:0:0:
17,314,240858,2,0,B|51:342|51:342|63:336|63:336|114:386,1,110,10|0,3:2|0:2,0:2:0:0:
281,326,241065,5,0,0:2:0:0:
356,363,241169,2,0,P|387:337|379:235,1,110,2|0,0:2|3:2,0:2:0:0:
427,160,241376,5,0,0:2:0:0:
496,113,241480,2,0,P|488:73|396:29,1,110,2|0,0:2|0:2,0:2:0:0:
319,129,241686,5,8,3:2:0:0:
253,48,241789,2,0,B|387:72|277:160|454:161,1,220,2|0,0:2|0:2,0:2:0:0:
80,334,242100,6,0,P|74:352|76:384,8,27.5,0|0|0|0|0|0|0|0|0,3:2|0:2|0:2|0:2|0:2|0:2|0:2|0:2|0:2,0:2:0:0:
17,118,242513,6,0,L|133:139,1,82.5000031471254,10|0,3:2|0:2,0:2:0:0:
163,226,242720,1,0,0:2:0:0:
170,209,242824,2,0,L|286:188,1,82.5000031471254,2|0,0:2|3:2,0:2:0:0:
323,117,243031,1,0,0:2:0:0:
330,134,243135,2,0,L|446:155,1,82.5000031471254,2|0,0:2|0:2,0:2:0:0:
423,311,243341,5,8,3:2:0:0:
408,303,243445,2,0,B|357:267|357:267|406:382,1,165.000006294251,2|0,0:2|0:2,0:2:0:0:
485,279,243755,6,0,B|448:288|448:288|441:296|441:296|384:308,1,82.5000031471254,2|0,3:2|0:2,0:2:0:0:
310,363,243962,2,0,B|273:354|273:354|266:346|266:346|209:334,1,82.5000031471254,2|0,0:2|0:2,0:2:0:0:
128,307,244169,1,8,0:2:0:0:
45,90,244376,5,10,0:2:0:0:
45,90,244479,2,0,P|74:29|114:33,1,82.5000031471254,2|0,3:2|0:2,0:2:0:0:
157,72,244686,5,10,0:2:0:0:
157,72,244789,2,0,P|128:133|88:129,1,82.5000031471254,2|0,3:2|0:2,0:2:0:0:
17,179,244996,6,0,B|116:196|47:256|152:275,1,165.000006294251,10|6,3:2|3:2,1:0:0:0:
