osu file format v14

[General]
AudioFilename: audio.mp3
AudioLeadIn: 0
PreviewTime: -1
Countdown: 1
SampleSet: None
StackLeniency: 0.7
Mode: 0
LetterboxInBreaks: 0
WidescreenStoryboard: 1

[Editor]
DistanceSpacing: 1.1
BeatDivisor: 16
GridSize: 32
TimelineZoom: 1.5

[Metadata]
Title:AI WO TORIMODOSE
TitleUnicode:AI WO TORIMODOSE
Artist:Michio Yamashita
ArtistUnicode:Michio Yamashita
Creator:Miikarusuki
Version:Normal
Source:https://www.youtube.com/watch?v=RxkezvGwI20
Tags:you wa shock hokuto no ken opening
BeatmapID:2014330
BeatmapSetID:962011

[Difficulty]
HPDrainRate:2
CircleSize:2
OverallDifficulty:5
ApproachRate:2
SliderMultiplier:1.7
SliderTickRate:3

[Events]
//Background and Video events
0,0,"thumb-1920-702099.jpg",0,0
//Break Periods
//Storyboard Layer 0 (Background)
//Storyboard Layer 1 (Fail)
//Storyboard Layer 2 (Pass)
//Storyboard Layer 3 (Foreground)
//Storyboard Sound Samples

[TimingPoints]
391.341144949162,382.165605095541,4,3,0,100,1,8
18520,382.165605095541,4,3,0,100,1,0
18520,-66.6666666666667,4,3,0,100,0,0

[Colours]
Combo1 : 198,0,0
Combo2 : 87,3,137
Combo3 : 2,2,204
Combo4 : 188,0,251
Combo5 : 3,70,194

[HitObjects]
256,192,1370,5,2,0:0:0:0:
160,192,1776,1,4,2:0:0:0:
352,192,1967,1,4,2:0:0:0:
256,288,2158,1,4,2:0:0:0:
32,352,2732,2,0,B|32:192|32:192|48:158,1,191.25
21,89,3329,2,0,P|32:83|94:88,1,74.375
160,96,3663,2,0,P|171:90|233:95,1,74.375
416,160,4260,54,0,L|346:219,1,85
416,160,4642,2,0,L|483:230,1,95.625
352,32,5407,2,8,P|210:82|143:164,1,255
145,159,6171,2,8,P|299:151|382:102,1,244.375
352,256,7867,5,4,2:0:0:0:
352,256,8058,1,4,2:0:0:0:
352,256,8249,1,4,2:0:0:0:
104,291,8846,6,8,B|87:263|68:236|79:224|96:216|111:210|132:195|132:190|130:185|127:156|102:135,1,180.625
192,32,9420,1,0,0:0:0:0:
192,32,9587,1,0,0:0:0:0:
192,32,9753,1,0,0:0:0:0:
192,32,9969,1,0,0:0:0:0:
320,96,10350,54,0,L|229:95,1,85
320,96,10732,2,0,L|387:166,1,95.625
64,64,11282,5,8,0:0:0:0:
64,64,11498,2,0,B|64:185|64:185|114:222|114:222|114:296,1,255
224,320,12262,2,0,B|224:224|224:224|256:192|256:192|258:45,1,286.875
480,288,13241,6,0,L|384:288,1,95.625
256,288,13671,1,0,0:0:0:0:
288,192,14005,37,2,0:0:0:0:
288,192,14220,1,0,0:0:0:0:
288,192,14603,1,0,0:0:0:0:
384,320,15152,21,8,0:0:0:0:
224,320,15534,2,0,L|103:321,1,116.875
96,256,15916,2,0,P|90:201|131:163,1,106.25
192,128,16537,5,0,0:0:0:0:
192,128,16705,1,8,0:0:0:0:
192,128,16920,1,0,0:0:0:0:
160,224,17493,6,0,L|137:137,1,85
96,256,17827,2,0,L|71:173,1,85
64,160,18400,1,0,0:0:0:0:
480,256,19738,1,8,0:0:0:0:
448,320,20072,6,0,L|336:219,1,143.437505471707
320,224,20669,1,0,0:0:0:0:
416,192,21219,21,8,0:0:0:0:
352,32,21816,2,0,L|352:144,1,111.562504255772
352,160,22174,1,0,0:0:0:0:
352,320,22604,6,0,P|417:355|452:334,1,111.562504255772
480,288,22986,2,0,P|489:215|446:180,1,127.500004863739
352,128,23559,5,0,0:0:0:0:
352,128,23703,1,0,0:0:0:0:
352,128,23894,2,0,B|352:224|352:224|398:259,1,143.437505471707
480,288,24276,2,0,B|480:320|480:320|384:352,1,127.500004863739
320,352,24658,1,0,0:0:0:0:
256,288,25972,6,0,P|135:232|150:123,1,255.000009727478
224,64,26521,1,0,0:0:0:0:
224,64,26736,1,0,0:0:0:0:
224,64,26904,1,0,0:0:0:0:
224,64,27118,1,0,0:0:0:0:
480,256,27548,6,0,B|480:320|480:320|436:343|331:335,1,207.187507903576
256,352,28074,1,0,0:0:0:0:
256,352,28241,1,0,0:0:0:0:
256,352,28408,1,0,0:0:0:0:
256,352,28647,1,0,0:0:0:0:
256,352,28814,1,2,0:0:0:0:
256,352,29005,1,0,0:0:0:0:
352,352,29197,1,0,0:0:0:0:
160,128,30176,5,0,0:0:0:0:
288,128,30343,1,0,0:0:0:0:
160,128,30510,1,0,0:0:0:0:
288,128,30677,1,0,0:0:0:0:
288,224,31083,2,0,B|256:256|224:224|224:256|192:224|192:256|160:224|160:256|144:223,1,143.437505471707
64,192,31656,1,0,0:0:0:0:
320,192,32230,5,0,0:0:0:0:
320,192,32421,1,0,0:0:0:0:
320,256,32612,1,0,0:0:0:0:
320,256,32803,1,0,0:0:0:0:
384,256,32994,2,0,B|384:224|384:224|416:192|416:192|416:160|416:160|448:128|448:128|448:96|448:96|480:64,1,223.125008511544
384,32,33519,1,0,0:0:0:0:
384,32,33711,1,0,0:0:0:0:
320,64,33902,1,8,0:0:0:0:
320,64,34093,1,0,0:0:0:0:
256,96,34284,1,2,0:0:0:0:
256,96,34475,1,0,0:0:0:0:
320,192,34834,1,0,0:0:0:0:
352,256,35072,1,0,0:0:0:0:
288,256,35239,2,0,B|285:216|272:212|272:212|243:243|224:238|224:237|224:237|255:186|242:178|242:178|198:207|185:199|185:199|199:167|196:168|196:168|187:155,1,270.937510335446
256,64,36242,2,0,P|288:64|387:99,1,127.500004863739
256,192,36744,12,0,38082,0:0:0:0:
256,96,38273,5,0,0:0:0:0:
256,96,38488,1,0,0:0:0:0:
256,96,38869,1,0,0:0:0:0:
32,352,40016,6,0,B|79:350|79:350|110:294,2,111.562504255772
128,160,40757,1,0,0:0:0:0:
224,160,40924,1,0,0:0:0:0:
256,256,41091,1,0,0:0:0:0:
480,352,41736,6,0,L|384:352,1,95.6250036478044
224,352,42070,1,0,0:0:0:0:
288,288,42285,1,0,0:0:0:0:
205,273,42644,1,0,0:0:0:0:
406,45,43982,1,8,0:0:0:0:
256,32,44316,6,0,L|255:182,1,143.437505471707
256,192,44913,1,0,0:0:0:0:
480,160,46059,2,0,B|475:100|475:100|427:132,2,111.562504255772
352,192,46848,5,0,0:0:0:0:
448,256,47015,1,0,0:0:0:0:
448,352,47230,2,0,L|348:272,1,127.500004863739
480,160,47803,5,0,0:0:0:0:
480,160,47947,1,0,0:0:0:0:
466,203,48137,2,0,P|402:175|375:96,1,143.437505471707
290,88,48519,2,0,P|305:165|332:207,1,127.500004863739
32,352,50239,6,0,B|32:288|32:288|96:288|96:288|96:352|96:352|160:352,1,255.000009727478
256,352,50812,1,0,0:0:0:0:
256,288,51003,1,0,0:0:0:0:
256,256,51171,2,8,B|224:192|298:123|463:204,1,270.937510335446
480,352,51792,6,0,B|480:288|480:288|416:288|416:288|416:352|416:352|360:352,1,239.062509119511
224,320,52341,1,0,0:0:0:0:
224,320,52508,1,0,0:0:0:0:
128,320,52699,1,0,0:0:0:0:
128,320,52914,1,0,0:0:0:0:
128,224,53081,1,2,0:0:0:0:
128,224,53272,1,0,0:0:0:0:
128,128,53464,1,0,0:0:0:0:
448,192,54443,5,0,0:0:0:0:
448,192,54610,1,0,0:0:0:0:
352,160,54777,5,0,0:0:0:0:
352,160,54944,1,0,0:0:0:0:
416,64,55350,1,0,0:0:0:0:
352,64,55566,2,0,B|337:50|337:50|324:40|309:49|309:49|292:68|292:68|276:77|262:70|262:70|251:44|251:44|238:33|223:44|223:44|206:68|206:68|193:78|179:70|179:70|164:54,1,239.062509119511
96,321,56497,6,0,B|95:355|95:355|108:368|133:362|138:352|138:352|140:307,3,127.500004863739
161,230,57261,2,0,B|161:198|161:198|193:166|193:166|193:134|193:134|225:102|225:102|225:70|225:70|257:38,1,223.125008511544
320,32,57787,2,0,L|320:160,1,127.500004863739
320,159,58169,1,0,0:0:0:0:
320,256,58408,1,0,0:0:0:0:
320,256,58551,2,0,B|320:384|320:384|263:383,1,175.312506687641
128,320,59148,1,0,0:0:0:0:
128,224,59339,1,0,0:0:0:0:
128,192,59531,2,0,B|115:179|115:179|136:174|136:174|115:165|115:165|136:161|136:161|115:154|115:154|135:149|135:149|114:143|114:143|135:140|135:140|114:136|114:136|134:130|134:130|112:126|112:126|133:121|133:121|114:117|114:117|115:116|115:116|122:114,1,270.937510335446
451,223,60510,2,0,P|366:233|357:167,1,159.375006079674
256,192,60964,12,0,63424,0:0:0:0:
448,288,63997,6,0,L|229:288,1,207.187507903576
96,256,64499,1,0,0:0:0:0:
96,256,64714,1,0,0:0:0:0:
96,256,64929,1,0,0:0:0:0:
96,256,65144,1,0,0:0:0:0:
96,256,65335,1,0,0:0:0:0:
160,224,65526,5,0,0:0:0:0:
160,224,65741,1,0,0:0:0:0:
160,224,65884,1,0,0:0:0:0:
160,224,66099,1,0,0:0:0:0:
160,224,66267,1,0,0:0:0:0:
128,32,67007,5,0,0:0:0:0:
96,64,67126,2,0,P|89:78|116:205,1,143.437505471707
256,224,67723,2,0,P|320:160|338:71,1,175.312506687641
64,64,68583,2,0,P|32:128|108:248,1,223.125008511544
320,192,69419,2,8,P|288:96|145:57,1,255.000009727478
512,64,70017,5,0,0:0:0:0:
480,64,70422,2,2,B|394:26|304:120|304:120|217:33|172:20|68:176|68:176|40:78|40:78|24:36|5:31,1,669.375025534631
0,256,71617,2,2,B|44:153|133:302|133:302|246:174|279:170|420:353,1,573.750021886826
256,64,73265,5,2,0:0:0:0:
320,192,73671,1,8,0:0:0:0:
448,32,74053,1,0,0:0:0:0:
448,64,74220,1,0,0:0:0:0:
416,64,74411,1,2,0:0:0:0:
480,64,74626,2,0,B|471:154|471:154|404:206|404:206|318:195|318:195|218:218|218:218|139:287|139:287|38:241|38:241|10:215,1,605.625023102761
455,34,76155,6,0,B|390:75|484:85|420:136|402:134|457:193|481:192|435:276,1,255.000009727478
416,352,76680,1,0,0:0:0:0:
416,352,76895,1,0,0:0:0:0:
320,352,77110,5,0,0:0:0:0:
320,352,77325,1,0,0:0:0:0:
320,352,77516,1,0,0:0:0:0:
192,352,77707,1,0,0:0:0:0:
192,352,77922,1,0,0:0:0:0:
192,352,78065,1,0,0:0:0:0:
96,352,78280,1,0,0:0:0:0:
96,288,78448,1,0,0:0:0:0:
96,64,79307,6,0,P|89:78|116:205,1,143.437505471707
288,256,79904,2,0,P|352:192|370:103,1,175.312506687641
160,96,80764,2,0,P|128:160|204:280,1,223.125008511544
448,224,81600,2,8,P|416:128|273:89,1,255.000009727478
256,192,82532,12,0,83631,0:0:0:0:
346,111,83774,6,0,P|337:90|163:159,1,286.875010943413
192,160,84395,1,0,0:0:0:0:
192,160,84562,1,0,0:0:0:0:
192,160,84729,1,0,0:0:0:0:
192,160,84969,1,0,0:0:0:0:
96,96,85398,2,0,L|128:160,1,63.7500024318696
256,192,85924,12,0,88814,0:0:0:0:
