osu file format v14

[General]
AudioFilename: audio.mp3
AudioLeadIn: 0
PreviewTime: -1
Countdown: 1
SampleSet: None
StackLeniency: 0.7
Mode: 0
LetterboxInBreaks: 0
WidescreenStoryboard: 1

[Editor]
DistanceSpacing: 1.1
BeatDivisor: 16
GridSize: 32
TimelineZoom: 1.5

[Metadata]
Title:AI WO TORIMODOSE
TitleUnicode:AI WO TORIMODOSE
Artist:Michio Yamashita
ArtistUnicode:Michio Yamashita
Creator:Miikarusuki
Version:Hard
Source:https://www.youtube.com/watch?v=RxkezvGwI20
Tags:you wa shock hokuto no ken opening
BeatmapID:2014327
BeatmapSetID:962011

[Difficulty]
HPDrainRate:3
CircleSize:3
OverallDifficulty:5
ApproachRate:3
SliderMultiplier:1.7
SliderTickRate:3

[Events]
//Background and Video events
0,0,"thumb-1920-702099.jpg",0,0
//Break Periods
//Storyboard Layer 0 (Background)
//Storyboard Layer 1 (Fail)
//Storyboard Layer 2 (Pass)
//Storyboard Layer 3 (Foreground)
//Storyboard Sound Samples

[TimingPoints]
391.341144949162,382.165605095541,4,3,0,100,1,8
18520,382.165605095541,4,3,0,100,1,0
18520,-66.6666666666667,4,3,0,100,0,0

[Colours]
Combo1 : 198,0,0
Combo2 : 87,3,137
Combo3 : 2,2,204
Combo4 : 188,0,251
Combo5 : 3,70,194

[HitObjects]
256,192,1251,5,8,0:0:0:0:
256,192,1298,1,8,0:0:0:0:
256,192,1370,1,2,0:0:0:0:
160,192,1776,1,4,2:0:0:0:
352,192,1967,1,4,2:0:0:0:
256,288,2158,1,4,2:0:0:0:
32,352,2732,2,0,B|32:192|32:192|48:158,1,191.25
32,96,3330,1,0,0:0:0:0:
96,96,3497,1,0,0:0:0:0:
160,96,3663,1,0,0:0:0:0:
224,96,3831,1,0,0:0:0:0:
367,176,4260,54,0,L|297:235,1,85
369,291,4642,2,0,L|436:361,1,95.625
320,64,5216,21,8,0:0:0:0:
224,32,5407,2,8,P|82:82|15:164,1,255
96,224,6171,2,8,P|250:216|333:167,1,244.375
256,96,7867,5,4,2:0:0:0:
384,192,8058,1,4,2:0:0:0:
288,288,8249,1,4,2:0:0:0:
104,291,8846,6,8,B|87:263|68:236|79:224|96:216|111:210|132:195|132:190|130:185|127:156|102:135,1,180.625
224,32,9420,1,0,0:0:0:0:
224,96,9587,1,0,0:0:0:0:
288,32,9753,1,0,0:0:0:0:
288,96,9969,1,0,0:0:0:0:
256,192,10350,54,0,L|165:191,1,85
320,224,10732,2,0,L|387:294,1,95.625
160,64,11282,5,8,0:0:0:0:
64,64,11498,2,0,B|64:185|64:185|114:222|114:222|114:296,1,255
224,320,12262,2,0,B|224:224|224:224|256:192|256:192|258:45,1,286.875
480,288,13241,6,0,L|384:288,1,95.625
256,288,13671,1,0,0:0:0:0:
288,192,14005,37,2,0:0:0:0:
352,64,14220,1,0,0:0:0:0:
192,64,14603,1,0,0:0:0:0:
384,320,15152,21,8,0:0:0:0:
224,320,15534,2,0,L|103:321,1,116.875
96,256,15916,2,0,P|90:201|131:163,1,106.25
192,128,16537,5,0,0:0:0:0:
256,96,16705,1,8,0:0:0:0:
320,64,16920,1,0,0:0:0:0:
128,160,17493,6,0,L|105:73,1,85
96,256,17827,2,0,L|71:173,1,85
256,224,18400,1,0,0:0:0:0:
480,256,19738,1,8,0:0:0:0:
448,320,20072,6,0,L|336:219,1,143.437505471707
224,128,20669,1,0,0:0:0:0:
416,192,21219,21,8,0:0:0:0:
32,64,21816,2,0,L|32:176,1,111.562504255772
128,178,22174,1,0,0:0:0:0:
352,320,22604,6,0,P|417:355|452:334,1,111.562504255772
480,288,22986,2,0,P|489:215|446:180,1,127.500004863739
288,32,23559,5,0,0:0:0:0:
320,64,23703,1,0,0:0:0:0:
352,128,23894,2,0,B|352:224|352:224|398:259,1,143.437505471707
480,288,24276,2,0,B|480:320|480:320|384:352,1,127.500004863739
320,352,24658,1,0,0:0:0:0:
240,337,25805,1,8,0:0:0:0:
256,288,25972,6,0,P|135:232|150:123,1,255.000009727478
320,64,26521,1,0,0:0:0:0:
224,160,26736,1,0,0:0:0:0:
224,64,26904,1,0,0:0:0:0:
320,160,27118,1,0,0:0:0:0:
480,256,27548,6,0,B|480:320|480:320|436:343|331:335,1,207.187507903576
256,352,28074,1,0,0:0:0:0:
160,352,28241,1,0,0:0:0:0:
64,352,28408,1,0,0:0:0:0:
64,224,28647,1,0,0:0:0:0:
160,224,28814,1,2,0:0:0:0:
288,224,29005,1,0,0:0:0:0:
384,224,29197,1,0,0:0:0:0:
160,128,30176,5,0,0:0:0:0:
288,128,30343,1,0,0:0:0:0:
160,128,30510,1,0,0:0:0:0:
288,128,30677,1,0,0:0:0:0:
288,352,31083,1,0,0:0:0:0:
160,352,31298,1,0,0:0:0:0:
224,96,31656,1,0,0:0:0:0:
96,160,32230,5,0,0:0:0:0:
192,160,32421,1,0,0:0:0:0:
192,224,32612,1,0,0:0:0:0:
288,224,32803,1,0,0:0:0:0:
384,256,32994,2,0,B|384:224|384:224|416:192|416:192|416:160|416:160|448:128|448:128|448:96|448:96|480:64,1,223.125008511544
384,32,33519,1,0,0:0:0:0:
256,64,33711,1,0,0:0:0:0:
128,32,33902,1,8,0:0:0:0:
32,96,34093,1,0,0:0:0:0:
96,192,34284,1,2,0:0:0:0:
32,288,34475,1,0,0:0:0:0:
448,256,34834,1,0,0:0:0:0:
384,352,35072,1,0,0:0:0:0:
320,352,35239,2,0,B|317:312|304:308|304:308|275:339|256:334|256:333|256:333|287:282|274:274|274:274|230:303|217:295|217:295|231:263|228:264|228:264|219:251,1,270.937510335446
256,64,36242,2,0,P|288:64|387:99,1,127.500004863739
256,192,36744,12,0,38082,0:0:0:0:
256,96,38273,5,0,0:0:0:0:
384,160,38488,1,0,0:0:0:0:
160,192,38869,1,0,0:0:0:0:
256,192,39419,21,8,0:0:0:0:
32,352,40016,2,0,B|79:350|79:350|110:294,2,111.562504255772
480,32,40757,5,0,0:0:0:0:
480,128,40924,1,0,0:0:0:0:
480,224,41091,1,0,0:0:0:0:
480,352,41736,6,0,L|384:352,1,95.6250036478044
224,352,42070,1,0,0:0:0:0:
352,224,42285,1,0,0:0:0:0:
192,192,42644,1,0,0:0:0:0:
406,45,43982,1,8,0:0:0:0:
256,32,44316,6,0,L|255:182,1,143.437505471707
256,384,44913,1,0,0:0:0:0:
474,361,45463,21,8,0:0:0:0:
480,160,46059,2,0,B|475:100|475:100|427:132,2,111.562504255772
96,96,46848,5,0,0:0:0:0:
192,160,47015,1,0,0:0:0:0:
192,256,47230,2,0,L|92:176,1,127.500004863739
480,32,47803,5,0,0:0:0:0:
480,128,47947,1,0,0:0:0:0:
466,203,48137,2,0,P|402:175|375:96,1,143.437505471707
290,88,48519,2,0,P|305:165|332:207,1,127.500004863739
384,267,48902,2,0,B|412:281|474:286|474:286|469:315,1,111.562504255772
421,359,49308,2,0,P|361:334|325:288,1,111.562504255772
277,245,49690,2,0,P|247:184|264:133,1,111.562504255772
192,64,50049,1,8,0:0:0:0:
32,352,50239,6,0,B|32:288|32:288|96:288|96:288|96:352|96:352|160:352,1,255.000009727478
256,352,50812,1,0,0:0:0:0:
256,192,51003,1,0,0:0:0:0:
160,192,51171,2,8,B|128:128|202:59|367:140,1,270.937510335446
480,352,51792,6,0,B|480:288|480:288|416:288|416:288|416:352|416:352|360:352,1,239.062509119511
224,320,52341,1,0,0:0:0:0:
128,320,52508,1,0,0:0:0:0:
0,192,52699,1,0,0:0:0:0:
128,192,52914,1,0,0:0:0:0:
224,192,53081,1,2,0:0:0:0:
352,192,53272,1,0,0:0:0:0:
480,192,53464,1,0,0:0:0:0:
448,320,54443,5,0,0:0:0:0:
448,192,54610,1,0,0:0:0:0:
320,256,54777,5,0,0:0:0:0:
320,128,54944,1,0,0:0:0:0:
416,64,55350,1,0,0:0:0:0:
352,64,55566,2,0,B|337:50|337:50|324:40|309:49|309:49|292:68|292:68|276:77|262:70|262:70|251:44|251:44|238:33|223:44|223:44|206:68|206:68|193:78|179:70|179:70|164:54,1,239.062509119511
96,321,56497,6,0,B|95:355|95:355|108:368|133:362|138:352|138:352|140:307,3,127.500004863739
161,230,57261,2,0,B|161:198|161:198|193:166|193:166|193:134|193:134|225:102|225:102|225:70|225:70|257:38,1,223.125008511544
448,32,57787,2,0,L|448:160,1,127.500004863739
384,160,58169,1,0,0:0:0:0:
384,256,58408,1,0,0:0:0:0:
320,256,58551,2,0,B|320:384|320:384|263:383,1,175.312506687641
128,320,59148,1,0,0:0:0:0:
128,224,59339,1,0,0:0:0:0:
128,192,59531,2,0,B|115:179|115:179|136:174|136:174|115:165|115:165|136:161|136:161|115:154|115:154|135:149|135:149|114:143|114:143|135:140|135:140|114:136|114:136|134:130|134:130|112:126|112:126|133:121|133:121|114:117|114:117|115:116|115:116|122:114,1,270.937510335446
416,192,60318,5,0,0:0:0:0:
451,223,60510,2,0,P|366:233|357:167,1,159.375006079674
256,192,60964,12,0,63424,0:0:0:0:
448,288,63997,6,0,L|229:288,1,207.187507903576
96,256,64499,1,0,0:0:0:0:
96,160,64714,1,0,0:0:0:0:
96,64,64929,1,0,0:0:0:0:
224,64,65144,1,0,0:0:0:0:
352,64,65335,1,0,0:0:0:0:
384,128,65526,5,0,0:0:0:0:
256,128,65741,1,0,0:0:0:0:
160,128,65884,1,0,0:0:0:0:
160,256,66099,1,0,0:0:0:0:
256,256,66267,1,0,0:0:0:0:
160,32,67007,1,0,0:0:0:0:
96,64,67126,2,0,P|89:78|116:205,1,143.437505471707
256,224,67509,1,8,0:0:0:0:
384,224,67723,2,0,P|448:160|466:71,1,175.312506687641
224,64,68272,21,8,0:0:0:0:
64,64,68583,2,0,P|32:128|108:248,1,223.125008511544
224,256,69036,1,8,0:0:0:0:
384,192,69419,2,8,P|352:96|209:57,1,255.000009727478
480,160,70017,1,0,0:0:0:0:
480,64,70422,6,2,B|394:26|304:120|304:120|217:33|172:20|68:176|68:176|40:78|40:78|24:36|5:31,1,669.375025534631
0,256,71617,2,2,B|44:153|133:302|133:302|246:174|279:170|420:353,1,573.750021886826
480,224,72857,21,8,0:0:0:0:
256,64,73265,1,2,0:0:0:0:
224,320,73671,1,8,0:0:0:0:
96,192,74053,1,0,0:0:0:0:
160,32,74220,1,0,0:0:0:0:
319,47,74411,1,2,0:0:0:0:
480,64,74626,2,0,B|471:154|471:154|404:206|404:206|318:195|318:195|218:218|218:218|139:287|139:287|38:241|38:241|10:215,1,605.625023102761
32,96,75797,5,2,0:0:0:0:
224,64,75988,1,0,0:0:0:0:
455,34,76155,6,0,B|390:75|484:85|420:136|402:134|457:193|481:192|435:276,1,255.000009727478
416,352,76680,1,0,0:0:0:0:
352,352,76895,1,0,0:0:0:0:
288,352,77110,5,0,0:0:0:0:
224,352,77325,1,0,0:0:0:0:
160,352,77516,1,0,0:0:0:0:
96,352,77707,1,0,0:0:0:0:
32,288,77922,1,0,0:0:0:0:
32,246,78065,1,0,0:0:0:0:
32,160,78280,1,0,0:0:0:0:
32,128,78448,1,0,0:0:0:0:
96,64,79307,6,0,P|89:78|116:205,1,143.437505471707
192,288,79690,1,8,0:0:0:0:
288,256,79904,2,0,P|352:192|370:103,1,175.312506687641
256,128,80453,21,8,0:0:0:0:
160,96,80764,2,0,P|128:160|204:280,1,223.125008511544
352,288,81217,1,8,0:0:0:0:
448,224,81600,2,8,P|416:128|273:89,1,255.000009727478
256,192,82198,1,0,0:0:0:0:
256,192,82532,12,0,83631,0:0:0:0:
346,111,83774,6,0,P|337:90|163:159,1,286.875010943413
384,192,84395,1,0,0:0:0:0:
318,205,84562,1,0,0:0:0:0:
240,225,84729,1,0,0:0:0:0:
171,234,84969,1,0,0:0:0:0:
96,96,85398,2,0,L|128:160,1,63.7500024318696
160,64,85924,1,8,0:0:0:0:
160,192,86139,1,8,0:0:0:0:
288,128,86521,1,8,0:0:0:0:
288,256,86736,1,8,0:0:0:0:
416,192,87118,1,8,0:0:0:0:
416,320,87357,1,8,0:0:0:0:
256,192,87691,12,0,88814,0:0:0:0:
