osu file format v14

[General]
AudioFilename: audio.mp3
AudioLeadIn: 0
PreviewTime: -1
Countdown: 1
SampleSet: None
StackLeniency: 0.7
Mode: 0
LetterboxInBreaks: 0
WidescreenStoryboard: 1

[Editor]
DistanceSpacing: 1.1
BeatDivisor: 16
GridSize: 32
TimelineZoom: 1.5

[Metadata]
Title:AI WO TORIMODOSE
TitleUnicode:AI WO TORIMODOSE
Artist:Michio Yamashita
ArtistUnicode:Michio Yamashita
Creator:Miikarusuki
Version:Easy
Source:https://www.youtube.com/watch?v=RxkezvGwI20
Tags:you wa shock hokuto no ken opening
BeatmapID:2014326
BeatmapSetID:962011

[Difficulty]
HPDrainRate:1
CircleSize:2
OverallDifficulty:5
ApproachRate:1
SliderMultiplier:0.999999999999999
SliderTickRate:1

[Events]
//Background and Video events
0,0,"thumb-1920-702099.jpg",0,0
//Break Periods
//Storyboard Layer 0 (Background)
//Storyboard Layer 1 (Fail)
//Storyboard Layer 2 (Pass)
//Storyboard Layer 3 (Foreground)
//Storyboard Sound Samples

[TimingPoints]
391.341144949162,382.165605095541,4,3,0,100,1,8
18520,382.165605095541,4,3,0,100,1,0
18520,-66.6666666666667,4,3,0,100,0,0

[Colours]
Combo1 : 198,0,0
Combo2 : 87,3,137
Combo3 : 2,2,204
Combo4 : 188,0,251
Combo5 : 3,70,194

[HitObjects]
256,224,1370,5,2,0:0:0:0:
160,256,1776,1,4,2:0:0:0:
158,304,1967,1,4,2:0:0:0:
160,352,2158,1,4,2:0:0:0:
32,352,2732,2,0,B|32:256|32:256|36:235,1,112.5
32,160,3329,2,0,P|59:155|77:157,1,43.75
96,160,3663,2,0,P|123:155|141:157,1,43.75
288,160,4260,6,0,L|255:200,1,50
288,160,4642,2,0,L|327:202,1,56.25
320,32,5407,2,0,P|256:32|191:83,1,150
192,160,6171,2,0,P|264:173|324:137,1,143.75
256,256,7867,5,4,2:0:0:0:
256,256,8058,1,4,2:0:0:0:
256,256,8249,1,4,2:0:0:0:
96,288,8846,6,0,B|75:259|68:228|121:203|108:192,1,106.25
96,160,9420,1,0,0:0:0:0:
96,128,9587,1,0,0:0:0:0:
128,96,9753,1,0,0:0:0:0:
160,85,9969,1,0,0:0:0:0:
320,64,10351,6,0,L|271:65,1,50
320,64,10733,2,0,L|350:116,1,56.25
64,64,11498,6,0,B|64:160|64:160|86:173|86:173|86:206,1,150
192,288,12262,2,0,B|192:224|192:224|212:209|212:209|212:130,1,168.75
416,288,13241,6,0,L|303:287,1,112.5
288,192,14005,37,2,0:0:0:0:
288,192,14220,1,0,0:0:0:0:
288,192,14603,1,0,0:0:0:0:
155,321,15797,5,0,0:0:0:0:
96,288,15916,2,0,P|88:268|84:228,1,62.5
64,128,16537,5,0,0:0:0:0:
64,128,16705,1,8,0:0:0:0:
64,128,16920,1,0,0:0:0:0:
160,192,17493,2,0,L|146:144,1,50
108,262,17827,2,0,L|101:209,1,50
24,218,18400,1,0,0:0:0:0:
448,320,20072,6,0,L|384:256,1,84.3750032186509
320,224,20669,1,0,0:0:0:0:
352,64,21816,6,0,L|353:134,1,65.6250025033951
352,160,22174,1,0,0:0:0:0:
352,320,22604,6,0,P|384:352|407:353,1,65.6250025033951
480,320,22986,1,0,0:0:0:0:
352,128,23559,5,0,0:0:0:0:
352,128,23703,1,0,0:0:0:0:
352,128,23894,2,0,B|352:192|352:192|373:229,1,103.125003933907
320,352,24539,1,0,0:0:0:0:
128,224,25972,6,0,P|118:184|180:102,1,150.000005722046
224,64,26521,1,0,0:0:0:0:
224,64,26736,1,0,0:0:0:0:
224,64,26904,1,0,0:0:0:0:
224,64,27118,1,0,0:0:0:0:
384,306,27548,6,0,B|384:338|384:338|378:353|295:352,1,121.875004649162
224,288,28074,2,0,L|192:224,2,65.6250025033951
160,320,28647,1,0,0:0:0:0:
160,320,28814,1,2,0:0:0:0:
160,320,29005,1,0,0:0:0:0:
160,320,29197,1,0,0:0:0:0:
192,128,30176,6,0,B|224:128|259:126|255:122,3,65.6250025033951
267,257,31083,2,0,L|180:257,1,84.3750032186509
86,248,31656,1,0,0:0:0:0:
307,193,32230,6,0,L|314:274,3,75.000002861023
384,256,32994,2,0,B|384:224|384:224|416:224|416:224|416:192|416:192|448:192|448:192|445:181,1,131.25000500679
384,32,33519,2,0,B|375:34|315:64|311:60|315:64|315:64,5,75.000002861023
320,192,34834,1,0,0:0:0:0:
352,256,35072,1,0,0:0:0:0:
256,288,35239,2,0,B|256:256|256:256|224:256|224:256|224:224|224:224|192:224|192:224|192:192,1,159.375006079674
256,64,36242,2,0,L|325:96,1,75.000002861023
256,192,36744,12,0,38082,0:0:0:0:
256,96,38273,5,0,0:0:0:0:
256,96,38488,1,0,0:0:0:0:
256,96,38869,1,0,0:0:0:0:
32,352,40016,2,0,L|101:352,2,65.6250025033951
192,352,40757,2,0,L|260:352,2,65.6250025033951
480,352,41736,6,0,L|421:353,1,56.2500021457673
352,352,42070,1,0,0:0:0:0:
288,320,42285,1,0,0:0:0:0:
236,225,42644,1,0,0:0:0:0:
256,32,44316,6,0,L|256:119,1,84.3750032186509
256,192,44913,1,0,0:0:0:0:
480,160,46059,2,0,B|480:128|480:128|453:147,2,65.6250025033951
320,352,46848,5,0,0:0:0:0:
384,352,47015,1,0,0:0:0:0:
448,320,47230,2,0,L|382:273,1,75.000002861023
480,160,47803,5,0,0:0:0:0:
480,160,47947,1,0,0:0:0:0:
448,192,48137,2,0,P|417:185|444:44,1,225.000008583069
32,352,50239,6,0,B|32:320|32:320|64:320|64:320|64:352|64:352|119:352,1,150.000005722046
256,352,50812,1,0,0:0:0:0:
256,288,51003,1,0,0:0:0:0:
256,256,51171,2,0,P|263:235|384:213,1,159.375006079674
480,352,51792,6,0,B|480:320|480:320|448:320|448:320|448:352|448:352|399:353,1,140.625005364418
224,320,52341,2,0,B|219:327|168:341|92:315|70:277|68:254|68:247|65:241|84:124|148:102|164:97|164:97|239:106,1,440.62501680851
416,160,54443,5,0,0:0:0:0:
416,160,54610,1,0,0:0:0:0:
352,160,54777,5,0,0:0:0:0:
352,160,54944,1,0,0:0:0:0:
416,64,55350,1,0,0:0:0:0:
352,64,55566,2,0,B|336:52|336:52|317:42|307:50|306:50|299:69|278:54|278:54|272:42|264:55|264:55|251:68|227:56,1,140.625005364418
96,321,56497,6,0,B|96:352|96:352|128:352|128:352|128:332,1,75.000002861023
128,256,56879,1,0,0:0:0:0:
146,208,57070,1,0,0:0:0:0:
178,162,57262,2,0,B|177:124|177:124|209:124|209:124|209:92|209:92|235:74,1,131.25000500679
320,32,57787,2,0,L|320:187,1,150.000005722046
320,256,58408,1,0,0:0:0:0:
320,256,58551,2,0,B|320:320|320:320|280:320,1,103.125003933907
128,320,59148,1,0,0:0:0:0:
131,231,59339,1,0,0:0:0:0:
128,192,59531,2,0,B|117:186|117:186|134:183|134:183|119:176|119:176|131:173|131:173|116:166|116:166|136:166|136:166|116:161|116:161|135:157|135:157|119:152|119:152|133:150,1,159.375006079674
451,223,60510,2,0,P|441:235|374:212,1,93.7500035762788
256,192,60964,12,0,63424,0:0:0:0:
448,288,63997,6,0,L|320:288,1,121.875004649162
224,288,64308,1,0,0:0:0:0:
128,320,64499,2,0,L|41:313,3,84.3750032186509
55,223,65335,1,0,0:0:0:0:
57,150,65526,5,0,0:0:0:0:
57,150,65741,1,0,0:0:0:0:
57,150,65884,1,0,0:0:0:0:
57,150,66099,1,0,0:0:0:0:
57,150,66267,1,0,0:0:0:0:
96,64,67126,6,0,P|88:116|91:150,1,84.3750032186509
224,160,67723,2,0,P|247:151|267:81,1,103.125003933907
64,64,68583,2,0,P|49:103|74:192,1,131.25000500679
320,192,69419,2,0,P|316:162|214:117,1,150.000005722046
512,64,70017,5,0,0:0:0:0:
480,64,70422,2,0,L|84:64,1,393.750015020371
0,256,71617,2,0,L|342:253,1,337.500012874604
256,64,73265,5,2,0:0:0:0:
320,64,73671,1,8,0:0:0:0:
448,32,74053,1,0,0:0:0:0:
448,64,74220,1,0,0:0:0:0:
416,64,74411,1,2,0:0:0:0:
416,64,74626,2,0,L|108:251,1,356.250013589859
448,32,76155,6,0,L|437:186,1,150.000005722046
384,224,76680,2,0,B|384:192|339:157|335:153,3,84.3750032186509
288,256,77516,5,0,0:0:0:0:
224,256,77707,1,0,0:0:0:0:
224,256,77922,1,0,0:0:0:0:
224,256,78065,1,0,0:0:0:0:
138,253,78280,1,0,0:0:0:0:
138,189,78448,1,0,0:0:0:0:
96,64,79308,6,0,P|82:99|101:146,1,84.3750032186509
224,224,79905,2,0,P|256:192|261:132,1,103.125003933907
160,96,80765,2,0,P|137:147|163:219,1,131.25000500679
352,192,81601,2,0,P|332:150|239:110,1,150.000005722046
128,192,82532,1,0,0:0:0:0:
416,192,83631,1,0,0:0:0:0:
346,111,83774,6,0,P|320:96|192:128,1,168.750006437302
192,160,84395,1,0,0:0:0:0:
192,160,84562,1,0,0:0:0:0:
192,160,84729,1,0,0:0:0:0:
192,160,84969,1,0,0:0:0:0:
96,96,85398,2,0,L|128:128,1,37.5000014305115
256,192,85924,12,0,88814,0:0:0:0:
