osu file format v14

[General]
AudioFilename: -------.mp3
AudioLeadIn: 0
PreviewTime: 91469
Countdown: 0
SampleSet: Soft
StackLeniency: 0.4
Mode: 0
LetterboxInBreaks: 0
WidescreenStoryboard: 1

[Editor]
DistanceSpacing: 1
BeatDivisor: 4
GridSize: 8
TimelineZoom: 1.4

[Metadata]
Title:Du Li
TitleUnicode:獨立
Artist:Michelle Vickie
ArtistUnicode:蜜雪薇琪
Creator:ailv
Version:Normal
Source:
Tags:taiwanese chinese pop
BeatmapID:1990448
BeatmapSetID:953302

[Difficulty]
HPDrainRate:3
CircleSize:3
OverallDifficulty:3
ApproachRate:6
SliderMultiplier:1
SliderTickRate:1

[Events]
//Background and Video events
0,0,"54076199_p0.jpg",0,0
//Break Periods
2,61856,68463
2,118999,123463
//Storyboard Layer 0 (Background)
//Storyboard Layer 1 (Fail)
//Storyboard Layer 2 (Pass)
//Storyboard Layer 3 (Foreground)
//Storyboard Sound Samples

[TimingPoints]
228,357.142857142857,4,2,1,100,1,0
11656,-100,4,2,1,100,0,0
12370,-100,4,2,1,40,0,0
32906,-100,4,2,1,80,0,0
34513,-100,4,2,1,85,0,1
57370,-100,4,2,1,70,0,0
68799,-100,4,2,1,55,0,0
69513,-100,4,2,1,50,0,0
80942,-100,4,2,1,70,0,0
90049,-100,4,2,1,80,0,0
91656,-100,4,2,1,85,0,1
114513,-100,4,2,1,75,0,0
124513,-100,4,2,1,80,0,0
125942,-100,4,2,1,85,0,1
148799,-100,4,2,1,85,0,1
171656,-100,4,2,1,60,0,0
175942,-100,4,2,1,70,0,0

[Colours]
Combo1 : 150,255,255
Combo2 : 185,220,255
Combo3 : 193,132,255
Combo4 : 220,185,255
Combo5 : 185,220,255

[HitObjects]
148,239,12370,5,2,1:2:0:0:
174,281,12549,1,0,1:2:0:0:
272,299,12906,2,0,P|325:303|381:309,2,100,2|2|2,1:2|0:2|0:2,0:0:0:0:
259,99,14335,5,0,1:2:0:0:
213,77,14513,1,2,1:2:0:0:
114,91,14870,1,0,1:2:0:0:
93,136,15049,2,0,P|83:188|76:270,1,100,0|0,1:2|0:2,0:0:0:0:
93,282,15585,1,0,1:0:0:0:
165,350,15942,2,0,P|253:327|239:237,1,200,2|2,1:2|0:2,0:0:0:0:
238,236,18085,5,0,1:2:0:0:
281,211,18263,1,2,1:2:0:0:
348,137,18620,2,0,P|344:81|343:7,2,100,2|2|2,1:2|0:2|0:2,0:0:0:0:
395,334,20049,5,0,1:2:0:0:
440,314,20227,1,2,1:2:0:0:
506,239,20585,1,0,1:2:0:0:
499,189,20763,1,2,1:2:0:0:
445,48,21299,1,0,1:2:0:0:
357,95,21656,1,2,1:2:0:0:
316,186,22013,1,2,0:2:0:0:
348,280,22370,2,0,B|269:298|258:354|167:371,1,200,8|2,0:2|1:2,0:0:0:0:
31,226,23799,5,8,1:2:0:0:
25,176,23977,1,2,1:2:0:0:
89,99,24335,2,0,P|137:93|206:96,2,100,0|2|0,0:2|1:2|0:2,0:0:0:0:
120,296,25763,5,0,1:2:0:0:
157,329,25942,1,0,1:2:0:0:
254,349,26299,1,0,1:2:0:0:
302,335,26477,1,2,1:2:0:0:
440,277,27013,1,2,1:2:0:0:
399,185,27370,2,0,P|405:129|418:62,1,100,2|0,1:2|0:2,0:0:0:0:
220,30,28442,5,0,1:2:0:0:
172,46,28620,1,0,1:2:0:0:
126,66,28799,1,2,1:2:0:0:
62,143,29156,2,0,L|-10:135,2,50,0|0|8,1:2|1:2|1:2,0:0:0:0:
120,224,29870,5,0,1:2:0:0:
123,274,30049,1,0,1:2:0:0:
160,306,30227,1,2,1:2:0:0:
260,307,30585,2,0,L|326:305,2,50,0|0|8,1:2|1:2|1:2,0:0:0:0:
207,221,31299,5,0,1:2:0:0:
198,171,31477,1,0,1:2:0:0:
225,128,31656,2,0,P|318:134|350:151,2,100,8|8|8,1:2|1:2|1:2,0:0:0:0:
134,84,32727,1,2,1:2:0:0:
86,101,32906,5,0,1:2:0:0:
51,247,33442,1,0,1:2:0:0:
128,310,33799,1,0,1:2:0:0:
322,355,34513,6,0,P|386:353|444:340,1,100,4|0,1:1|0:2,0:0:0:0:
501,287,35227,1,8,1:2:0:0:
495,237,35406,1,0,1:2:0:0:
433,157,35763,2,0,B|354:149|366:201|259:192,1,150,2|0,1:2|1:2,0:0:0:0:
190,178,36656,1,8,1:2:0:0:
146,153,36835,2,0,P|135:97|151:39,1,100,2|0,1:2|0:2,0:0:0:0:
184,28,37370,6,0,B|244:27|305:55,1,100,4|0,1:2|0:2,0:0:0:0:
363,103,38085,1,8,1:2:0:0:
376,151,38263,1,0,1:2:0:0:
365,250,38620,2,0,B|436:256|429:199|503:198,1,150,2|0,1:2|1:2,0:0:0:0:
495,298,39513,1,8,1:2:0:0:
460,334,39692,1,0,1:2:0:0:
361,353,40049,2,0,P|295:345|185:337,1,150,4|0,1:2|1:2,0:0:0:0:
112,353,40942,5,8,1:2:0:0:
67,330,41120,1,0,1:2:0:0:
11,246,41477,2,0,P|27:166|34:79,1,150,4|0,1:2|1:2,0:0:0:0:
128,67,42370,1,8,1:2:0:0:
167,98,42549,2,0,P|175:146|164:195,1,100,2|0,1:2|0:2,0:0:0:0:
152,243,43084,6,0,B|212:244|273:216,1,100,4|0,1:2|0:2,0:0:0:0:
332,169,43799,1,8,1:2:0:0:
329,119,43977,1,0,1:2:0:0:
417,72,44335,2,0,P|432:137|461:220,1,150,4|2,1:2|1:2,0:0:0:0:
412,303,45227,1,8,1:2:0:0:
378,339,45406,1,4,1:2:0:0:
280,362,45763,1,8,0:2:0:0:
233,344,45942,6,0,P|163:344|108:347,1,100,4|0,1:1|0:2,0:0:0:0:
39,310,46656,1,8,1:2:0:0:
12,267,46834,1,0,1:2:0:0:
66,183,47191,2,0,P|126:195|216:215,1,150,2|0,1:2|1:2,0:0:0:0:
304,174,48085,1,8,1:2:0:0:
312,124,48263,2,0,P|368:113|426:167,1,100,2|0,1:2|0:2,0:0:0:0:
432,174,48799,6,0,P|409:239|396:304,1,100,4|0,1:2|0:2,0:0:0:0:
339,347,49513,1,8,1:2:0:0:
290,360,49692,1,0,1:2:0:0:
213,296,50049,2,0,B|257:235|208:203|245:142,1,150,2|0,1:2|1:2,0:0:0:0:
214,54,50942,1,8,1:2:0:0:
167,34,51120,1,0,1:2:0:0:
73,70,51477,2,0,P|52:126|48:238,1,150,4|0,1:2|1:2,0:0:0:0:
94,302,52370,5,8,1:2:0:0:
137,327,52549,1,0,1:2:0:0:
236,329,52906,2,0,P|321:324|416:315,1,150,4|0,1:2|1:2,0:0:0:0:
462,253,53799,1,8,1:2:0:0:
490,207,53977,2,0,P|490:153|465:95,1,100,2|0,1:2|0:2,0:0:0:0:
438,74,54513,6,0,L|323:62,1,100,4|0,1:2|0:2,0:0:0:0:
249,18,55227,1,8,1:2:0:0:
207,45,55406,1,0,1:2:0:0:
151,128,55763,2,0,P|180:243|193:318,1,150,4|2,1:2|1:2,0:0:0:0:
255,346,56656,1,8,1:2:0:0:
342,297,57013,1,2,1:2:0:0:
326,198,57370,1,4,1:2:0:0:
256,192,57549,12,0,61656,1:0:0:0:
298,172,69513,5,2,1:2:0:0:
301,221,69692,1,0,1:2:0:0:
208,259,70049,2,0,P|157:245|92:238,2,100,2|2|2,1:2|0:2|0:2,0:0:0:0:
389,344,71478,5,0,1:2:0:0:
434,323,71656,1,2,1:2:0:0:
501,249,72013,1,0,1:2:0:0:
495,199,72192,1,0,1:2:0:0:
412,74,72727,1,0,1:2:0:0:
316,103,73085,2,0,P|301:193|352:308,1,200,2|2,1:2|0:2,0:0:0:0:
256,353,75228,5,0,1:2:0:0:
286,313,75406,1,2,1:2:0:0:
220,237,75763,2,0,P|216:181|215:107,2,100,2|2|2,1:2|0:2|0:2,0:0:0:0:
395,334,77192,5,0,1:2:0:0:
440,314,77370,1,2,1:2:0:0:
506,239,77728,1,0,1:2:0:0:
499,189,77906,1,2,1:2:0:0:
445,48,78442,1,0,1:2:0:0:
357,95,78799,1,2,1:2:0:0:
316,186,79156,1,2,0:2:0:0:
348,280,79513,2,0,B|269:298|258:354|167:371,1,200,8|2,0:2|1:2,0:0:0:0:
43,216,80942,5,8,1:2:0:0:
38,166,81120,1,2,1:2:0:0:
128,122,81478,2,0,P|122:74|125:5,2,100,0|2|0,0:2|1:2|0:2,0:0:0:0:
177,130,82370,1,8,0:0:0:0:
302,42,82906,5,0,1:2:0:0:
334,80,83085,1,0,1:2:0:0:
312,177,83442,1,0,1:2:0:0:
295,224,83620,1,2,1:2:0:0:
379,348,84156,1,2,1:2:0:0:
458,287,84513,2,0,P|470:238|457:169,1,100,2|0,1:2|0:2,0:0:0:0:
302,71,85585,5,0,1:2:0:0:
252,72,85763,1,0,1:2:0:0:
215,105,85942,1,2,1:2:0:0:
190,201,86299,2,0,L|118:193,2,50,0|0|8,1:2|1:2|1:2,0:0:0:0:
268,263,87013,5,0,1:2:0:0:
273,312,87192,1,0,1:2:0:0:
261,360,87370,1,2,1:2:0:0:
161,351,87728,2,0,L|111:352,2,50,0|0|8,1:2|1:2|1:2,0:0:0:0:
163,251,88442,5,0,1:2:0:0:
128,215,88620,1,0,1:2:0:0:
140,166,88799,2,0,P|233:172|265:189,2,100,8|8|8,1:2|1:2|1:2,0:0:0:0:
51,211,89870,1,2,1:2:0:0:
25,167,90049,5,4,1:2:0:0:
69,77,90406,1,8,1:2:0:0:
160,37,90763,1,8,1:2:0:0:
209,46,90942,2,0,L|261:38,1,50,2|8,0:2|0:2,0:0:0:0:
186,170,91656,6,0,P|200:218|216:295,1,100,4|0,1:1|0:2,0:0:0:0:
280,338,92370,1,8,1:2:0:0:
330,341,92549,1,0,1:2:0:0:
422,304,92906,2,0,B|455:238|406:217|440:150,1,150,2|0,1:2|1:2,0:0:0:0:
403,62,93799,1,8,1:2:0:0:
361,33,93977,2,0,P|291:27|229:48,1,100,2|0,1:2|0:2,0:0:0:0:
217,56,94513,6,0,P|217:110|227:178,1,100,4|0,1:2|0:2,0:0:0:0:
246,252,95227,1,8,1:2:0:0:
217,293,95406,1,0,1:2:0:0:
129,340,95763,2,0,P|61:339|21:259,1,150,2|0,1:2|1:2,0:0:0:0:
38,176,96656,1,8,1:2:0:0:
45,126,96835,1,0,1:2:0:0:
36,26,97192,2,0,B|127:8|102:84|191:70,1,150,4|0,1:2|1:2,0:0:0:0:
264,32,98085,5,8,1:2:0:0:
311,46,98263,1,0,1:2:0:0:
410,44,98620,2,0,P|395:109|388:217,1,150,4|0,1:2|1:2,0:0:0:0:
419,286,99513,1,8,1:2:0:0:
412,335,99692,2,0,P|349:321|270:326,1,100,2|0,1:2|0:2,0:0:0:0:
267,338,100227,6,0,P|261:304|247:205,1,100,4|0,1:2|0:2,0:0:0:0:
223,142,100942,1,8,1:2:0:0:
234,93,101120,1,0,1:2:0:0:
150,38,101477,2,0,P|88:27|12:78,1,150,4|2,1:2|1:2,0:0:0:0:
5,170,102370,1,8,1:2:0:0:
33,211,102549,2,0,L|91:194,2,50,4|8|8,1:2|0:0|0:2,0:0:0:0:
8,254,103085,6,0,B|58:259|57:303|143:305,1,100,4|0,1:1|0:2,0:0:0:0:
169,366,103799,1,8,1:2:0:0:
218,369,103977,1,0,1:2:0:0:
293,303,104335,2,0,P|278:244|263:145,1,150,2|0,1:2|1:2,0:0:0:0:
361,133,105227,1,8,1:2:0:0:
410,143,105406,2,0,P|432:188|435:257,1,100,2|0,1:2|0:2,0:0:0:0:
425,285,105942,6,0,L|318:271,1,100,4|0,1:2|0:2,0:0:0:0:
235,315,106656,1,8,1:2:0:0:
185,324,106835,1,0,1:2:0:0:
91,358,107192,2,0,P|28:335|24:243,1,150,2|0,1:2|1:2,0:0:0:0:
89,193,108085,1,8,1:2:0:0:
77,144,108263,1,0,1:2:0:0:
176,157,108620,2,0,B|265:152|239:215|358:208,1,150,4|0,1:2|1:2,0:0:0:0:
400,156,109513,5,8,1:2:0:0:
425,198,109692,1,0,1:2:0:0:
395,293,110049,2,0,P|340:310|244:380,1,150,4|0,1:2|1:2,0:0:0:0:
162,360,110942,1,8,1:2:0:0:
131,320,111120,2,0,P|126:256|130:175,1,100,2|0,1:2|0:2,0:0:0:0:
144,173,111656,2,0,P|199:158|245:186,1,100,4|0,1:2|0:2,0:0:0:0:
284,263,112370,1,8,1:2:0:0:
328,285,112549,1,0,1:2:0:0:
421,249,112906,6,0,P|438:190|437:152,1,100,4|0,1:2|0:2,0:0:0:0:
407,111,113442,2,0,L|338:95,1,50,2|0,1:2|0:2,0:0:0:0:
309,86,113799,1,8,1:2:0:0:
213,48,114156,1,2,1:2:0:0:
134,109,114513,1,4,1:2:0:0:
256,192,114692,12,0,118799,1:2:0:0:
202,152,124513,5,2,1:2:0:0:
149,236,124870,1,2,1:2:0:0:
202,320,125227,1,10,1:2:0:0:
249,336,125406,1,10,1:2:0:0:
297,323,125585,1,10,1:2:0:0:
390,288,125942,6,0,B|408:266|417:249|417:249|397:163,1,100,4|0,1:1|0:2,0:0:0:0:
376,101,126656,1,8,1:2:0:0:
389,52,126835,1,0,1:2:0:0:
291,31,127192,2,0,P|230:23|128:67,1,150,2|0,1:2|1:2,0:0:0:0:
115,146,128085,1,8,1:2:0:0:
135,191,128263,2,0,P|119:229|102:308,1,100,2|0,1:2|0:2,0:0:0:0:
128,329,128799,6,0,P|177:316|237:320,1,100,4|0,1:2|0:2,0:0:0:0:
321,348,129513,1,8,1:2:0:0:
368,362,129692,1,0,1:2:0:0:
458,318,130049,2,0,P|457:256|448:155,1,150,2|0,1:2|1:2,0:0:0:0:
363,117,130942,1,8,1:2:0:0:
313,115,131120,1,0,1:2:0:0:
225,163,131477,2,0,P|154:170|54:129,1,150,4|0,1:2|1:2,0:0:0:0:
83,46,132370,5,8,1:2:0:0:
128,24,132549,1,0,1:2:0:0:
221,58,132906,2,0,P|279:69|410:64,1,150,4|0,1:2|1:2,0:0:0:0:
451,128,133799,1,8,1:2:0:0:
477,170,133977,2,0,P|470:233|466:278,1,100,2|0,1:2|0:2,0:0:0:0:
448,316,134513,6,0,P|405:332|341:347,1,100,4|0,1:2|0:2,0:0:0:0:
256,316,135227,1,8,1:2:0:0:
210,336,135406,1,0,1:2:0:0:
110,334,135763,2,0,P|80:257|78:208,1,100,4|4,1:2|0:2,0:0:0:0:
96,142,136477,1,4,0:2:0:0:
162,67,136835,2,0,L|142:7,2,50,4|8|8,1:2|0:0|0:2,0:0:0:0:
209,81,137370,6,0,P|262:77|325:113,1,100,4|0,1:1|0:2,0:0:0:0:
386,152,138085,1,8,1:2:0:0:
375,194,138263,1,0,1:2:0:0:
371,296,138620,2,0,P|309:311|214:339,1,150,2|0,1:2|1:2,0:0:0:0:
131,368,139513,1,8,1:2:0:0:
100,327,139692,2,0,P|97:274|86:225,1,100,2|0,1:2|0:2,0:0:0:0:
59,186,140227,6,0,P|57:122|71:69,1,100,4|0,1:2|0:2,0:0:0:0:
157,49,140942,1,8,1:2:0:0:
198,76,141120,1,0,1:2:0:0:
291,41,141477,2,0,P|283:121|283:206,1,150,2|0,1:2|1:2,0:0:0:0:
303,288,142370,1,8,1:2:0:0:
342,318,142549,2,0,P|392:318|442:274,1,100,0|4,1:2|1:2,0:0:0:0:
465,252,143085,6,0,L|448:110,1,100,0|0,0:0|1:2,0:0:0:0:
413,65,143799,1,8,1:2:0:0:
366,48,143977,1,0,1:2:0:0:
266,62,144335,2,0,P|190:66|78:92,1,150,4|0,1:2|1:2,0:0:0:0:
46,150,145227,1,8,1:2:0:0:
77,189,145406,2,0,P|119:184|194:189,1,100,2|0,1:2|0:2,0:0:0:0:
221,207,145942,6,0,L|206:330,1,100,4|0,1:2|0:2,0:0:0:0:
289,365,146656,1,8,1:2:0:0:
338,375,146835,1,0,1:2:0:0:
427,330,147192,5,4,1:2:0:0:
497,258,147549,1,8,0:2:0:0:
493,208,147727,1,2,1:2:0:0:
456,114,148085,1,8,1:2:0:0:
388,39,148442,1,2,1:2:0:0:
291,65,148799,5,4,1:1:0:0:
291,65,149156,1,4,1:2:0:0:
321,158,149513,1,8,1:2:0:0:
312,207,149692,1,0,1:2:0:0:
219,245,150049,2,0,L|100:253,1,100,0|8,1:2|0:2,0:0:0:0:
80,283,150585,1,0,0:2:0:0:
146,357,150942,1,0,1:2:0:0:
195,355,151120,1,2,1:2:0:0:
335,306,151656,5,4,1:2:0:0:
335,306,152013,1,4,1:2:0:0:
432,286,152370,1,8,1:2:0:0:
465,248,152549,1,0,1:2:0:0:
502,155,152906,2,0,P|452:115|378:113,1,100,0|8,1:2|0:2,0:0:0:0:
370,124,153442,1,0,0:2:0:0:
282,75,153799,1,8,1:2:0:0:
233,85,153977,2,0,L|226:134,1,50,0|8,1:2|0:2,0:0:0:0:
260,228,154513,5,4,1:2:0:0:
260,228,154870,1,4,1:2:0:0:
222,320,155227,1,8,1:2:0:0:
172,329,155406,1,0,1:2:0:0:
81,286,155763,2,0,P|80:236|106:194,1,100,0|8,1:2|0:2,0:0:0:0:
145,164,156299,1,0,0:2:0:0:
243,149,156656,1,8,1:2:0:0:
291,161,156835,1,2,1:2:0:0:
408,260,157370,5,4,1:2:0:0:
408,260,157727,1,4,1:2:0:0:
487,198,158085,1,8,1:2:0:0:
476,149,158263,1,0,1:2:0:0:
402,85,158620,5,0,1:2:0:0:
353,70,158799,2,0,L|258:60,1,50,8|8,1:2|1:2,0:0:0:0:
253,68,159156,1,6,1:2:0:0:
154,49,159513,1,8,1:2:0:0:
115,81,159692,1,4,1:2:0:0:
57,219,160227,6,0,L|78:281,1,50,4|2,1:1|1:2,0:0:0:0:
82,315,160585,2,0,L|144:294,1,50,8|0,1:2|0:2,0:0:0:0:
179,305,160942,1,12,1:2:0:0:
227,315,161120,1,2,1:2:0:0:
318,356,161477,2,0,L|346:256,1,100,2|0,1:2|0:2,0:0:0:0:
333,210,162013,1,0,1:2:0:0:
411,148,162370,1,8,1:2:0:0:
439,112,162549,1,2,1:2:0:0:
306,41,163085,5,4,1:2:0:0:
306,41,163442,1,4,1:2:0:0:
237,114,163799,1,8,1:2:0:0:
246,162,163977,1,0,1:2:0:0:
282,255,164335,2,0,L|314:357,1,100,0|0,1:2|0:2,0:0:0:0:
360,362,164870,1,0,1:2:0:0:
456,334,165227,1,8,1:2:0:0:
495,303,165406,1,2,1:2:0:0:
458,157,165942,5,4,1:2:0:0:
458,157,166299,1,4,1:2:0:0:
408,70,166656,1,8,1:2:0:0:
361,50,166835,1,0,1:2:0:0:
212,30,167370,5,0,1:2:0:0:
150,108,167727,1,0,1:2:0:0:
202,193,168085,1,8,1:2:0:0:
201,242,168263,2,0,L|135:248,2,50
232,281,168799,5,4,1:2:0:0:
232,281,169156,1,4,1:2:0:0:
290,359,169513,1,8,1:2:0:0:
338,348,169692,1,0,1:2:0:0:
459,251,170227,5,8,1:2:0:0:
495,157,170585,1,0,1:2:0:0:
454,65,170942,1,12,1:2:0:0:
359,31,171299,1,4,1:2:0:0:
262,56,171656,1,2,1:2:0:0:
256,192,171835,12,0,175585,1:2:0:0:
