osu file format v14

[General]
AudioFilename: -------.mp3
AudioLeadIn: 0
PreviewTime: 91469
Countdown: 0
SampleSet: Soft
StackLeniency: 0.6
Mode: 0
LetterboxInBreaks: 0
WidescreenStoryboard: 1

[Editor]
DistanceSpacing: 1.1
BeatDivisor: 4
GridSize: 32
TimelineZoom: 1.8

[Metadata]
Title:Du Li
TitleUnicode:獨立
Artist:Michelle Vickie
ArtistUnicode:蜜雪薇琪
Creator:ailv
Version:Independence
Source:
Tags:taiwanese chinese pop
BeatmapID:1990447
BeatmapSetID:953302

[Difficulty]
HPDrainRate:5
CircleSize:4
OverallDifficulty:7.4
ApproachRate:8
SliderMultiplier:1.6
SliderTickRate:1

[Events]
//Background and Video events
0,0,"54076199_p0.jpg",0,0
//Break Periods
//Storyboard Layer 0 (Background)
//Storyboard Layer 1 (Fail)
//Storyboard Layer 2 (Pass)
//Storyboard Layer 3 (Foreground)
//Storyboard Sound Samples

[TimingPoints]
228,357.142857142857,4,2,1,100,1,0
11656,-100,4,2,1,100,0,0
12370,-166.666666666667,4,2,1,40,0,0
28799,-125,4,2,1,40,0,0
32906,-125,4,2,1,80,0,0
34513,-100,4,2,1,85,0,1
57370,-100,4,2,1,70,0,0
68799,-100,4,2,1,55,0,0
69513,-166.666666666667,4,2,1,50,0,0
80942,-125,4,2,1,70,0,0
90049,-100,4,2,1,80,0,0
91656,-100,4,2,1,85,0,1
114513,-125,4,2,1,75,0,0
124513,-100,4,2,1,80,0,0
125942,-100,4,2,1,85,0,1
148799,-100,4,2,1,85,0,1
171656,-100,4,2,1,60,0,0
175942,-125,4,2,1,70,0,0

[Colours]
Combo1 : 150,255,255
Combo2 : 185,220,255
Combo3 : 193,132,255
Combo4 : 220,185,255
Combo5 : 185,220,255

[HitObjects]
268,261,12370,5,2,1:2:0:0:
201,297,12549,2,0,L|146:302,1,47.9999985351563,0|0,1:2|0:2,0:0:0:0:
87,247,12906,2,0,P|66:284|75:347,2,95.9999970703126,2|2|2,1:2|0:2|0:2,0:0:0:0:
87,247,13799,1,8,1:2:0:0:
141,106,14335,5,0,1:2:0:0:
213,119,14513,2,0,L|223:73,1,47.9999985351563,2|0,1:2|0:2,0:0:0:0:
288,31,14870,1,0,1:2:0:0:
344,88,15049,2,0,L|370:192,1,95.9999970703126,0|0,1:2|0:2,0:0:0:0:
331,254,15585,2,0,L|273:245,1,47.9999985351563,0|0,1:2|0:2,0:0:0:0:
201,284,15942,2,0,P|194:236|214:180,2,95.9999970703126,2|2|2,1:2|0:2|0:2,0:0:0:0:
201,284,18085,5,0,1:2:0:0:
152,349,18263,2,0,L|104:353,1,47.9999985351563,2|0,1:2|0:2,0:0:0:0:
32,305,18620,2,0,P|19:268|34:203,2,95.9999970703126,2|2|2,1:2|0:2|0:2,0:0:0:0:
230,355,20049,5,0,1:2:0:0:
295,316,20227,2,0,L|343:319,1,47.9999985351563,2|0,1:2|0:2,0:0:0:0:
393,263,20585,1,0,1:2:0:0:
465,293,20763,2,0,L|513:290,1,47.9999985351563,2|0,1:2|0:2,0:0:0:0:
421,184,21299,5,0,1:2:0:0:
403,175,21656,2,0,B|351:175|359:205|303:205,1,95.9999970703126,2|2,1:2|0:2,0:0:0:0:
297,201,22370,2,0,L|304:152,1,47.9999985351563,8|0,0:2|0:0,0:0:0:0:
215,159,22727,2,0,L|208:110,1,47.9999985351563,0|0,0:0|0:0,0:0:0:0:
105,184,23085,6,0,L|144:213,1,47.9999985351563,2|0,1:2|0:0,0:0:0:0:
224,258,23442,2,0,L|185:286,1,47.9999985351563,2|0,1:2|0:0,0:0:0:0:
99,360,23799,5,8,1:2:0:0:
35,310,23977,2,0,P|32:279|22:244,1,47.9999985351563,2|0,1:2|0:0,0:0:0:0:
31,168,24335,2,0,P|70:174|133:186,2,95.9999970703126,0|2|0,0:2|1:2|0:2,0:0:0:0:
249,18,25763,5,0,1:2:0:0:
158,55,25942,1,0,1:2:0:0:
158,55,26299,5,0,1:2:0:0:
182,142,26477,2,0,P|162:193|150:240,1,95.9999970703126,2|0,1:2|0:2,0:0:0:0:
176,311,27013,2,0,L|235:297,1,47.9999985351563,2|0,1:2|0:2,0:0:0:0:
273,231,27370,2,0,P|317:241|375:226,1,95.9999970703126,2|0,1:2|0:2,0:0:0:0:
502,20,28442,5,0,1:2:0:0:
475,95,28620,1,0,1:2:0:0:
399,77,28799,2,0,P|346:86|320:95,1,64,2|0,1:2|0:0,0:0:0:0:
267,130,29156,1,0,1:2:0:0:
323,185,29335,1,0,1:2:0:0:
266,242,29513,2,0,P|213:233|187:224,1,64,8|0,1:2|0:0,0:0:0:0:
134,155,29870,5,0,1:2:0:0:
77,206,30049,1,0,1:2:0:0:
108,275,30227,2,0,P|106:306|102:338,1,64,2|0,1:2|0:0,0:0:0:0:
172,373,30585,1,0,1:2:0:0:
244,338,30763,1,0,1:2:0:0:
321,363,30942,2,0,P|349:352|394:339,1,64,8|0,1:2|0:0,0:0:0:0:
432,283,31299,5,0,1:2:0:0:
459,207,31477,1,0,1:2:0:0:
421,140,31656,2,0,P|419:100|419:58,1,64,8|0,1:2|0:0,0:0:0:0:
332,188,32013,2,0,P|334:148|334:106,1,64,8|0,1:2|0:0,0:0:0:0:
250,138,32370,2,0,P|248:98|248:56,1,64,8|0,1:2|0:0,0:0:0:0:
176,33,32727,1,2,1:2:0:0:
128,227,32906,6,0,B|192:243|186:206|254:223,1,128,0|0,1:2|0:2,0:0:0:0:
326,268,33442,1,0,1:2:0:0:
80,296,33799,6,0,L|93:366,2,64,0|0|0,1:2|0:2|0:2,0:0:0:0:
56,58,34513,6,0,B|34:72|23:102|23:102|56:208,1,160,4|0,1:1|0:2,0:0:0:0:
244,238,35227,1,8,1:2:0:0:
297,175,35406,2,0,P|286:137|256:68,1,80,0|0,1:2|0:2,0:0:0:0:
411,229,35763,6,0,B|386:232|358:249|358:249|338:318|337:356,1,160,2|0,1:2|0:2,0:0:0:0:
435,375,36299,2,0,P|484:358|505:315,1,80,0|0,1:2|0:2,0:0:0:0:
507,247,36656,1,8,1:2:0:0:
486,160,36835,2,0,P|492:118|513:2,1,160,2|0,1:2|0:2,0:0:0:0:
399,100,37370,6,0,B|318:101|323:151|250:148,1,160,4|0,1:2|0:2,0:0:0:0:
88,90,38085,1,8,1:2:0:0:
148,29,38263,2,0,P|187:25|250:43,1,80,0|0,1:2|0:2,0:0:0:0:
74,80,38620,6,0,P|88:150|94:260,1,160,2|0,1:2|0:2,0:0:0:0:
40,329,39156,2,0,P|84:323|131:321,1,80,0|0,1:2|0:2,0:0:0:0:
203,361,39513,1,8,1:2:0:0:
274,292,39692,2,0,P|263:246|254:208,1,80,0|0,1:2|0:2,0:0:0:0:
372,369,40049,6,0,B|361:340|363:311|363:311|391:198,1,160,4|0,1:2|0:2,0:0:0:0:
442,140,40585,2,0,P|422:90|409:46,1,80,0|0,1:2|0:2,0:0:0:0:
512,203,40942,5,8,1:2:0:0:
464,278,41120,2,0,P|451:348|451:380,1,80,0|0,1:2|0:2,0:0:0:0:
387,213,41477,2,0,B|318:193|300:241|231:219,1,160,4|0,1:2|0:2,0:0:0:0:
143,161,42013,2,0,P|125:204|127:242,1,80,0|0,1:2|0:2,0:0:0:0:
172,311,42370,1,8,1:2:0:0:
95,364,42549,2,0,P|49:362|41:255,1,160,2|0,1:2|0:2,0:0:0:0:
196,328,43085,6,0,B|270:322|270:368|356:362,1,160,4|0,1:2|0:2,0:0:0:0:
509,244,43799,1,8,1:2:0:0:
447,185,43977,2,0,P|391:179|350:181,1,80,0|0,1:2|0:2,0:0:0:0:
499,102,44335,2,0,B|431:117|390:78|333:87,1,160,4|0,1:2|0:2,0:0:0:0:
253,49,44870,2,0,P|257:84|262:130,1,80,2|0,1:2|0:2,0:0:0:0:
166,71,45227,1,8,1:2:0:0:
81,111,45406,2,0,P|38:111|59:15,1,160,4|8,1:2|0:2,0:0:0:0:
162,160,45942,6,0,B|142:172|131:202|131:202|158:327,1,160,4|0,1:1|0:2,0:0:0:0:
318,365,46656,1,8,1:2:0:0:
360,292,46835,2,0,P|355:238|355:207,1,80,0|0,1:2|0:2,0:0:0:0:
432,376,47192,6,0,B|466:362|478:342|478:342|489:222,1,160,2|0,1:2|0:2,0:0:0:0:
447,157,47727,2,0,P|455:106|466:63,1,80,0|0,1:2|0:2,0:0:0:0:
362,179,48085,1,8,1:2:0:0:
298,106,48263,2,0,P|227:100|110:88,1,160,2|0,1:2|0:2,0:0:0:0:
262,201,48799,6,0,B|283:225|287:248|287:248|264:372,1,160,4|0,1:2|0:2,0:0:0:0:
47,342,49513,1,8,1:2:0:0:
90,272,49692,2,0,P|134:266|175:270,1,80,0|0,1:2|0:2,0:0:0:0:
28,211,50049,6,0,B|11:182|10:166|10:166|34:44,1,160,2|0,1:2|0:2,0:0:0:0:
110,18,50585,2,0,P|151:22|192:14,1,80,0|0,1:2|0:2,0:0:0:0:
117,105,50942,1,8,1:2:0:0:
191,157,51120,2,0,P|232:161|273:153,1,80,0|0,1:2|0:2,0:0:0:0:
122,219,51477,6,0,B|103:242|96:264|96:264|122:383,1,160,4|0,1:2|0:2,0:0:0:0:
225,346,52013,2,0,P|274:341|310:362,1,80,0|0,1:2|0:2,0:0:0:0:
217,257,52370,1,8,1:2:0:0:
266,189,52549,2,0,P|256:140|255:106,1,80,0|0,1:2|0:2,0:0:0:0:
350,259,52906,6,0,B|372:239|381:221|381:221|378:90,1,160,4|0,1:2|0:2,0:0:0:0:
450,42,53442,2,0,P|469:92|472:135,1,80,0|0,1:2|0:2,0:0:0:0:
366,21,53799,1,8,1:2:0:0:
287,74,53977,2,0,B|208:57|201:128|112:113,1,160,2|0,1:2|0:2,0:0:0:0:
264,172,54513,6,0,B|247:203|244:221|244:221|270:350,1,160,4|0,1:2|0:2,0:0:0:0:
459,362,55227,1,8,1:2:0:0:
502,293,55406,2,0,P|503:239|491:189,1,80,0|0,1:2|0:2,0:0:0:0:
367,301,55763,6,0,B|283:304|298:369|194:364,1,160,4|0,1:2|0:2,0:0:0:0:
107,339,56299,2,0,P|65:344|0:357,1,80,2|0,1:2|0:2,0:0:0:0:
144,254,56656,2,0,P|186:259|251:272,1,80,8|0,1:2|0:2,0:0:0:0:
81,183,57013,2,0,P|39:188|-26:201,1,80,2|0,1:2|0:2,0:0:0:0:
146,110,57370,5,4,1:2:0:0:
256,192,57460,12,0,61656,1:2:0:0:
270,240,63085,5,4,1:2:0:0:
270,240,63263,1,0,1:2:0:0:
202,290,63442,1,2,1:2:0:0:
202,290,63620,1,0,1:2:0:0:
123,257,63799,2,0,P|114:212|108:168,1,80,8|0,1:2|0:2,0:0:0:0:
73,104,64156,1,0,1:2:0:0:
131,47,64335,2,0,P|175:60|217:68,1,80,2|0,1:2|0:2,0:0:0:0:
297,40,64692,5,4,1:2:0:0:
297,40,64870,1,0,1:2:0:0:
348,118,65049,1,2,1:2:0:0:
348,118,65227,2,0,P|353:155|358:197,1,80,8|0,1:2|0:2,0:0:0:0:
406,283,65585,1,0,1:2:0:0:
331,339,65763,2,0,P|272:335|232:334,1,80,2|0,1:2|0:2,0:0:0:0:
165,358,66120,5,2,1:2:0:0:
165,358,66299,1,0,1:2:0:0:
124,284,66477,1,2,1:2:0:0:
124,284,66656,1,8,1:2:0:0:
180,222,66835,1,2,1:2:0:0:
110,165,67013,1,2,1:2:0:0:
162,77,67192,1,2,1:2:0:0:
264,119,67370,6,0,P|259:79|256:39,1,80,4|0,1:2|0:2,0:0:0:0:
344,165,67727,1,2,1:2:0:0:
344,165,67906,1,0,1:2:0:0:
313,254,68085,1,4,1:2:0:0:
313,254,68263,1,2,1:2:0:0:
361,333,68442,1,4,1:2:0:0:
361,333,68620,1,2,1:2:0:0:
361,333,69513,5,2,1:2:0:0:
430,277,69692,2,0,L|437:211,1,47.9999985351563,0|0,1:2|0:2,0:0:0:0:
430,140,70049,2,0,P|386:126|327:126,2,95.9999970703126,2|2|2,1:2|0:2|0:2,0:0:0:0:
430,140,70942,1,8,1:2:0:0:
248,45,71477,5,0,1:2:0:0:
209,113,71656,2,0,L|223:180,1,47.9999985351563,2|0,1:2|0:2,0:0:0:0:
295,182,72013,1,0,1:2:0:0:
260,253,72192,2,0,L|234:357,1,95.9999970703126,0|0,1:2|0:2,0:0:0:0:
323,330,72727,2,0,L|381:321,1,47.9999985351563,0|0,1:2|0:2,0:0:0:0:
452,366,73085,2,0,P|459:318|439:262,2,95.9999970703126,2|2|2,1:2|0:2|0:2,0:0:0:0:
262,285,75227,5,0,1:2:0:0:
195,330,75406,2,0,L|131:324,1,47.9999985351563,2|0,1:2|0:2,0:0:0:0:
89,273,75763,2,0,P|76:236|91:171,2,95.9999970703126,2|2|2,1:2|0:2|0:2,0:0:0:0:
291,113,77192,5,0,1:2:0:0:
237,55,77370,2,0,L|185:46,1,47.9999985351563,2|0,1:2|0:2,0:0:0:0:
126,88,77727,1,0,1:2:0:0:
66,39,77906,2,0,L|18:47,1,47.9999985351563,2|0,1:2|0:2,0:0:0:0:
64,165,78442,5,0,1:2:0:0:
75,159,78799,2,0,B|127:159|119:189|175:189,2,95.9999970703126,2|2|8,1:2|0:2|0:2,0:0:0:0:
212,329,80227,5,2,1:2:0:0:
212,329,80585,1,2,1:2:0:0:
212,329,80942,5,8,1:2:0:0:
290,310,81120,2,0,P|329:316|425:330,1,128,2|0,1:2|0:2,0:0:0:0:
403,174,81835,2,0,P|364:180|268:194,1,128,2|0,1:2|0:2,0:0:0:0:
193,163,82370,2,0,P|169:103|187:19,1,128,8|0,1:2|0:2,0:0:0:0:
263,18,82906,1,0,1:2:0:0:
354,55,83085,5,0,1:2:0:0:
354,55,83442,1,0,1:2:0:0:
332,144,83620,2,0,P|352:195|376:276,1,128,2|0,1:2|0:2,0:0:0:0:
354,340,84156,2,0,L|280:328,1,64,2|0,1:2|0:2,0:0:0:0:
216,368,84513,2,0,P|195:337|112:333,1,128,2|0,1:2|0:2,0:0:0:0:
34,183,85585,5,0,1:2:0:0:
25,106,85763,1,0,1:2:0:0:
84,51,85942,2,0,P|137:60|163:69,1,64,2|0,1:2|0:2,0:0:0:0:
216,106,86299,1,0,1:2:0:0:
212,182,86477,1,0,1:2:0:0:
270,237,86656,2,0,P|323:228|349:219,1,64,8|0,1:2|0:2,0:0:0:0:
357,129,87013,5,0,1:2:0:0:
428,101,87192,1,0,1:2:0:0:
496,144,87370,2,0,P|498:175|502:207,1,64,2|0,1:2|0:2,0:0:0:0:
479,280,87727,1,0,1:2:0:0:
401,273,87906,1,0,1:2:0:0:
343,325,88085,2,0,P|311:327|279:331,1,64,8|0,1:2|0:2,0:0:0:0:
201,357,88442,5,0,1:2:0:0:
135,314,88620,1,0,1:2:0:0:
59,346,88799,2,0,P|61:306|61:264,1,64,8|0,1:2|0:2,0:0:0:0:
126,230,89156,2,0,P|124:190|124:148,1,64,8|0,1:2|0:2,0:0:0:0:
24,180,89513,2,0,P|26:140|26:98,1,64,8|0,1:2|0:2,0:0:0:0:
0,33,89870,1,2,1:2:0:0:
123,14,90049,6,0,B|186:0|178:33|254:18,1,120,4|0,1:2|0:2,0:0:0:0:
283,13,90406,1,8,1:2:0:0:
358,61,90585,1,8,1:2:0:0:
436,25,90763,2,0,L|525:51,2,80,8|2|8,1:2|0:2|0:2,0:0:0:0:
304,122,91656,6,0,B|277:139|272:165|272:165|298:279,1,160,4|0,1:1|0:2,0:0:0:0:
447,346,92370,1,8,1:2:0:0:
482,261,92549,2,0,P|480:210|479:165,1,80,0|0,1:2|0:2,0:0:0:0:
374,288,92906,6,0,B|290:292|310:339|206:347,1,160,2|0,1:2|0:2,0:0:0:0:
143,310,93442,2,0,P|137:271|143:227,1,80,0|0,1:2|0:2,0:0:0:0:
163,136,93799,1,8,1:2:0:0:
159,47,93977,2,0,B|73:59|109:118|12:129,1,160,2|0,1:2|0:2,0:0:0:0:
247,87,94513,6,0,B|269:64|306:61|306:61|415:78,1,160,4|0,1:2|0:2,0:0:0:0:
493,213,95227,1,8,1:2:0:0:
409,256,95406,2,0,P|371:266|321:273,1,80,0|0,1:2|0:2,0:0:0:0:
460,354,95763,6,0,B|403:337|349:378|294:364,1,160,2|0,1:2|0:2,0:0:0:0:
216,341,96299,2,0,P|163:327|105:330,1,80,0|0,1:2|0:2,0:0:0:0:
43,293,96656,1,8,1:2:0:0:
106,216,96835,2,0,P|154:216|221:225,1,80,0|0,1:2|0:2,0:0:0:0:
21,162,97192,6,0,B|61:115|10:48|69:7,1,160,4|0,1:2|0:2,0:0:0:0:
142,22,97727,2,0,P|153:71|147:119,1,80,0|0,1:2|0:2,0:0:0:0:
247,16,98085,5,8,1:2:0:0:
309,79,98263,2,0,P|370:77|397:78,1,80,0|0,1:2|0:2,0:0:0:0:
244,158,98620,2,0,B|264:177|272:197|272:197|247:324,1,160,4|0,1:2|0:2,0:0:0:0:
149,360,99156,2,0,P|133:307|145:254,1,80,0|0,1:2|0:2,0:0:0:0:
167,192,99513,1,8,1:2:0:0:
125,106,99692,2,0,P|63:108|37:210,1,160,2|0,1:2|0:2,0:0:0:0:
193,180,100227,6,0,P|280:188|381:209,1,160,4|0,1:2|0:2,0:0:0:0:
458,337,100942,1,8,1:2:0:0:
371,374,101120,2,0,B|312:367|310:367|271:362,1,80,0|0,1:2|0:2,0:0:0:0:
379,284,101477,6,0,B|296:287|304:230|205:240,1,160,4|0,1:2|0:2,0:0:0:0:
153,284,102013,2,0,P|159:329|171:368,1,80,2|0,1:2|0:2,0:0:0:0:
58,289,102370,1,8,1:2:0:0:
73,195,102549,1,4,1:2:0:0:
29,103,102727,1,8,0:0:0:0:
22,91,102817,1,8,0:0:0:0:
19,78,102906,1,8,0:2:0:0:
22,65,102995,1,8,0:0:0:0:
28,53,103085,6,0,P|112:38|206:66,1,160,4|0,1:1|0:2,0:0:0:0:
337,144,103799,1,8,1:2:0:0:
426,97,103977,2,0,P|424:48|420:4,1,80,0|0,1:2|0:2,0:0:0:0:
497,179,104335,6,0,B|473:201|461:225|461:225|480:324,1,160,2|0,1:2|0:2,0:0:0:0:
400,368,104870,2,0,P|357:364|312:360,1,80,0|0,1:2|0:2,0:0:0:0:
229,331,105227,1,8,1:2:0:0:
144,359,105406,2,0,P|146:281|155:196,1,160,2|0,1:2|0:2,0:0:0:0:
57,362,105942,6,0,P|3:348|11:252,1,160,4|0,1:2|0:2,0:0:0:0:
175,168,106656,1,8,1:2:0:0:
90,114,106835,2,0,P|30:103|-8:105,1,80,0|0,1:2|0:2,0:0:0:0:
176,65,107192,6,0,B|261:66|245:122|345:123,1,160,2|0,1:2|0:2,0:0:0:0:
418,114,107727,2,0,P|435:159|445:205,1,80,0|0,1:2|0:2,0:0:0:0:
400,272,108085,1,8,1:2:0:0:
306,241,108263,2,0,P|260:234|204:248,1,80,0|0,1:2|0:2,0:0:0:0:
311,347,108620,6,0,B|235:311|228:377|154:350,1,160,4|0,1:2|0:2,0:0:0:0:
52,372,109156,2,0,P|49:328|45:276,1,80,0|0,1:2|0:2,0:0:0:0:
24,191,109513,1,8,1:2:0:0:
113,138,109692,2,0,P|155:144|199:148,1,80,0|0,1:2|0:2,0:0:0:0:
34,64,110049,6,0,B|58:44|82:37|82:37|204:37,1,160,4|0,1:2|0:2,0:0:0:0:
281,76,110585,2,0,P|332:73|371:65,1,80,0|0,1:2|0:2,0:0:0:0:
461,54,110942,1,8,1:2:0:0:
501,147,111120,2,0,P|497:198|483:317,1,160,2|0,1:2|0:2,0:0:0:0:
410,161,111656,6,0,P|365:181|366:298,1,160,4|0,1:2|0:2,0:0:0:0:
221,355,112370,1,8,1:2:0:0:
154,293,112549,2,0,P|157:243|164:192,1,80,0|0,1:2|0:2,0:0:0:0:
77,354,112906,6,0,P|59:302|50:262,2,80,4|0|0,1:2|0:0|0:2,0:0:0:0:
3,178,113442,2,0,P|32:188|81:190,1,80,2|0,1:2|0:2,0:0:0:0:
170,122,113799,1,8,1:2:0:0:
170,122,113977,1,0,0:2:0:0:
80,64,114156,1,2,1:2:0:0:
80,64,114335,1,0,0:2:0:0:
210,20,114513,6,0,P|270:46|336:46,1,128,4|0,1:2|0:0,0:0:0:0:
417,40,115049,1,0,1:2:0:0:
443,123,115227,2,0,P|448:160|456:193,1,64,8|0,1:2|0:2,0:0:0:0:
365,210,115585,1,0,1:2:0:0:
385,295,115763,1,0,1:2:0:0:
435,359,115942,6,0,P|374:330|323:342,1,96,2|0,1:2|0:2,0:0:0:0:
317,347,116299,2,0,L|230:342,1,64,2|0,1:2|0:2,0:0:0:0:
172,364,116656,2,0,L|108:367,1,64,8|0,1:2|0:2,0:0:0:0:
31,317,117013,1,0,1:2:0:0:
83,241,117192,1,0,1:2:0:0:
34,160,117370,6,0,P|29:104|21:48,1,96,2|0,1:2|0:2,0:0:0:0:
35,37,117727,2,0,P|72:37|101:38,1,64,2|0,1:2|0:2,0:0:0:0:
170,93,118085,2,0,P|159:140|158:170,1,64,8|0,1:2|0:2,0:0:0:0:
209,220,118442,1,0,1:2:0:0:
292,189,118620,1,0,1:2:0:0:
364,253,118799,6,0,P|398:275|464:262,1,96,2|0,1:2|0:2,0:0:0:0:
477,250,119156,2,0,L|472:164,1,64,2|0,1:2|0:2,0:0:0:0:
499,78,119513,2,0,L|413:83,1,64,8|0,1:2|0:2,0:0:0:0:
327,45,119870,2,0,L|332:131,1,64,0|0,1:2|0:2,0:0:0:0:
257,182,120227,6,0,P|209:176|111:170,1,128,4|0,1:2|0:2,0:0:0:0:
50,228,120763,1,0,1:2:0:0:
88,307,120942,2,0,P|131:305|175:306,1,64,8|0,1:2|0:2,0:0:0:0:
237,350,121299,1,0,1:2:0:0:
330,317,121477,1,0,1:2:0:0:
443,348,121656,6,0,P|430:287|421:226,1,96,2|0,1:2|0:2,0:0:0:0:
435,225,122013,2,0,P|441:192|445:155,1,64,2|0,1:2|0:2,0:0:0:0:
512,87,122370,2,0,P|454:70|441:67,1,64,8|0,1:2|0:2,0:0:0:0:
357,47,122727,1,0,1:2:0:0:
346,143,122906,1,0,1:2:0:0:
272,216,123085,6,0,P|243:166|241:101,2,96,2|2|2,1:2|0:2|0:2,0:0:0:0:
352,286,123799,1,2,1:2:0:0:
352,286,123888,1,2,1:2:0:0:
352,286,123977,1,2,1:2:0:0:
296,357,124156,1,8,1:2:0:0:
216,324,124335,1,2,1:2:0:0:
123,357,124513,5,2,1:2:0:0:
114,258,124692,1,10,1:2:0:0:
9,240,124870,1,2,1:2:0:0:
27,328,125049,1,10,1:2:0:0:
80,171,125227,5,10,1:2:0:0:
0,110,125406,1,10,1:2:0:0:
110,75,125585,1,10,1:2:0:0:
0,97,125763,1,10,1:2:0:0:
134,86,125942,6,0,P|215:52|277:98,1,160,4|0,1:1|0:2,0:0:0:0:
316,243,126656,1,8,1:2:0:0:
245,300,126835,2,0,P|195:294|159:284,1,80,0|0,1:2|0:2,0:0:0:0:
305,377,127192,6,0,B|318:353|342:344|342:344|469:335,1,160,2|0,1:2|0:2,0:0:0:0:
512,250,127727,2,0,P|510:199|501:160,1,80,0|0,1:2|0:2,0:0:0:0:
447,96,128085,1,8,1:2:0:0:
359,156,128263,2,0,P|351:195|356:329,1,160,2|0,1:2|0:2,0:0:0:0:
258,218,128799,6,0,B|167:220|206:284|102:291,1,160,4|0,1:2|0:2,0:0:0:0:
7,159,129513,1,8,1:2:0:0:
79,110,129692,2,0,P|121:112|165:126,1,80,0|0,1:2|0:2,0:0:0:0:
72,24,130049,6,0,P|154:27|246:16,1,160,2|0,1:2|0:2,0:0:0:0:
314,53,130585,2,0,P|302:100|299:135,1,80,0|0,1:2|0:2,0:0:0:0:
369,206,130942,1,8,1:2:0:0:
442,140,131120,2,0,P|437:100|427:61,1,80,0|0,1:2|0:2,0:0:0:0:
512,203,131477,6,0,B|494:220|482:245|482:245|482:358,1,160,4|0,1:2|0:2,0:0:0:0:
394,367,132013,2,0,P|331:361|311:358,1,80,0|0,1:2|0:2,0:0:0:0:
219,324,132370,1,8,1:2:0:0:
117,349,132549,2,0,P|122:281|123:239,1,80,0|0,1:2|0:2,0:0:0:0:
15,361,132906,6,0,B|37:305|-12:268|15:189,1,160,4|0,1:2|0:2,0:0:0:0:
82,126,133442,2,0,P|143:128|163:145,1,80,0|0,1:2|0:2,0:0:0:0:
220,220,133799,1,8,1:2:0:0:
289,156,133977,2,0,P|282:106|268:-18,1,160,2|0,1:2|0:2,0:0:0:0:
377,103,134513,6,0,B|448:121|425:170|522:184,1,160,4|0,1:2|0:2,0:0:0:0:
380,358,135227,1,8,1:2:0:0:
308,299,135406,2,0,P|306:248|315:206,1,80,0|0,1:2|0:2,0:0:0:0:
223,346,135763,6,0,B|161:329|154:369|82:351,1,120,4|0,1:2|0:0,0:0:0:0:
66,341,136120,2,0,P|46:284|64:212,1,120,4|0,0:2|0:0,0:0:0:0:
76,201,136477,2,0,P|130:208|172:220,1,80,4|8,0:2|1:2,0:0:0:0:
16,124,136835,1,4,1:2:0:0:
69,44,137013,1,8,0:0:0:0:
79,40,137102,1,8,0:0:0:0:
92,38,137192,1,8,0:2:0:0:
105,36,137281,1,8,0:0:0:0:
117,40,137370,6,0,P|167:46|313:43,1,160,4|0,1:1|0:2,0:0:0:0:
370,199,138085,1,8,1:2:0:0:
311,269,138263,2,0,P|268:263|222:260,1,80,0|0,1:2|0:2,0:0:0:0:
392,329,138620,6,0,P|464:353|499:273,1,160,2|0,1:2|0:2,0:0:0:0:
472,192,139156,2,0,P|473:139|478:105,1,80,0|0,1:2|0:2,0:0:0:0:
399,35,139513,1,8,1:2:0:0:
290,78,139692,2,0,B|214:59|208:114|118:87,1,160,2|0,1:2|0:2,0:0:0:0:
349,178,140227,6,0,P|375:257|341:351,1,160,4|0,1:2|0:2,0:0:0:0:
142,358,140942,1,8,1:2:0:0:
81,291,141120,2,0,P|45:290|-6:302,1,80,0|0,1:2|0:2,0:0:0:0:
129,206,141477,6,0,P|188:222|255:155,1,160,2|0,1:2|0:2,0:0:0:0:
233,67,142013,2,0,P|271:55|310:50,1,80,0|0,1:2|0:2,0:0:0:0:
152,117,142370,1,8,1:2:0:0:
54,91,142549,2,0,P|50:51|57:12,1,80,0|0,1:2|0:2,0:0:0:0:
10,182,142906,6,0,B|90:183|65:242|178:227,1,160,4|0,1:2|0:2,0:0:0:0:
244,153,143442,2,0,P|187:133|142:133,1,80,0|0,1:2|0:2,0:0:0:0:
253,249,143799,1,8,1:2:0:0:
345,188,143977,2,0,P|336:132|326:101,1,80,0|0,1:2|0:2,0:0:0:0:
454,198,144335,6,0,B|430:260|490:298|460:367,1,160,4|0,1:2|0:2,0:0:0:0:
376,319,144870,2,0,P|330:310|284:313,1,80,0|0,1:2|0:2,0:0:0:0:
220,360,145227,1,8,1:2:0:0:
152,305,145406,2,0,P|161:262|165:136,1,160,2|0,1:2|0:2,0:0:0:0:
69,360,145942,6,0,P|25:340|41:232,1,160,4|0,1:2|0:2,0:0:0:0:
165,146,146656,1,8,1:2:0:0:
96,86,146835,2,0,P|35:84|-9:98,1,80,0|0,1:2|0:2,0:0:0:0:
181,25,147192,6,0,P|218:38|347:47,1,160,4|8,1:2|0:2,0:0:0:0:
430,15,147727,2,0,P|446:58|452:98,1,80,2|0,1:2|0:2,0:0:0:0:
512,168,148085,2,0,P|482:203|451:228,1,80,8|0,1:2|0:2,0:0:0:0:
449,331,148442,2,0,P|403:323|366:308,1,80,2|0,1:2|0:2,0:0:0:0:
196,350,148799,6,0,P|276:337|277:286,1,120,4|0,1:1|0:0,0:0:0:0:
262,286,149156,2,0,P|254:235|266:200,1,80,4|0,1:2|0:2,0:0:0:0:
292,116,149513,1,8,1:2:0:0:
216,70,149692,2,0,P|166:72|137:74,1,80,0|0,1:2|0:2,0:0:0:0:
307,26,150049,5,0,1:2:0:0:
395,57,150227,2,0,L|385:149,2,80,0|8|0,1:2|0:2|0:2,0:0:0:0:
492,299,150942,1,0,1:2:0:0:
397,264,151120,2,0,B|314:268|334:297|241:302,1,160,2|0,1:2|0:2,0:0:0:0:
386,357,151656,6,0,P|461:358|486:302,1,120,4|0,1:2|0:2,0:0:0:0:
492,299,152013,2,0,P|499:252|489:212,1,80,4|0,1:2|0:2,0:0:0:0:
417,163,152370,1,8,1:2:0:0:
433,73,152549,2,0,P|472:67|512:64,1,80,0|0,1:2|0:2,0:0:0:0:
356,15,152906,5,0,1:2:0:0:
269,86,153085,2,0,L|248:-2,2,80,0|8|0,1:2|0:2|0:2,0:0:0:0:
236,260,153799,1,8,1:2:0:0:
161,225,153977,2,0,P|120:220|62:223,2,80,0|8|0,1:2|0:2|0:2,0:0:0:0:
33,313,154513,6,0,B|97:305|84:356|148:350,1,120,4|0,1:2|0:2,0:0:0:0:
183,347,154870,2,0,P|225:340|293:359,1,80,4|0,1:2|0:2,0:0:0:0:
360,336,155227,1,8,1:2:0:0:
346,245,155406,2,0,P|348:193|354:145,1,80,0|0,1:2|0:2,0:0:0:0:
243,255,155763,5,0,1:2:0:0:
155,220,155942,2,0,P|105:218|65:221,2,80,0|8|0,1:2|0:2|0:2,0:0:0:0:
0,101,156656,1,8,1:2:0:0:
74,43,156835,2,0,B|154:52|129:94|256:98,1,160,2|0,1:2|0:2,0:0:0:0:
384,39,157370,6,0,P|336:61|312:139,1,120,4|0,1:2|0:2,0:0:0:0:
319,148,157727,2,0,P|332:193|326:240,1,80,4|0,1:2|0:2,0:0:0:0:
257,287,158085,1,8,1:2:0:0:
327,352,158263,2,0,P|373:348|415:347,1,80,0|0,1:2|0:2,0:0:0:0:
209,356,158620,5,0,1:2:0:0:
127,295,158799,1,8,1:2:0:0:
101,380,158977,1,8,1:2:0:0:
133,280,159156,2,0,P|132:236|139:186,1,80,6|0,1:2|0:2,0:0:0:0:
45,290,159513,1,8,1:2:0:0:
7,198,159692,2,0,P|17:136|41:35,1,160,4|0,1:2|0:2,0:0:0:0:
146,140,160227,5,4,1:1:0:0:
126,57,160406,1,2,1:2:0:0:
165,143,160585,2,0,P|221:153|254:158,1,80,8|0,1:2|0:2,0:0:0:0:
122,235,160942,1,12,1:2:0:0:
194,297,161120,2,0,P|233:290|272:283,1,80,2|0,1:2|0:2,0:0:0:0:
425,304,161477,6,0,B|342:318|358:357|269:372,1,160,2|0,1:2|0:2,0:0:0:0:
349,237,162013,2,0,P|352:200|356:153,1,80,0|0,1:2|0:2,0:0:0:0:
272,283,162370,1,8,1:2:0:0:
204,216,162549,2,0,P|211:140|221:68,1,120,2|0,1:2|0:2,0:0:0:0:
229,65,162906,5,0,1:2:0:0:
322,43,163085,2,0,P|404:52|441:107,1,120,4|0,1:2|0:2,0:0:0:0:
447,106,163442,2,0,P|432:137|436:186,1,80,4|0,1:2|0:2,0:0:0:0:
492,267,163799,1,8,1:2:0:0:
386,291,163977,2,0,P|333:281|275:281,1,80,0|0,1:2|0:2,0:0:0:0:
207,339,164335,5,0,1:2:0:0:
150,274,164513,2,0,P|147:197|147:160,1,80,0|0,1:2|0:2,0:0:0:0:
230,159,164870,2,0,P|233:82|233:45,1,80,0|0,1:2|0:2,0:0:0:0:
318,199,165227,1,8,1:2:0:0:
423,170,165406,2,0,P|479:188|515:197,1,80,2|0,1:2|0:2,0:0:0:0:
363,92,165763,5,0,1:2:0:0:
355,0,165942,2,0,B|299:1|305:50|229:54,1,120,4|0,1:2|0:2,0:0:0:0:
215,48,166299,2,0,P|174:40|122:42,1,80,4|0,1:2|0:2,0:0:0:0:
66,104,166656,1,8,1:2:0:0:
115,188,166835,2,0,P|110:230|104:278,1,80,0|0,1:2|0:2,0:0:0:0:
191,136,167192,5,0,1:2:0:0:
264,183,167370,2,0,P|314:178|347:178,1,80,0|0,1:2|0:2,0:0:0:0:
423,224,167727,1,0,1:2:0:0:
509,208,167906,1,0,1:2:0:0:
442,138,168085,1,8,1:2:0:0:
512,230,168263,2,0,P|501:288|498:315,1,80,0|0,1:2|0:2,0:0:0:0:
397,350,168620,1,0,1:2:0:0:
330,269,168799,6,0,B|257:273|285:305|209:317,1,120,4|0,1:2|0:2,0:0:0:0:
191,319,169156,2,0,P|133:307|104:313,1,80,4|0,1:2|0:2,0:0:0:0:
29,349,169513,1,8,1:2:0:0:
6,241,169692,2,0,P|14:206|25:155,1,80,0|0,1:2|0:2,0:0:0:0:
122,213,170049,6,0,P|173:203|223:195,2,80,0|8|0,1:2|0:2|0:2,0:0:0:0:
213,100,170585,2,0,P|254:108|293:113,1,80,0|0,1:2|0:2,0:0:0:0:
393,64,170942,1,12,1:2:0:0:
393,64,171120,1,8,1:2:0:0:
466,135,171299,1,4,1:2:0:0:
466,135,171477,1,8,1:2:0:0:
413,241,171656,5,2,1:2:0:0:
256,192,171745,12,0,175585,1:2:0:0:
316,255,175942,6,0,P|273:254|231:253,1,64,2|0,1:2|0:2,0:0:0:0:
169,294,176299,2,0,P|137:294|105:295,1,64,2|0,1:2|0:2,0:0:0:0:
41,229,176656,2,0,P|40:197|39:165,1,64,2|0,1:2|0:2,0:0:0:0:
123,139,177013,2,0,P|123:107|124:75,1,64,2|0,1:2|0:2,0:0:0:0:
228,55,177370,6,0,P|286:71|314:66,1,64,4|0,1:2|0:2,0:0:0:0:
371,54,177727,1,0,1:2:0:0:
371,54,178442,5,0,1:2:0:0:
466,37,178620,1,0,1:2:0:0:
501,119,178799,2,0,P|487:167|481:202,1,64,2|0,1:2|0:2,0:0:0:0:
482,270,179156,1,0,1:2:0:0:
482,270,179870,5,0,1:2:0:0:
425,341,180049,1,0,1:2:0:0:
329,297,180227,2,0,P|288:302|254:311,1,64,2|0,1:2|0:2,0:0:0:0:
190,353,180585,1,0,1:2:0:0:
190,353,181299,5,0,1:2:0:0:
114,295,181477,1,0,1:2:0:0:
187,233,181656,2,0,P|175:200|164:157,1,64,2|0,1:2|0:2,0:0:0:0:
261,167,182013,2,0,P|283:140|315:109,1,64,2|0,1:2|0:2,0:0:0:0:
348,207,182370,2,0,P|382:213|425:225,1,64,2|0,1:2|0:2,0:0:0:0:
362,302,182727,2,0,P|374:335|385:378,1,64,2|0,1:2|0:2,0:0:0:0:
485,327,183085,6,0,P|488:283|487:238,1,64,4|0,1:2|0:2,0:0:0:0:
478,176,183442,1,0,1:2:0:0:
478,176,184156,5,0,1:2:0:0:
496,83,184335,1,0,1:2:0:0:
416,37,184513,2,0,P|378:31|339:25,1,64,2|0,1:2|0:2,0:0:0:0:
268,58,184870,1,0,1:2:0:0:
268,58,185585,5,0,1:2:0:0:
250,146,185763,1,0,1:2:0:0:
295,220,185942,2,0,P|341:224|369:234,1,64,0|0,1:2|0:2,0:0:0:0:
424,283,186299,1,0,1:2:0:0:
424,283,187013,5,0,1:2:0:0:
369,358,187192,1,0,1:2:0:0:
276,341,187370,2,0,P|232:340|192:337,1,64,2|0,1:2|0:2,0:0:0:0:
269,264,187727,2,0,P|225:263|185:260,1,64,2|0,1:2|0:2,0:0:0:0:
272,164,188085,2,0,P|228:163|188:160,1,64,2|0,1:2|0:2,0:0:0:0:
273,40,188442,2,0,P|229:39|189:36,1,64,2|0,1:2|0:2,0:0:0:0:
342,98,188799,5,4,1:2:0:0:
256,192,188888,12,0,193442,1:2:0:0:
