osu file format v14

[General]
AudioFilename: Bloodborne Soundtrack HD 04 The Cleric Beast.mp3
AudioLeadIn: 0
PreviewTime: -1
Countdown: 0
SampleSet: Normal
StackLeniency: 0.7
Mode: 0
LetterboxInBreaks: 1
WidescreenStoryboard: 0

[Editor]
DistanceSpacing: 0.8
BeatDivisor: 4
GridSize: 32
TimelineZoom: 2.362879

[Metadata]
Title:The Cleric Beast
TitleUnicode:The Cleric Beast
Artist:Michael Wandmacher and Saitoh Tsukasa
ArtistUnicode:Michael Wandmacher and Saitoh Tsukasa
Creator:Sephyrias
Version:Normal
Source:Bloodborne
Tags:Video game theme
BeatmapID:737247
BeatmapSetID:333090

[Difficulty]
HPDrainRate:5
CircleSize:4
OverallDifficulty:5
ApproachRate:5
SliderMultiplier:1.5
SliderTickRate:1

[Events]
//Background and Video events
0,0,"1920x-1.jpg",0,0
//Break Periods
2,19082,25077
2,67616,76502
2,78116,81645
//Storyboard Layer 0 (Background)
//Storyboard Layer 1 (Fail)
//Storyboard Layer 2 (Pass)
//Storyboard Layer 3 (Foreground)
//Storyboard Sound Samples

[TimingPoints]
1868,895.522388059701,4,1,0,20,1,0
26277,428.546940174847,4,1,0,20,1,0
108558,-100,4,1,0,20,0,1

[Colours]
Combo1 : 158,131,84
Combo2 : 84,116,165
Combo3 : 186,69,69
Combo4 : 107,131,99

[HitObjects]
256,32,1868,6,0,B|256:128|160:96|128:96|96:128|192:192|128:256|128:256|192:288|288:256|256:160|320:96|352:96|384:128,1,600
256,224,6345,6,0,L|160:224,2,75
160,128,8136,1,0,0:0:0:0:
320,128,9256,2,0,B|256:160|224:224|320:288,2,187.5
384,96,12614,6,0,L|448:160,3,75
480,128,14405,1,0,0:0:0:0:
448,256,15300,2,0,B|448:128|352:64|160:64|0:96|0:256,1,600
256,192,26277,5,8,0:0:0:0:
256,64,26705,1,0,0:0:0:0:
128,64,27134,1,0,0:0:0:0:
128,192,27562,1,0,0:0:0:0:
256,192,27991,1,0,0:0:0:0:
384,192,28419,1,0,0:0:0:0:
384,320,28848,6,0,P|320:320|256:256,2,150
384,320,30133,2,0,L|384:160,2,150
320,224,31419,5,0,0:0:0:0:
224,160,31848,1,0,0:0:0:0:
320,96,32276,1,0,0:0:0:0:
224,32,32705,6,0,L|96:128,2,150
224,32,33990,2,0,P|320:32|320:96,2,150
256,160,35276,6,8,L|256:96,8,37.5
128,160,36562,5,8,0:0:0:0:
128,288,36990,1,12,0:0:0:0:
256,288,37419,1,8,0:0:0:0:
256,160,37847,1,12,0:0:0:0:
352,64,38276,6,8,L|224:192,2,150
448,160,39561,5,0,0:0:0:0:
320,160,39990,2,0,L|320:320,3,150
224,288,41704,6,8,P|160:256|192:192,2,150
288,192,42990,6,4,P|224:128|256:64,2,150
160,192,44275,2,2,L|160:96,4,75
160,64,45561,6,0,P|320:64|544:256,1,450
416,224,47275,1,0,0:0:0:0:
288,224,47704,1,0,0:0:0:0:
160,224,48132,1,0,0:0:0:0:
224,128,48561,1,0,0:0:0:0:
288,224,48989,1,0,0:0:0:0:
352,128,49418,6,0,L|512:128,2,150
352,128,50704,5,0,0:0:0:0:
224,128,51132,1,0,0:0:0:0:
320,192,51561,2,0,L|160:192|160:192,1,150
170,192,52418,1,0,0:0:0:0:
96,96,52846,5,0,0:0:0:0:
96,96,53275,1,0,0:0:0:0:
192,96,53704,1,0,0:0:0:0:
192,96,54132,1,0,0:0:0:0:
224,224,54561,6,0,L|256:64,2,150
320,160,55846,2,0,L|320:64,2,75
448,128,56703,1,4,0:0:0:0:
384,224,57132,5,4,0:0:0:0:
256,224,57560,2,0,P|192:192|96:224,1,150
117,207,58418,2,0,P|64:128|96:64,1,150
192,96,59275,1,0,0:0:0:0:
192,192,59703,6,0,B|256:192|256:224|352:192,2,150
256,128,60989,5,0,0:0:0:0:
352,128,61417,5,0,0:0:0:0:
448,96,61846,1,0,0:0:0:0:
384,192,62274,6,0,L|384:352,1,150
320,224,63132,2,0,L|320:384,1,150
256,288,63989,2,0,L|128:384,1,150
128,256,64846,2,0,P|64:320|32:288,1,150
64,192,65703,2,0,L|192:96,1,150
184,102,66560,1,8,0:0:0:0:
288,96,66988,2,4,L|288:160,4,37.5
160,128,77702,6,0,L|160:192,2,37.5
256,192,82845,12,0,87559,0:0:0:0:
128,96,88416,5,0,0:0:0:0:
128,96,88844,1,0,0:0:0:0:
256,96,89273,1,0,0:0:0:0:
256,96,89701,1,0,0:0:0:0:
160,192,90130,1,0,0:0:0:0:
160,192,90559,2,0,B|224:224|224:256|224:320,1,150
352,352,91416,5,0,0:0:0:0:
416,256,91844,2,0,P|288:160|160:96,1,300
288,96,93130,2,0,L|416:0,1,150
448,128,93987,5,0,0:0:0:0:
352,160,94415,1,0,0:0:0:0:
448,192,94844,1,0,0:0:0:0:
352,224,95273,1,0,0:0:0:0:
480,256,95701,2,0,P|416:320|192:352,1,300
128,288,96987,6,0,B|64:256|32:192|32:160,1,150
128,224,97844,2,0,B|160:192|192:160|192:64,1,150
128,192,98701,2,0,B|96:160|64:128|64:32,1,150
128,160,99558,2,0,B|160:128|192:96|192:0,1,150
190,28,100415,1,0,0:0:0:0:
320,32,100844,6,0,B|256:96|256:160|256:256|352:320,1,300
448,320,102129,2,0,B|384:256|416:192|416:192,1,150
420,183,102986,1,0,0:0:0:0:
480,192,103415,2,0,B|512:224|512:288|480:352,1,150
448,224,104272,1,0,0:0:0:0:
352,320,104701,6,0,P|288:256|224:256,2,150
128,320,105986,2,0,B|256:320|320:352|448:352,1,300
416,224,107272,2,0,P|352:224|384:256,2,150
416,224,108558,1,4,0:0:0:0:
288,224,108986,5,4,0:0:0:0:
160,192,109415,1,4,0:0:0:0:
288,160,109843,1,4,0:0:0:0:
192,224,110272,1,4,0:0:0:0:
128,128,110700,1,4,0:0:0:0:
256,160,111129,6,0,L|256:256,2,75
384,224,111986,5,4,0:0:0:0:
448,128,112414,1,4,0:0:0:0:
320,128,112843,1,4,0:0:0:0:
384,224,113272,1,4,0:0:0:0:
256,224,113700,6,0,B|160:224|128:288|160:352|224:352|288:352|320:288,1,300
416,256,114986,1,0,0:0:0:0:
480,160,115414,6,0,P|480:64|416:32,1,150
320,96,116271,2,0,L|160:96,1,150
64,96,117128,2,0,B|32:128|0:160|0:256,1,150
128,256,117986,1,0,0:0:0:0:
128,256,118414,1,0,0:0:0:0:
256,256,118843,6,4,L|256:192,4,37.5
256,256,119700,1,0,0:0:0:0:
384,256,120128,1,0,0:0:0:0:
480,192,120557,1,0,0:0:0:0:
480,64,120985,1,0,0:0:0:0:
352,64,121414,6,0,L|352:224,1,150
224,256,122271,2,0,P|256:288|384:320,1,150
320,192,123128,2,0,L|384:352,1,150
448,256,123985,6,0,B|480:224|512:192|512:96,1,150
448,224,124842,2,0,B|416:192|384:160|384:64,1,150
448,192,125699,2,0,B|480:160|512:128|512:32,1,150
448,160,126556,2,0,B|416:128|384:96|384:0,1,150
448,128,127414,1,0,0:0:0:0:
448,0,127842,2,0,L|448:160,2,150
320,0,129128,5,4,0:0:0:0:
192,0,129556,1,0,0:0:0:0:
256,96,129985,1,0,0:0:0:0:
320,0,130413,1,0,0:0:0:0:
192,0,130842,1,0,0:0:0:0:
256,96,131271,1,0,0:0:0:0:
128,96,131699,6,0,B|160:160|224:192|256:192,1,150
239,189,132556,1,0,0:0:0:0:
352,192,132985,2,0,P|288:256|224:256,1,150
232,258,133842,1,0,0:0:0:0:
256,128,134270,5,0,0:0:0:0:
160,192,134699,2,0,B|192:160|160:128|192:96|160:64|192:32,1,150
288,64,135556,2,0,B|320:96|288:128|320:128|288:160|320:160|288:192|320:192|288:224,1,150
384,288,136413,2,0,B|416:256|448:224|448:128,1,150
446,156,137270,2,0,B|416:192|384:224|384:320,1,150
256,288,138127,5,0,0:0:0:0:
256,160,138556,1,0,0:0:0:0:
256,32,138984,1,0,0:0:0:0:
256,160,139413,2,4,L|256:224,4,37.5
128,192,140270,5,0,0:0:0:0:
256,224,140699,1,0,0:0:0:0:
384,192,141127,1,0,0:0:0:0:
256,160,141556,1,0,0:0:0:0:
384,128,141984,6,0,B|352:192|320:224|288:256,1,150
160,256,142841,2,0,B|128:224|96:192|64:128,1,150
96,256,143698,2,0,P|128:320|64:352,1,150
0,320,144555,2,0,P|0:256|96:224,1,150
128,320,145413,6,0,B|160:288|192:256|192:160,1,150
128,288,146270,2,0,B|96:256|64:224|64:128,1,150
128,256,147127,2,0,B|160:224|192:192|192:96,1,150
128,224,147984,2,0,B|96:192|64:160|64:64,1,150
128,192,148841,2,0,B|160:160|192:128|192:32,1,150
256,160,149698,5,14,0:0:0:0:
