osu file format v14

[General]
AudioFilename: Bloodborne Soundtrack HD 04 The Cleric Beast.mp3
AudioLeadIn: 0
PreviewTime: -1
Countdown: 1
SampleSet: Normal
StackLeniency: 0.7
Mode: 0
LetterboxInBreaks: 1
WidescreenStoryboard: 1

[Editor]
DistanceSpacing: 0.8
BeatDivisor: 4
GridSize: 32
TimelineZoom: 3.662878

[Metadata]
Title:The Cleric Beast
TitleUnicode:The Cleric Beast
Artist:Michael Wandmacher and Saitoh Tsukasa
ArtistUnicode:Michael Wandmacher and Saitoh Tsukasa
Creator:Sephyrias
Version:Easy
Source:Bloodborne
Tags:Video game theme
BeatmapID:737245
BeatmapSetID:333090

[Difficulty]
HPDrainRate:4
CircleSize:3
OverallDifficulty:4
ApproachRate:4
SliderMultiplier:1.3
SliderTickRate:1

[Events]
//Background and Video events
0,0,"1920x-1.jpg",0,0
//Break Periods
2,67188,76382
2,78009,86667
2,145184,147949
//Storyboard Layer 0 (Background)
//Storyboard Layer 1 (Fail)
//Storyboard Layer 2 (Pass)
//Storyboard Layer 3 (Foreground)
//Storyboard Sound Samples

[TimingPoints]
1868,895.555639097743,4,1,0,22,1,0
26277,428.546940174847,4,1,0,22,1,0
108558,-100,4,1,0,22,0,1
129128,-100,4,1,0,22,0,0

[Colours]
Combo1 : 160,141,82
Combo2 : 84,116,165
Combo3 : 182,73,73
Combo4 : 108,130,100

[HitObjects]
416,192,1868,6,0,B|416:128|384:128|352:96|320:32|256:32|128:0|128:32|224:128|96:64|160:160|32:160|32:224,1,520
192,288,6345,6,0,L|352:288,2,130
480,192,12614,1,0,0:0:0:0:
384,128,13510,1,0,0:0:0:0:
288,128,14405,1,0,0:0:0:0:
192,128,15301,1,0,0:0:0:0:
256,256,18883,6,4,L|256:96,2,130
256,192,22016,12,0,26271,0:0:0:0:
256,192,27134,5,0,0:0:0:0:
256,192,27562,6,0,P|320:192|384:128,1,130
371,153,28419,1,0,0:0:0:0:
416,160,29705,6,0,L|320:256,3,130
256,192,31419,2,0,L|288:64,1,130
287,65,32276,1,0,0:0:0:0:
224,160,32705,6,0,L|352:256,1,130
448,288,33562,1,0,0:0:0:0:
96,64,35276,6,0,B|192:96|256:160|256:256,1,260
352,192,36562,6,4,P|448:96|352:64,1,260,2|2,0:0|0:0,0:0:0:0:
288,96,37847,6,0,P|160:64|64:160,1,260
160,160,39133,2,0,L|320:160,2,130
256,96,40419,6,0,L|416:96,1,130
480,96,41276,1,0,0:0:0:0:
416,192,41704,6,0,P|288:224|192:128,1,260
96,192,42990,6,0,P|96:224|128:256,4,65
96,96,44275,6,0,B|224:32|352:32|480:32|480:160|416:320|320:352|160:320|128:224|256:160,1,780
256,224,47275,6,4,L|416:224|416:224,2,130
256,224,49847,2,4,L|160:224|96:224,2,130
256,224,51561,1,4,0:0:0:0:
256,320,52418,6,0,P|128:288|96:160,1,260
288,192,54132,2,0,P|384:288|512:320,1,260
416,128,55846,2,4,P|352:128|320:192,2,130
416,128,57132,1,4,0:0:0:0:
320,128,57560,5,0,0:0:0:0:
224,128,57989,1,0,0:0:0:0:
128,128,58418,1,0,0:0:0:0:
128,224,58846,1,0,0:0:0:0:
224,224,59275,1,4,0:0:0:0:
416,224,60132,6,0,L|416:64,4,130
256,64,62703,5,0,0:0:0:0:
256,256,63560,1,0,0:0:0:0:
64,160,64417,1,0,0:0:0:0:
256,128,65274,2,4,L|256:192,4,65
448,192,66988,1,4,0:0:0:0:
224,192,77702,6,8,L|256:192,1,32.5
256,192,87987,6,0,L|416:192,2,130
160,128,89273,2,0,P|224:96|288:128,1,130
224,192,90130,2,0,P|192:288|320:320,1,260
416,128,91844,6,0,P|352:64|288:64,2,130
416,224,93130,2,0,B|352:288|288:288|224:256|160:224,1,260
256,160,94415,6,0,P|288:96|320:32,2,130
256,160,95701,1,4,0:0:0:0:
96,192,96987,6,0,P|96:224|192:256,2,130
96,192,98272,1,8,0:0:0:0:
192,192,98701,1,8,0:0:0:0:
288,192,99129,1,8,0:0:0:0:
288,192,99558,1,0,0:0:0:0:
288,192,99987,1,0,0:0:0:0:
384,192,100415,1,0,0:0:0:0:
480,192,100844,6,0,B|480:288|416:320|288:320,1,260
320,224,102129,6,0,L|224:352,1,130
242,328,102986,1,0,0:0:0:0:
128,320,103415,2,0,L|128:160,2,130
64,224,104701,6,0,L|64:384,1,130
192,320,105558,2,0,L|192:32,1,260
96,256,107272,6,4,B|128:320|192:352|256:352|320:320|384:256|384:160,1,390
448,96,108986,6,4,L|288:96,1,130
224,96,109843,2,4,P|160:160|192:192,1,130
256,192,110700,1,0,0:0:0:0:
448,160,111557,6,0,L|352:256,2,130
352,192,112843,2,0,B|288:160|256:128|224:96,2,130
320,288,114129,2,0,B|288:288|224:288|192:256,2,130
224,288,115414,6,0,L|96:224,1,130
107,229,116271,6,0,L|160:96,1,130
256,96,117128,2,0,L|320:224,1,130
416,192,117986,1,4,0:0:0:0:
224,128,118843,1,4,0:0:0:0:
96,288,119700,6,0,P|160:320|224:288,1,130
211,301,120557,2,0,P|256:256|320:288,1,130
416,256,121414,2,0,P|384:192|416:128,1,130
192,192,122700,5,4,0:0:0:0:
288,192,123128,2,0,L|448:192,2,130
96,192,124842,2,0,P|64:160|64:64,1,130
96,192,125699,2,0,P|128:160|128:64,1,130
96,192,126556,2,0,L|96:352,2,130
288,224,128271,6,0,P|384:224|352:96,1,260
288,160,129556,2,0,L|128:160,1,130
256,160,130413,1,4,0:0:0:0:
256,160,130842,1,8,0:0:0:0:
256,160,131271,1,8,0:0:0:0:
64,224,132128,1,4,0:0:0:0:
64,224,132556,1,4,0:0:0:0:
160,256,132985,1,8,0:0:0:0:
256,256,133413,6,0,L|160:160,1,130
184,178,134270,2,0,L|288:96,1,130
286,97,135127,2,0,L|416:192,1,130
390,173,135985,2,0,L|262:269,1,130
96,288,137270,2,0,P|32:224|32:160,2,130
288,320,138984,5,4,0:0:0:0:
192,160,139841,2,4,L|192:0,2,130
352,288,141556,1,4,0:0:0:0:
160,288,142413,2,0,B|160:192|192:160|288:128|320:256,1,260
512,288,144127,2,0,B|512:224|448:192|352:192|352:320,1,260
256,96,149269,5,4,0:0:0:0:
