osu file format v14

[General]
AudioFilename: audio.mp3
AudioLeadIn: 0
PreviewTime: 39247
Countdown: 0
SampleSet: Normal
StackLeniency: 0.3
Mode: 0
LetterboxInBreaks: 0
WidescreenStoryboard: 1

[Editor]
Bookmarks: 7540,40847
DistanceSpacing: 1
BeatDivisor: 4
GridSize: 8
TimelineZoom: 3.899998

[Metadata]
Title:N.Y. Street Chase (Gloria)
TitleUnicode:N.Y. Street Chase (Gloria)
Artist:Michael Wandmacher
ArtistUnicode:Michael Wandmacher
Creator:AJT
Version:Normal
Source:Madagascar
Tags:new york vgm movie video game original soundtrack ost electronic instrumental sony nintendo mimari wanpachi
BeatmapID:2941870
BeatmapSetID:1428959

[Difficulty]
HPDrainRate:2
CircleSize:3
OverallDifficulty:4
ApproachRate:6
SliderMultiplier:1.3
SliderTickRate:1

[Events]
//Background and Video events
0,0,"centralpark.jpg",0,0
//Break Periods
2,61851,64002
//Storyboard Layer 0 (Background)
//Storyboard Layer 1 (Fail)
//Storyboard Layer 2 (Pass)
//Storyboard Layer 3 (Foreground)
//Storyboard Layer 4 (Overlay)
//Storyboard Sound Samples

[TimingPoints]
839,400.085351541662,4,1,0,35,1,0
7240,-100,4,1,0,45,0,0
12891,-100,4,1,0,25,0,0
13241,-100,4,1,0,45,0,0
13291,-100,4,1,0,25,0,0
13641,-95.2380952380952,4,1,0,50,0,1
20043,-100,4,1,0,45,0,0
25444,-100,4,1,0,50,0,0
26444,-100,4,1,0,40,0,0
44848,-100,4,1,0,50,0,0
52049,-90.9090909090909,4,1,0,50,0,1
58451,-100,4,1,0,40,0,0

[Colours]
Combo1 : 219,215,194
Combo2 : 196,164,129
Combo3 : 251,223,186
Combo4 : 102,95,66

[HitObjects]
51,77,839,6,0,B|244:99,1,195,8|8,3:0|3:0,0:0:0:0:
487,314,2439,2,0,B|294:336,1,195,8|8,3:0|3:0,0:0:0:0:
164,349,3439,2,0,B|140:314|140:314|153:260,1,97.5,4|8,3:0|3:0,0:0:0:0:
232,208,4039,6,0,B|39:230,1,195,8|8,3:0|3:0,0:0:0:0:
314,53,5640,6,0,B|121:75,1,195,8|8,3:0|3:0,0:0:0:0:
13,149,6640,1,6,3:0:0:0:
74,224,6940,1,10,3:0:0:0:
171,218,7240,6,0,P|184:276|155:343,2,130,2|8|0,3:1|0:0|0:0,0:0:0:0:
212,94,8440,1,8,0:0:0:0:
323,27,8840,2,0,P|395:45|416:109,1,130,8|8,3:0|0:0,0:0:0:0:
418,156,9440,1,8,3:0:0:0:
471,274,9840,2,0,B|423:293|423:293|369:270,1,97.5,4|8,3:0|3:0,0:0:0:0:
314,346,10441,5,8,3:0:0:0:
193,296,10841,1,8,0:0:0:0:
79,359,11241,1,0,0:0:0:0:
21,242,11641,1,8,0:0:0:0:
45,114,12041,2,0,L|25:42,2,65,8|0|8,3:0|0:0|0:0,0:0:0:0:
104,140,12641,1,8,3:0:0:0:
161,110,12841,2,0,B|169:93|169:93|424:81,1,260,2|6,0:3|3:1,0:3:0:0:
469,48,13841,5,2,0:0:0:0:
506,176,14241,1,2,0:0:0:0:
425,286,14641,2,0,P|444:317|445:358,2,68.2499979171754,2|10|2,0:0|0:0|0:0,0:0:0:0:
362,258,15242,1,2,3:1:0:0:
362,258,15442,1,2,0:0:0:0:
233,304,15842,1,2,0:0:0:0:
115,235,16242,2,0,P|84:216|43:215,2,68.2499979171754,2|10|0,0:0|0:0|0:0,0:0:0:0:
180,216,16842,5,2,3:1:0:0:
182,147,17042,1,2,0:0:0:0:
66,73,17442,1,2,0:0:0:0:
188,13,17842,2,0,P|221:16|250:34,1,68.2499979171754,2|10,0:0|0:0,0:0:0:0:
292,87,18242,1,2,0:0:0:0:
356,109,18442,2,0,P|389:105|418:87,1,68.2499979171754,2|2,3:1|0:0,0:0:0:0:
473,45,18842,1,8,0:0:0:0:
473,45,19042,1,2,0:0:0:0:
449,179,19442,2,0,P|482:182|511:200,2,68.2499979171754,2|10|2,0:0|0:0|0:0,0:0:0:0:
411,232,20043,6,0,L|314:250,3,97.5,6|2|2|2,3:2|0:2|3:2|0:2,0:1:0:0:
241,313,21243,1,8,0:1:0:0:
185,347,21443,1,8,0:1:0:0:
126,318,21643,6,0,P|106:280|108:221,3,97.5,2|2|2|2,3:2|0:2|3:2|0:2,0:1:0:0:
144,136,22843,1,8,0:1:0:0:
100,87,23043,1,0,3:1:0:0:
140,36,23243,5,2,3:2:0:0:
235,53,23543,1,2,0:2:0:0:
331,66,23843,1,2,3:2:0:0:
426,82,24143,1,2,0:2:0:0:
419,179,24444,2,0,L|458:185,2,32.5,8|0|8,0:1|3:1|0:1,0:0:0:0:
373,225,24844,6,0,P|335:245|276:243,1,97.5,2|2,3:2|0:2,0:1:0:0:
197,194,25444,1,2,3:2:0:0:
198,129,25644,2,0,P|181:94|155:73,1,65,0|0,3:1|3:1,0:0:0:0:
97,65,26044,2,0,P|66:76|41:97,1,65,8|0,0:1|3:1,0:0:0:0:
10,153,26444,6,0,P|6:203|37:257,3,97.5,6|2|2|2,3:2|0:2|3:2|0:2,0:1:0:0:
216,368,28044,2,0,P|266:348|313:350,3,97.5,2|2|2|2,3:2|0:2|3:2|0:2,0:1:0:0:
502,153,29645,6,0,P|506:203|475:257,3,97.5,2|2|2|2,3:2|0:2|3:2|0:2,0:1:0:0:
216,16,31245,2,0,P|266:36|313:34,3,97.5,2|2|2|2,3:2|0:2|3:2|0:2,0:1:0:0:
388,91,32445,2,0,L|392:127,2,32.5,8|0|0,0:1|3:1|3:1,0:0:0:0:
436,48,32845,5,2,0:1:0:0:
499,61,33045,1,2,0:1:0:0:
499,61,34646,5,2,0:0:0:0:
499,61,36246,5,2,0:0:0:0:
499,61,37846,5,2,0:0:0:0:
371,38,38246,1,2,0:0:0:0:
309,61,38447,2,0,L|207:48,2,97.5
338,118,39247,5,4,3:1:0:0:
334,312,39847,1,8,3:0:0:0:
16,382,40847,5,8,3:0:0:0:
82,198,41447,1,8,3:0:0:0:
203,244,41847,1,4,3:0:0:0:
286,293,42147,1,8,3:0:0:0:
363,234,42447,5,8,3:3:0:0:
392,0,43048,1,8,3:0:0:0:
0,0,44048,5,8,3:0:0:0:
273,60,44649,1,8,3:0:0:0:
299,119,44848,5,2,0:3:0:0:
267,175,45048,1,6,3:3:0:0:
306,226,45248,1,8,0:1:0:0:
282,286,45448,1,2,0:3:0:0:
296,349,45648,6,0,B|248:359|248:359|190:348,1,97.5,4|0,3:1|3:0,0:0:0:0:
103,339,46248,2,0,B|66:370|66:370|0:390,2,97.5,0|0|8,3:0|3:0|0:0,0:0:0:0:
62,288,47048,1,0,3:0:0:0:
69,223,47248,2,0,B|38:186|38:186|18:120,2,97.5,0|0|0,3:0|3:0|3:0,0:0:0:0:
156,266,48149,2,0,B|193:235|193:235|259:215,1,97.5,0|8,3:0|0:0,0:0:0:0:
304,208,48649,1,0,3:0:0:0:
335,151,48849,6,0,B|304:114|304:114|284:48,1,97.5,0|0,3:1|3:0,0:0:0:0:
387,71,49449,2,0,B|424:40|424:40|490:20,1,97.5,0|0,3:0|3:0,0:0:0:0:
499,118,50049,1,8,0:0:0:0:
465,173,50249,1,0,3:0:0:0:
491,232,50449,1,0,3:0:0:0:
414,292,50749,1,0,3:0:0:0:
321,260,51049,1,0,3:0:0:0:
233,302,51349,1,0,3:0:0:0:
143,264,51649,1,8,0:0:0:0:
89,300,51849,1,0,3:0:0:0:
24,269,52049,6,0,P|27:134|34:113,1,143.000004364014,4|10,3:1|0:1,0:1:0:0:
109,9,52850,1,2,3:1:0:0:
151,66,53050,1,0,3:1:0:0:
186,129,53250,1,10,0:1:0:0:
256,256,53650,5,2,3:1:0:0:
291,194,53850,1,0,3:1:0:0:
326,129,54050,1,10,0:1:0:0:
403,9,54450,1,2,3:1:0:0:
442,68,54650,1,0,3:1:0:0:
475,131,54850,1,10,0:1:0:0:
459,292,55250,6,0,L|498:296,2,35.7500010910034,0|0|0,3:1|3:1|3:1,0:0:0:0:
388,283,55650,1,8,0:1:0:0:
275,370,56050,6,0,L|236:374,2,35.7500010910034,0|0|0,3:1|3:1|3:1,0:0:0:0:
346,361,56450,1,8,0:1:0:0:
234,271,56850,6,0,L|273:275,2,35.7500010910034,0|0|0,3:1|3:1|3:1,0:0:0:0:
163,262,57250,1,8,0:1:0:0:
50,350,57651,6,0,L|11:354,2,35.7500010910034,0|8|8,3:1|0:1|0:1,0:0:0:0:
121,341,58051,1,2,0:3:0:0:
243,382,58451,5,4,0:1:0:0:
256,192,58551,12,2,61651,0:3:0:0:
498,381,65052,6,0,B|492:333|492:333|425:328,1,97.5,2|2,0:1|0:1,0:1:0:0:
382,253,65652,1,2,3:1:0:0:
317,260,65852,1,2,0:1:0:0:
240,199,66152,1,2,0:1:0:0:
174,126,66452,5,2,3:1:0:0:
109,119,66652,1,2,0:1:0:0:
32,180,66952,1,2,0:1:0:0:
44,276,67253,1,2,3:1:0:0:
85,327,67453,1,2,0:1:0:0:
182,338,67753,1,2,0:1:0:0:
271,300,68053,6,0,B|265:284|265:284|279:218,1,65,2|2,3:1|0:1,0:1:0:0:
299,142,68553,1,2,0:1:0:0:
298,44,68853,2,0,B|282:38|282:38|216:52,1,65,2|2,3:1|0:1,0:1:0:0:
171,62,69253,1,2,3:2:0:0:
112,32,69453,1,2,0:2:0:0:
49,49,69653,6,0,B|43:65|43:65|57:131,1,65,2|2,3:1|0:0,0:0:0:0:
83,204,70153,1,2,0:0:0:0:
53,297,70453,1,2,3:1:0:0:
96,345,70653,1,2,3:1:0:0:
160,334,70853,6,0,B|184:327|184:327|219:344|219:344|267:326,1,97.5,8|8,0:0|0:0,0:0:0:0:
