osu file format v14

[General]
AudioFilename: audio.mp3
AudioLeadIn: 0
PreviewTime: 39247
Countdown: 0
SampleSet: Normal
StackLeniency: 0.3
Mode: 0
LetterboxInBreaks: 0
WidescreenStoryboard: 1

[Editor]
DistanceSpacing: 1.3
BeatDivisor: 4
GridSize: 8
TimelineZoom: 2.399999

[Metadata]
Title:N.Y. Street Chase (Gloria)
TitleUnicode:N.Y. Street Chase (Gloria)
Artist:Michael Wandmacher
ArtistUnicode:Michael Wandmacher
Creator:AJT
Version:Mimari vs. AJT's Insane
Source:Madagascar
Tags:new york vgm movie video game original soundtrack ost electronic instrumental sony nintendo mimari wanpachi
BeatmapID:2996803
BeatmapSetID:1428959

[Difficulty]
HPDrainRate:4.5
CircleSize:3.8
OverallDifficulty:7.5
ApproachRate:8.8
SliderMultiplier:1.9
SliderTickRate:1

[Events]
//Background and Video events
0,0,"centralpark.jpg",0,0
//Break Periods
2,33245,34017
2,34846,35617
2,36446,37217
//Storyboard Layer 0 (Background)
//Storyboard Layer 1 (Fail)
//Storyboard Layer 2 (Pass)
//Storyboard Layer 3 (Foreground)
//Storyboard Layer 4 (Overlay)
//Storyboard Sound Samples

[TimingPoints]
839,400.085351541662,4,1,0,35,1,0
839,-111.111111111111,4,1,0,35,0,0
7240,-100,4,1,0,45,0,0
12891,-100,4,1,0,25,0,0
13241,-100,4,1,0,45,0,0
13291,-100,4,1,0,25,0,0
13641,-95.2380952380952,4,1,0,50,0,0
20043,-90.9090909090909,4,1,0,45,0,0
25444,-90.9090909090909,4,1,0,50,0,0
26444,-90.9090909090909,4,1,0,40,0,0
32845,-100,4,1,0,40,0,0
39247,-100,4,1,0,40,0,0
44848,-100,4,1,0,50,0,0
45648,-95.2380952380951,4,1,0,50,0,0
52049,-90.9090909090909,4,1,0,50,0,0
58051,-90.9090909090909,4,1,0,50,0,1
58451,-100,4,1,0,40,0,0

[Colours]
Combo1 : 219,215,194
Combo2 : 196,164,129
Combo3 : 251,223,186
Combo4 : 102,95,66

[HitObjects]
133,211,839,6,0,B|261:181|261:181|293:215,1,170.999994781494,8|8,3:0|0:0,0:0:0:0:
240,346,1439,2,0,P|223:308|240:261,1,85.4999973907472,8|0,3:0|2:0,0:0:0:0:
355,156,1839,5,0,3:0:0:0:
342,281,2039,1,8,0:0:0:0:
342,281,2439,6,0,B|357:372|357:372|352:324|385:293,1,170.999994781494,8|8,3:0|0:0,0:0:0:0:
473,252,3039,2,0,P|490:290|473:337,1,85.4999973907472,8|0,3:0|2:0,0:0:0:0:
352,146,3439,5,4,3:0:0:0:
471,169,3639,6,0,L|522:183,1,42.7499986953736,8|8,0:0|3:0,0:0:0:0:
464,161,3839,2,0,L|515:175,1,42.7499986953736
349,267,4039,6,0,B|228:291|228:291|181:238,1,170.999994781494,8|8,3:0|0:0,0:0:0:0:
244,126,4639,2,0,P|268:169|251:219,1,85.4999973907472,8|0,3:0|2:0,0:0:0:0:
117,303,5039,5,0,0:0:0:0:
130,186,5239,1,8,0:0:0:0:
130,186,5640,6,0,B|120:107|120:107|114:101|114:101|100:-2,1,170.999994781494,8|8,3:0|0:0,0:0:0:0:
44,156,6240,1,8,3:0:0:0:
186,57,6440,6,0,L|242:71,1,42.7499986953736
195,67,6640,2,0,L|251:81,1,42.7499986953736,6|0,3:0|0:0,0:0:0:0:
317,93,6840,6,0,P|317:47|291:18,1,85.4999973907472,8|0,0:0|0:0,0:0:0:0:
207,190,7240,6,0,B|221:326,1,95,2|0,3:1|0:0,0:0:0:0:
219,296,7540,1,0,0:0:0:0:
221,306,7640,1,8,0:0:0:0:
379,350,7840,6,0,L|432:364,1,47.5,8|0,3:0|0:0,0:0:0:0:
409,282,8040,2,0,B|278:321,1,95
307,314,8340,1,0,0:0:0:0:
298,318,8440,1,8,0:0:0:0:
399,169,8640,6,0,L|452:183,1,47.5
335,220,8840,2,0,P|311:176|340:118,1,95,8|0,3:0|0:0,0:0:0:0:
418,0,9240,1,8,0:0:0:0:
424,2,9340,1,0,0:0:0:0:
431,4,9440,6,0,L|441:115,1,95,8|0,3:0|0:0,0:0:0:0:
281,61,9840,6,0,L|235:48,1,47.5,4|0,3:0|0:0,0:0:0:0:
225,46,10040,1,8,0:0:0:0:
211,41,10140,2,0,L|97:15,1,95,8|0,3:0|0:0,0:0:0:0:
51,144,10441,6,0,B|181:104,1,95,8|0,3:0|3:0,0:0:0:0:
153,112,10741,1,0,0:0:0:0:
162,108,10841,1,8,0:0:0:0:
278,173,11041,6,0,P|282:198|261:231,1,47.5,8|0,3:0|0:0,0:0:0:0:
195,289,11241,1,0,0:0:0:0:
189,287,11341,1,0,0:0:0:0:
183,284,11441,2,0,L|173:173,1,95,0|8,0:0|0:0,0:0:0:0:
299,82,11841,6,0,L|362:101,1,47.5
406,48,12041,2,0,P|430:92|401:150,1,95,8|0,3:0|0:0,0:0:0:0:
410,143,12341,1,0,0:0:0:0:
401,150,12441,1,8,0:0:0:0:
457,247,12641,6,0,L|503:237,1,47.5,8|0,3:0|0:0,0:0:0:0:
484,317,12841,2,0,L|526:308,14,23.75,2|2|2|2|2|2|2|2|2|2|2|2|2|2|2,0:3|0:3|0:3|0:3|0:3|0:3|0:3|0:3|0:3|0:3|0:3|0:3|0:3|0:3|0:3,0:3:0:0:
401,364,13641,6,0,B|379:341|379:341|299:359,1,99.7499969558717,6|2,3:1|0:0,0:0:0:0:
169,317,14041,1,8,0:0:0:0:
235,384,14241,6,0,L|250:277,1,99.7499969558717,2|0,0:0|3:0,0:0:0:0:
251,274,14541,1,0,0:0:0:0:
253,262,14641,1,2,0:0:0:0:
346,129,14841,6,0,L|354:190,1,49.8749984779358,10|2,0:0|0:0,0:0:0:0:
355,137,15042,2,0,L|363:198,1,49.8749984779358,2|0,0:0|0:0,0:0:0:0:
299,63,15242,6,0,B|321:40|321:40|401:58,1,99.7499969558717,2|2,3:1|0:0,0:0:0:0:
444,167,15642,1,8,0:0:0:0:
273,180,15842,6,0,L|154:160,1,99.7499969558717,2|0,0:0|3:0,0:0:0:0:
165,162,16142,1,0,0:0:0:0:
155,160,16242,1,2,0:0:0:0:
34,68,16442,6,0,L|101:58,1,49.8749984779358,10|2,0:0|0:0,0:0:0:0:
43,75,16642,2,0,L|110:65,1,49.8749984779358
184,0,16842,6,0,B|158:18|158:18|170:90,1,99.7499969558717,2|2,3:1|0:0,0:0:0:0:
192,244,17242,5,8,0:0:0:0:
205,248,17342,1,0,0:0:0:0:
216,252,17442,2,0,L|320:238,2,99.7499969558717,2|0|2,0:0|3:0|0:0,0:0:0:0:
65,335,18042,6,0,L|16:323,1,49.8749984779358,10|2,0:0|0:0,0:0:0:0:
74,346,18242,2,0,L|25:334,1,49.8749984779358,2|0,0:0|0:0,0:0:0:0:
154,383,18442,6,0,P|159:324|133:288,1,99.7499969558717,2|2,3:1|0:0,0:0:0:0:
51,104,18842,1,8,0:0:0:0:
27,238,19042,6,0,L|134:217,1,99.7499969558717,2|0,0:0|3:0,0:0:0:0:
139,215,19342,1,0,0:0:0:0:
151,212,19442,1,2,0:0:0:0:
313,306,19642,6,0,L|252:298,1,49.8749984779358,10|2,0:0|0:0,0:0:0:0:
305,297,19843,2,0,L|244:289,1,49.8749984779358,2|0,0:0|0:0,0:0:0:0:
195,144,20043,6,0,P|182:100|209:50,1,104.500003189087,6|0,3:2|0:1,0:1:0:0:
218,46,20343,1,2,0:2:0:0:
229,45,20443,1,8,0:1:0:0:
421,14,20643,6,0,B|413:65|413:65|411:66|411:66|402:124,1,104.500003189087,2|0,3:2|3:1,0:1:0:0:
326,98,20943,2,0,B|334:149|334:149|336:150|336:150|345:208,1,104.500003189087,2|0,0:2|0:1,0:1:0:0:
406,248,21243,5,8,0:1:0:0:
416,251,21343,1,0,3:1:0:0:
414,241,21443,1,8,0:1:0:0:
317,358,21643,6,0,P|287:323|230:318,1,104.500003189087,2|0,3:2|0:0,0:1:0:0:
222,323,21943,1,2,0:2:0:0:
215,332,22043,1,8,0:1:0:0:
104,341,22243,6,0,B|110:349|112:359|112:359|125:272,1,104.500003189087,2|0,3:2|3:1,0:0:0:0:
127,264,22543,1,2,0:2:0:0:
129,252,22643,1,0,3:1:0:0:
131,242,22743,1,0,0:1:0:0:
133,230,22843,1,8,0:1:0:0:
74,92,23043,6,0,L|14:104,1,52.2500015945435,0|0,3:1|3:1,0:0:0:0:
129,146,23243,6,0,L|240:165,1,104.500003189087,2|0,3:2|0:1,0:1:0:0:
241,165,23543,1,2,0:2:0:0:
249,167,23643,1,8,0:1:0:0:
339,46,23843,6,0,P|284:42|259:86,1,104.500003189087,2|0,3:2|3:1,0:1:0:0:
327,133,24143,2,0,P|382:129|407:173,1,104.500003189087,2|0,0:2|0:1,0:1:0:0:
345,244,24444,5,8,0:1:0:0:
335,240,24544,1,0,3:1:0:0:
343,233,24644,1,8,0:1:0:0:
480,364,24844,6,0,L|491:237,1,104.500003189087,2|0,3:2|0:0,0:1:0:0:
490,251,25144,1,2,0:2:0:0:
491,242,25244,1,8,0:1:0:0:
400,384,25444,6,0,L|411:257,1,104.500003189087,2|0,3:2|3:1,0:0:0:0:
411,266,25744,1,2,0:2:0:0:
411,253,25844,1,0,3:1:0:0:
413,243,25944,1,0,0:1:0:0:
414,231,26044,6,0,L|421:164,2,52.2500015945435,8|0|0,0:1|3:1|3:1,0:0:0:0:
444,58,26444,6,0,P|400:45|350:72,1,104.500003189087,6|0,3:2|0:0,0:1:0:0:
344,84,26744,2,0,L|353:141,1,52.2500015945435
261,172,27044,6,0,B|253:121|253:121|251:120|251:120|242:62,1,104.500003189087,2|0,3:2|3:1,0:0:0:0:
171,100,27344,2,0,B|178:150|178:150|180:151|180:151|188:202,1,104.500003189087,2|0,0:2|0:0,0:0:0:0:
253,255,27644,5,8,0:1:0:0:
256,265,27744,1,0,3:1:0:0:
246,263,27844,1,8,0:1:0:0:
153,361,28044,6,0,P|108:374|58:347,1,104.500003189087,2|0,3:2|0:0,0:1:0:0:
55,338,28344,2,0,L|49:279,1,52.2500015945435
108,174,28644,6,0,B|138:169|138:169|125:256,1,104.500003189087,2|0,3:2|3:1,0:0:0:0:
126,254,28944,1,2,0:2:0:0:
124,266,29044,1,0,3:1:0:0:
122,276,29144,1,0,0:1:0:0:
120,288,29244,1,8,0:1:0:0:
29,148,29444,6,0,B|16:121|16:121|45:75,1,52.2500015945435,0|0,3:1|3:1,0:0:0:0:
86,49,29644,6,0,L|197:68,1,104.500003189087,2|0,3:2|0:0,0:1:0:0:
198,68,29944,1,2,0:2:0:0:
206,69,30045,2,0,L|266:79,1,52.2500015945435,0|0,0:0|2:0,0:0:0:0:
343,30,30244,6,0,P|398:26|423:70,1,104.500003189087,2|0,3:2|3:1,0:0:0:0:
355,117,30544,2,0,P|300:113|275:157,1,104.500003189087,2|0,0:2|0:0,0:0:0:0:
340,216,30845,5,8,0:1:0:0:
350,212,30945,1,0,3:1:0:0:
342,205,31045,1,8,0:1:0:0:
474,325,31245,6,0,B|444:297|444:297|354:322,1,104.500003189087,2|0,3:2|0:0,0:1:0:0:
370,317,31545,1,2,0:2:0:0:
357,322,31645,2,0,L|298:336,1,52.2500015945435,0|0,0:0|2:0,0:0:0:0:
224,216,31845,6,0,B|194:188|194:188|104:213,1,104.500003189087,2|0,3:2|3:1,0:0:0:0:
120,208,32145,1,2,0:2:0:0:
109,211,32245,1,0,3:1:0:0:
100,213,32345,1,0,0:1:0:0:
93,216,32445,6,0,P|76:241|85:280,2,52.2500015945435,8|0|0,0:1|3:1|3:1,0:0:0:0:
250,112,32845,5,2,0:1:0:0:
250,112,33045,1,2,0:1:0:0:
250,112,34646,5,2,0:0:0:0:
250,112,36246,5,2,0:0:0:0:
250,112,37846,5,2,0:0:0:0:
452,147,38246,1,2,0:0:0:0:
452,147,39247,6,0,B|312:114|312:114|277:151,1,190,4|8,3:1|0:0,0:0:0:0:
84,190,39847,2,0,P|76:143|95:101,1,95,8|0,3:0|3:0,0:0:0:0:
157,156,40247,5,0,3:0:0:0:
170,281,40447,1,8,0:0:0:0:
170,281,40847,6,0,B|153:379|153:379|159:327|123:293,1,190,8|8,3:0|0:0,0:0:0:0:
37,246,41447,2,0,P|19:284|37:332,1,95,8|0,3:0|3:0,0:0:0:0:
122,121,41847,5,4,3:0:0:0:
192,207,42047,6,0,L|181:254,1,47.5,8|8,0:0|3:0,0:0:0:0:
195,260,42247,2,0,L|206:213,1,47.5
120,119,42447,6,0,B|170:164|170:164|146:285,1,190,8|8,3:3|0:0,0:0:0:0:
24,143,43047,2,0,P|18:97|37:54,1,95,8|0,3:0|3:0,0:0:0:0:
121,120,43447,5,0,3:0:0:0:
151,289,43647,1,8,0:0:0:0:
382,186,44048,6,0,B|392:107|392:107|398:101|398:101|412:-2,1,190,8|8,3:0|0:0,0:0:0:0:
472,152,44648,1,8,3:0:0:0:
316,57,44848,5,2,0:3:0:0:
192,200,45048,1,6,3:3:0:0:
181,171,45248,5,8,0:1:0:0:
0,240,45448,1,2,0:3:0:0:
48,352,45648,5,4,3:1:0:0:
50,340,45748,1,0,3:0:0:0:
176,312,45948,5,0,3:0:0:0:
178,300,46048,1,8,0:0:0:0:
336,312,46248,5,0,3:0:0:0:
334,300,46348,1,0,3:0:0:0:
464,352,46548,5,0,3:0:0:0:
462,340,46648,1,0,3:0:0:0:
460,327,46748,1,0,0:0:0:0:
458,315,46848,1,8,0:0:0:0:
455,302,46948,1,0,3:0:0:0:
453,290,47048,1,0,3:0:0:0:
451,277,47148,1,0,3:0:0:0:
449,265,47248,5,0,3:0:0:0:
447,252,47348,1,0,3:0:0:0:
334,161,47548,5,0,3:0:0:0:
336,148,47648,1,8,0:0:0:0:
178,223,47849,5,0,3:0:0:0:
176,236,47949,1,0,3:0:0:0:
65,132,48149,5,0,3:0:0:0:
63,119,48249,1,0,3:0:0:0:
61,107,48349,1,0,0:0:0:0:
59,94,48449,1,8,0:0:0:0:
57,82,48549,1,0,3:0:0:0:
54,69,48649,1,0,3:0:0:0:
52,57,48749,1,0,3:0:0:0:
50,44,48849,5,0,3:1:0:0:
48,32,48949,1,0,3:0:0:0:
178,148,49149,5,0,3:0:0:0:
176,160,49249,1,8,0:0:0:0:
54,250,49449,5,0,3:0:0:0:
56,238,49549,1,0,3:0:0:0:
165,343,49749,5,0,3:0:0:0:
152,345,49849,1,0,3:0:0:0:
140,347,49949,1,0,0:0:0:0:
127,349,50049,1,8,0:0:0:0:
115,351,50149,1,0,3:0:0:0:
102,354,50249,1,0,3:0:0:0:
90,356,50349,1,0,3:0:0:0:
77,358,50449,5,0,3:0:0:0:
65,360,50549,1,0,3:0:0:0:
211,274,50749,5,0,3:0:0:0:
199,276,50849,1,8,0:0:0:0:
367,256,51049,5,0,3:0:0:0:
355,258,51149,1,0,3:0:0:0:
493,355,51349,5,0,3:0:0:0:
490,338,51449,1,0,3:0:0:0:
488,322,51549,1,0,0:0:0:0:
485,304,51649,1,8,0:0:0:0:
482,289,51749,1,0,3:0:0:0:
478,272,51849,1,0,3:0:0:0:
476,256,51949,1,0,3:0:0:0:
473,238,52049,5,4,3:1:0:0:
304,182,52249,1,0,3:1:0:0:
362,13,52450,5,10,0:1:0:0:
362,13,52550,2,0,L|235:18,1,104.500003189087,2|2,0:1|0:1,0:1:0:0:
200,85,52850,2,0,L|143:87,1,52.2500015945435,2|0,3:1|0:1,0:1:0:0:
59,90,53050,1,0,3:1:0:0:
172,233,53250,5,10,0:1:0:0:
172,233,53350,2,0,L|299:238,1,104.500003189087,2|2,0:1|0:1,0:1:0:0:
334,305,53650,2,0,L|391:307,1,52.2500015945435,2|0,3:1|0:1,0:1:0:0:
474,314,53850,1,0,3:1:0:0:
465,136,54050,5,10,0:1:0:0:
465,136,54150,2,0,L|338:141,1,104.500003189087,2|2,0:1|0:1,0:1:0:0:
303,208,54450,2,0,L|246:210,1,52.2500015945435,2|0,3:1|0:1,0:1:0:0:
162,213,54650,1,0,3:1:0:0:
103,246,54750,1,0,0:1:0:0:
41,232,54850,5,10,0:1:0:0:
41,232,54950,2,0,L|27:103,1,104.500003189087,2|8,0:1|0:1,0:1:0:0:
66,54,55250,5,0,3:1:0:0:
133,43,55350,1,0,3:1:0:0:
199,31,55450,1,0,3:1:0:0:
416,72,55650,1,8,0:1:0:0:
416,72,55750,1,2,3:2:0:0:
104,120,55950,5,0,0:1:0:0:
104,120,56050,1,0,3:1:0:0:
171,109,56150,1,0,3:1:0:0:
237,97,56250,1,0,3:1:0:0:
399,187,56450,1,8,0:1:0:0:
399,187,56550,1,2,3:2:0:0:
136,192,56750,5,0,0:1:0:0:
136,192,56850,1,0,3:1:0:0:
203,181,56950,1,0,3:1:0:0:
269,169,57050,1,0,3:1:0:0:
408,280,57251,1,8,0:1:0:0:
408,280,57351,2,0,L|292:298,1,104.500003189087,2|0,3:2|0:1,0:1:0:0:
249,352,57651,5,0,3:1:0:0:
174,377,57751,1,8,0:1:0:0:
102,344,57851,1,8,0:1:0:0:
84,267,57951,1,8,0:1:0:0:
123,199,58051,2,2,P|200:181|254:229,1,156.750004783631,2|0,0:3|0:1,0:1:0:0:
292,293,58451,6,0,L|403:278,1,95,4|2,0:1|0:3,0:0:0:0:
456,268,58751,1,2,0:3:0:0:
429,128,58951,1,0,0:3:0:0:
288,149,59151,1,2,0:3:0:0:
255,10,59351,1,2,0:3:0:0:
288,149,59551,1,0,0:3:0:0:
288,149,59651,1,2,0:3:0:0:
429,128,59851,1,0,0:3:0:0:
220,293,60051,6,0,L|109:278,1,95,2|2,0:3|0:3,0:0:0:0:
56,268,60351,1,2,0:3:0:0:
83,128,60551,1,0,0:3:0:0:
224,149,60751,1,2,0:3:0:0:
257,10,60951,1,2,0:3:0:0:
224,149,61151,1,0,0:3:0:0:
224,149,61251,1,2,0:3:0:0:
257,10,61451,1,0,0:3:0:0:
2,10,61651,6,0,L|17:121,1,95,2|2,0:3|0:3,0:0:0:0:
83,128,61951,1,2,0:3:0:0:
224,149,62151,1,0,0:3:0:0:
255,10,62351,1,2,0:3:0:0:
224,149,62551,1,2,0:3:0:0:
83,128,62751,1,0,0:3:0:0:
83,128,62851,1,2,0:3:0:0:
224,149,63051,1,0,0:3:0:0:
510,10,63252,6,0,L|495:121,1,95,2|2,0:3|0:3,0:0:0:0:
429,128,63552,1,2,0:3:0:0:
288,149,63752,1,0,0:3:0:0:
257,10,63952,1,2,0:3:0:0:
288,149,64152,1,2,0:3:0:0:
429,128,64352,1,0,0:3:0:0:
429,128,64452,1,2,0:3:0:0:
288,149,64652,1,0,0:3:0:0:
0,384,65052,6,0,L|111:369,1,95,2|0,0:1|3:1,0:1:0:0:
113,302,65352,2,0,L|224:317,1,95,2|0,0:1|0:1,0:1:0:0:
256,368,65652,1,2,3:1:0:0:
512,384,65852,6,0,L|401:369,1,95,2|0,0:1|3:1,0:1:0:0:
399,302,66152,2,0,L|288:317,1,95,2|0,0:1|0:1,0:1:0:0:
256,368,66452,1,2,3:1:0:0:
256,368,66653,6,0,L|256:272,1,95,2|0,0:1|3:1,0:1:0:0:
200,216,66953,2,0,L|104:216,1,95,2|0,0:1|0:1,0:1:0:0:
312,216,67253,2,0,L|408:216,1,95,2|2,3:1|0:1,0:1:0:0:
256,368,67653,1,0,3:1:0:0:
256,368,67753,1,2,0:1:0:0:
256,16,68053,1,2,3:1:0:0:
256,16,68254,6,0,L|256:112,1,95,2|0,0:1|3:1,0:1:0:0:
200,168,68553,2,0,L|104:168,1,95,2|0,0:1|0:1,0:1:0:0:
312,168,68853,2,0,L|408:168,1,95,2|2,3:1|0:1,0:1:0:0:
256,368,69253,1,2,3:2:0:0:
256,224,69453,1,2,0:2:0:0:
256,368,69653,1,2,3:1:0:0:
168,320,69853,6,0,P|157:273|168:224,1,95,2|0,0:0|3:0,0:0:0:0:
345,227,70153,2,0,P|354:274|344:320,1,95,2|0,0:0|0:0,0:0:0:0:
256,368,70453,1,2,3:1:0:0:
256,368,70653,5,2,3:2:0:0:
256,304,70753,1,2,3:2:0:0:
256,240,70853,1,8,0:0:0:0:
256,176,70953,1,8,0:0:0:0:
256,112,71053,1,8,0:0:0:0:
256,48,71153,1,8,0:0:0:0:
