osu file format v14

[General]
AudioFilename: audio.mp3
AudioLeadIn: 0
PreviewTime: 39247
Countdown: 0
SampleSet: Normal
StackLeniency: 0.3
Mode: 0
LetterboxInBreaks: 0
WidescreenStoryboard: 0

[Editor]
Bookmarks: 7540,40847
DistanceSpacing: 0.8
BeatDivisor: 4
GridSize: 8
TimelineZoom: 3.899998

[Metadata]
Title:N.Y. Street Chase (Gloria)
TitleUnicode:N.Y. Street Chase (Gloria)
Artist:Michael Wandmacher
ArtistUnicode:Michael Wandmacher
Creator:AJT
Version:Hectic
Source:Madagascar
Tags:new york vgm movie video game original soundtrack ost electronic instrumental sony nintendo mimari wanpachi
BeatmapID:2941869
BeatmapSetID:1428959

[Difficulty]
HPDrainRate:5
CircleSize:4.2
OverallDifficulty:8.5
ApproachRate:9.3
SliderMultiplier:2.5
SliderTickRate:1

[Events]
//Background and Video events
0,0,"centralpark.jpg",0,0
//Break Periods
2,33245,34092
2,34846,35692
2,36446,37292
//Storyboard Layer 0 (Background)
//Storyboard Layer 1 (Fail)
//Storyboard Layer 2 (Pass)
//Storyboard Layer 3 (Foreground)
//Storyboard Layer 4 (Overlay)
//Storyboard Sound Samples

[TimingPoints]
839,400.085351541662,4,1,0,35,1,0
2089,-100,4,1,0,5,0,0
2139,-100,4,1,0,35,0,0
5289,-100,4,1,0,5,0,0
5339,-100,4,1,0,35,0,0
6640,-66.6666666666667,4,1,0,35,0,0
7240,-57.1428571428571,4,1,0,45,0,0
7840,-100,4,1,0,45,0,0
12891,-100,4,1,0,25,0,0
13241,-100,4,1,0,45,0,0
13291,-100,4,1,0,25,0,0
13641,-66.6666666666667,4,1,0,50,0,0
20043,-80,4,1,0,45,0,0
20643,-100,4,1,0,45,0,0
25444,-80,4,1,0,50,0,0
26444,-125,4,1,0,40,0,0
32845,-50,4,1,0,40,0,0
38246,-66.6666666666667,4,1,0,40,0,0
44848,-100,4,1,0,50,0,0
45648,-86.9565217391304,4,1,0,50,0,0
58051,-50,4,1,0,50,0,1
58451,-50,4,1,0,40,0,0
64852,-100,4,1,0,40,0,0
65352,-66.6666666666667,4,1,0,40,0,0
65652,-100,4,1,0,40,0,0
67753,-66.6666666666667,4,1,0,40,0,0
68053,-100,4,1,0,40,0,0
68553,-66.6666666666667,4,1,0,40,0,0
68853,-100,4,1,0,40,0,0
70903,-100,4,1,0,5,0,0
70953,-100,4,1,0,40,0,0
71003,-100,4,1,0,5,0,0
71053,-100,4,1,0,40,0,0
71103,-100,4,1,0,5,0,0
71153,-100,4,1,0,40,0,0
71204,-100,4,1,0,5,0,0
71254,-100,4,1,0,40,0,0

[Colours]
Combo1 : 219,215,194
Combo2 : 196,164,129
Combo3 : 251,223,186
Combo4 : 102,95,66

[HitObjects]
128,48,839,6,0,P|76:81|57:139,1,125,8|0,3:0|2:2,0:0:0:0:
137,130,1239,1,8,0:0:0:0:
128,48,1439,2,0,P|77:13|15:19,1,125,8|0,3:0|2:0,0:0:0:0:
57,139,1839,1,0,3:0:0:0:
137,130,2039,2,0,L|142:165,1,31.25,8|0,0:0|0:0,0:0:0:0:
384,48,2439,6,0,P|435:81|454:139,1,125,8|0,3:0|2:0,0:0:0:0:
375,130,2839,1,8,0:0:0:0:
384,48,3039,2,0,P|434:13|496:19,1,125,8|0,3:0|2:0,0:0:0:0:
455,139,3439,2,0,L|448:204,1,62.5,4|0,3:0|2:0,0:0:0:0:
375,130,3639,1,8,0:0:0:0:
375,130,3739,2,0,L|368:195,1,62.5,8|0,3:0|2:0,0:0:0:0:
150,343,4039,6,0,P|105:300|45:294,2,125,8|0|8,3:0|2:0|0:0,0:0:0:0:
196,236,4639,2,0,P|153:281|149:341,2,125,8|0|0,3:0|2:0|0:0,0:0:0:0:
149,341,5239,2,0,L|163:384,1,31.25,8|0,0:0|0:0,0:0:0:0:
362,343,5640,6,0,P|407:300|467:294,2,125,8|0|8,3:0|2:0|0:0,0:0:0:0:
362,341,6240,2,0,P|358:280|316:236,1,125,8|0,3:0|2:0,0:0:0:0:
362,341,6640,6,0,L|440:158,1,187.500007152558,6|8,3:0|0:0,0:0:0:0:
414,156,6940,6,0,P|429:247|485:321,1,187.500007152558,10|0,3:0|0:0,0:0:0:0:
512,120,7240,6,0,L|289:140,1,218.750002086163,2|0,3:1|0:0,0:0:0:0:
294,139,7540,1,0,0:0:0:0:
267,210,7640,1,8,0:0:0:0:
355,35,7840,5,8,3:0:0:0:
355,35,7940,1,0,0:0:0:0:
382,46,8040,2,0,L|441:18,1,62.5
244,56,8240,1,0,0:0:0:0:
244,56,8340,1,0,0:0:0:0:
174,22,8440,1,8,0:0:0:0:
352,216,8640,1,0,0:0:0:0:
352,216,8740,1,0,0:0:0:0:
368,255,8840,6,0,L|342:311,1,62.5,8|0,3:0|0:0,0:0:0:0:
304,384,9040,1,0,0:0:0:0:
96,264,9240,2,0,L|31:259,1,62.5,8|0,0:0|0:0,0:0:0:0:
208,176,9440,6,0,L|273:171,1,62.5,8|0,3:0|0:0,0:0:0:0:
225,34,9640,1,0,0:0:0:0:
184,24,9740,1,0,0:0:0:0:
120,64,9840,2,0,L|55:59,1,62.5,4|0,3:0|0:0,0:0:0:0:
208,176,10040,1,8,0:0:0:0:
208,176,10140,2,0,L|273:171,2,62.5,8|0|0,3:0|0:0|0:0,0:0:0:0:
352,72,10441,5,8,3:0:0:0:
413,40,10541,1,0,0:0:0:0:
470,78,10641,1,0,0:0:0:0:
396,259,10841,2,0,L|401:197,1,62.5,8|0,0:0|0:0,0:0:0:0:
470,78,11041,5,8,3:0:0:0:
413,40,11141,1,0,0:0:0:0:
352,72,11241,2,0,L|290:67,1,62.5
413,40,11441,1,0,0:0:0:0:
413,40,11541,1,0,0:0:0:0:
470,78,11641,1,8,0:0:0:0:
401,197,11841,2,0,L|396:259,1,62.5
298,356,12041,5,8,3:0:0:0:
250,302,12141,1,0,0:0:0:0:
185,335,12241,1,0,0:0:0:0:
131,285,12341,1,0,0:0:0:0:
71,327,12441,1,8,0:0:0:0:
104,112,12641,1,8,3:0:0:0:
153,57,12741,1,0,0:0:0:0:
83,96,12841,6,0,L|50:116,7,31.25,2|2|2|2|2|2|2|2,0:3|0:3|0:3|0:3|0:3|0:3|0:3|0:3,0:3:0:0:
8,194,13241,2,0,L|40:192,7,31.25,2|2|2|2|2|2|2|2,0:3|0:3|0:3|0:3|0:3|0:3|0:3|0:3,0:3:0:0:
153,57,13641,6,0,B|170:6|232:38|232:38|308:80|315:10,1,187.5,6|2,3:1|0:0,0:0:0:0:
152,192,14041,1,8,0:0:0:0:
328,186,14241,2,0,B|279:183|321:107|321:107|353:45|302:28,1,187.5,2|0,0:0|3:0,0:0:0:0:
328,186,14641,2,0,L|315:306,1,93.7500035762788,2|0,0:0|0:0,0:0:0:0:
496,120,14841,1,10,0:0:0:0:
416,160,14942,1,2,0:0:0:0:
328,186,15042,2,0,L|315:306,1,93.7500035762788,2|0,0:0|0:0,0:0:0:0:
512,354,15242,6,0,B|476:394|431:340|431:340|378:272|344:333,2,187.5,2|2|8,3:1|0:0|0:0,0:0:0:0:
173,147,15842,2,0,B|208:106|253:160|253:160|306:228|340:167,1,187.5,2|0,0:0|3:0,0:0:0:0:
173,147,16242,2,0,L|186:267,1,93.7500035762788,2|0,0:0|0:0,0:0:0:0:
5,81,16442,1,10,0:0:0:0:
85,121,16543,1,2,0:0:0:0:
173,147,16643,2,0,L|186:267,1,93.7500035762788
285,324,16842,6,0,B|250:279|250:279|120:290,1,187.500007152558,2|2,3:1|0:0,0:0:0:0:
0,384,17242,1,8,0:0:0:0:
319,281,17442,2,0,B|284:236|284:236|154:247,1,187.500007152558,2|0,0:0|3:0,0:0:0:0:
0,384,17842,2,0,L|13:264,1,93.7500035762788,2|0,0:0|0:0,0:0:0:0:
23,160,18042,1,10,0:0:0:0:
13,272,18143,1,2,0:0:0:0:
0,384,18242,2,0,L|13:264,1,93.7500035762788,2|0,0:0|0:0,0:0:0:0:
285,60,18442,6,0,B|250:105|250:105|120:94,1,187.500007152558,2|2,3:1|0:0,0:0:0:0:
0,0,18742,1,0,0:0:0:0:
0,0,18842,1,8,0:0:0:0:
319,103,19042,2,0,B|284:148|284:148|154:137,1,187.500007152558,2|0,0:0|3:0,0:0:0:0:
32,200,19342,2,0,L|125:209,1,93.7500035762788,0|2,0:0|0:0,0:0:0:0:
213,276,19542,1,0,0:0:0:0:
287,261,19643,1,10,0:0:0:0:
317,329,19743,1,2,0:0:0:0:
262,381,19843,2,0,L|142:368,1,93.7500035762788,2|0,0:0|0:0,0:0:0:0:
392,384,20043,6,0,P|370:312|414:251,1,156.25,6|0,3:2|0:1,0:1:0:0:
494,190,20343,2,0,P|516:261|472:323,1,156.25,2|0,0:2|0:1,0:1:0:0:
413,251,20643,2,0,L|289:232,1,125,2|0,3:2|3:1,0:1:0:0:
236,276,20943,2,0,L|112:295,1,125,2|0,0:2|0:1,0:1:0:0:
44,307,21243,1,8,0:1:0:0:
86,360,21343,1,0,3:1:0:0:
112,294,21443,1,8,0:1:0:0:
185,245,21643,6,0,L|-8:276,2,187.5,2|2|2,3:2|0:2|3:2,0:1:0:0:
238,184,22343,1,0,0:1:0:0:
189,125,22443,1,0,3:1:0:0:
189,125,22543,1,2,0:2:0:0:
220,52,22643,1,0,3:1:0:0:
220,52,22743,1,0,0:1:0:0:
139,39,22843,5,8,0:1:0:0:
201,91,22943,1,0,3:1:0:0:
281,97,23043,1,0,3:1:0:0:
350,55,23143,1,0,3:1:0:0:
362,42,23243,6,0,L|331:235,2,187.5,2|2|2,3:2|0:2|3:2,0:1:0:0:
289,289,24043,6,0,B|293:298|293:298|331:310|331:310|341:305,1,62.5,0|2,3:1|0:2,0:0:0:0:
222,94,24243,2,0,B|217:84|217:84|179:72|179:72|169:77,1,62.5,0|0,3:1|0:1,0:0:0:0:
94,92,24444,1,8,0:1:0:0:
140,151,24544,1,0,3:1:0:0:
169,78,24644,1,8,0:1:0:0:
489,259,24844,6,0,P|432:236|373:265,1,125,2|0,3:2|0:0,0:1:0:0:
314,343,25144,2,0,P|338:287|315:230,1,125,2|0,0:2|0:0,0:0:0:0:
235,292,25444,2,0,L|159:306,1,78.125,2|0,3:2|0:1,0:0:0:0:
114,380,25644,5,0,3:1:0:0:
67,308,25744,1,2,0:2:0:0:
40,264,25844,1,0,3:1:0:0:
24,240,25944,1,0,0:1:0:0:
40,232,26044,1,8,0:1:0:0:
80,208,26144,1,0,3:1:0:0:
144,176,26244,1,0,3:1:0:0:
216,144,26344,1,0,3:1:0:0:
187,230,26444,6,0,L|199:71,2,150,6|2|2,3:2|0:2|3:2,0:1:0:0:
400,336,27244,1,0,3:1:0:0:
187,230,27444,1,0,3:1:0:0:
404,91,27644,1,8,0:1:0:0:
404,91,27744,1,0,3:1:0:0:
404,91,27844,1,8,0:1:0:0:
435,374,28044,6,0,L|276:362,2,150,2|2|2,3:2|0:2|3:2,0:1:0:0:
512,357,28744,1,0,0:1:0:0:
512,357,28844,2,0,P|505:333|484:322,1,50,0|2,3:1|0:2,0:1:0:0:
368,264,29045,2,0,P|374:240|395:229,1,50,0|0,3:1|0:1,0:1:0:0:
512,141,29245,1,8,0:1:0:0:
482,123,29345,1,0,3:1:0:0:
466,115,29445,1,0,3:1:0:0:
455,109,29545,1,0,3:1:0:0:
428,149,29645,6,0,B|409:94|446:65|418:-3,2,150,2|2|2,3:2|0:2|3:2,0:1:0:0:
176,40,30445,1,0,3:1:0:0:
428,149,30645,1,0,3:1:0:0:
359,384,30845,1,8,0:1:0:0:
359,384,30945,1,0,3:1:0:0:
359,384,31045,1,8,0:1:0:0:
77,374,31245,6,0,L|236:362,2,150,2|2|2,3:2|0:2|3:2,0:1:0:0:
0,357,31945,1,0,0:1:0:0:
0,357,32045,2,0,P|7:333|28:322,1,50,0|2,3:1|0:2,0:1:0:0:
144,264,32246,2,0,P|138:240|117:229,1,50,0|0,3:1|0:1,0:1:0:0:
38,34,32446,1,8,0:1:0:0:
56,64,32546,1,0,3:1:0:0:
64,80,32646,1,0,3:1:0:0:
70,91,32746,1,0,3:1:0:0:
0,0,32845,6,0,P|71:9|260:16,1,250,2|2,0:1|0:1,0:0:0:0:
250,112,34646,5,2,0:0:0:0:
250,112,36246,5,2,0:0:0:0:
250,112,37846,5,2,0:0:0:0:
274,176,38246,2,0,B|241:167|230:130|230:130|250:112,1,93.7500035762788,2|0,0:0|0:0,0:0:0:0:
301,18,38447,5,0,0:0:0:0:
369,99,38547,1,0,0:0:0:0:
369,99,38647,1,0,0:0:0:0:
432,48,38747,6,0,B|403:66|403:66|426:132,1,93.7500035762788,0|8,0:0|0:0,0:0:0:0:
481,201,38948,1,0,0:0:0:0:
481,201,39047,2,0,B|464:299,1,93.7500035762788
512,335,39247,6,0,B|523:313|523:313|395:336|395:336|417:361,1,187.500007152558,4|0,3:1|3:0,0:0:0:0:
416,360,39547,1,0,3:0:0:0:
318,319,39647,1,8,0:0:0:0:
318,319,39847,5,8,3:0:0:0:
255,346,39947,1,0,3:0:0:0:
205,298,40047,1,0,3:0:0:0:
146,333,40147,1,0,3:0:0:0:
91,290,40247,1,0,3:0:0:0:
91,290,40347,1,0,3:0:0:0:
33,329,40447,1,8,0:0:0:0:
0,49,40847,6,0,B|-11:71|-11:71|57:83|117:48|117:48|95:23,1,187.500007152558,8|0,3:0|3:0,0:0:0:0:
97,25,41147,1,0,3:0:0:0:
0,49,41247,1,8,0:0:0:0:
91,290,41447,5,8,3:0:0:0:
91,290,41547,1,0,3:0:0:0:
157,237,41647,1,0,3:0:0:0:
157,237,41747,1,0,3:0:0:0:
227,271,41847,1,4,3:0:0:0:
293,218,41947,1,0,3:0:0:0:
383,234,42047,1,8,0:0:0:0:
444,318,42147,2,0,B|383:309|383:309|434:261|420:194,1,187.500007152558,8|0,3:0|0:0,0:0:0:0:
458,63,42447,6,0,B|469:41|469:41|299:66,1,187.500007152558,8|0,3:3|3:0,0:0:0:0:
208,88,42747,1,0,3:0:0:0:
208,88,42847,1,8,0:0:0:0:
458,63,43048,6,0,B|469:43|469:43|381:54,1,93.7500035762788,8|0,3:0|3:0,0:0:0:0:
307,64,43248,1,0,3:0:0:0:
257,132,43348,1,0,3:0:0:0:
291,209,43448,1,0,3:0:0:0:
372,231,43548,1,0,3:0:0:0:
439,179,43648,1,8,0:0:0:0:
97,25,44048,6,0,B|75:14|75:14|100:184,1,187.500007152558,8|0,3:0|3:0,0:0:0:0:
109,258,44348,1,0,3:0:0:0:
98,175,44448,1,8,0:0:0:0:
109,258,44648,1,8,3:0:0:0:
109,258,44748,1,0,3:0:0:0:
0,283,44848,6,0,B|-9:250|3:221,1,62.5,2|0,0:3|0:3,0:3:0:0:
218,235,45048,2,0,B|227:267|214:296,1,62.5,6|0,3:3|0:3,0:3:0:0:
84,151,45248,2,0,B|116:141|145:154,1,62.5,8|8,0:1|0:3,0:3:0:0:
130,369,45448,2,0,B|97:378|68:365,1,62.5,2|0,0:3|0:3,0:3:0:0:
258,142,45648,5,4,3:1:0:0:
258,142,45748,2,0,L|262:66,1,71.8750013709069,0|0,3:0|2:0,0:0:0:0:
382,264,45948,5,0,3:0:0:0:
382,264,46048,2,0,L|458:268,1,71.8750013709069,8|0,0:0|2:0,0:0:0:0:
254,142,46248,5,0,3:0:0:0:
254,142,46348,2,0,L|250:66,1,71.8750013709069,0|0,3:0|2:0,0:0:0:0:
130,264,46548,5,0,3:0:0:0:
130,264,46648,2,0,L|54:268,2,71.8750013709069,0|0|8,3:0|0:0|0:0,0:0:0:0:
191,350,46948,5,0,3:0:0:0:
238,295,47048,1,0,3:0:0:0:
230,223,47148,1,0,3:0:0:0:
174,176,47248,5,0,3:0:0:0:
174,176,47348,2,0,L|178:100,1,71.8750013709069,0|0,3:0|2:0,0:0:0:0:
338,176,47548,5,0,3:0:0:0:
338,176,47648,2,0,L|334:100,1,71.8750013709069,8|0,0:0|2:0,0:0:0:0:
128,78,47849,5,0,3:0:0:0:
128,78,47949,2,0,L|125:150,1,71.8750013709069,0|0,3:0|2:0,0:0:0:0:
383,78,48149,5,0,3:0:0:0:
383,78,48249,2,0,L|387:150,2,71.8750013709069,0|0|8,3:0|0:0|0:0,0:0:0:0:
470,47,48549,5,0,3:0:0:0:
415,0,48649,1,0,3:0:0:0:
343,8,48749,1,0,3:0:0:0:
296,64,48849,5,0,3:1:0:0:
296,64,48949,2,0,L|220:60,1,71.8750013709069,0|0,3:0|2:0,0:0:0:0:
400,256,49149,5,0,3:0:0:0:
400,256,49249,2,0,L|476:252,1,71.8750013709069,8|0,0:0|2:0,0:0:0:0:
271,18,49449,5,0,3:0:0:0:
271,18,49549,2,0,L|195:14,1,71.8750013709069,0|0,3:0|2:0,0:0:0:0:
432,304,49749,5,0,3:0:0:0:
432,304,49849,2,0,L|508:300,2,71.8750013709069,0|0|8,3:0|0:0|0:0,0:0:0:0:
375,384,50149,5,0,3:0:0:0:
328,329,50249,1,0,3:0:0:0:
336,257,50349,1,0,3:0:0:0:
392,210,50449,5,0,3:0:0:0:
392,210,50549,2,0,L|388:134,1,71.8750013709069,0|0,3:0|2:0,0:0:0:0:
120,210,50749,5,0,3:0:0:0:
120,210,50849,2,0,L|124:134,1,71.8750013709069,8|0,0:0|2:0,0:0:0:0:
256,0,51049,5,0,3:0:0:0:
256,88,51149,1,0,3:0:0:0:
352,48,51249,6,0,L|428:44,1,71.8750013709069,0|0,0:0|3:0,0:0:0:0:
160,48,51449,2,0,L|84:44,1,71.8750013709069,0|0,3:0|0:0,0:0:0:0:
256,0,51649,5,8,0:0:0:0:
256,88,51749,1,0,3:0:0:0:
256,176,51849,1,0,3:0:0:0:
256,264,51949,1,0,3:0:0:0:
256,352,52049,6,0,L|180:348,1,71.8750013709069,4|0,3:1|0:1,0:1:0:0:
109,304,52249,2,0,L|33:300,1,71.8750013709069,0|0,3:1|0:1,0:1:0:0:
256,264,52450,5,10,0:1:0:0:
256,264,52550,2,0,L|332:260,1,71.8750013709069,2|0,0:1|0:1,0:1:0:0:
403,216,52750,5,2,0:1:0:0:
403,216,52850,2,0,L|479:212,1,71.8750013709069,2|0,3:1|0:1,0:1:0:0:
327,260,53050,2,0,L|256:264,1,71.8750013709069,0|0,3:1|0:1,0:1:0:0:
37,124,53250,5,10,0:1:0:0:
37,124,53350,2,0,L|108:127,1,71.8750013709069,2|0,0:1|0:1,0:1:0:0:
184,172,53550,5,2,0:1:0:0:
184,172,53650,2,0,L|255:175,1,71.8750013709069,2|0,3:1|0:1,0:1:0:0:
108,127,53850,2,0,L|37:124,1,71.8750013709069,0|0,3:1|0:1,0:1:0:0:
256,88,54050,5,10,0:1:0:0:
256,88,54150,2,0,L|332:84,1,71.8750013709069,2|0,0:1|0:1,0:1:0:0:
403,40,54350,5,2,0:1:0:0:
403,40,54450,2,0,L|479:36,1,71.8750013709069,2|0,3:1|0:1,0:1:0:0:
327,84,54650,2,0,L|255:87,1,71.8750013709069,0|0,3:1|0:1,0:1:0:0:
403,40,54850,5,10,0:1:0:0:
403,40,54950,2,0,L|479:36,2,71.8750013709069,2|0|8,0:1|0:1|0:1,0:1:0:0:
440,192,55250,5,0,3:1:0:0:
444,135,55350,1,0,3:1:0:0:
440,192,55450,2,0,L|436:268,1,71.8750013709069,0|0,3:1|0:1,0:1:0:0:
488,345,55650,5,8,0:1:0:0:
488,345,55750,2,0,P|461:314|339:363,1,143.750002741814,2|0,3:2|0:1,0:1:0:0:
72,192,56050,5,0,3:1:0:0:
68,135,56150,1,0,3:1:0:0:
72,192,56250,2,0,L|76:268,1,71.8750013709069,0|0,3:1|0:1,0:1:0:0:
24,345,56450,5,8,0:1:0:0:
24,345,56550,2,0,P|51:314|173:363,1,143.750002741814,2|0,3:2|0:1,0:1:0:0:
440,192,56850,5,0,3:1:0:0:
444,135,56950,1,0,3:1:0:0:
440,192,57050,2,0,L|436:268,1,71.8750013709069,0|0,3:1|0:1,0:1:0:0:
488,345,57250,5,8,0:1:0:0:
488,345,57350,2,0,P|461:314|339:363,1,143.750002741814,2|0,3:2|0:1,0:1:0:0:
256,0,57651,5,0,3:1:0:0:
256,88,57751,1,8,0:1:0:0:
256,176,57851,1,8,0:1:0:0:
256,264,57951,1,8,0:1:0:0:
256,375,58051,6,2,B|256:-17,1,375,2|0,0:3|0:1,0:1:0:0:
256,0,58451,5,4,0:1:0:0:
384,56,58651,5,2,0:3:0:0:
384,144,58751,1,2,0:3:0:0:
256,0,58951,5,0,0:3:0:0:
384,56,59151,5,2,0:3:0:0:
384,144,59351,1,2,0:3:0:0:
128,144,59551,5,0,0:3:0:0:
128,56,59651,1,2,0:3:0:0:
256,0,59851,5,0,0:3:0:0:
256,384,60051,5,2,0:3:0:0:
384,328,60251,5,2,0:3:0:0:
384,240,60351,1,2,0:3:0:0:
256,384,60551,5,0,0:3:0:0:
384,328,60751,5,2,0:3:0:0:
384,240,60951,1,2,0:3:0:0:
128,240,61151,5,0,0:3:0:0:
128,328,61251,1,2,0:3:0:0:
256,384,61451,5,0,0:3:0:0:
512,192,61651,5,2,0:3:0:0:
456,320,61851,5,2,0:3:0:0:
368,320,61951,1,2,0:3:0:0:
512,192,62151,5,0,0:3:0:0:
456,320,62351,5,2,0:3:0:0:
368,320,62551,1,2,0:3:0:0:
368,64,62751,5,0,0:3:0:0:
456,64,62851,1,2,0:3:0:0:
512,192,63051,5,0,0:3:0:0:
0,192,63252,5,2,0:3:0:0:
56,320,63452,5,2,0:3:0:0:
144,320,63552,1,2,0:3:0:0:
0,192,63752,5,0,0:3:0:0:
56,320,63952,5,2,0:3:0:0:
144,320,64152,1,2,0:3:0:0:
144,64,64352,5,0,0:3:0:0:
56,64,64452,1,2,0:3:0:0:
0,192,64652,5,0,0:3:0:0:
144,64,64852,6,0,L|207:72,1,62.5,0|0,3:1|0:1,0:1:0:0:
350,150,65052,2,0,L|286:158,1,62.5,2|0,0:1|0:1,0:1:0:0:
257,16,65252,1,0,3:1:0:0:
257,16,65352,2,0,L|234:230,1,187.500007152558,2|0,0:1|0:1,0:1:0:0:
100,139,65652,6,0,L|165:146,1,62.5,2|0,3:1|0:1,0:1:0:0:
320,168,65852,2,0,L|313:233,1,62.5,2|0,0:1|0:1,0:1:0:0:
331,346,66052,1,0,3:1:0:0:
331,346,66152,2,0,L|396:339,2,62.5,2|0|0,0:1|0:1|0:1,0:1:0:0:
216,376,66452,6,0,L|151:369,1,62.5,2|0,3:1|0:1,0:1:0:0:
144,264,66652,2,0,L|78:271,1,62.5,2|0,0:1|0:1,0:1:0:0:
0,320,66852,1,0,3:1:0:0:
0,320,66952,2,0,L|7:384,2,62.5,2|0|0,0:1|0:1|0:1,0:1:0:0:
71,201,67253,6,0,L|134:195,1,62.5,2|0,3:1|0:1,0:1:0:0:
271,114,67453,2,0,L|207:106,1,62.5,2|0,0:1|0:1,0:1:0:0:
182,247,67653,1,0,3:1:0:0:
182,247,67753,2,0,L|159:33,1,187.500007152558,2|0,0:1|0:1,0:1:0:0:
24,80,68053,6,0,L|86:73,1,62.5,2|0,3:1|0:1,0:1:0:0:
240,48,68253,2,0,L|246:110,1,62.5,2|0,0:1|0:1,0:1:0:0:
374,138,68453,1,0,3:1:0:0:
374,138,68553,2,0,L|160:161,1,187.500007152558,2|0,0:1|0:1,0:1:0:0:
216,232,68853,6,0,L|278:225,1,62.5,2|0,3:1|0:1,0:1:0:0:
280,72,69053,2,0,L|342:65,2,62.5,2|0|2,0:1|0:1|3:2,0:1:0:0:
278,224,69453,1,2,0:2:0:0:
445,350,69653,6,0,L|438:288,1,62.5,2|0,3:1|0:0,0:0:0:0:
285,286,69853,2,0,L|278:224,3,62.5,2|0|0|2,0:0|0:0|3:0|0:0,0:0:0:0:
160,160,70253,2,0,L|167:222,1,62.5
176,320,70453,1,2,3:1:0:0:
22,103,70653,5,2,3:2:0:0:
22,103,70753,1,2,3:2:0:0:
11,14,70853,6,0,L|14:45,1,31.25,8|0,0:0|0:0,0:0:0:0:
22,103,70953,2,0,L|25:134,1,31.25,8|0,0:0|0:0,0:0:0:0:
32,192,71053,2,0,L|35:223,1,31.25,8|0,0:0|0:0,0:0:0:0:
42,281,71153,2,0,L|45:312,1,31.25,8|0,0:0|0:0,0:0:0:0:
