osu file format v14

[General]
AudioFilename: audio.mp3
AudioLeadIn: 0
PreviewTime: 55226
Countdown: 0
SampleSet: Soft
StackLeniency: 0.6
Mode: 0
LetterboxInBreaks: 0
WidescreenStoryboard: 0

[Editor]
DistanceSpacing: 1
BeatDivisor: 4
GridSize: 32
TimelineZoom: 1.5

[Metadata]
Title:Can't Say It Back (Feint Remix)
TitleUnicode:Can't Say It Back (Feint Remix)
Artist:Michael Seary feat. Luke Cusato
ArtistUnicode:Michael Seary feat. Luke Cusato
Creator:Reform
Version:_orange's Normal
Source:
Tags:dnb drum n bass _orange kergio kujinn liquicity
BeatmapID:1876597
BeatmapSetID:813978

[Difficulty]
HPDrainRate:3
CircleSize:3
OverallDifficulty:4
ApproachRate:5.5
SliderMultiplier:1
SliderTickRate:1

[Events]
//Background and Video events
0,0,"BG.png",0,0
//Break Periods
2,41374,43077
//Storyboard Layer 0 (Background)
//Storyboard Layer 1 (Fail)
//Storyboard Layer 2 (Pass)
//Storyboard Layer 3 (Foreground)
//Storyboard Sound Samples

[TimingPoints]
140,344.827586206897,4,2,2,5,1,0
11174,-100,4,2,2,30,0,0
12467,-100,4,2,2,5,0,0
12553,-100,4,2,2,30,0,0
15226,-100,4,2,2,5,0,0
15312,-100,4,2,2,30,0,0
17984,-100,4,2,2,5,0,0
18070,-100,4,2,2,30,0,0
23502,-100,4,2,2,5,0,0
23588,-100,4,2,2,30,0,0
26260,-100,4,2,2,5,0,0
26346,-100,4,2,2,30,0,0
28933,-100,4,2,2,5,0,0
29019,-100,4,2,2,30,0,0
33243,-111.111111111111,4,2,2,30,0,0
33329,-111.111111111111,4,2,2,5,0,0
35571,-111.111111111111,4,2,2,30,0,0
36088,-111.111111111111,4,2,2,5,0,0
38330,-111.111111111111,4,2,2,30,0,0
38846,-111.111111111111,4,2,2,5,0,0
39708,-111.111111111111,4,2,2,30,0,0
44277,-100,4,2,1,20,0,0
47036,-100,4,2,1,30,0,0
49795,-100,4,2,1,40,0,0
52553,-100,4,2,1,50,0,0
55312,-100,4,2,1,80,0,1
99450,-100,4,1,1,80,0,0

[Colours]
Combo1 : 145,157,119
Combo2 : 121,128,168
Combo3 : 190,196,220
Combo4 : 109,134,152
Combo5 : 232,45,91

[HitObjects]
165,53,11174,5,2,0:0:0:0:
412,7,12553,2,0,P|405:58|420:106,1,100,0|0,0:0|0:0,0:0:0:0:
462,128,13071,1,0,0:0:0:0:
386,192,13415,2,0,P|393:243|377:291,1,100,0|0,0:0|0:0,0:0:0:0:
405,331,13933,2,0,P|335:304|262:317,1,150,2|0,0:0|0:0,0:0:0:0:
36,211,15312,2,0,L|135:219,1,100,0|0,0:0|0:0,0:0:0:0:
185,227,15829,1,0,0:0:0:0:
156,131,16174,2,0,P|166:82|201:48,1,100,0|0,0:0|0:0,0:0:0:0:
251,44,16691,5,2,0:0:0:0:
332,304,17898,2,0,P|332:254|340:204,1,100,0|0,0:0|0:0,0:0:0:0:
439,216,18588,2,0,P|443:141|429:68,1,150,0|0,0:0|0:0,0:0:0:0:
338,26,19450,1,0,0:0:0:0:
107,97,20484,1,0,0:0:0:0:
207,97,20829,1,0,0:0:0:0:
207,97,21002,2,0,L|198:196,1,100,0|0,0:0|0:0,0:0:0:0:
3,344,22208,5,2,0:0:0:0:
272,339,23415,2,0,P|224:348|177:331,1,100,0|0,0:0|0:0,0:0:0:0:
142,292,23933,2,0,B|105:194|178:194|141:94,1,200,0|0,0:0|0:0,0:0:0:0:
213,27,24967,2,0,P|272:69|344:56,1,150,2|0,0:0|0:0,0:0:0:0:
472,136,26002,2,0,L|467:185,1,50,0|0,0:0|0:0,0:0:0:0:
422,207,26346,2,0,L|435:356,1,150,0|0,0:0|0:0,0:0:0:0:
295,299,27381,1,0,0:0:0:0:
208,352,27726,5,2,0:0:0:0:
52,195,29019,2,0,P|58:158|51:122,1,75,0|0,0:0|0:0,0:0:0:0:
13,89,29450,1,0,0:0:0:0:
153,35,29967,2,0,B|204:18|246:49|246:49|290:21|346:48,1,200,0|0,0:0|0:0,0:0:0:0:
486,242,31777,2,0,L|411:235,1,75,0|0,0:0|0:0,0:0:0:0:
321,355,32553,2,0,L|221:363,1,100,0|0,0:0|0:0,0:0:0:0:
134,339,33243,6,0,B|34:339|-11:243|26:127|172:119|211:221|211:221|301:138|326:246|429:165,1,629.999980773926,2|0,0:0|0:0,0:0:0:0:
448,82,36002,2,0,B|331:40|344:109|239:95|239:95|324:104|352:158|344:263|270:277|270:277|208:230|127:249,1,629.999980773926,2|0,0:0|0:0,0:0:0:0:
48,205,38760,6,0,P|39:80|159:50,1,269.999991760254,2|0,0:0|0:0,0:0:0:0:
235,97,40140,1,0,0:0:0:0:
235,97,40312,2,0,P|300:113|365:95,1,134.999995880127,0|0,0:0|0:0,0:0:0:0:
417,23,41174,1,0,0:0:0:0:
337,326,44277,6,0,L|345:226,1,100,0|8,3:0|0:0,0:0:0:0:
489,180,45140,2,0,L|484:130,1,50,0|8,3:0|0:0,0:0:0:0:
418,53,45657,2,0,P|373:74|324:66,1,100,0|8,3:0|0:0,0:0:0:0:
181,20,46519,2,0,L|186:69,1,50,0|8,3:0|0:0,0:0:0:0:
105,127,47036,6,0,P|82:172|82:221,1,100,0|8,3:0|0:0,0:0:0:0:
55,263,47553,2,0,P|81:304|124:329,1,100,2|0,0:0|3:0,0:0:0:0:
174,323,48071,1,8,0:0:0:0:
259,273,48415,2,0,B|309:269|309:269|355:287,1,100,0|8,3:0|0:0,0:0:0:0:
381,331,48933,2,0,B|430:334|430:334|476:316,1,100,2|0,0:0|3:0,0:0:0:0:
493,268,49450,1,8,0:0:0:0:
432,188,49795,5,0,3:0:0:0:
487,104,50140,1,8,0:0:0:0:
487,104,50312,2,0,P|440:86|391:92,1,100,2|2,0:0|3:2,0:0:0:0:
351,123,50829,1,8,0:0:0:0:
291,42,51174,1,0,3:0:0:0:
207,96,51519,1,8,0:0:0:0:
207,96,51691,2,0,L|107:87,1,100,2|2,0:0|3:2,0:0:0:0:
57,82,52208,1,8,0:0:0:0:
256,192,52553,12,0,53933,3:0:0:0:
444,55,55312,6,0,L|435:154,1,100,6|8,3:2|0:0,0:0:0:0:
472,188,55829,2,0,P|478:236|456:281,1,100,2|2,0:0|3:2,0:0:0:0:
408,294,56346,1,8,0:0:0:0:
330,356,56691,1,4,3:2:0:0:
278,269,57036,2,0,B|228:265|228:265|181:283|181:283|131:277,1,150,8|2,0:0|3:2,0:0:0:0:
82,272,57726,1,8,0:0:0:0:
123,181,58071,6,0,B|141:134|141:134|135:84,1,100,4|8,3:2|0:0,0:0:0:0:
124,35,58588,2,0,L|223:43,1,100,2|2,0:0|3:2,0:0:0:0:
260,77,59105,1,8,0:0:0:0:
346,27,59450,2,0,P|382:59|431:62,1,100,2|8,0:0|0:0,0:0:0:0:
476,39,59967,1,2,0:0:0:0:
476,39,60140,2,0,L|467:138,1,100,2|8,0:0|0:0,0:0:0:0:
376,181,60829,6,0,L|384:280,1,100,4|8,3:2|0:0,0:0:0:0:
350,317,61346,2,0,B|300:319|300:319|255:298,1,100,2|2,0:0|3:2,0:0:0:0:
234,251,61864,1,8,0:0:0:0:
263,155,62208,1,4,3:2:0:0:
209,68,62553,2,0,P|162:57|116:76,1,100,8|2,0:0|0:0,0:0:0:0:
70,94,63071,1,2,3:2:0:0:
70,94,63243,2,0,P|72:118|72:143,1,50,8|2,0:0|0:0,0:0:0:0:
46,185,63588,6,0,P|32:233|46:280,1,100,4|8,3:2|0:0,0:0:0:0:
88,310,64105,2,0,L|187:301,1,100,2|2,0:0|3:2,0:0:0:0:
224,267,64622,1,8,0:0:0:0:
318,300,64967,2,0,B|309:251|309:251|329:204,1,100,2|8,0:0|0:0,0:0:0:0:
428,207,65657,2,0,B|436:158|436:158|416:111,1,100,2|8,0:0|0:0,0:0:0:0:
438,14,66346,6,0,P|390:1|341:10,1,100,4|8,3:2|0:0,0:0:0:0:
306,45,66864,2,0,P|258:58|209:49,1,100,2|2,0:0|3:2,0:0:0:0:
172,14,67381,1,8,0:0:0:0:
83,61,67726,2,0,L|74:160,1,100,4|8,3:2|0:0,0:0:0:0:
9,236,68415,2,0,L|13:285,1,50,2|2,0:0|3:2,0:0:0:0:
49,318,68760,2,0,P|74:321|98:316,1,50,8|2,0:0|0:0,0:0:0:0:
143,284,69105,5,4,3:2:0:0:
231,331,69450,2,0,B|304:354|304:307|377:331,1,150,8|2,0:0|3:2,0:0:0:0:
415,365,70140,2,0,B|393:323|393:323|409:222,1,150,8|2,0:0|3:2,0:0:0:0:
450,193,70829,2,0,P|459:171|459:146,1,50,8|2,0:0|0:0,0:0:0:0:
445,98,71174,2,0,P|425:82|401:76,1,50,2|2,0:0|3:2,0:0:0:0:
351,82,71519,1,8,0:0:0:0:
265,30,71864,6,0,L|165:38,1,100,6|8,3:2|0:0,0:0:0:0:
121,62,72381,2,0,P|138:108|129:156,1,100,2|2,0:0|3:2,0:0:0:0:
89,186,72898,1,8,0:0:0:0:
52,279,73243,5,4,3:2:0:0:
120,351,73588,2,0,B|169:359|169:359|216:340,1,100,8|2,0:0|0:0,0:0:0:0:
245,300,74105,1,2,3:2:0:0:
245,300,74277,2,0,L|240:250,1,50,8|2,0:0|0:0,0:0:0:0:
281,221,74622,6,0,L|289:121,1,100,4|8,3:2|0:0,0:0:0:0:
319,81,75140,2,0,P|362:56|412:55,1,100,2|2,0:0|3:2,0:0:0:0:
456,78,75657,1,8,0:0:0:0:
392,155,76002,2,0,L|400:254,1,100,2|8,0:0|0:0,0:0:0:0:
470,325,76691,2,0,P|427:349|377:350,1,100,2|8,0:0|0:0,0:0:0:0:
288,299,77381,6,0,B|239:293|239:293|192:308,1,100,4|8,3:2|0:0,0:0:0:0:
145,328,77898,2,0,L|153:228,1,100,2|2,0:0|3:2,0:0:0:0:
127,185,78415,1,8,0:0:0:0:
34,145,78760,5,4,3:2:0:0:
71,52,79105,2,0,B|100:44|129:61|129:61|168:54|168:54|216:64,1,150,8|2,0:0|3:2,0:0:0:0:
264,79,79795,1,8,0:0:0:0:
352,31,80140,6,0,P|370:76|359:124,1,100,4|8,3:2|0:0,0:0:0:0:
396,158,80657,2,0,P|377:203|388:251,1,100,2|2,0:0|3:2,0:0:0:0:
429,280,81174,1,8,0:0:0:0:
355,347,81519,2,0,L|255:338,1,100,2|8,0:0|0:0,0:0:0:0:
205,332,82036,1,2,0:0:0:0:
205,332,82208,2,0,B|185:286|185:286|190:236,1,100,2|8,0:0|0:0,0:0:0:0:
98,196,82898,6,0,B|117:150|117:150|112:100,1,100,4|8,3:2|0:0,0:0:0:0:
95,53,83415,2,0,P|141:69|189:60,1,100,2|2,0:0|3:2,0:0:0:0:
227,26,83933,1,8,0:0:0:0:
286,106,84277,1,4,3:2:0:0:
358,37,84622,2,0,L|457:28,1,100,8|2,0:0|0:0,0:0:0:0:
497,59,85140,1,2,3:2:0:0:
497,59,85312,2,0,P|492:83|495:107,1,50,8|2,0:0|0:0,0:0:0:0:
511,149,85657,6,0,P|510:198|491:244,1,100,4|8,3:2|0:0,0:0:0:0:
508,291,86174,2,0,P|464:315|415:321,1,100,2|2,0:0|3:2,0:0:0:0:
383,359,86691,1,8,0:0:0:0:
317,283,87036,2,0,L|217:293,1,100,2|8,0:0|0:0,0:0:0:0:
128,339,87726,2,0,B|113:291|113:291|128:243,1,100,2|8,0:0|0:0,0:0:0:0:
40,194,88415,6,0,L|31:94,1,100,4|8,3:2|0:0,0:0:0:0:
80,104,88933,2,0,P|108:64|154:48,1,100,2|2,0:0|3:2,0:0:0:0:
203,59,89450,1,8,0:0:0:0:
267,135,89795,2,0,P|313:152|362:146,1,100,4|8,3:2|0:0,0:0:0:0:
426,68,90484,2,0,P|450:66|474:72,1,50,2|2,0:0|3:2,0:0:0:0:
495,118,90829,2,0,L|490:168,1,50,8|2,0:0|0:0,0:0:0:0:
458,206,91174,5,4,3:2:0:0:
435,303,91519,2,0,B|385:308|385:308|338:290|338:290|288:294,1,150,8|2,0:0|3:2,0:0:0:0:
250,325,92208,2,0,P|273:255|239:191,1,150,8|2,0:0|3:2,0:0:0:0:
189,182,92898,2,0,L|139:186,1,50,8|2,0:0|0:0,0:0:0:0:
106,224,93243,2,0,L|56:219,1,50,2|2,0:0|3:2,0:0:0:0:
21,183,93588,1,8,0:0:0:0:
63,92,93933,6,0,L|162:83,1,100,4|8,3:2|0:0,0:0:0:0:
196,46,94450,2,0,P|245:40|291:58,1,100,2|2,0:0|3:2,0:0:0:0:
306,106,94967,1,8,0:0:0:0:
243,184,95312,1,4,3:2:0:0:
289,272,95657,2,0,B|334:290|334:290|384:284,1,100,8|2,0:0|0:0,0:0:0:0:
433,272,96174,1,2,3:2:0:0:
433,272,96346,2,0,L|437:222,1,50,8|2,0:0|0:0,0:0:0:0:
479,194,96691,6,0,L|470:94,1,100,4|8,3:2|0:0,0:0:0:0:
457,45,97208,2,0,L|357:36,1,100,2|2,0:0|3:2,0:0:0:0:
317,67,97726,1,8,0:0:0:0:
242,133,98071,2,0,L|142:143,1,100,2|8,0:0|0:0,0:0:0:0:
151,243,98760,2,0,L|250:232,1,100,2|8,0:0|0:0,0:0:0:0:
337,182,99450,5,6,2:0:0:0:
