osu file format v14

[General]
AudioFilename: audio.mp3
AudioLeadIn: 0
PreviewTime: 55226
Countdown: 0
SampleSet: Soft
StackLeniency: 0.3
Mode: 0
LetterboxInBreaks: 0
WidescreenStoryboard: 0

[Editor]
DistanceSpacing: 1.2
BeatDivisor: 4
GridSize: 32
TimelineZoom: 1.5

[Metadata]
Title:Can't Say It Back (Feint Remix)
TitleUnicode:Can't Say It Back (Feint Remix)
Artist:Michael Seary feat. Luke Cusato
ArtistUnicode:Michael Seary feat. Luke Cusato
Creator:Reform
Version:Unrequited
Source:
Tags:dnb drum n bass _orange kergio kujinn liquicity
BeatmapID:1707138
BeatmapSetID:813978

[Difficulty]
HPDrainRate:5.5
CircleSize:4
OverallDifficulty:7.5
ApproachRate:8.5
SliderMultiplier:1.8
SliderTickRate:1

[Events]
//Background and Video events
0,0,"BG.png",0,0
//Break Periods
2,41373,43602
//Storyboard Layer 0 (Background)
//Storyboard Layer 1 (Fail)
//Storyboard Layer 2 (Pass)
//Storyboard Layer 3 (Foreground)
//Storyboard Sound Samples

[TimingPoints]
140,344.827586206897,4,2,2,5,1,0
11174,-285.714285714286,4,2,2,30,0,0
11260,-285.714285714286,4,2,2,5,0,0
12553,-285.714285714286,4,2,2,30,0,0
12640,-285.714285714286,4,2,2,5,0,0
12984,-285.714285714286,4,2,2,30,0,0
13157,-285.714285714286,4,2,2,5,0,0
13501,-285.714285714286,4,2,2,30,0,0
14019,-285.714285714286,4,2,2,5,0,0
15312,-285.714285714286,4,2,2,30,0,0
15398,-285.714285714286,4,2,2,5,0,0
15742,-285.714285714286,4,2,2,30,0,0
15915,-285.714285714286,4,2,2,5,0,0
16259,-285.714285714286,4,2,2,30,0,0
16777,-285.714285714286,4,2,2,5,0,0
18070,-285.714285714286,4,2,2,30,0,0
18157,-285.714285714286,4,2,2,5,0,0
18501,-285.714285714286,4,2,2,30,0,0
18674,-285.714285714286,4,2,2,5,0,0
19018,-285.714285714286,4,2,2,30,0,0
22295,-285.714285714286,4,2,2,5,0,0
23588,-285.714285714286,4,2,2,30,0,0
23674,-285.714285714286,4,2,2,5,0,0
24018,-285.714285714286,4,2,2,30,0,0
24191,-285.714285714286,4,2,2,5,0,0
24535,-285.714285714286,4,2,2,30,0,0
25053,-285.714285714286,4,2,2,5,0,0
26346,-285.714285714286,4,2,2,30,0,0
26433,-285.714285714286,4,2,2,5,0,0
26777,-285.714285714286,4,2,2,30,0,0
26950,-285.714285714286,4,2,2,5,0,0
27294,-285.714285714286,4,2,2,30,0,0
27812,-285.714285714286,4,2,2,5,0,0
29019,-285.714285714286,4,2,2,30,0,0
29105,-285.714285714286,4,2,2,5,0,0
29449,-285.714285714286,4,2,2,30,0,0
30140,-285.714285714286,4,2,2,5,0,0
30484,-285.714285714286,4,2,2,30,0,0
33243,-666.666666666667,4,2,2,30,0,0
33329,-285.714285714286,4,2,2,5,0,0
35571,-285.714285714286,4,2,2,30,0,0
36002,-400,4,2,2,30,0,0
36088,-285.714285714286,4,2,2,5,0,0
38330,-285.714285714286,4,2,2,30,0,0
38760,-666.666666666667,4,2,2,30,0,0
38846,-666.666666666667,4,2,2,5,0,0
40053,-666.666666666667,4,2,2,30,0,0
44277,-222.222222222223,4,2,1,20,0,0
47036,-222.222222222223,4,2,1,30,0,0
49795,-222.222222222223,4,2,1,40,0,0
51174,-181.818181818182,4,2,1,40,0,0
52553,-153.846153846154,4,2,1,50,0,0
55312,-86.9565217391305,4,2,1,80,0,1
99450,-86.9565217391305,4,1,1,80,0,0

[Colours]
Combo1 : 145,157,119
Combo2 : 121,128,168
Combo3 : 190,196,220
Combo4 : 109,134,152
Combo5 : 232,45,91

[HitObjects]
256,192,8415,12,0,11002,0:0:0:0:
440,271,11174,6,0,B|323:232|337:320|211:267,1,236.249992790222,2|0,0:0|0:0,0:0:0:0:
176,255,12553,2,0,P|160:217|176:155,2,94.499997116089
277,200,13933,6,0,B|320:146|302:61|302:61|261:37|216:61,1,236.249992790222,2|0,0:0|0:0,0:0:0:0:
175,80,15312,2,0,P|130:75|74:73,2,94.499997116089
404,237,16691,6,0,B|352:279|283:237|283:237|220:251|211:307,1,236.249992790222,2|0,0:0|0:0,0:0:0:0:
173,345,18071,2,0,P|168:301|154:248,2,94.499997116089
211,305,19450,1,0,0:0:0:0:
0,144,22208,6,0,B|62:181|109:148|109:148|166:111|225:152,1,236.249992790222,2|0,0:0|0:0,0:0:0:0:
248,166,23588,2,0,P|264:124|244:66,2,94.499997116089
129,328,24967,6,0,B|99:321|77:293|77:293|184:249|247:323,1,236.249992790222,2|0,0:0|0:0,0:0:0:0:
284,338,26346,2,0,P|287:295|309:236,2,94.499997116089
206,170,27726,6,0,B|158:108|196:32|196:32|242:43|252:76,1,220.499993270874,2|0,0:0|0:0,0:0:0:0:
288,101,29019,2,0,P|332:113|372:102,1,78.7499975967408
189,30,30053,6,0,P|145:18|74:42,1,110.249996635437
286,313,31777,6,0,L|342:306,1,47.2499985580445
183,278,32553,6,0,L|112:269,1,62.9999980773926
264,212,33243,6,0,P|257:179|370:118,1,188.999994232178,2|0,0:0|0:0,0:0:0:0:
332,180,36002,6,0,B|176:128|205:280|29:217,1,315,2|0,0:0|0:0,0:0:0:0:
39,90,38760,6,0,P|84:92|116:144,1,107.999996704102,2|0,0:0|0:0,0:0:0:0:
101,217,40312,1,0,0:0:0:0:
42,315,40829,6,0,L|12:309,1,26.9999991760254
98,65,44277,5,0,3:0:0:0:
136,223,45140,1,0,3:0:0:0:
136,223,45312,1,8,0:0:0:0:
272,136,45657,5,0,3:0:0:0:
234,294,46520,1,0,3:0:0:0:
234,294,46692,1,8,0:0:0:0:
103,240,47036,5,0,3:0:0:0:
331,207,47381,1,8,0:0:0:0:
103,240,47898,5,0,3:0:0:0:
331,207,48070,1,8,0:0:0:0:
185,92,48415,5,0,3:0:0:0:
227,301,48760,1,8,0:0:0:0:
185,92,49277,5,0,3:0:0:0:
227,301,49449,1,8,0:0:0:0:
374,208,49622,5,2,0:0:0:0:
374,208,49708,1,8,0:0:0:0:
374,208,49795,2,0,P|379:168|390:114,1,80.9999975280763,0|8,3:0|0:0,0:0:0:0:
279,36,50312,1,2,0:0:0:0:
279,36,50398,2,0,L|230:33,1,40.4999987640381,2|2,0:0|0:0,0:0:0:0:
201,31,50657,1,2,3:2:0:0:
395,49,50829,1,8,0:0:0:0:
264,152,51002,1,2,0:0:0:0:
264,152,51088,1,8,0:0:0:0:
264,152,51174,6,0,P|230:160|167:135,1,99.0000030212403,0|8,3:0|0:0,0:0:0:0:
60,69,51691,1,2,0:0:0:0:
60,69,51777,2,0,L|64:121,1,49.5000015106202,2|2,0:0|0:0,0:0:0:0:
67,154,52036,1,2,3:2:0:0:
77,275,52208,1,8,0:0:0:0:
220,172,52381,1,2,0:0:0:0:
220,172,52467,1,8,0:0:0:0:
220,172,52553,6,0,L|208:294,1,116.999994644165,0|8,3:0|0:0,0:0:0:0:
354,228,53071,1,2,0:0:0:0:
354,228,53157,2,0,L|361:300,1,58.4999973220826,2|2,0:0|0:0,0:0:0:0:
363,328,53415,1,2,3:2:0:0:
246,188,53588,1,8,0:0:0:0:
232,337,53760,1,2,0:0:0:0:
232,337,53846,1,8,0:0:0:0:
232,337,53933,5,0,3:0:0:0:
256,192,54019,12,0,55139,0:0:0:0:
56,221,55312,6,0,P|110:219|152:263,1,103.500001974106,6|2,3:2|0:0,0:0:0:0:
210,360,55657,1,8,0:0:0:0:
292,254,55829,1,2,0:0:0:0:
306,226,55915,1,2,0:0:0:0:
308,194,56002,1,2,0:0:0:0:
308,163,56088,1,2,0:0:0:0:
296,134,56174,1,2,3:2:0:0:
159,47,56346,2,0,P|145:100|161:160,1,103.500001974106,8|2,0:0|0:0,0:0:0:0:
223,204,56605,5,8,0:0:0:0:
223,204,56691,2,0,B|348:184|291:255|437:229,1,207.000003948212,4|8,3:2|0:0,0:0:0:0:
507,97,57208,1,2,0:0:0:0:
507,97,57295,1,2,0:0:0:0:
507,97,57381,2,2,P|500:138|496:174,1,51.7500009870529
512,297,57553,1,2,3:2:0:0:
394,144,57726,1,8,0:0:0:0:
303,320,57898,5,2,0:0:0:0:
303,320,57984,1,8,0:0:0:0:
303,320,58071,2,0,P|222:348|167:223,1,207.000003948212,4|8,3:2|0:0,0:0:0:0:
248,108,58588,5,2,0:0:0:0:
290,114,58674,1,2,0:0:0:0:
322,142,58761,1,2,0:0:0:0:
337,182,58847,1,2,0:0:0:0:
333,223,58933,1,2,3:2:0:0:
215,308,59105,1,8,0:0:0:0:
170,152,59278,5,2,0:0:0:0:
155,113,59364,1,2,0:0:0:0:
163,71,59451,1,2,0:0:0:0:
190,38,59537,1,2,0:0:0:0:
228,21,59623,1,2,3:2:0:0:
361,81,59795,1,8,0:0:0:0:
255,195,59968,5,2,0:0:0:0:
229,228,60054,1,2,0:0:0:0:
189,242,60141,1,2,0:0:0:0:
147,235,60227,1,2,0:0:0:0:
113,211,60313,1,2,3:2:0:0:
99,66,60485,1,8,0:0:0:0:
274,159,60657,5,2,0:0:0:0:
274,159,60743,1,8,0:0:0:0:
274,159,60829,2,0,P|279:235|283:297,1,103.500001974106,4|2,3:2|0:0,0:0:0:0:
396,142,61174,1,8,0:0:0:0:
331,325,61346,1,2,0:0:0:0:
304,342,61433,1,2,0:0:0:0:
273,345,61519,1,2,0:0:0:0:
243,336,61605,1,2,0:0:0:0:
219,315,61691,1,2,3:2:0:0:
95,136,61864,2,0,P|90:212|86:274,1,103.500001974106,8|2,0:0|0:0,0:0:0:0:
79,339,62122,5,8,0:0:0:0:
79,339,62208,2,0,B|141:311|202:339|161:360|231:379|305:350,1,207.000003948212,4|8,3:2|0:0,0:0:0:0:
398,211,62726,1,2,0:0:0:0:
428,211,62812,1,2,0:0:0:0:
457,220,62898,1,2,0:0:0:0:
478,241,62984,1,2,0:0:0:0:
490,269,63071,1,2,3:2:0:0:
428,383,63243,2,0,P|410:329|429:264,1,103.500001974106,8|2,0:0|0:0,0:0:0:0:
459,140,63502,5,8,0:0:0:0:
459,140,63588,2,0,P|408:159|351:137,1,103.500001974106,4|2,3:2|0:0,0:0:0:0:
264,65,63933,1,8,0:0:0:0:
263,211,64105,5,2,0:0:0:0:
248,249,64191,1,2,0:0:0:0:
218,276,64277,1,2,0:0:0:0:
179,290,64364,1,2,0:0:0:0:
138,288,64450,1,2,3:2:0:0:
280,352,64622,1,8,0:0:0:0:
263,211,64795,5,2,0:0:0:0:
278,173,64881,1,2,0:0:0:0:
308,146,64967,1,2,0:0:0:0:
347,132,65054,1,2,0:0:0:0:
388,134,65140,1,2,3:2:0:0:
264,65,65312,1,8,0:0:0:0:
263,211,65484,5,2,0:0:0:0:
248,249,65570,1,2,0:0:0:0:
218,276,65656,1,2,0:0:0:0:
179,290,65743,1,2,0:0:0:0:
138,288,65829,1,2,3:2:0:0:
275,363,66001,1,8,0:0:0:0:
162,194,66174,5,2,0:0:0:0:
162,194,66260,1,8,0:0:0:0:
162,194,66346,2,0,P|169:126|165:73,1,103.500001974106,4|2,3:2|0:0,0:0:0:0:
49,25,66691,1,8,0:0:0:0:
102,240,66864,1,2,0:0:0:0:
125,260,66950,1,2,0:0:0:0:
154,268,67036,1,2,0:0:0:0:
184,266,67122,1,2,0:0:0:0:
212,254,67208,1,2,3:2:0:0:
335,114,67381,2,0,P|333:165|340:216,1,103.500001974106,8|2,0:0|0:0,0:0:0:0:
441,299,67640,5,8,0:0:0:0:
441,299,67726,2,0,B|381:274|323:295|355:314|291:336|217:304,1,207.000003948212,4|8,3:2|0:0,0:0:0:0:
146,124,68243,1,2,0:0:0:0:
146,124,68329,1,2,0:0:0:0:
146,124,68415,2,2,P|152:175|154:203,1,51.7500009870529
140,340,68588,1,2,3:2:0:0:
253,219,68760,1,8,0:0:0:0:
33,86,68933,5,2,0:0:0:0:
33,86,69019,1,8,0:0:0:0:
33,86,69105,2,0,B|13:224|86:153|55:311,1,207.000003948212,4|8,3:2|0:0,0:0:0:0:
146,124,69622,5,2,0:0:0:0:
182,105,69708,1,2,0:0:0:0:
223,99,69795,1,2,0:0:0:0:
263,107,69881,1,2,0:0:0:0:
296,131,69967,1,2,3:2:0:0:
324,284,70140,1,8,0:0:0:0:
104,252,70312,5,2,0:0:0:0:
69,230,70398,1,2,0:0:0:0:
43,197,70485,1,2,0:0:0:0:
30,159,70571,1,2,0:0:0:0:
35,118,70657,1,2,3:2:0:0:
146,14,70830,1,8,0:0:0:0:
228,217,71002,5,2,0:0:0:0:
226,258,71088,1,2,0:0:0:0:
210,297,71175,1,2,0:0:0:0:
184,327,71261,1,2,0:0:0:0:
146,343,71347,1,2,3:2:0:0:
0,315,71520,1,8,0:0:0:0:
178,140,71691,5,2,0:0:0:0:
178,140,71777,1,8,0:0:0:0:
178,140,71864,2,0,P|232:127|300:154,1,103.500001974106,6|2,3:2|0:0,0:0:0:0:
380,258,72208,1,8,0:0:0:0:
235,341,72381,1,2,0:0:0:0:
225,311,72467,1,2,0:0:0:0:
219,280,72553,1,2,0:0:0:0:
223,248,72640,1,2,0:0:0:0:
232,218,72726,1,2,3:2:0:0:
382,130,72898,2,0,P|377:185|381:250,1,103.500001974106,8|2,0:0|0:0,0:0:0:0:
465,79,73157,5,8,0:0:0:0:
465,79,73243,2,0,P|414:37|296:102,1,207.000003948212,4|8,3:2|0:0,0:0:0:0:
194,233,73760,2,2,P|238:224|268:221,1,51.7500009870529
132,139,73933,2,2,P|106:134|81:129,1,51.7500009870529
214,56,74105,1,2,3:2:0:0:
110,238,74277,1,8,0:0:0:0:
0,84,74450,5,2,0:0:0:0:
0,84,74536,1,8,0:0:0:0:
0,84,74622,2,0,P|11:151|15:200,1,103.500001974106,4|2,3:2|0:0,0:0:0:0:
107,33,74967,1,8,0:0:0:0:
206,156,75140,5,2,0:0:0:0:
189,193,75226,1,2,0:0:0:0:
186,234,75312,1,2,0:0:0:0:
200,272,75398,1,2,0:0:0:0:
232,298,75484,1,2,3:2:0:0:
370,334,75657,1,8,0:0:0:0:
342,205,75829,5,2,0:0:0:0:
318,171,75915,1,2,0:0:0:0:
284,148,76001,1,2,0:0:0:0:
244,141,76087,1,2,0:0:0:0:
206,156,76173,1,2,3:2:0:0:
98,246,76346,1,8,0:0:0:0:
232,299,76519,5,2,0:0:0:0:
273,295,76605,1,2,0:0:0:0:
310,277,76691,1,2,0:0:0:0:
336,246,76777,1,2,0:0:0:0:
342,205,76863,1,2,3:2:0:0:
281,69,77036,1,8,0:0:0:0:
154,212,77208,5,2,0:0:0:0:
154,212,77295,1,8,0:0:0:0:
154,212,77381,2,0,P|92:229|43:223,1,103.500001974106,4|2,3:2|0:0,0:0:0:0:
149,111,77726,1,8,0:0:0:0:
261,293,77898,1,2,0:0:0:0:
289,305,77984,1,2,0:0:0:0:
321,311,78070,1,2,0:0:0:0:
352,312,78156,1,2,0:0:0:0:
384,309,78242,1,2,3:2:0:0:
331,207,78415,2,0,P|269:190|220:196,1,103.500001974106,8|2,0:0|0:0,0:0:0:0:
390,314,78674,5,8,0:0:0:0:
390,314,78760,2,0,P|438:266|413:140,1,207.000003948212,4|8,3:2|0:0,0:0:0:0:
201,43,79277,1,2,0:0:0:0:
201,43,79364,1,2,0:0:0:0:
201,43,79450,2,2,P|210:83|220:129,1,51.7500009870529
245,261,79622,1,2,3:2:0:0:
325,79,79795,1,8,0:0:0:0:
149,184,79967,5,2,0:0:0:0:
149,184,80053,1,8,0:0:0:0:
149,184,80140,2,0,P|91:159|-9:265,1,207.000003948212,4|8,3:2|0:0,0:0:0:0:
276,258,80657,5,2,0:0:0:0:
299,224,80743,1,2,0:0:0:0:
309,185,80829,1,2,0:0:0:0:
300,145,80915,1,2,0:0:0:0:
277,109,81002,1,2,3:2:0:0:
117,57,81174,1,8,0:0:0:0:
169,283,81346,5,2,0:0:0:0:
186,319,81432,1,2,0:0:0:0:
215,348,81518,1,2,0:0:0:0:
254,360,81604,1,2,0:0:0:0:
297,358,81691,1,2,3:2:0:0:
424,237,81863,1,8,0:0:0:0:
183,149,82036,5,2,0:0:0:0:
143,145,82122,1,2,0:0:0:0:
103,156,82208,1,2,0:0:0:0:
73,184,82294,1,2,0:0:0:0:
54,222,82381,1,2,3:2:0:0:
87,383,82553,1,8,0:0:0:0:
286,233,82726,5,2,0:0:0:0:
286,233,82812,1,8,0:0:0:0:
286,233,82898,2,0,P|291:168|298:107,1,103.500001974106,4|2,3:2|0:0,0:0:0:0:
425,76,83243,1,8,0:0:0:0:
345,290,83415,1,2,0:0:0:0:
319,308,83502,1,2,0:0:0:0:
289,316,83588,1,2,0:0:0:0:
258,314,83674,1,2,0:0:0:0:
229,302,83760,1,2,3:2:0:0:
102,89,83933,2,0,P|107:140|111:192,1,103.500001974106,8|2,0:0|0:0,0:0:0:0:
29,251,84190,5,8,0:0:0:0:
29,251,84277,2,0,P|89:228|183:320,1,207.000003948212,4|8,3:2|0:0,0:0:0:0:
298,199,84795,1,2,0:0:0:0:
298,199,84881,1,2,0:0:0:0:
298,199,84967,2,2,P|304:150|309:108,1,51.7500009870529
368,326,85140,1,2,3:2:0:0:
450,200,85312,1,8,0:0:0:0:
261,290,85484,5,2,0:0:0:0:
261,290,85571,1,8,0:0:0:0:
261,290,85657,2,0,P|193:308|137:304,1,103.500001974106,4|2,3:2|0:0,0:0:0:0:
84,182,86002,1,8,0:0:0:0:
308,182,86174,5,2,0:0:0:0:
342,203,86260,1,2,0:0:0:0:
364,237,86346,1,2,0:0:0:0:
371,278,86433,1,2,0:0:0:0:
362,318,86519,1,2,3:2:0:0:
449,189,86691,1,8,0:0:0:0:
308,182,86864,5,2,0:0:0:0:
273,160,86950,1,2,0:0:0:0:
251,126,87036,1,2,0:0:0:0:
244,85,87123,1,2,0:0:0:0:
253,45,87209,1,2,3:2:0:0:
164,155,87381,1,8,0:0:0:0:
308,182,87553,5,2,0:0:0:0:
342,203,87639,1,2,0:0:0:0:
364,237,87725,1,2,0:0:0:0:
371,278,87812,1,2,0:0:0:0:
362,318,87898,1,2,3:2:0:0:
459,196,88070,1,8,0:0:0:0:
255,270,88243,5,2,0:0:0:0:
255,270,88329,1,8,0:0:0:0:
255,270,88415,2,0,P|195:280|145:294,1,103.500001974106,4|2,3:2|0:0,0:0:0:0:
28,189,88760,1,8,0:0:0:0:
172,57,88933,1,2,0:0:0:0:
186,84,89019,1,2,0:0:0:0:
194,113,89105,1,2,0:0:0:0:
194,143,89191,1,2,0:0:0:0:
185,172,89277,1,2,3:2:0:0:
14,267,89450,2,0,P|-2:208|12:150,1,103.500001974106,8|2,0:0|0:0,0:0:0:0:
117,209,89708,5,8,0:0:0:0:
117,209,89795,2,0,B|181:189|240:209|201:227|266:252|343:220,1,207.000003948212,4|8,3:2|0:0,0:0:0:0:
418,56,90312,1,2,0:0:0:0:
404,83,90398,1,2,0:0:0:0:
396,112,90484,1,2,0:0:0:0:
396,142,90570,1,2,0:0:0:0:
405,171,90656,1,2,3:2:0:0:
505,291,90829,2,0,P|453:267|397:276,1,103.500001974106,8|2,0:0|0:0,0:0:0:0:
307,324,91088,5,8,0:0:0:0:
307,324,91174,2,0,P|244:347|138:239,1,207.000003948212,4|8,3:2|0:0,0:0:0:0:
289,49,91691,5,2,0:0:0:0:
282,89,91777,1,2,0:0:0:0:
276,130,91864,1,2,0:0:0:0:
275,171,91950,1,2,0:0:0:0:
278,212,92036,1,2,3:2:0:0:
383,64,92208,1,8,0:0:0:0:
165,256,92381,5,2,0:0:0:0:
172,216,92467,1,2,0:0:0:0:
178,175,92554,1,2,0:0:0:0:
179,134,92640,1,2,0:0:0:0:
176,93,92726,1,2,3:2:0:0:
282,251,92898,1,8,0:0:0:0:
61,39,93071,5,2,0:0:0:0:
54,79,93157,1,2,0:0:0:0:
48,120,93244,1,2,0:0:0:0:
47,161,93330,1,2,0:0:0:0:
50,202,93416,1,2,3:2:0:0:
180,51,93588,1,8,0:0:0:0:
281,190,93760,5,2,0:0:0:0:
281,190,93846,1,8,0:0:0:0:
281,190,93933,2,0,P|334:215|405:208,1,103.500001974106,4|2,3:2|0:0,0:0:0:0:
461,117,94277,1,8,0:0:0:0:
196,120,94450,1,2,0:0:0:0:
183,148,94536,1,2,0:0:0:0:
180,178,94622,1,2,0:0:0:0:
183,208,94708,1,2,0:0:0:0:
193,237,94795,1,2,3:2:0:0:
342,132,94967,2,0,P|354:66|336:11,1,103.500001974106,8|2,0:0|0:0,0:0:0:0:
220,77,95226,5,8,0:0:0:0:
220,77,95312,2,0,B|156:57|97:77|136:95|71:120|-6:88,1,207.000003948212,4|8,3:2|0:0,0:0:0:0:
175,281,95829,1,2,0:0:0:0:
185,252,95916,1,2,0:0:0:0:
188,222,96002,1,2,0:0:0:0:
185,192,96088,1,2,0:0:0:0:
172,164,96174,1,2,3:2:0:0:
115,344,96346,2,0,P|177:365|236:345,1,103.500001974106,8|2,0:0|0:0,0:0:0:0:
315,281,96605,5,8,0:0:0:0:
315,281,96691,2,0,P|377:260|436:280,1,103.500001974106,4|2,3:2|0:0,0:0:0:0:
487,342,97036,1,8,0:0:0:0:
253,223,97208,5,2,0:0:0:0:
232,187,97294,1,2,0:0:0:0:
229,147,97380,1,2,0:0:0:0:
242,108,97467,1,2,0:0:0:0:
269,77,97553,1,2,3:2:0:0:
131,149,97725,1,8,0:0:0:0:
253,223,97898,5,2,0:0:0:0:
273,258,97984,1,2,0:0:0:0:
276,298,98070,1,2,0:0:0:0:
263,337,98157,1,2,0:0:0:0:
236,368,98243,1,2,3:2:0:0:
367,313,98415,1,8,0:0:0:0:
179,289,98588,6,2,L|107:280,1,51.7500009870529
327,213,98760,2,2,L|399:204,1,51.7500009870529
146,150,98933,1,2,3:2:0:0:
348,81,99105,1,8,0:0:0:0:
259,295,99277,1,2,0:0:0:0:
259,295,99364,1,8,0:0:0:0:
259,295,99450,5,6,2:0:0:0:
