osu file format v14

[General]
AudioFilename: audio.mp3
AudioLeadIn: 0
PreviewTime: 98136
Countdown: 0
SampleSet: Soft
StackLeniency: 0.7
Mode: 0
LetterboxInBreaks: 0
WidescreenStoryboard: 1

[Editor]
Bookmarks: 50939,98212,134575,178212,180787,203666,218212
DistanceSpacing: 1.4
BeatDivisor: 6
GridSize: 32
TimelineZoom: 1.5

[Metadata]
Title:Portrait of a Woman on a Couch With Cats
TitleUnicode:Portrait of a Woman on a Couch With Cats
Artist:Michael Cera Palin
ArtistUnicode:Michael Cera Palin
Creator:Hobbes2
Version:Rise and Fall
Source:
Tags:fa featured artist ItzPigeon Rock Emo Dashyy- English Melwoine I Don't Know How To Explain it Dont
BeatmapID:2889139
BeatmapSetID:1275141

[Difficulty]
HPDrainRate:4
CircleSize:4
OverallDifficulty:8.5
ApproachRate:9.3
SliderMultiplier:2.4
SliderTickRate:1

[Events]
//Background and Video events
0,0,"cat bg.png",0,0
//Break Periods
2,91214,95839
//Storyboard Layer 0 (Background)
//Storyboard Layer 1 (Fail)
//Storyboard Layer 2 (Pass)
//Storyboard Layer 3 (Foreground)
//Storyboard Layer 4 (Overlay)
//Storyboard Sound Samples

[TimingPoints]
6393,454.545454545455,4,2,0,60,1,0
7303,454.545454545455,4,2,0,60,1,0
8212,-100,4,2,2,60,0,0
10030,-100,4,2,1,60,0,0
28818,-100,4,2,0,60,0,0
29121,-133.333333333333,4,2,2,40,0,0
32454,-133.333333333333,4,2,1,40,0,0
32757,-133.333333333333,4,2,2,40,0,0
34575,-133.333333333333,4,2,1,40,0,0
35484,-100,4,2,2,40,0,0
36393,-117.647058823529,4,2,2,40,0,0
37909,-117.647058823529,4,2,1,40,0,0
38212,-117.647058823529,4,2,2,40,0,0
39727,-117.647058823529,4,2,1,40,0,0
40030,-117.647058823529,4,2,2,40,0,0
41545,-117.647058823529,4,2,1,40,0,0
41848,-117.647058823529,4,2,2,40,0,0
43363,-117.647058823529,4,2,1,40,0,0
43666,-117.647058823529,4,2,2,40,0,0
45181,-117.647058823529,4,2,1,40,0,0
45484,-117.647058823529,4,2,2,40,0,0
46999,-117.647058823529,4,2,1,40,0,0
47303,-117.647058823529,4,2,2,40,0,0
48818,-117.647058823529,4,2,1,40,0,0
49121,-117.647058823529,4,2,0,40,0,0
49272,-117.647058823529,4,2,1,30,0,0
49575,-117.647058823529,4,2,1,40,0,0
50333,-117.647058823529,4,2,0,40,0,0
50636,-117.647058823529,4,2,1,40,0,0
50939,-111.111111111111,4,2,1,50,0,0
53969,-111.111111111111,4,2,2,50,0,0
54272,-111.111111111111,4,2,1,50,0,0
55787,-111.111111111111,4,2,2,50,0,0
55939,-111.111111111111,4,2,1,50,0,0
57757,-111.111111111111,4,2,0,50,0,0
58060,-111.111111111111,4,2,1,50,0,0
63060,-111.111111111111,4,2,2,50,0,0
63363,-111.111111111111,4,2,1,50,0,0
64878,-111.111111111111,4,2,2,50,0,0
65030,-111.111111111111,4,2,1,50,0,0
66696,-111.111111111111,4,2,2,50,0,0
66999,-111.111111111111,4,2,1,50,0,0
68515,-111.111111111111,4,2,2,50,0,0
68818,-111.111111111111,4,2,1,50,0,0
73212,-111.111111111111,4,2,1,45,0,0
73666,-111.111111111111,4,2,1,50,0,0
77303,-83.3333333333333,4,2,1,60,0,0
77757,-111.111111111111,4,2,1,50,0,0
79575,-111.111111111111,4,2,1,45,0,0
84575,-83.3333333333333,4,2,1,60,0,0
85181,-111.111111111111,4,2,1,45,0,0
90333,-111.111111111111,4,3,0,60,0,0
90371,-111.111111111111,4,3,1,60,0,0
90636,-111.111111111111,4,3,0,60,0,0
90674,-111.111111111111,4,3,1,60,0,0
90939,-76.9230769230769,4,2,0,60,0,0
91015,-76.9230769230769,4,2,1,60,0,0
96848,-76.9230769230769,4,2,2,60,0,0
96999,-76.9230769230769,4,2,0,60,0,0
97303,-200,4,2,1,60,0,0
98136,-200,4,2,1,5,0,0
98212,-80,4,2,1,60,0,1
104121,-80,4,2,0,60,0,1
104272,-80,4,2,1,60,0,1
107757,-80,4,2,0,60,0,1
108212,-80,4,2,1,60,0,1
118666,-80,4,2,0,60,0,1
119121,-80,4,2,1,60,0,1
125939,-80,4,2,0,60,0,1
126242,-80,4,2,1,60,0,1
126924,-80,4,3,0,60,0,1
127303,-100,4,2,1,60,0,0
127606,-100,4,2,1,45,0,0
132757,-100,4,2,1,50,0,0
133666,-100,4,2,1,55,0,0
134575,-117.647058823529,4,2,1,60,0,0
143969,-117.647058823529,4,2,1,45,0,0
144121,-117.647058823529,4,2,1,60,0,0
144878,-117.647058823529,4,2,0,60,0,0
145181,-117.647058823529,4,2,1,60,0,0
156090,-117.647058823529,4,2,2,60,0,0
156393,-117.647058823529,4,2,1,60,0,0
158666,-117.647058823529,4,2,1,45,0,0
158818,-117.647058823529,4,2,1,60,0,0
168212,-83.3333333333333,4,2,1,60,0,0
169121,-117.647058823529,4,2,1,60,0,0
174272,-117.647058823529,4,2,1,61,0,0
174348,-117.647058823529,4,2,1,62,0,0
174424,-117.647058823529,4,2,1,63,0,0
174499,-117.647058823529,4,2,1,64,0,0
174575,-117.647058823529,4,2,1,65,0,0
175030,-117.647058823529,4,2,0,70,0,0
175484,-117.647058823529,4,2,1,75,0,0
178212,-80,4,2,1,60,0,1
185939,-80,4,2,2,60,0,1
186696,-80,4,2,1,60,0,1
195181,-80,4,2,0,60,0,1
195484,-80,4,2,1,60,0,1
203666,-100,4,2,1,60,0,0
207757,-100,4,2,1,65,0,0
208212,-100,4,2,1,60,0,0
209575,-100,4,2,1,65,0,0
210333,-100,4,2,0,60,0,0
210636,-133.333333333333,4,2,1,60,0,0
210939,-125,4,2,1,60,0,0
214121,-125,4,2,0,60,0,0
214575,-125,4,2,1,60,0,0
217757,-125,4,2,0,60,0,0
218212,-125,4,2,1,60,0,0
221848,-100,4,2,1,60,0,0
224424,-100,4,2,0,60,0,0
225181,-133.333333333333,4,2,0,60,0,0
225484,-100,4,2,1,60,0,0
228515,-100,4,2,0,60,0,0
229121,-100,4,2,1,60,0,0
234878,-100,4,2,0,60,0,0
235484,-100,4,2,1,60,0,0
238363,-100,4,2,0,60,0,0
239121,-100,4,2,1,60,0,0
239575,-100,4,2,0,60,0,0
240030,-133.333333333333,4,2,1,60,0,0

[Colours]
Combo1 : 128,255,255
Combo2 : 252,224,150
Combo3 : 255,128,128
Combo4 : 128,255,128
Combo5 : 255,128,255

[HitObjects]
26,305,6393,6,0,B|0:266|29:228|29:228|31:187|31:187|47:228|47:228|85:208|112:222|112:222|130:184|130:184|140:222|140:222|174:274|137:316,1,400,2|0,0:0|0:0,0:0:0:0:
81,113,7303,6,0,B|210:82|210:82|268:123,1,160,4|0,3:2|3:0,0:0:0:0:
293,171,7757,2,0,L|287:257,1,80,0|0,3:0|0:0,0:0:0:0:
215,315,8060,1,0,3:0:0:0:
400,372,8212,6,0,P|462:319|509:317,1,120,8|0,0:1|0:0,0:0:0:0:
512,328,8515,1,0,3:0:0:0:
388,173,8666,1,8,3:1:0:0:
451,51,8818,2,0,B|471:79|477:106|477:106|470:124,1,80,0|0,3:0|0:0,0:0:0:0:
249,0,9121,6,0,B|218:88|220:124|220:124|244:168,1,160,0|0,3:0|3:0,0:0:0:0:
301,221,9575,2,0,P|315:291|320:352,1,120,0|0,3:0|0:0,0:0:0:0:
306,354,9878,1,0,3:0:0:0:
462,356,10030,5,8,0:0:0:0:
462,356,10181,1,0,3:0:0:0:
490,166,10333,5,8,0:0:0:0:
490,166,10484,1,0,3:0:0:0:
355,57,10636,5,12,0:0:0:0:
315,242,10787,1,0,3:0:0:0:
315,242,10863,1,0,3:0:0:0:
315,242,10939,5,4,3:2:0:0:
233,162,11090,2,0,P|298:143|337:137,1,80,0|0,3:2|0:0,0:0:0:0:
199,293,11393,2,0,P|93:247|-24:223,1,160,2|0,0:0|3:0,0:0:0:0:
1,148,11848,6,0,P|-10:91|18:58,1,80,8|0,0:0|0:0,0:0:0:0:
95,73,12151,2,0,P|109:109|95:146,1,80,4|0,3:2|0:0,0:0:0:0:
187,2,12454,2,0,P|268:15|298:22,1,80,4|0,3:2|0:0,0:0:0:0:
329,86,12757,6,0,P|321:125|316:164,1,80,4|0,3:2|0:0,0:0:0:0:
425,335,13060,1,8,0:0:0:0:
512,160,13212,1,8,0:1:0:0:
455,111,13363,1,0,3:0:0:0:
455,111,13515,1,0,3:0:0:0:
277,188,13666,5,8,0:0:0:0:
466,258,13818,1,0,3:0:0:0:
277,188,13969,5,8,0:0:0:0:
466,258,14121,1,0,3:0:0:0:
338,116,14272,6,0,L|336:82,2,20,8|8|0,3:2|0:1|0:1,0:0:0:0:
370,190,14424,1,0,3:0:0:0:
266,368,14575,6,0,P|174:345|97:331,1,160,4|0,3:2|3:0,0:0:0:0:
101,237,15030,2,0,P|18:265|5:276,1,80,0|0,3:0|0:0,0:0:0:0:
52,151,15333,1,0,3:0:0:0:
165,137,15484,6,0,P|118:73|125:34,1,120,8|0,3:2|0:0,0:0:0:0:
140,25,15787,1,0,3:0:0:0:
242,209,15939,1,8,0:1:0:0:
158,349,16090,2,0,B|162:283|162:283|169:271,1,80,0|0,3:0|0:0,0:0:0:0:
416,271,16393,6,0,P|388:341|312:347,1,160,0|0,3:0|3:0,0:0:0:0:
348,201,16848,2,0,B|390:171|428:169|428:169|457:182,1,120,0|0,3:0|0:0,0:0:0:0:
470,197,17151,1,0,3:0:0:0:
347,86,17303,5,8,0:0:0:0:
347,86,17454,1,0,3:0:0:0:
186,112,17606,5,8,0:0:0:0:
186,112,17757,1,0,3:0:0:0:
134,226,17909,5,12,0:2:0:0:
0,336,18060,1,0,3:0:0:0:
0,336,18136,1,0,3:0:0:0:
0,336,18212,6,0,B|124:361|124:361|172:343,1,160,4|0,3:2|3:0,0:0:0:0:
248,370,18666,2,0,L|285:227,1,120,0|0,3:0|0:0,0:0:0:0:
288,236,18969,1,0,3:0:0:0:
426,297,19121,6,0,P|468:285|506:275,1,80,8|0,3:1|0:0,0:0:0:0:
500,372,19424,1,0,3:0:0:0:
354,171,19575,1,8,3:2:0:0:
417,49,19727,2,0,B|437:77|443:104|443:104|436:122,1,80,0|0,3:0|0:0,0:0:0:0:
251,9,20030,6,0,P|184:39|148:39,1,80,0|0,3:0|0:0,0:0:0:0:
23,5,20333,1,8,0:0:0:0:
0,122,20484,1,0,3:0:0:0:
185,180,20636,1,8,3:0:0:0:
74,237,20787,1,4,3:0:0:0:
139,282,20939,6,0,L|131:372,1,80,4|0,3:2|0:0,0:0:0:0:
1,148,21242,2,0,B|56:144|56:144|74:127,1,80,4|0,3:2|0:0,0:0:0:0:
97,4,21545,1,8,0:0:0:0:
184,172,21696,1,0,3:0:0:0:
269,32,21848,6,0,P|312:71|324:129,1,120,4|0,3:2|0:0,0:0:0:0:
313,146,22151,1,0,3:0:0:0:
153,289,22303,2,0,P|166:231|211:193,1,120,0|0,3:0|0:0,0:0:0:0:
229,193,22606,1,0,3:0:0:0:
149,381,22757,6,0,P|73:365|43:362,1,80,8|0,0:1|0:0,0:0:0:0:
2,296,23060,1,0,3:0:0:0:
240,216,23212,1,8,3:2:0:0:
292,365,23363,2,0,B|296:299|296:299|303:287,1,80,4|0,3:2|0:0,0:0:0:0:
501,364,23666,6,0,B|465:180,1,160,4|0,3:2|3:0,0:0:0:0:
386,158,24121,2,0,L|415:47,1,80,0|0,3:0|0:0,0:0:0:0:
481,20,24424,1,0,3:0:0:0:
303,5,24575,5,8,0:1:0:0:
303,5,24727,1,0,3:0:0:0:
379,183,24878,5,8,0:0:0:0:
379,183,25030,1,0,3:0:0:0:
512,225,25181,5,12,0:2:0:0:
420,374,25333,1,0,3:0:0:0:
420,374,25409,1,0,3:0:0:0:
420,374,25484,6,0,P|499:350|525:345,1,80,4|0,3:2|0:0,0:0:0:0:
379,183,25787,1,2,3:2:0:0:
248,254,25939,2,0,P|307:261|363:283,1,120,0|0,3:0|0:0,0:0:0:0:
380,292,26242,1,0,3:0:0:0:
488,120,26393,6,0,P|499:51|508:18,1,80,8|0,0:1|0:0,0:0:0:0:
370,93,26696,2,0,P|378:132|383:171,1,80,4|0,3:2|0:0,0:0:0:0:
303,22,26999,2,0,P|271:46|225:43,1,80,4|0,3:2|0:0,0:0:0:0:
7,30,27303,6,0,P|48:131|52:160,1,120,4|0,3:2|0:0,0:0:0:0:
43,160,27606,1,0,3:0:0:0:
0,245,27757,1,0,3:0:0:0:
137,77,27909,2,0,P|209:99|248:101,1,80,8|0,3:2|0:0,0:0:0:0:
404,12,28212,5,8,0:0:0:0:
478,245,28363,1,0,3:0:0:0:
480,61,28515,5,8,0:0:0:0:
399,328,28666,1,8,3:0:0:0:
505,233,28818,1,8,0:3:0:0:
416,187,28969,1,4,3:0:0:0:
349,228,29121,6,0,P|263:214|218:209,1,120.000004577637,4|0,3:1|0:0,0:0:0:0:
170,160,29575,2,0,P|111:176|96:178,2,60.0000022888184,2|2|2,3:0|0:3|3:0,0:0:0:0:
226,106,30030,2,0,P|219:49|217:25,1,60.0000022888184,8|0,0:1|0:0,0:0:0:0:
290,16,30333,1,0,0:0:0:0:
99,93,30636,2,0,P|37:82|2:79,1,60.0000022888184,2|0,0:3|0:0,0:0:0:0:
0,163,30939,6,0,L|17:244,1,60.0000022888184,0|2,3:2|0:3,0:0:0:0:
9,239,31166,1,2,0:3:0:0:
7,256,31242,1,2,0:3:0:0:
79,283,31393,2,0,P|62:351|62:357,1,60.0000022888184,2|0,0:3|0:0,0:0:0:0:
135,369,31696,1,0,3:0:0:0:
303,295,31848,6,0,P|371:305|394:308,1,60.0000022888184,8|0,0:1|0:0,0:0:0:0:
436,278,32151,2,0,P|453:336|453:349,1,60.0000022888184,2|0,3:2|0:0,0:0:0:0:
476,188,32454,2,0,P|503:234|516:249,1,60.0000022888184,2|0,3:0|0:0,0:0:0:0:
488,46,32757,6,0,P|416:25|350:116,1,180.000006866455,4|2,3:2|0:3,0:0:0:0:
386,246,33515,1,0,3:0:0:0:
451,353,33666,2,0,L|447:294,1,60.0000022888184,8|0,0:1|0:0,0:0:0:0:
331,193,33969,2,0,L|266:184,1,60.0000022888184,2|0,0:0|0:0,0:0:0:0:
240,113,34272,2,0,L|180:121,1,60.0000022888184,2|0,3:2|0:0,0:0:0:0:
82,88,34575,5,8,3:2:0:0:
8,115,34727,1,0,3:0:0:0:
117,8,34878,5,8,3:2:0:0:
86,216,35030,1,8,3:2:0:0:
164,322,35181,1,0,3:0:0:0:
99,365,35333,1,0,3:0:0:0:
19,334,35484,6,0,L|-16:332,2,20,8|0|8,3:1|3:0|0:1,0:0:0:0:
88,379,35636,1,0,3:0:0:0:
294,311,35787,5,8,1:0:0:0:
73,209,35939,1,4,3:0:0:0:
154,297,36090,1,0,3:0:0:0:
267,66,36242,1,8,3:1:0:0:
112,5,36393,5,4,0:0:0:0:
112,5,36545,2,0,P|78:3|44:1,1,68.0000012969971
180,62,36848,1,2,0:3:0:0:
180,62,36999,2,0,P|213:60|247:58,1,68.0000012969971,2|0,0:3|3:0,0:0:0:0:
374,161,37303,6,0,P|471:147|520:145,2,136.000002593994,8|2|2,0:3|0:0|0:3,0:0:0:0:
254,282,38212,5,2,3:0:0:0:
254,282,38287,1,2,0:3:0:0:
254,282,38363,2,0,P|265:334|267:353,1,68.0000012969971,2|2,0:3|0:3,0:0:0:0:
180,226,38666,1,2,0:3:0:0:
127,288,38818,2,0,P|78:276|28:269,1,68.0000012969971,2|0,0:3|3:0,0:0:0:0:
7,140,39121,6,0,P|26:96|26:67,1,68.0000012969971,8|0,0:3|0:0,0:0:0:0:
123,86,39424,2,0,P|112:44|108:4,1,68.0000012969971,2|0,0:0|0:0,0:0:0:0:
58,221,39727,2,0,P|104:181|135:168,1,68.0000012969971,2|0,0:3|0:0,0:3:0:0:
235,105,40030,5,2,3:0:0:0:
235,105,40106,1,2,0:3:0:0:
235,105,40181,1,2,0:3:0:0:
298,157,40333,1,2,0:3:0:0:
286,36,40484,2,0,B|345:25|345:25|371:-1,1,68.0000012969971,2|2,0:3|0:3,0:0:0:0:
260,13,40787,1,0,3:0:0:0:
110,109,40939,6,0,L|13:91,1,68.0000012969971,8|0,0:3|0:0,0:0:0:0:
1,178,41242,2,0,P|15:226|16:248,1,68.0000012969971,2|0,0:0|0:0,0:0:0:0:
133,295,41545,2,2,P|119:343|118:365,1,68.0000012969971,2|0,0:3|0:0,0:0:0:0:
30,328,41848,6,0,L|-17:343,2,34.0000006484985,2|2|2,3:0|0:3|0:3,0:0:0:0:
30,328,42151,1,2,0:3:0:0:
141,201,42303,1,2,0:3:0:0:
207,247,42454,2,0,P|218:307|222:330,1,68.0000012969971,2|0,0:3|3:0,0:0:0:0:
364,384,42757,6,0,P|412:368|443:363,1,68.0000012969971,8|0,0:3|0:0,0:0:0:0:
409,263,43060,2,0,P|457:283|493:290,1,68.0000012969971,2|0,0:0|0:0,0:0:0:0:
329,304,43363,2,2,P|316:253|297:217,1,68.0000012969971,2|0,0:3|0:0,0:0:0:0:
403,43,43666,5,12,0:0:0:0:
403,43,43742,1,2,0:3:0:0:
403,43,43818,2,0,P|399:100|379:192,1,136.000002593994,2|2,0:3|0:3,0:0:0:0:
305,155,44272,1,2,0:3:0:0:
253,218,44424,1,0,3:0:0:0:
206,97,44575,6,0,L|192:14,1,68.0000012969971,8|0,0:3|0:0,0:0:0:0:
87,199,44878,2,0,L|108:64,2,136.000002593994,2|2|2,0:0|0:3|3:0,0:0:0:0:
91,215,45560,1,2,0:3:0:0:
95,231,45636,1,2,0:3:0:0:
27,276,45787,1,2,0:3:0:0:
123,340,45939,5,2,0:3:0:0:
190,295,46090,1,2,0:3:0:0:
268,319,46242,1,2,3:0:0:0:
395,374,46393,6,0,P|455:360|481:355,1,68.0000012969971,8|0,0:3|0:0,0:0:0:0:
289,308,46696,2,0,P|274:268|264:230,1,68.0000012969971,2|0,0:0|0:0,0:0:0:0:
375,162,46999,2,0,P|366:195|354:227,1,68.0000012969971,2|0,0:3|0:0,0:3:0:0:
283,59,47303,5,2,3:0:0:0:
283,59,47378,1,2,0:3:0:0:
283,59,47454,2,0,P|224:65|192:70,1,68.0000012969971,2|2,0:3|0:3,0:0:0:0:
113,4,47757,1,2,0:3:0:0:
46,51,47909,1,2,0:3:0:0:
113,4,48060,1,2,3:0:0:0:
11,124,48212,6,0,B|27:180|27:180|17:222,1,68.0000012969971,8|0,0:3|0:0,0:0:0:0:
0,320,48515,2,0,L|94:307,1,68.0000012969971,2|0,0:0|0:0,0:0:0:0:
172,239,48818,2,0,L|105:230,1,68.0000012969971,2|0,0:3|0:0,0:3:0:0:
200,372,49121,5,8,3:0:0:0:
283,342,49272,1,8,0:3:0:0:
283,342,49348,1,8,0:2:0:0:
283,342,49424,1,8,0:3:0:0:
466,365,49575,5,8,0:2:0:0:
228,268,49727,1,0,0:0:0:0:
151,312,49878,1,0,3:0:0:0:
387,260,50030,5,8,3:2:0:0:
128,331,50181,1,8,3:0:0:0:
243,182,50333,2,0,P|275:190|309:197,1,68.0000012969971,8|0,0:3|0:0,0:0:0:0:
399,288,50636,5,10,0:2:0:0:
120,354,50787,1,8,0:3:0:0:
42,257,50939,6,0,P|56:179|61:94,1,143.999995605469,6|0,3:2|0:0,0:0:0:0:
178,214,51393,2,0,P|238:183|269:174,1,71.9999978027344,2|0,0:2|0:0,0:0:0:0:
156,127,51696,1,2,3:2:0:0:
125,297,51848,2,0,P|214:331|285:397,1,143.999995605469,10|0,0:2|0:0,0:0:0:0:
18,71,52454,2,0,P|72:41|95:27,1,71.9999978027344,2|0,0:2|0:0,0:0:0:0:
162,104,52757,6,0,P|180:40|203:12,1,71.9999978027344,2|0,3:2|0:3,0:0:0:0:
200,32,52984,1,0,0:3:0:0:
217,28,53060,1,0,0:3:0:0:
244,175,53212,2,0,B|135:199|135:199|95:238,1,143.999995605469,2|0,0:2|3:0,0:0:0:0:
15,371,53666,2,0,L|-11:270,1,71.9999978027344,10|0,0:2|0:0,0:0:0:0:
176,350,53969,2,0,L|202:249,1,71.9999978027344,2|0,0:2|0:0,0:0:0:0:
95,311,54272,1,2,0:3:0:0:
95,311,54424,1,0,0:0:0:0:
268,381,54575,6,0,P|341:364|445:347,1,143.999995605469,2|0,3:2|0:0,0:0:0:0:
428,174,55030,2,0,P|364:197|357:265,1,143.999995605469,2|0,0:2|3:0,0:0:0:0:
476,239,55484,2,0,B|466:184|466:184|482:152,1,71.9999978027344,10|0,0:2|0:0,0:0:0:0:
495,264,55787,1,2,0:2:0:0:
418,97,55939,2,0,P|352:88|317:85,2,71.9999978027344,2|2|0,0:2|0:3|0:0,0:0:0:0:
294,21,56393,5,2,3:2:0:0:
220,74,56545,1,0,0:0:0:0:
220,74,56621,1,0,0:0:0:0:
220,74,56696,1,0,0:0:0:0:
136,16,56848,2,0,P|64:7|30:2,1,71.9999978027344
89,105,57151,1,0,3:0:0:0:
38,280,57303,6,0,L|21:175,1,71.9999978027344,10|0,0:3|0:0,0:0:0:0:
202,94,57606,1,10,0:2:0:0:
252,307,57757,1,8,0:3:0:0:
132,229,57909,1,4,0:3:0:0:
211,201,58060,1,0,3:0:0:0:
272,328,58212,6,0,P|353:306|383:302,1,71.9999978027344,6|0,3:2|0:0,0:0:0:0:
487,262,58515,2,0,P|452:251|418:243,1,71.9999978027344,2|0,0:2|0:0,0:0:0:0:
426,334,58818,1,2,0:2:0:0:
329,222,58969,2,0,P|342:159|345:116,1,71.9999978027344,2|8,3:2|0:3,0:0:0:0:
182,28,59424,1,0,0:0:0:0:
182,28,59575,2,0,P|123:23|79:18,2,71.9999978027344,0|2|0,0:0|0:2|3:0,0:0:0:0:
260,91,60030,6,0,B|321:62|373:48|373:48|402:92,1,143.999995605469,2|2,3:2|0:2,0:0:0:0:
305,213,60484,1,0,0:0:0:0:
347,145,60636,1,2,3:2:0:0:
408,244,60787,1,2,3:2:0:0:
258,301,60939,2,0,P|171:280|91:266,1,143.999995605469,12|2,0:2|3:2,0:0:0:0:
162,367,61393,5,2,3:2:0:0:
162,367,61469,1,8,0:3:0:0:
162,367,61545,1,10,3:2:0:0:
373,329,61696,1,8,3:0:0:0:
468,368,61848,5,6,3:2:0:0:
468,368,61999,2,0,L|482:287,1,71.9999978027344,2|0,0:2|0:0,0:0:0:0:
397,247,62303,1,0,0:0:0:0:
397,247,62454,2,0,L|368:169,1,71.9999978027344,0|0,0:0|3:0,0:0:0:0:
468,42,62757,2,0,P|404:56|365:50,1,71.9999978027344,8|0,0:3|0:0,0:0:0:0:
512,168,63060,2,0,P|466:145|420:136,1,71.9999978027344,2|0,0:2|0:0,0:0:0:0:
321,2,63363,2,0,P|286:63|265:76,1,71.9999978027344,2|0,0:3|0:0,0:0:0:0:
132,31,63666,5,0,3:0:0:0:
132,31,63742,1,0,0:0:0:0:
132,31,63818,1,0,0:0:0:0:
165,110,63969,1,0,0:0:0:0:
71,172,64121,2,0,P|12:154|-17:148,1,71.9999978027344
63,86,64424,1,0,3:0:0:0:
8,277,64575,2,0,B|21:335|21:335|4:365,1,71.9999978027344,8|0,0:2|0:0,0:0:0:0:
228,316,64878,2,0,L|258:398,1,71.9999978027344,2|2,0:0|0:2,0:0:0:0:
152,254,65181,1,2,0:3:0:0:
152,254,65333,1,0,0:0:0:0:
363,359,65484,6,0,P|449:325|449:250,1,143.999995605469,6|0,3:2|0:0,0:0:0:0:
402,198,65939,2,0,P|414:115|415:98,1,71.9999978027344,2|0,0:2|0:0,0:0:0:0:
501,77,66242,1,0,3:0:0:0:
289,5,66393,2,0,P|362:20|401:19,1,71.9999978027344,8|0,0:3|0:0,0:0:0:0:
249,139,66696,2,0,P|297:111|350:107,1,71.9999978027344,2|0,0:0|0:0,0:0:0:0:
143,29,66999,2,0,P|201:50|237:78,1,71.9999978027344,2|0,0:2|0:0,0:0:0:0:
28,141,67303,5,2,3:2:0:0:
104,205,67454,1,2,0:2:0:0:
104,205,67530,1,0,0:0:0:0:
104,205,67606,1,0,0:0:0:0:
3,338,67757,2,0,B|123:315|123:315|170:345,1,143.999995605469,2|0,0:2|3:0,0:0:0:0:
339,258,68212,2,0,B|277:247|277:247|254:254|254:254|199:244,2,143.999995605469,8|2|2,0:3|0:2|0:2,0:0:0:0:
386,331,68969,1,0,0:0:0:0:
466,162,69121,6,0,P|477:221|485:254,1,71.9999978027344,2|0,3:2|0:0,0:0:0:0:
485,249,69348,1,0,0:0:0:0:
490,266,69424,1,0,0:0:0:0:
386,113,69575,2,0,P|366:178|355:209,1,71.9999978027344,2|0,0:2|0:0,0:0:0:0:
296,107,69878,1,0,3:0:0:0:
429,35,70030,2,0,P|492:52|542:56,2,71.9999978027344,10|0|0,0:2|0:0|0:0,0:0:0:0:
267,2,70484,2,0,P|190:19|208:116,1,143.999995605469,2|2,0:2|0:3,0:0:0:0:
244,185,70939,5,2,3:2:0:0:
244,185,71090,2,0,L|251:150,2,35.9999989013672,2|0|0,0:2|0:0|0:0,0:0:0:0:
183,305,71393,2,0,P|171:271|158:238,1,71.9999978027344,2|0,0:2|0:0,0:0:0:0:
270,268,71696,1,0,3:0:0:0:
94,367,71848,1,10,0:2:0:0:
94,367,71999,2,0,L|-2:379,1,71.9999978027344,2|0,0:2|0:0,0:0:0:0:
71,195,72303,1,2,0:2:0:0:
71,195,72378,1,0,0:0:0:0:
71,195,72454,2,0,L|54:292,1,71.9999978027344,2|0,0:3|0:0,0:0:0:0:
0,70,72757,6,0,P|71:51|145:17,1,143.999995605469,6|2,3:2|0:2,0:0:0:0:
197,101,73212,2,0,P|243:40|264:21,1,71.9999978027344,10|0,0:2|0:0,0:0:0:0:
112,134,73515,1,2,3:2:0:0:
220,223,73666,2,0,L|334:201,1,71.9999978027344,12|0,0:2|0:0,0:0:0:0:
323,300,73969,1,2,0:2:0:0:
440,227,74121,1,8,0:3:0:0:
491,311,74272,1,2,0:2:0:0:
432,255,74424,1,0,3:0:0:0:
504,169,74575,6,0,P|511:102|514:69,1,71.9999978027344,2|0,3:2|0:0,0:0:0:0:
442,25,74878,1,2,0:2:0:0:
442,25,74954,1,0,0:0:0:0:
442,25,75030,2,0,P|382:34|357:40,1,71.9999978027344,2|0,0:2|3:0,0:0:0:0:
307,114,75333,1,0,3:0:0:0:
178,26,75484,2,0,P|236:42|268:50,1,71.9999978027344,10|0,0:2|0:0,0:0:0:0:
177,117,75787,1,0,3:0:0:0:
177,117,75939,1,0,0:0:0:0:
32,8,76090,2,0,P|67:73|68:94,1,71.9999978027344,2|0,0:2|3:0,0:0:0:0:
8,218,76393,5,4,3:2:0:0:
8,218,76545,2,0,B|67:208|67:208|91:223,1,71.9999978027344,0|2,0:0|0:2,0:0:0:0:
58,314,76848,1,0,0:0:0:0:
58,314,77000,2,0,B|148:329,1,71.9999978027344,0|0,0:0|3:0,0:0:0:0:
324,105,77303,6,0,B|230:105|230:105|220:100|220:100|102:105,1,191.999994140625,12|0,0:2|0:0,0:0:0:0:
79,204,77757,5,8,0:3:0:0:
79,204,77833,1,0,0:0:0:0:
79,204,77909,1,8,0:3:0:0:
162,259,78060,1,0,3:0:0:0:
94,342,78212,6,0,P|35:321|9:319,1,71.9999978027344,0|0,3:0|0:0,0:0:0:0:
176,280,78515,1,8,0:3:0:0:
310,368,78666,1,8,0:3:0:0:
258,300,78818,1,0,3:0:0:0:
294,221,78969,1,0,3:0:0:0:
429,317,79121,6,0,L|515:302,1,71.9999978027344,8|0,0:2|0:0,0:0:0:0:
380,223,79424,1,0,3:0:0:0:
338,357,79575,1,0,0:0:0:0:
338,357,79651,1,8,0:3:0:0:
338,357,79727,1,10,0:2:0:0:
88,324,79878,1,8,3:0:0:0:
153,380,80030,6,0,B|109:281|109:281|143:222,1,143.999995605469,6|0,3:2|0:0,0:0:0:0:
199,204,80484,2,0,L|363:235,1,143.999995605469,2|0,0:2|3:0,0:0:0:0:
409,178,80939,2,0,L|387:95,1,71.9999978027344,10|0,3:2|0:0,0:0:0:0:
312,71,81242,1,0,0:0:0:0:
415,14,81393,1,2,3:2:0:0:
415,14,81545,2,0,L|495:7,1,71.9999978027344,0|0,0:0|3:0,0:0:0:0:
289,92,81848,6,0,P|225:42|134:30,1,143.999995605469,2|8,3:2|0:3,0:0:0:0:
94,78,82303,1,8,0:3:0:0:
35,15,82454,1,0,3:0:0:0:
94,78,82606,1,0,3:0:0:0:
5,186,82757,6,0,B|16:238|16:238|6:265,1,71.9999978027344,14|0,0:2|0:0,0:0:0:0:
105,278,83060,2,0,L|69:353,1,71.9999978027344,0|8,0:0|0:3,0:0:0:0:
97,195,83363,1,2,0:2:0:0:
97,195,83515,1,0,3:0:0:0:
184,340,83666,6,0,B|271:329|271:329|298:337|298:337|397:326,1,215.999993408203,6|8,3:2|0:3,0:0:0:0:
473,285,84272,2,0,L|494:374,1,71.9999978027344,2|0,0:2|3:0,0:0:0:0:
285,158,84575,6,0,P|297:47|459:33,1,287.999991210938,14|0,0:2|0:0,0:0:0:0:
512,198,85181,1,2,0:2:0:0:
512,198,85333,1,0,3:0:0:0:
475,274,85484,6,0,P|392:254|320:253,1,143.999995605469,2|0,3:2|0:0,0:0:0:0:
267,307,85939,1,10,0:2:0:0:
212,240,86090,1,0,3:0:0:0:
139,288,86242,1,0,3:0:0:0:
26,377,86393,6,0,L|4:146,1,215.999993408203,14|2,0:2|0:2,0:0:0:0:
180,28,86999,1,8,0:0:0:0:
122,265,87151,1,8,0:0:0:0:
222,118,87303,6,0,P|278:107|328:102,1,71.9999978027344,6|0,3:2|0:0,0:0:0:0:
344,195,87606,2,0,P|387:135|407:120,1,71.9999978027344,0|2,0:0|0:2,0:0:0:0:
301,7,87909,2,0,P|354:36|405:42,1,71.9999978027344,8|0,0:3|3:0,0:0:0:0:
495,163,88212,6,0,P|471:248|470:343,1,143.999995605469,10|0,0:2|0:0,0:0:0:0:
307,318,88666,2,0,P|367:373|373:389,1,71.9999978027344,2|8,0:2|0:3,0:0:0:0:
378,250,88969,1,0,3:0:0:0:
275,133,89121,5,0,3:0:0:0:
275,133,89424,5,10,0:2:0:0:
20,88,89575,1,8,0:3:0:0:
133,30,89727,1,0,3:0:0:0:
155,113,89878,1,0,3:0:0:0:
32,260,90030,6,0,L|1:254,2,17.9999994506836,8|0|8,0:0|0:0|0:3,0:0:0:0:
112,239,90181,1,0,3:0:0:0:
156,353,90333,6,0,L|152:325,1,17.9999994506836,8|0,3:0|3:0,0:0:0:0:
135,374,90484,1,0,3:0:0:0:
308,274,90636,6,0,L|312:246,1,17.9999994506836,4|0,3:0|3:0,0:0:0:0:
329,295,90787,1,0,3:0:0:0:
153,135,90939,6,0,B|52:123,1,51.999997619629,6|0,3:0|0:0,0:0:0:0:
100,98,96393,5,2,3:0:0:0:
9,144,96545,1,8,3:2:0:0:
280,227,96696,1,8,3:3:0:0:
189,51,96848,5,2,3:2:0:0:
96,254,96999,1,8,0:3:0:0:
198,328,97151,1,4,0:3:0:0:
123,359,97303,6,0,B|275:380|275:380|339:344,1,220,4|0,3:2|0:0,0:0:0:0:
333,347,98212,6,0,L|312:156,1,150,10|0,0:2|0:0,0:0:0:0:
331,177,98515,1,0,3:0:0:0:
422,38,98666,2,0,B|501:54|501:54|518:91,1,100,8|0,0:2|0:0,0:0:0:0:
340,80,98969,1,0,3:0:0:0:
155,6,99121,6,0,P|72:55|16:76,1,150,10|0,0:2|0:0,0:0:0:0:
0,61,99424,1,0,3:0:0:0:
264,3,99575,1,8,0:2:0:0:
206,98,99727,1,0,3:0:0:0:
286,135,99878,1,0,3:0:0:0:
151,229,100030,6,0,B|116:206|82:199|82:199|23:231,1,100,10|0,0:2|0:0,0:0:0:0:
169,206,100333,1,2,3:2:0:0:
391,290,100484,1,10,0:2:0:0:
148,342,100636,1,0,0:0:0:0:
119,303,100711,1,0,0:0:0:0:
134,257,100787,1,10,0:2:0:0:
180,242,100863,1,8,0:0:0:0:
216,307,100939,6,0,B|301:318|301:318|352:292,1,100,12|2,3:2|0:2,0:0:0:0:
283,6,101242,2,0,L|257:144,1,100,4|2,3:2|0:0,0:0:0:0:
411,384,101545,1,4,3:2:0:0:
436,174,101696,1,8,0:2:0:0:
442,150,101772,1,8,0:2:0:0:
509,189,101848,6,0,B|467:176|438:196|438:196|400:220|327:205,1,150,12|0,0:2|0:0,0:0:0:0:
341,201,102151,1,0,3:0:0:0:
178,35,102303,2,0,P|268:17|299:0,1,100,10|2,0:2|0:2,0:0:0:0:
196,125,102606,1,0,3:0:0:0:
18,6,102757,6,0,P|45:85|51:169,1,150,10|0,0:2|0:0,0:0:0:0:
46,175,103060,1,2,3:2:0:0:
229,262,103212,2,0,B|208:296|202:333|202:333|212:362,1,100,10|0,0:2|0:0,0:0:0:0:
69,322,103515,1,2,3:2:0:0:
189,136,103666,5,10,0:2:0:0:
59,56,103818,2,0,L|115:50,1,50,8|8,3:0|0:2,0:0:0:0:
198,6,103969,1,10,0:2:0:0:
255,263,104121,5,8,3:0:0:0:
118,195,104272,1,2,3:2:0:0:
324,47,104424,1,8,0:3:0:0:
426,312,104575,6,0,P|376:316|327:325,1,100,14|2,3:2|0:2,0:0:0:0:
414,3,104878,2,0,P|464:7|513:16,1,100,6|2,3:2|0:2,0:0:0:0:
337,209,105181,1,4,0:0:0:0:
192,105,105333,1,10,3:2:0:0:
168,101,105409,1,8,3:2:0:0:
200,34,105484,6,0,B|213:149|213:149|188:184,1,150,14|0,0:2|0:0,0:0:0:0:
177,196,105787,1,2,3:2:0:0:
304,66,105939,2,0,B|386:77|386:77|427:108,1,100,8|2,0:2|0:2,0:0:0:0:
312,166,106242,1,0,3:0:0:0:
93,25,106393,5,10,0:2:0:0:
33,195,106545,2,0,B|14:151|15:124|15:124|32:104,1,100,2|0,0:0|3:0,0:0:0:0:
207,225,106848,1,10,0:2:0:0:
159,322,106999,1,0,3:0:0:0:
100,266,107151,1,2,0:2:0:0:
284,373,107303,6,0,B|341:353|364:355|364:355|392:372|433:375,1,150,10|0,3:2|0:0,0:0:0:0:
451,366,107606,1,10,0:2:0:0:
399,127,107757,1,8,0:3:0:0:
237,254,107909,1,2,0:3:0:0:
361,246,108060,1,4,0:3:0:0:
184,336,108212,5,14,3:2:0:0:
184,336,108363,1,2,0:2:0:0:
22,373,108515,2,0,P|6:286|-12:231,1,100,4|0,3:2|0:0,0:0:0:0:
184,171,108818,1,2,3:2:0:0:
16,62,108969,1,0,3:0:0:0:
178,10,109121,6,0,L|359:35,1,150,6|0,3:2|0:0,0:0:0:0:
351,34,109424,1,2,3:2:0:0:
362,240,109575,2,0,B|381:133|381:133|415:109,1,150,2|0,3:2|0:0,0:0:0:0:
439,104,109878,1,0,3:2:0:0:
278,124,110030,2,0,L|165:150,1,100,14|0,0:2|0:0,0:0:0:0:
87,107,110333,1,2,3:2:0:0:
155,22,110484,5,14,0:2:0:0:
22,192,110636,1,0,3:0:0:0:
107,337,110787,1,2,0:2:0:0:
12,331,110939,6,0,B|93:355|93:355|125:381,1,100,6|0,3:2|0:0,0:0:0:0:
296,319,111242,1,10,0:2:0:0:
109,130,111393,1,10,0:2:0:0:
90,243,111545,1,0,3:0:0:0:
162,198,111696,1,0,3:2:0:0:
60,60,111848,5,14,0:2:0:0:
51,321,111999,1,2,3:2:0:0:
77,34,112151,1,8,0:2:0:0:
282,190,112303,5,2,3:2:0:0:
329,183,112378,1,0,3:0:0:0:
352,141,112454,1,8,0:2:0:0:
332,97,112530,1,8,0:2:0:0:
285,87,112606,1,0,3:0:0:0:
249,118,112681,1,8,0:2:0:0:
209,180,112757,6,0,B|82:164|82:164|38:178,1,150,14|0,3:2|0:0,0:0:0:0:
44,190,113060,1,0,3:0:0:0:
259,344,113212,2,0,P|285:279|260:242,1,100,0|0,3:0|0:0,0:0:0:0:
116,80,113515,1,0,3:0:0:0:
234,63,113666,6,0,B|318:83|318:83|340:109,1,100,10|0,0:2|0:0,0:0:0:0:
220,40,113969,1,0,3:0:0:0:
56,153,114121,1,8,0:2:0:0:
13,8,114272,2,0,B|55:69|55:69|97:70,1,100,0|0,3:0|0:0,0:0:0:0:
270,191,114575,6,0,L|107:246,1,150,6|0,3:2|0:0,0:0:0:0:
108,253,114878,1,2,3:2:0:0:
308,274,115030,1,0,3:0:0:0:
347,111,115181,2,0,L|243:84,1,100,2|0,0:2|3:0,0:0:0:0:
0,188,115484,5,10,0:2:0:0:
197,345,115636,1,0,3:0:0:0:
0,188,115787,5,10,0:2:0:0:
196,346,115939,1,0,3:0:0:0:
327,256,116090,5,14,0:2:0:0:
488,298,116242,1,8,3:2:0:0:
512,305,116318,1,8,0:2:0:0:
472,368,116393,6,0,B|458:248|458:248|501:194,1,150,4|0,3:2|0:0,0:0:0:0:
498,214,116696,1,0,3:0:0:0:
240,172,116848,1,2,3:2:0:0:
332,219,116999,2,0,L|379:331,1,100,2|0,0:0|3:0,0:0:0:0:
441,97,117303,2,0,B|343:51|343:51|360:4,1,150,10|0,3:2|0:0,0:0:0:0:
381,7,117606,1,2,3:2:0:0:
270,159,117757,1,10,0:2:0:0:
253,261,117909,2,0,B|331:250|331:250|314:206,1,100,2|0,3:2|0:0,0:0:0:0:
176,32,118212,6,0,P|111:106|41:137,1,150,6|0,3:2|0:0,0:0:0:0:
41,130,118515,1,10,0:2:0:0:
63,22,118666,1,10,3:0:0:0:
195,153,118818,1,10,0:3:0:0:
120,268,118969,1,4,0:3:0:0:
198,323,119121,6,0,B|269:301|280:300|280:300|325:322,1,100,6|0,3:2|0:0,0:0:0:0:
58,381,119424,2,0,P|13:357|7:285,1,100,6|2,3:2|0:2,0:0:0:0:
92,49,119727,1,8,3:2:0:0:
105,278,119878,1,0,3:0:0:0:
0,18,120030,6,0,B|51:15|79:26|79:26|121:31|177:2,1,150,4|0,3:2|0:0,0:0:0:0:
173,1,120333,1,0,3:0:0:0:
233,79,120484,1,2,3:2:0:0:
361,11,120636,2,0,P|409:24|454:44,1,100,2|0,0:2|3:0,0:0:0:0:
512,257,120939,6,0,P|439:278|415:346,1,150,10|0,0:2|0:0,0:0:0:0:
430,362,121242,1,2,3:2:0:0:
431,172,121393,1,8,0:2:0:0:
510,109,121545,2,0,P|523:37|534:0,1,100,2|0,3:2|0:0,0:0:0:0:
350,238,121848,6,0,P|331:134|303:55,1,150,6|0,3:2|0:0,0:0:0:0:
304,73,122151,1,2,3:2:0:0:
437,191,122303,1,2,3:2:0:0:
329,269,122454,1,0,0:2:0:0:
399,325,122606,1,2,3:2:0:0:
338,377,122757,5,10,0:2:0:0:
314,160,122909,1,0,3:0:0:0:
201,379,123060,5,10,0:2:0:0:
303,134,123212,1,2,3:2:0:0:
512,192,123363,5,12,0:2:0:0:
467,316,123515,1,8,3:2:0:0:
446,328,123590,1,8,3:2:0:0:
498,381,123666,6,0,P|508:305|516:261,1,100,14|0,3:2|3:0,0:0:0:0:
439,197,123969,1,2,0:2:0:0:
264,372,124121,2,0,B|184:334|149:324|149:324|112:342,1,150,2|0,3:2|0:0,0:0:0:0:
108,351,124424,1,0,3:0:0:0:
328,239,124575,6,0,B|253:261|253:261|232:253,1,100,14|0,3:2|0:0,0:0:0:0:
458,355,124878,2,0,L|315:338,1,100,2|0,3:2|0:0,0:0:0:0:
407,135,125181,2,0,L|437:239,1,100,6|0,3:2|0:0,0:0:0:0:
138,120,125484,6,0,L|171:-9,1,100,6|0,3:2|0:0,0:0:0:0:
278,292,125787,1,8,0:2:0:0:
239,321,125862,1,8,0:2:0:0:
193,306,125938,1,2,3:2:0:0:
178,260,126014,1,8,0:3:0:0:
243,224,126090,2,0,B|235:146|235:146|274:110,1,100,4|0,0:3|3:0,0:0:0:0:
388,39,126393,5,2,3:2:0:0:
464,62,126545,1,2,0:2:0:0:
251,2,126696,1,8,3:2:0:0:
93,89,126848,1,8,0:3:0:0:
132,96,126924,1,2,3:2:0:0:
171,102,126999,1,8,0:3:0:0:
210,108,127075,1,8,0:3:0:0:
232,97,127151,1,4,0:3:0:0:
484,17,127303,6,0,B|520:69|520:69|489:194,1,160,4|2,3:2|0:2,0:0:0:0:
414,210,127757,1,8,0:3:0:0:
414,210,127909,2,0,L|330:198,1,80,8|0,0:3|3:0,0:0:0:0:
418,314,128212,2,0,L|502:302,1,80,8|0,0:2|0:0,0:0:0:0:
331,370,128515,1,2,0:2:0:0:
283,317,128666,1,8,0:3:0:0:
214,351,128818,1,2,0:2:0:0:
214,351,128969,1,0,3:0:0:0:
151,253,129121,5,0,3:0:0:0:
68,299,129272,2,0,P|80:362|83:392,1,80
6,229,129575,2,0,P|29:166|43:103,1,120,8|0,0:3|0:0,0:0:0:0:
40,94,129878,1,0,3:0:0:0:
120,173,130030,6,0,P|179:140|207:132,1,80,12|0,0:2|0:0,0:0:0:0:
180,307,130333,2,0,P|192:253|202:221,1,80,2|8,0:2|0:3,0:0:0:0:
89,267,130636,1,2,0:2:0:0:
89,267,130787,1,0,3:0:0:0:
257,356,130939,6,0,L|446:329,1,160,0|2,3:0|0:2,0:0:0:0:
512,234,131393,2,0,P|491:183|481:143,1,80,8|2,0:3|0:2,0:0:0:0:
419,247,131696,1,0,3:0:0:0:
295,157,131848,6,0,B|306:95|306:95|299:62|299:62|311:-9,1,160,12|2,0:2|0:2,0:0:0:0:
346,88,132303,1,8,0:3:0:0:
215,105,132454,2,0,L|129:89,1,80,2|0,0:2|3:0,0:0:0:0:
23,178,132757,6,0,P|40:236|39:279,1,80,4|0,3:2|0:0,0:0:0:0:
160,292,133060,2,0,P|99:338|81:370,1,80,4|0,3:2|0:0,0:0:0:0:
126,205,133363,1,8,0:2:0:0:
447,296,133515,1,8,0:2:0:0:
434,204,133666,6,0,B|492:194|492:194|533:216,1,80,4|0,3:2|0:0,0:0:0:0:
374,372,133969,2,0,L|353:291,1,80,4|0,3:2|0:0,0:0:0:0:
512,0,134272,1,10,3:2:0:0:
272,183,134575,5,6,3:2:0:0:
272,183,134727,2,0,P|199:173|174:177,1,68.0000012969971,2|0,0:2|0:0,0:0:0:0:
287,271,135030,2,0,P|359:227|430:207,1,136.000002593994,2|0,0:2|3:0,0:0:0:0:
493,251,135484,2,0,L|503:319,1,68.0000012969971,8|0,0:2|0:0,0:0:0:0:
424,384,135787,1,2,0:2:0:0:
349,137,136090,2,0,B|368:82|368:82|350:53,1,68.0000012969971,2|0,0:3|0:0,0:0:0:0:
285,17,136393,6,0,L|187:31,1,68.0000012969971,2|2,3:2|0:2,0:0:0:0:
203,36,136621,1,0,0:0:0:0:
189,45,136696,1,0,0:0:0:0:
0,88,136848,2,0,B|96:78|96:78|120:111,1,136.000002593994,2|0,0:2|3:0,0:0:0:0:
64,312,137303,2,0,P|49:252|33:221,1,68.0000012969971,8|0,0:3|0:0,0:0:0:0:
140,370,137606,2,0,P|154:318|170:282,1,68.0000012969971
197,197,137909,2,0,P|142:218|123:218,1,68.0000012969971,2|0,0:3|0:0,0:0:0:0:
262,334,138212,5,2,3:2:0:0:
262,334,138363,2,0,L|349:345,1,68.0000012969971,2|0,0:2|0:0,0:0:0:0:
410,292,138666,1,2,0:2:0:0:
477,359,138818,1,0,0:0:0:0:
410,292,138969,1,0,3:0:0:0:
480,228,139121,2,0,P|488:165|491:133,1,68.0000012969971,10|0,0:2|0:0,0:0:0:0:
414,100,139424,1,2,0:2:0:0:
414,100,139575,1,2,0:2:0:0:
462,17,139727,2,0,P|506:34|532:41,1,68.0000012969971,2|0,0:3|0:0,0:0:0:0:
361,176,140030,5,2,3:2:0:0:
299,103,140181,1,2,0:2:0:0:
299,103,140257,1,0,0:0:0:0:
299,103,140333,1,0,0:0:0:0:
224,214,140484,2,0,L|243:364,1,136.000002593994,2|0,0:2|3:0,0:0:0:0:
331,380,140939,2,0,B|387:364|387:364|412:371,1,68.0000012969971,10|0,0:2|0:0,0:0:0:0:
149,344,141242,1,2,3:2:0:0:
112,256,141393,1,2,0:2:0:0:
37,354,141545,5,8,0:3:0:0:
118,129,141696,1,8,0:2:0:0:
48,63,141848,6,0,P|47:13|49:-19,2,68.0000012969971,6|0|2,3:2|0:0|0:2,0:0:0:0:
178,197,142303,2,0,P|237:174|271:169,2,68.0000012969971,0|0|0,0:0|0:0|3:0,0:0:0:0:
217,19,142757,2,0,P|288:55|367:64,1,136.000002593994,8|2,0:2|0:2,0:0:0:0:
431,99,143212,2,0,P|443:161|447:181,1,68.0000012969971,8|2,0:3|0:2,0:0:0:0:
366,221,143515,1,0,3:0:0:0:
429,336,143666,6,0,L|506:326,1,68.0000012969971,2|0,3:2|0:0,0:0:0:0:
406,363,143969,1,10,0:2:0:0:
493,245,144121,1,8,0:3:0:0:
317,208,144272,2,0,P|271:197|231:190,1,68.0000012969971,2|2,3:2|3:2,0:0:0:0:
326,290,144575,5,8,0:2:0:0:
482,265,144727,1,0,3:0:0:0:
385,145,144878,1,10,0:3:0:0:
399,228,145030,1,4,3:0:0:0:
456,106,145181,1,0,3:0:0:0:
456,106,145333,1,0,3:0:0:0:
377,59,145484,6,0,P|281:53|211:44,1,136.000002593994,4|2,3:2|0:2,0:0:0:0:
118,126,145939,1,0,0:0:0:0:
118,126,146090,2,0,P|60:88|47:85,1,68.0000012969971,0|0,0:0|3:0,0:0:0:0:
214,111,146393,6,0,P|203:166|200:208,1,68.0000012969971,8|0,0:2|0:0,0:0:0:0:
117,288,146696,2,0,P|130:339|139:383,1,68.0000012969971,2|0,0:2|0:0,0:0:0:0:
227,368,146999,2,0,P|267:358|309:352,1,68.0000012969971,2|0,0:3|0:0,0:0:0:0:
427,376,147303,5,0,3:2:0:0:
430,362,147378,1,0,0:2:0:0:
433,348,147454,1,0,0:2:0:0:
436,334,147530,1,0,0:0:0:0:
439,320,147606,1,0,0:2:0:0:
385,241,147757,1,2,0:2:0:0:
458,179,147909,2,0,L|534:200,1,68.0000012969971,2|0,0:2|3:2,0:0:0:0:
341,24,148212,6,0,B|355:80|355:80|329:110,1,68.0000012969971,10|0,0:3|0:0,0:0:0:0:
254,58,148515,1,0,3:0:0:0:
254,58,148590,1,0,0:0:0:0:
254,58,148666,1,2,0:2:0:0:
161,32,148818,1,2,3:2:0:0:
13,184,148969,1,8,0:2:0:0:
104,311,149121,6,0,P|94:279|84:247,1,68.0000012969971,2|0,3:0|0:0,0:0:0:0:
234,324,149424,1,2,0:2:0:0:
171,381,149575,2,0,P|248:358|318:342,1,136.000002593994,2|0,0:2|3:0,0:0:0:0:
431,255,150030,2,0,P|462:271|495:279,1,68.0000012969971,10|0,0:2|0:0,0:0:0:0:
424,354,150333,1,2,0:2:0:0:
378,175,150484,2,0,P|400:114|464:105,1,136.000002593994,2|2,0:2|0:3,0:0:0:0:
459,244,150939,5,2,3:2:0:0:
459,244,151015,1,0,0:0:0:0:
459,244,151090,1,0,0:0:0:0:
384,88,151242,1,2,0:2:0:0:
296,124,151393,2,0,P|233:104|207:102,2,68.0000012969971,2|0|0,0:2|0:0|3:0,0:0:0:0:
112,7,151848,2,0,B|83:58|83:58|91:76,1,68.0000012969971,10|0,0:2|0:0,0:0:0:0:
4,115,152151,2,0,L|33:208,1,68.0000012969971,2|0,0:2|0:0,0:0:0:0:
154,299,152454,2,0,P|139:338|135:386,1,68.0000012969971,2|0,0:3|0:0,0:0:0:0:
49,293,152757,5,2,3:2:0:0:
49,293,152833,1,0,0:0:0:0:
49,293,152909,1,0,0:0:0:0:
159,213,153060,1,2,0:2:0:0:
239,264,153212,2,0,P|302:242|385:229,1,136.000002593994,2|0,0:2|3:0,0:0:0:0:
443,77,153666,2,0,P|488:91|527:93,1,68.0000012969971,10|0,0:2|0:0,0:0:0:0:
339,25,153969,2,0,P|388:9|417:-18,1,68.0000012969971,2|0,0:2|0:0,0:0:0:0:
454,173,154272,2,0,P|488:205|503:239,1,68.0000012969971,2|0,0:3|0:0,0:0:0:0:
418,357,154575,5,2,3:2:0:0:
418,357,154651,1,0,0:0:0:0:
418,357,154727,1,0,0:0:0:0:
339,304,154878,1,2,0:2:0:0:
246,381,155030,2,0,L|163:367,1,68.0000012969971,2|0,0:2|0:0,0:0:0:0:
274,365,155333,1,0,3:0:0:0:
57,285,155484,5,10,0:2:0:0:
141,241,155636,1,2,3:2:0:0:
141,241,155712,1,2,0:2:0:0:
141,241,155787,1,2,0:3:0:0:
67,369,155939,1,2,0:2:0:0:
9,215,156090,2,0,B|21:173|24:155|24:155|2:126,1,68.0000012969971,2|0,0:2|0:0,0:0:0:0:
165,24,156393,6,0,P|214:39|247:121,1,136.000002593994,6|0,3:2|0:0,0:0:0:0:
320,173,156848,2,0,L|467:153,1,136.000002593994,10|0,0:3|3:0,0:0:0:0:
268,251,157303,2,0,B|206:240|206:240|183:247|183:247|130:238,1,136.000002593994,10|0,0:2|0:0,0:0:0:0:
86,164,157757,1,10,0:2:0:0:
86,164,157833,1,2,0:2:0:0:
86,164,157909,1,8,0:3:0:0:
6,270,158060,1,0,3:0:0:0:
65,344,158212,6,0,L|138:331,1,68.0000012969971,2|0,3:2|0:0,0:0:0:0:
44,369,158515,1,8,0:3:0:0:
132,244,158666,1,10,0:2:0:0:
58,185,158818,1,0,3:0:0:0:
112,134,158969,1,0,3:0:0:0:
0,26,159121,6,0,B|88:55|88:55|138:31,1,136.000002593994,10|0,0:2|0:0,0:0:0:0:
221,218,159575,2,0,B|215:156|244:118|244:118|251:59|221:26,1,204.000003890991,2|4,0:2|3:2,0:0:0:0:
251,239,160333,5,2,0:2:0:0:
251,239,160484,2,0,L|335:224,1,68.0000012969971,8|0,0:3|0:0,0:0:0:0:
388,162,160787,1,0,3:0:0:0:
470,284,160939,2,0,B|453:342|453:342|465:374,1,68.0000012969971,12|0,0:2|0:0,0:0:0:0:
491,139,161242,2,0,L|515:220,1,68.0000012969971,0|8,0:0|0:3,0:0:0:0:
465,22,161545,2,0,L|418:96,1,68.0000012969971,0|0,0:0|3:0,0:0:0:0:
313,109,161848,6,0,P|261:96|220:93,1,68.0000012969971,0|0,3:0|0:0,0:0:0:0:
125,168,162151,1,8,0:3:0:0:
235,246,162303,1,8,0:3:0:0:
107,286,162454,1,0,3:0:0:0:
192,336,162606,1,0,3:0:0:0:
126,378,162757,5,10,0:2:0:0:
126,378,162909,1,0,3:0:0:0:
326,326,163060,5,10,0:2:0:0:
326,326,163212,1,0,3:0:0:0:
473,374,163363,5,10,3:2:0:0:
214,307,163515,1,8,3:2:0:0:
19,367,163666,6,0,B|-3:261|-3:261|18:225,1,136.000002593994,6|0,3:2|3:0,0:0:0:0:
67,160,164121,2,0,P|124:183|160:187,1,68.0000012969971,10|0,0:3|0:0,0:0:0:0:
204,123,164424,1,0,3:0:0:0:
63,14,164575,2,0,B|11:24|11:24|-10:40,1,68.0000012969971,10|0,0:2|0:0,0:0:0:0:
162,7,164878,2,0,B|138:61|138:61|138:79,1,68.0000012969971,0|10,3:0|0:3,0:0:0:0:
263,35,165181,2,0,L|297:124,1,68.0000012969971,0|0,0:0|3:0,0:0:0:0:
414,147,165484,6,0,P|399:189|391:232,1,68.0000012969971,2|0,3:2|0:0,0:0:0:0:
472,307,165787,1,8,0:3:0:0:
472,307,165939,1,8,0:3:0:0:
333,371,166090,1,2,3:2:0:0:
272,297,166242,1,0,3:0:0:0:
430,380,166393,2,0,P|480:352|509:345,1,68.0000012969971,14|0,0:2|0:0,0:0:0:0:
362,288,166696,1,0,3:0:0:0:
228,370,166848,2,0,P|187:357|150:351,1,68.0000012969971,10|0,0:3|0:0,0:0:0:0:
72,383,167151,1,0,3:0:0:0:
9,236,167303,6,0,L|24:98,1,136.000002593994,6|0,3:2|3:0,0:0:0:0:
109,13,167757,2,0,L|123:148,1,136.000002593994,10|0,0:3|3:0,0:0:0:0:
330,357,168212,6,0,P|416:359|458:189,1,287.999991210938,14|10,0:2|0:3,0:0:0:0:
321,97,168818,1,0,0:0:0:0:
321,97,168969,1,0,3:0:0:0:
406,53,169121,6,0,B|308:74|308:74|254:48,1,136.000002593994,2|10,3:2|0:3,0:0:0:0:
191,101,169575,1,8,0:3:0:0:
110,50,169727,1,2,3:2:0:0:
24,91,169878,1,0,3:0:0:0:
196,12,170030,5,14,0:2:0:0:
56,186,170181,1,0,3:0:0:0:
196,12,170333,5,10,0:2:0:0:
56,186,170484,2,0,L|65:269,1,68.0000012969971,2|2,3:2|0:2,0:0:0:0:
4,68,170787,1,8,0:2:0:0:
201,125,170939,6,0,P|263:102|352:92,1,136.000002593994,6|0,3:2|3:0,0:0:0:0:
390,17,171393,2,0,P|420:49|435:101,1,68.0000012969971,10|0,0:3|0:0,0:0:0:0:
338,182,171696,1,0,3:0:0:0:
426,218,171848,2,0,P|439:280|456:361,1,136.000002593994,14|0,0:2|3:0,0:0:0:0:
414,70,172303,2,0,B|483:150|483:150|518:157,1,136.000002593994,10|0,0:3|3:0,0:0:0:0:
353,8,172757,6,0,L|276:29,1,68.0000012969971,0|0,3:0|0:0,0:0:0:0:
24,74,173060,2,0,B|74:96|74:96|81:129,1,68.0000012969971,10|0,0:2|0:0,0:0:0:0:
18,239,173363,1,0,3:0:0:0:
18,239,173515,1,0,3:0:0:0:
122,346,173666,5,10,0:2:0:0:
186,156,173818,1,0,3:0:0:0:
15,335,173969,5,10,0:2:0:0:
172,131,174121,1,0,3:0:0:0:
42,82,174272,5,8,0:2:0:0:
25,53,174347,1,8,0:3:0:0:
33,21,174423,1,8,0:3:0:0:
63,6,174499,1,8,0:2:0:0:
112,59,174575,5,8,3:2:0:0:
282,174,174727,1,8,3:2:0:0:
0,278,174878,1,8,3:2:0:0:
178,159,175030,5,8,3:0:0:0:
94,297,175181,1,8,3:0:0:0:
62,206,175333,1,4,3:0:0:0:
398,359,175484,5,8,3:2:0:0:
331,20,178212,5,12,0:2:0:0:
230,231,178363,1,0,3:0:0:0:
320,310,178515,1,2,0:2:0:0:
380,117,178666,5,2,3:2:0:0:
355,112,178742,1,0,3:0:0:0:
352,185,178818,1,8,0:2:0:0:
512,69,178969,1,0,3:0:0:0:
364,11,179121,6,0,L|251:25,1,100,10|0,0:2|3:0,0:0:0:0:
227,192,179424,1,2,0:2:0:0:
55,55,179575,1,2,3:2:0:0:
31,47,179651,1,0,3:0:0:0:
11,119,179727,2,0,B|-14:52|-14:52|0:27,1,100,10|0,0:2|3:0,0:0:0:0:
144,238,180030,5,10,0:2:0:0:
0,285,180181,2,0,B|52:291|74:304|74:304|85:319,1,100,0|2,3:0|0:2,0:0:0:0:
145,146,180484,2,0,L|95:157,1,50,2|0,3:2|3:0,0:0:0:0:
0,384,180636,1,8,0:2:0:0:
296,332,180787,1,8,0:0:0:0:
269,291,180863,1,8,0:3:0:0:
226,352,180938,6,0,B|346:338|346:338,1,100,14|2,3:2|0:2,0:0:0:0:
509,151,181242,2,0,B|420:139|420:139|410:143,1,100,4|2,3:2|0:2,0:0:0:0:
196,266,181545,1,8,0:3:0:0:
81,90,181696,1,8,3:2:0:0:
75,66,181772,1,8,0:2:0:0:
6,99,181848,6,0,B|52:87|81:107|81:107|119:131|149:121,1,150,6|0,3:2|0:0,0:0:0:0:
173,115,182151,1,2,3:2:0:0:
239,39,182303,1,10,0:2:0:0:
114,217,182454,1,8,0:3:0:0:
222,292,182606,1,2,3:2:0:0:
386,191,182757,6,0,B|291:148|291:148|251:169,1,150,10|0,0:2|0:0,0:0:0:0:
233,186,183060,1,2,3:2:0:0:
375,288,183212,2,0,L|477:260,1,100,10|0,0:3|0:0,0:0:0:0:
378,81,183515,1,2,3:2:0:0:
234,359,183666,6,0,P|263:271|257:207,1,150,10|0,0:2|0:0,0:0:0:0:
247,192,183969,1,0,3:0:0:0:
108,119,184121,1,10,0:2:0:0:
1,338,184272,1,8,0:2:0:0:
40,367,184347,1,8,0:3:0:0:
86,352,184423,1,8,0:2:0:0:
101,306,184499,1,8,0:2:0:0:
36,270,184575,6,0,B|25:185|25:185|51:133,1,100,14|0,3:2|0:0,0:0:0:0:
211,22,184878,2,0,L|330:43,1,100,4|2,3:2|0:2,0:0:0:0:
165,206,185181,1,8,0:3:0:0:
52,17,185333,1,2,3:2:0:0:
121,324,185484,6,0,L|268:291,1,150,6|0,3:2|0:0,0:0:0:0:
292,287,185787,1,0,3:0:0:0:
455,368,185939,2,0,L|505:248,1,100,10|0,0:2|0:0,0:0:0:0:
351,177,186242,1,0,3:0:0:0:
493,90,186393,2,0,B|433:77|413:81|413:81|402:96,1,100,10|0,0:2|0:0,0:0:0:0:
266,205,186696,1,6,3:2:0:0:
243,28,186848,1,0,0:0:0:0:
189,264,186999,2,0,P|218:200|271:130,1,150,2|0,3:2|0:0,0:0:0:0:
289,126,187303,6,0,B|308:211|308:211|340:235,1,100,6|0,3:2|0:0,0:0:0:0:
468,257,187606,1,8,0:3:0:0:
349,32,187757,1,10,0:2:0:0:
208,78,187909,1,0,3:0:0:0:
140,35,188060,1,0,3:0:0:0:
4,167,188212,6,0,B|104:200|104:200|146:175,1,150,14|0,3:2|0:0,0:0:0:0:
164,165,188515,1,10,0:2:0:0:
49,63,188666,1,0,3:0:0:0:
1,305,188818,2,0,L|-8:344,2,25,8|0|8,0:2|0:0|3:0,0:0:0:0:
76,292,188969,1,8,3:0:0:0:
387,382,189121,6,0,B|347:395|318:375|318:375|280:351|244:360,1,150,6|0,3:2|0:0,0:0:0:0:
220,366,189424,1,0,3:0:0:0:
342,181,189575,2,0,L|362:280,1,100,0|0,3:0|0:0,0:0:0:0:
442,220,189878,1,0,3:0:0:0:
283,21,190030,2,0,B|259:139|259:139|221:199,1,150,10|0,0:2|0:0,0:0:0:0:
221,176,190333,1,0,3:0:0:0:
396,64,190484,1,8,0:2:0:0:
157,1,190636,2,0,L|50:21,1,100,6|0,3:2|0:0,0:0:0:0:
40,315,190939,5,6,3:2:0:0:
128,152,191090,1,0,0:0:0:0:
0,111,191242,1,2,3:2:0:0:
32,183,191393,1,2,3:2:0:0:
236,195,191545,2,0,B|313:220|313:220|351:202,1,100,2|0,0:2|3:0,0:0:0:0:
464,113,191848,5,10,0:2:0:0:
313,323,191999,1,2,3:2:0:0:
464,113,192151,5,8,0:3:0:0:
313,323,192302,1,2,3:2:0:0:
209,183,192454,5,12,0:2:0:0:
0,337,192606,1,8,3:2:0:0:
6,360,192681,1,8,0:2:0:0:
71,319,192757,6,0,B|64:252|64:252|76:225|76:225|64:143,1,150,4|0,3:2|0:0,0:0:0:0:
49,155,193060,1,0,3:0:0:0:
172,29,193212,1,2,3:2:0:0:
280,256,193363,1,2,0:2:0:0:
213,211,193515,1,2,3:2:0:0:
228,382,193666,6,0,P|309:339|389:326,1,150,10|0,0:2|0:0,0:0:0:0:
389,333,193969,1,2,3:2:0:0:
102,371,194121,1,10,0:2:0:0:
82,261,194272,2,0,P|150:293|211:303,1,100,4|2,3:2|0:2,0:0:0:0:
416,234,194575,6,0,L|436:128,1,100,6|2,3:2|0:2,0:0:0:0:
310,26,194878,1,8,0:3:0:0:
59,96,195030,1,10,0:2:0:0:
210,88,195181,1,8,3:0:0:0:
189,10,195333,1,6,3:0:0:0:
109,184,195484,6,0,L|124:290,1,100,6|2,3:2|0:2,0:0:0:0:
366,384,195787,2,0,L|381:285,1,100,4|2,3:2|0:2,0:0:0:0:
216,68,196090,5,8,0:2:0:0:
28,366,196242,1,10,0:2:0:0:
249,281,196393,5,6,3:2:0:0:
161,232,196545,2,0,B|83:242|83:242|48:275,1,100,2|0,0:2|3:0,0:0:0:0:
307,361,196848,1,2,3:2:0:0:
282,147,196999,2,0,B|201:122|201:122|149:137,1,100,2|0,0:2|3:0,0:0:0:0:
456,24,197303,6,0,B|327:58|327:58|284:41,1,150,10|0,0:2|0:0,0:0:0:0:
288,42,197606,1,2,3:2:0:0:
463,125,197757,1,10,0:2:0:0:
329,257,197909,2,0,B|308:223|302:186|302:186|309:163,1,100,6|0,3:2|0:0,0:0:0:0:
377,76,198212,5,6,3:2:0:0:
426,271,198363,2,0,P|410:350|403:406,1,100,2|0,0:2|3:0,0:0:0:0:
109,322,198666,2,0,P|125:256|216:243,1,150,2|0,3:2|0:0,0:0:0:0:
220,245,198969,1,2,3:2:0:0:
193,380,199121,5,10,0:2:0:0:
56,156,199272,1,0,3:0:0:0:
4,376,199424,5,10,0:2:0:0:
69,130,199575,1,0,3:0:0:0:
0,8,199727,5,14,0:2:0:0:
195,83,199878,1,8,3:2:0:0:
219,78,199954,1,8,3:2:0:0:
191,7,200030,5,14,3:2:0:0:
288,26,200181,2,0,B|363:15|363:15|393:-10,1,100,0|2,3:0|0:3,0:0:0:0:
306,256,200484,2,0,L|392:123,1,150,2|2,3:2|0:3,0:0:0:0:
375,107,200787,1,0,3:0:0:0:
417,357,200939,6,0,L|426:234,1,100,10|0,0:2|0:0,0:0:0:0:
212,81,201242,2,0,L|239:183,1,100,0|2,3:0|0:2,0:0:0:0:
366,128,201545,1,0,3:0:0:0:
187,338,201696,1,8,0:2:0:0:
193,363,201772,1,8,0:2:0:0:
261,330,201848,6,0,B|227:309|190:303|190:303|167:310,1,100,6|0,3:2|0:0,0:0:0:0:
20,371,202151,1,10,0:3:0:0:
166,100,202303,2,0,P|245:135|251:213,1,150,2|0,3:2|0:0,0:0:0:0:
247,214,202606,1,2,3:0:0:0:
16,46,202757,6,0,P|91:27|136:9,1,100,14|0,0:2|0:0,0:0:0:0:
357,82,203060,1,0,3:0:0:0:
485,15,203212,1,2,3:2:0:0:
443,251,203363,2,0,L|445:289,2,25,8|0|8,0:2|0:0|3:0,0:0:0:0:
496,159,203515,1,0,3:0:0:0:
333,320,203666,6,0,P|253:296|173:282,1,160,4|0,3:2|3:0,0:0:0:0:
110,214,204121,2,0,P|44:235|29:292,1,120,0|0,3:0|0:0,0:0:0:0:
32,297,204424,1,0,3:0:0:0:
182,154,204575,6,0,B|245:178|245:178|289:164,1,80,8|0,0:2|0:0,0:0:0:0:
236,80,204878,1,0,3:0:0:0:
21,19,205030,1,8,0:2:0:0:
45,103,205181,2,0,L|29:205,1,80,0|0,0:0|3:0,0:0:0:0:
97,353,205484,6,0,B|202:328|202:328|233:349,1,120,0|0,3:0|0:0,0:0:0:0:
218,353,205787,1,0,3:0:0:0:
287,286,205939,2,0,L|377:307,1,80,0|0,3:0|0:0,0:0:0:0:
435,369,206242,1,0,3:0:0:0:
435,75,206393,6,0,L|428:45,2,20,8|0|0,0:3|0:0|3:0,0:0:0:0:
471,247,206545,1,0,3:0:0:0:
507,33,206696,5,8,0:3:0:0:
471,247,206848,1,0,3:0:0:0:
296,248,206999,5,8,0:2:0:0:
186,365,207151,1,0,3:0:0:0:
186,365,207227,1,0,0:0:0:0:
186,365,207303,6,0,P|127:342|82:332,1,80,12|0,3:2|3:0,0:0:0:0:
263,338,207606,1,0,3:0:0:0:
364,384,207757,2,0,P|423:361|468:351,1,80,8|0,0:3|3:0,0:0:0:0:
466,264,208060,1,0,3:0:0:0:
382,128,208212,5,12,0:2:0:0:
313,271,208363,1,0,3:0:0:0:
379,226,208515,1,0,3:0:0:0:
251,177,208666,1,8,0:2:0:0:
251,177,208818,2,0,L|153:191,1,80,0|0,3:0|3:0,0:0:0:0:
70,310,209121,6,0,L|-23:261,1,80,12|0,0:2|3:0,0:0:0:0:
101,115,209424,1,0,3:0:0:0:
4,21,209575,1,8,0:3:0:0:
168,49,209727,2,0,B|222:29|222:29|255:38,1,80,0|0,3:0|3:0,0:0:0:0:
405,97,210030,5,8,0:2:0:0:
232,223,210181,1,8,0:2:0:0:
385,361,210333,1,8,0:3:0:0:
481,219,210484,1,8,0:3:0:0:
425,271,210636,2,0,B|378:256|378:256|359:237,1,60.0000022888184,4|4,3:0|3:0,0:0:0:0:
262,160,210939,5,8,0:2:0:0:
182,152,211090,1,0,0:0:0:0:
101,145,211242,1,0,0:0:0:0:
10,239,211393,2,0,L|23:341,1,96,8|0,0:2|0:0,0:0:0:0:
34,344,211696,1,0,3:0:0:0:
33,72,211848,5,8,0:2:0:0:
100,120,211999,1,0,0:0:0:0:
168,168,212151,1,0,0:0:0:0:
215,42,212303,2,0,L|332:24,1,96,8|0,0:2|0:0,0:0:0:0:
325,25,212606,1,0,3:0:0:0:
313,278,212757,5,8,0:2:0:0:
362,211,212909,1,0,0:0:0:0:
411,144,213060,1,0,0:0:0:0:
374,336,213212,2,0,L|255:300,1,96,8|0,0:2|0:0,0:0:0:0:
266,311,213515,1,0,3:0:0:0:
384,242,213666,5,2,0:3:0:0:
183,361,213818,1,0,3:0:0:0:
94,229,213969,5,0,3:0:0:0:
244,287,214121,1,8,3:0:0:0:
263,133,214272,5,8,3:0:0:0:
201,189,214424,1,4,3:0:0:0:
0,23,214575,5,8,0:2:0:0:
14,105,214727,1,0,0:0:0:0:
28,186,214878,1,0,0:0:0:0:
139,256,215030,2,0,L|119:366,1,96,8|0,0:2|0:0,0:0:0:0:
108,358,215333,1,0,3:0:0:0:
400,311,215484,5,8,0:2:0:0:
333,263,215635,1,0,0:0:0:0:
265,215,215787,1,0,0:0:0:0:
218,341,215939,2,0,L|101:359,1,96,8|0,0:2|0:0,0:0:0:0:
108,358,216242,1,0,3:0:0:0:
7,161,216393,5,8,0:2:0:0:
30,80,216545,1,0,0:0:0:0:
54,0,216696,1,0,0:0:0:0:
168,158,216848,2,0,L|177:270,1,96,8|0,0:2|0:0,0:0:0:0:
164,265,217151,1,0,3:0:0:0:
319,141,217303,5,2,0:3:0:0:
258,376,217454,1,0,3:0:0:0:
459,296,217606,5,0,3:0:0:0:
353,250,217757,1,8,3:0:0:0:
275,283,217909,5,8,3:0:0:0:
203,241,218060,1,4,3:0:0:0:
203,241,218136,1,0,0:0:0:0:
203,241,218212,5,8,0:2:0:0:
200,158,218363,1,0,0:0:0:0:
200,74,218515,1,0,0:0:0:0:
315,13,218666,2,0,L|429:33,1,96,8|0,0:2|0:0,0:0:0:0:
417,43,218969,1,0,3:0:0:0:
365,264,219121,5,8,0:2:0:0:
282,267,219272,1,0,0:0:0:0:
198,267,219424,1,0,0:0:0:0:
137,152,219575,2,0,L|157:38,1,96,8|0,0:2|0:0,0:0:0:0:
167,50,219878,1,0,3:0:0:0:
22,186,220030,5,8,0:2:0:0:
45,265,220181,1,0,0:0:0:0:
70,344,220333,1,0,0:0:0:0:
231,154,220484,2,0,L|200:255,1,96,8|0,0:2|0:0,0:0:0:0:
189,255,220787,1,0,3:0:0:0:
295,343,220939,5,8,0:2:0:0:
143,144,221090,1,0,3:0:0:0:
295,343,221242,5,8,0:2:0:0:
143,144,221393,1,0,3:0:0:0:
320,65,221545,6,0,L|323:45,2,16,8|8|8,3:0|0:2|3:0,0:0:0:0:
386,153,221696,1,8,3:0:0:0:
386,153,221772,1,8,0:0:0:0:
386,153,221848,5,4,3:2:0:0:
439,77,221999,2,0,P|500:93|548:100,1,80,0|0,3:0|0:0,0:0:0:0:
473,332,222303,2,0,P|415:266|360:254,1,120,0|0,3:0|0:0,0:0:0:0:
367,260,222606,1,0,3:0:0:0:
166,286,222757,2,0,P|179:343|182:392,1,80,8|0,0:2|0:0,0:0:0:0:
281,203,223060,2,0,P|269:265|272:313,1,80,0|0,3:0|0:0,0:0:0:0:
210,137,223363,2,0,P|230:95|324:96,1,120,0|0,3:0|0:0,0:0:0:0:
316,85,223666,6,0,B|372:106|372:106|382:135,1,80,0|0,3:0|0:0,0:0:0:0:
466,315,223969,2,0,P|475:248|480:208,1,80,8|0,0:2|0:0,0:0:0:0:
469,222,224196,1,0,3:0:0:0:
457,205,224272,1,0,3:0:0:0:
328,249,224424,1,8,3:0:0:0:
242,205,224575,1,8,3:0:0:0:
172,244,224727,1,8,3:0:0:0:
271,19,224878,5,8,3:0:0:0:
385,100,225030,1,8,3:0:0:0:
455,112,225181,2,0,B|466:57|466:57|458:40,1,60.0000022888184,8|4,3:0|3:0,0:0:0:0:
460,239,225484,5,6,3:1:0:0:
300,225,225636,1,0,0:0:0:0:
141,209,225787,1,0,3:0:0:0:
304,363,225939,5,0,0:0:0:0:
373,345,226090,1,0,3:0:0:0:
201,31,226393,5,6,3:1:0:0:
197,79,226469,1,0,0:0:0:0:
196,123,226545,1,0,0:0:0:0:
187,282,226696,1,0,3:0:0:0:
30,118,226848,5,0,0:0:0:0:
94,87,226999,1,0,3:0:0:0:
350,363,227303,5,6,3:1:0:0:
320,206,227454,1,0,0:0:0:0:
292,47,227606,1,0,3:0:0:0:
433,181,227757,5,0,0:0:0:0:
400,245,227909,1,0,3:0:0:0:
8,94,228212,6,0,L|120:73,1,80,12|0,3:2|0:0,0:0:0:0:
214,261,228515,1,8,0:3:0:0:
207,298,228590,1,8,0:3:0:0:
171,310,228666,1,8,0:3:0:0:
145,283,228742,1,4,3:0:0:0:
126,217,228818,1,8,0:3:0:0:
133,180,228893,1,8,0:3:0:0:
169,168,228969,1,8,0:3:0:0:
195,195,229045,1,4,3:0:0:0:
179,265,229121,5,6,3:1:0:0:
334,228,229272,1,0,0:0:0:0:
489,186,229424,1,0,3:0:0:0:
284,56,229575,5,0,0:0:0:0:
263,125,229727,1,0,3:0:0:0:
137,357,230030,5,6,3:1:0:0:
185,358,230106,1,0,0:0:0:0:
233,360,230181,1,0,0:0:0:0:
394,364,230333,1,0,3:0:0:0:
156,182,230484,5,0,0:0:0:0:
174,251,230636,1,0,3:0:0:0:
386,32,230939,5,6,3:1:0:0:
348,187,231090,1,0,0:0:0:0:
309,342,231242,1,0,3:0:0:0:
239,92,231393,5,2,0:1:0:0:
310,103,231545,1,0,3:0:0:0:
380,117,231696,1,0,3:0:0:0:
442,190,231848,5,8,0:0:0:0:
244,278,231999,1,0,3:0:0:0:
442,190,232151,5,8,0:2:0:0:
244,278,232302,1,0,3:0:0:0:
58,205,232454,5,8,0:2:0:0:
239,312,232606,1,0,3:0:0:0:
239,312,232681,1,0,0:0:0:0:
239,312,232757,5,6,3:1:0:0:
266,153,232909,1,0,0:0:0:0:
298,0,233060,1,0,3:0:0:0:
349,271,233212,6,0,L|442:246,1,80,0|0,0:0|3:0,0:0:0:0:
127,81,233666,5,6,3:1:0:0:
283,117,233818,1,0,0:0:0:0:
440,144,233969,1,0,3:0:0:0:
228,318,234121,5,0,0:0:0:0:
215,247,234272,1,0,3:0:0:0:
466,372,234575,6,0,L|485:261,1,80,6|0,3:1|0:0,0:0:0:0:
452,39,234878,1,4,0:3:0:0:
426,12,234954,1,8,0:3:0:0:
390,24,235030,1,8,0:3:0:0:
383,61,235105,1,4,3:0:0:0:
399,131,235181,1,8,0:3:0:0:
373,158,235257,1,8,0:3:0:0:
337,146,235333,1,4,0:3:0:0:
330,109,235408,1,4,3:0:0:0:
266,142,235484,6,0,L|155:127,1,80,4|0,3:2|0:0,0:0:0:0:
26,311,235787,2,0,B|94:302|94:302|116:267,1,80,4|0,3:2|0:0,0:0:0:0:
75,52,236090,1,8,0:2:0:0:
210,258,236242,1,0,3:0:0:0:
210,258,236318,1,0,0:0:0:0:
210,258,236393,5,14,3:1:0:0:
261,339,236545,2,0,L|238:243,1,80,0|0,3:0|0:0,0:0:0:0:
439,370,236848,2,0,L|482:222,1,120,0|0,3:0|0:0,0:0:0:0:
460,238,237151,1,0,3:0:0:0:
397,35,237303,6,0,B|378:98|378:98|385:110,1,80,10|0,0:1|0:0,0:0:0:0:
225,101,237606,2,0,L|314:160,1,80,4|0,3:2|0:0,0:0:0:0:
188,0,237909,2,0,L|100:42,1,80,4|0,3:2|0:0,0:0:0:0:
9,159,238212,5,2,3:1:0:0:
108,366,238363,1,10,0:3:0:0:
224,125,238515,1,8,0:3:0:0:
90,20,238666,5,2,3:1:0:0:
5,260,238818,1,10,0:3:0:0:
232,333,238969,1,4,0:3:0:0:
21,129,239121,6,0,L|-6:19,1,80,14|2,3:1|0:1,0:0:0:0:
125,246,239424,1,4,3:2:0:0:
131,214,239499,1,0,0:0:0:0:
137,182,239575,1,10,0:3:0:0:
143,150,239651,1,0,0:0:0:0:
134,136,239727,1,4,0:3:0:0:
26,316,239878,1,4,0:3:0:0:
220,261,240030,6,0,P|263:250|290:241,2,60.0000022888184,6|0|2,3:1|0:0|0:2,0:0:0:0:
261,351,240484,2,0,P|304:362|331:371,2,60.0000022888184,0|2|0,0:0|0:2|0:0,0:0:0:0:
347,184,240939,2,0,P|459:194|481:194,2,120.000004577637,2|2|2,0:2|0:2|0:2,0:0:0:0:
268,140,241696,1,0,0:0:0:0:
202,240,241848,6,0,P|155:254|127:257,2,60.0000022888184,2|0|2,0:0|0:0|0:0,0:0:0:0:
34,251,242303,2,0,P|65:298|79:321,2,60.0000022888184,0|2|0,0:0|0:0|0:0,0:0:0:0:
84,162,242757,1,2,0:3:0:0:
84,162,242909,1,0,0:0:0:0:
29,53,243060,1,2,0:2:0:0:
29,53,243212,1,0,0:0:0:0:
133,4,243363,6,0,L|201:11,1,60.0000022888184,2|0,0:0|0:0,0:0:0:0:
