osu file format v14

[General]
AudioFilename: audio.mp3
AudioLeadIn: 0
PreviewTime: 45158
Countdown: 0
SampleSet: Soft
StackLeniency: 0.5
Mode: 0
LetterboxInBreaks: 0
WidescreenStoryboard: 0

[Editor]
Bookmarks: 11364,17011,22658,28305,33952,39599,45246,48069,67834,90422,113011,135422,158187,180775,203364,225952,248540,254187,276775,299364,302319,302739,303224,303797,303886,308540,309114
DistanceSpacing: 0.3
BeatDivisor: 4
GridSize: 32
TimelineZoom: 1

[Metadata]
Title:Laughing Makes It Worse
TitleUnicode:Laughing Makes It Worse
Artist:Michael Cera Palin
ArtistUnicode:Michael Cera Palin
Creator:pishifat
Version:Expert
Source:
Tags:fa featured artist english rock punk growing pains emo indie alternative mcp
BeatmapID:3098550
BeatmapSetID:1513357

[Difficulty]
HPDrainRate:5
CircleSize:4
OverallDifficulty:8.5
ApproachRate:9.2
SliderMultiplier:1
SliderTickRate:0.5

[Events]
//Background and Video events
0,0,"s.jpg",0,0
//Break Periods
//Storyboard Layer 0 (Background)
//Storyboard Layer 1 (Fail)
//Storyboard Layer 2 (Pass)
//Storyboard Layer 3 (Foreground)
//Storyboard Layer 4 (Overlay)
//Storyboard Sound Samples

[TimingPoints]
90,342.857142857143,4,2,2,42,1,0
90,-133.333333333333,4,2,2,42,0,0
775,361.44578313253,4,2,2,42,1,0
775,-100,4,2,2,42,0,0
955,-100,4,2,2,32,0,0
1136,-100,4,2,2,42,0,0
1317,291.26213592233,4,2,2,42,1,0
1317,-133.333333333333,4,2,2,42,0,0
1608,444.444444444444,4,2,2,42,1,0
1830,327.868852459016,4,2,2,42,1,0
1830,-133.333333333333,4,2,2,42,0,0
2157,359.281437125747,4,2,2,42,1,0
2516,346.820809248553,4,2,2,42,1,0
2862,342.857142857142,4,2,2,42,1,0
2862,-133.333333333333,4,2,2,42,0,0
3204,363.636363636362,4,2,2,42,1,0
3749,-100,4,2,2,32,0,0
3931,-100,4,2,2,42,0,0
4113,294.117647058823,4,2,2,42,1,0
4113,-133.333333333333,4,2,2,42,0,0
4407,437.956204379561,4,2,2,42,1,0
4625,348.837209302324,4,2,2,42,1,0
4625,-133.333333333333,4,2,2,42,0,0
4973,-100,4,2,2,42,0,0
5497,441.176470588232,4,2,2,42,1,0
5717,350.877192982454,4,2,2,42,1,0
6067,342.85714285714,4,2,2,42,1,0
6324,-100,4,2,2,32,0,0
6409,355.029585798814,4,2,2,32,1,0
6409,-100,4,2,2,42,0,0
6941,303.030303030301,4,2,2,42,1,0
6941,-80,4,2,2,42,0,0
7244,444.44444444444,4,2,2,42,1,0
7466,352.941176470585,4,2,2,42,1,0
7466,-100,4,2,2,42,0,0
7642,377.358490566034,4,2,2,42,1,0
7830,352.941176470585,4,2,2,42,1,0
8447,-100,4,2,2,32,0,0
8535,346.820809248551,4,2,2,32,1,0
8535,-80,4,2,2,42,0,0
8881,-100,4,2,2,42,0,0
9748,299.999999999997,4,2,2,42,1,0
9748,-80,4,2,2,42,0,0
10047,428.571428571423,4,2,2,42,1,0
10261,397.350993377479,4,2,2,42,1,0
10261,-100,4,2,2,42,0,0
10658,352.941176470588,4,2,1,42,1,0
10658,-100,4,2,1,42,0,0
11364,352.941176470588,4,2,1,42,1,0
11716,346.820809248555,4,2,1,60,1,0
11716,-76.9230769230769,4,2,1,60,0,0
12409,352.941176470588,4,2,1,60,1,0
12409,-76.9230769230769,4,2,1,60,0,0
12761,352.941176470588,4,2,1,60,1,0
12761,-76.9230769230769,4,2,1,60,0,0
15584,357.142857142857,4,2,1,60,1,0
15584,-76.9230769230769,4,2,1,60,0,0
16655,-62.5,4,2,0,60,0,0
17011,347.826086956521,4,2,1,60,1,0
17011,-52.6315789473684,4,2,1,60,0,0
17363,-76.9230769230769,4,2,1,60,0,0
18402,355.029585798815,4,2,1,60,1,0
18402,-76.9230769230769,4,2,1,60,0,0
19822,352.941176470587,4,2,1,60,1,0
19822,-76.9230769230769,4,2,1,60,0,0
22116,-55.5555555555556,4,2,1,60,0,0
22204,-55.5555555555556,4,2,1,45,0,0
22292,357.142857142856,4,2,1,45,1,0
22292,-45.4545454545455,4,2,1,60,0,0
22649,352.941176470587,4,2,1,60,1,0
22649,-45.4545454545455,4,2,1,60,0,0
23001,-66.6666666666667,4,2,1,60,0,0
23884,-58.8235294117647,4,2,1,60,0,0
24060,-66.6666666666667,4,2,1,60,0,0
25119,-58.8235294117647,4,2,1,60,0,0
25472,-66.6666666666667,4,2,1,60,0,0
26707,-58.8235294117647,4,2,1,60,0,0
26884,-66.6666666666667,4,2,1,60,0,0
27590,357.142857142856,4,2,1,60,1,0
27590,-58.8235294117647,4,2,1,60,0,0
28125,-45.4545454545455,4,2,1,60,0,0
28304,342.857142857142,4,2,1,60,1,0
28304,-52.6315789473684,4,2,1,60,0,0
28646,-76.9230769230769,4,2,1,60,0,0
28989,355.029585798815,4,2,1,60,1,0
28989,-76.9230769230769,4,2,1,60,0,0
29699,352.941176470587,4,2,1,60,1,0
29699,-76.9230769230769,4,2,1,60,0,0
32522,355.029585798815,4,2,1,60,1,0
32522,-66.6666666666667,4,2,1,60,0,0
32877,-55.5555555555556,4,2,1,60,0,0
33232,-50,4,2,1,60,0,0
33587,-45.4545454545455,4,2,1,60,0,0
33942,352.941176470587,4,2,1,60,1,0
34294,-66.6666666666667,4,2,1,60,0,0
35177,-55.5555555555556,4,2,1,60,0,0
35353,-66.6666666666667,4,2,1,60,0,0
38883,358.208955223879,4,2,1,60,1,0
38883,-66.6666666666667,4,2,1,60,0,0
39420,-45.4545454545455,4,2,1,60,0,0
39598,-45.4545454545455,4,2,1,77,0,0
39599,352.941176470588,4,2,1,77,1,0
39599,-45.4545454545455,4,2,1,77,0,0
39951,-45.4545454545455,4,2,0,50,0,0
40304,-45.4545454545455,4,2,0,52,0,0
40657,-45.4545454545455,4,2,0,55,0,0
41010,-45.4545454545455,4,2,0,57,0,0
41363,-45.4545454545455,4,2,0,60,0,0
41716,-45.4545454545455,4,2,0,62,0,0
42068,-45.4545454545455,4,2,0,65,0,0
42421,-52.6315789473684,4,2,0,77,0,0
42774,-52.6315789473684,4,2,2,67,0,0
43127,-52.6315789473684,4,2,2,70,0,0
43480,-52.6315789473684,4,2,2,72,0,0
43833,-52.6315789473684,4,2,2,75,0,0
44186,-52.6315789473684,4,2,2,77,0,0
44539,-52.6315789473684,4,2,2,80,0,0
44892,-52.6315789473684,4,2,2,82,0,0
45245,-52.6315789473684,4,2,0,85,0,0
45333,-52.6315789473684,4,2,2,70,0,0
48068,-66.6666666666667,4,2,1,70,0,0
48421,-52.6315789473684,4,2,1,70,0,0
48774,-66.6666666666667,4,2,1,70,0,0
49304,-52.6315789473684,4,2,1,70,0,0
49657,-66.6666666666667,4,2,1,70,0,0
49833,-52.6315789473684,4,2,1,70,0,0
50539,-52.6315789473684,4,2,1,70,0,0
50716,-66.6666666666667,4,2,1,70,0,0
51245,-52.6315789473684,4,2,1,70,0,0
51774,-66.6666666666667,4,2,1,70,0,0
52127,-52.6315789473684,4,2,1,70,0,0
53539,-66.6666666666667,4,2,1,70,0,0
54068,-52.6315789473684,4,2,1,70,0,0
54245,-66.6666666666667,4,2,1,70,0,0
54951,-52.6315789473684,4,2,1,70,0,0
55833,-66.6666666666667,4,2,1,70,0,0
56186,-66.6666666666667,4,2,2,70,0,0
56539,-66.6666666666667,4,2,1,70,0,0
57068,-52.6315789473684,4,2,1,70,0,0
57774,-66.6666666666667,4,2,1,70,0,0
59363,-58.8235294117647,4,2,0,70,0,0
59716,-52.6315789473684,4,2,1,70,0,0
59892,-66.6666666666667,4,2,1,70,0,0
61127,-52.6315789473684,4,2,1,70,0,0
62186,-52.6315789473684,4,2,0,70,0,0
62539,-52.6315789473684,4,2,1,70,0,0
62716,-66.6666666666667,4,2,1,70,0,0
64657,-52.6315789473684,4,2,1,70,0,0
65010,-52.6315789473684,4,2,0,70,0,0
65363,-52.6315789473684,4,2,1,70,0,0
65892,-66.6666666666667,4,2,1,70,0,0
66068,-52.6315789473684,4,2,1,70,0,0
66422,344.827586206896,4,2,1,70,1,0
67284,366.412213740457,4,2,1,70,1,0
67294,-52.6315789473684,4,2,2,70,0,0
67833,-47.6190476190476,4,2,1,77,0,0
67834,352.941176470588,4,2,1,77,1,0
67834,-47.6190476190476,4,2,1,77,0,0
68186,-52.6315789473684,4,2,1,77,0,0
69951,-58.8235294117647,4,2,1,77,0,0
70480,-45.4545454545455,4,2,1,77,0,0
70657,-52.6315789473684,4,2,1,77,0,0
73657,-47.6190476190476,4,2,1,77,0,0
76304,-58.8235294117647,4,2,1,77,0,0
76657,-47.6190476190476,4,2,1,77,0,0
78774,-47.6190476190476,4,2,2,77,0,0
79127,-47.6190476190476,4,2,1,77,0,0
79657,-52.6315789473684,4,2,1,77,0,0
81245,-58.8235294117647,4,2,1,77,0,0
81774,-52.6315789473684,4,2,1,77,0,0
83363,-47.6190476190476,4,2,1,77,0,0
83716,-43.4782608695652,4,2,1,77,0,0
84068,-41.6666666666667,4,2,1,77,0,0
84775,-58.8235294117647,4,2,1,77,0,1
84951,-41.6666666666667,4,2,1,77,0,1
87068,-37.037037037037,4,2,1,77,0,1
87598,-58.8235294117647,4,2,1,77,0,0
87951,-47.6190476190476,4,2,1,77,0,0
88290,352.941176470588,4,2,1,77,1,0
88290,-47.6190476190476,4,2,1,77,0,0
89701,382.165605095541,4,2,1,77,1,0
89701,-58.8235294117647,4,2,1,77,0,0
89892,342.857142857143,4,2,1,77,1,0
90068,-58.8235294117647,4,2,2,77,0,0
90406,368.098159509203,4,2,2,77,1,0
90406,-43.4782608695652,4,2,2,77,0,1
90774,352.941176470588,4,2,2,77,1,1
90774,-50,4,2,2,77,0,1
91831,352.941176470588,4,2,2,77,1,1
92359,-50,4,2,2,77,0,1
93242,-43.4782608695652,4,2,2,77,0,1
93595,-50,4,2,2,77,0,1
95360,-43.4782608695652,4,2,0,77,0,1
95714,-43.4782608695652,4,2,2,77,0,1
96066,-50,4,2,2,77,0,1
98536,-37.037037037037,4,2,2,77,0,1
98889,-43.4782608695652,4,2,2,77,0,1
99243,-50,4,2,2,77,0,1
101007,337.078651685393,4,2,2,77,1,1
101007,-50,4,2,2,77,0,1
101681,363.636363636364,4,2,2,77,1,1
101681,-43.4782608695652,4,2,2,77,0,1
102044,-50,4,2,2,77,0,1
102772,352.941176470588,4,2,2,77,1,1
102948,-50,4,2,2,77,0,1
103125,352.941176470588,4,2,2,77,1,1
103477,-50,4,2,2,77,0,1
104535,-43.4782608695652,4,2,2,77,0,1
104888,-50,4,2,2,77,0,1
106301,344.827586206897,4,2,2,77,1,1
106301,-50,4,2,2,77,0,1
106653,-50,4,2,2,77,0,1
106829,-50,4,2,2,77,0,1
107335,379.746835443038,4,2,2,77,1,1
107335,-43.4782608695652,4,2,2,77,0,1
107714,352.941176470588,4,2,2,77,1,1
107888,-50,4,2,2,77,0,1
108773,352.941176470588,4,2,2,77,1,1
108948,-50,4,2,2,77,0,1
109829,-37.037037037037,4,2,2,77,0,1
110182,-43.4782608695652,4,2,2,77,0,1
110535,-50,4,2,2,77,0,1
113008,-66.6666666666667,4,2,1,70,0,0
113359,-52.6315789473684,4,2,1,70,0,0
113712,-66.6666666666667,4,2,1,70,0,0
114064,-52.6315789473684,4,2,1,70,0,0
114241,-58.8235294117647,4,2,1,70,0,0
114594,-66.6666666666667,4,2,1,70,0,0
115476,-52.6315789473684,4,2,1,70,0,0
115829,-58.8235294117647,4,2,0,70,0,0
116006,-58.8235294117647,4,2,1,70,0,0
116182,-52.6315789473684,4,2,1,70,0,0
116535,-66.6666666666667,4,2,1,70,0,0
117064,-58.8235294117647,4,2,1,70,0,0
117417,-66.6666666666667,4,2,1,70,0,0
117770,-52.6315789473684,4,2,1,70,0,0
117947,-66.6666666666667,4,2,1,70,0,0
118300,-52.6315789473684,4,2,1,70,0,0
118476,-66.6666666666667,4,2,1,70,0,0
118653,-66.6666666666667,4,2,0,70,0,0
119006,-52.6315789473684,4,2,1,70,0,0
119535,-66.6666666666667,4,2,1,70,0,0
119712,-52.6315789473684,4,2,1,70,0,0
120594,-66.6666666666667,4,2,1,70,0,0
121123,-52.6315789473684,4,2,1,70,0,0
121300,-66.6666666666667,4,2,1,70,0,0
121476,-52.6315789473684,4,2,0,70,0,0
121829,-66.6666666666667,4,2,1,70,0,0
122535,-52.6315789473684,4,2,1,70,0,0
123064,-66.6666666666667,4,2,1,70,0,0
123241,-52.6315789473684,4,2,1,70,0,0
123417,-66.6666666666667,4,2,1,70,0,0
123594,-66.6666666666667,4,2,2,70,0,0
123859,-45.4545454545455,4,2,2,70,0,0
124300,-45.4545454545455,4,2,1,70,0,0
124653,-52.6315789473684,4,2,1,70,0,0
125535,-66.6666666666667,4,2,1,70,0,0
126064,-52.6315789473684,4,2,1,70,0,0
126241,-66.6666666666667,4,2,1,70,0,0
127123,-58.8235294117647,4,2,0,70,0,0
127476,-52.6315789473684,4,2,1,70,0,0
127829,-66.6666666666667,4,2,1,70,0,0
128359,-52.6315789473684,4,2,1,70,0,0
129770,-66.6666666666667,4,2,1,70,0,0
129947,-52.6315789473684,4,2,0,70,0,0
130300,-52.6315789473684,4,2,1,70,0,0
130476,-66.6666666666667,4,2,1,70,0,0
130653,-52.6315789473684,4,2,1,70,0,0
131182,-66.6666666666667,4,2,1,70,0,0
131359,-52.6315789473684,4,2,1,70,0,0
132064,-52.6315789473684,4,2,2,70,0,0
133123,-47.6190476190476,4,2,2,70,0,0
135417,-52.6315789473684,4,2,2,77,0,0
135594,-45.4545454545455,4,2,2,77,0,0
136300,-52.6315789473684,4,2,2,77,0,0
137712,-58.8235294117647,4,2,2,77,0,0
138064,-45.4545454545455,4,2,2,77,0,0
138417,-45.4545454545455,4,2,2,77,0,0
139123,-52.6315789473684,4,2,2,77,0,0
140535,-58.8235294117647,4,2,2,77,0,0
140888,-45.4545454545455,4,2,2,77,0,0
141241,-45.4545454545455,4,2,1,77,0,0
141404,352.941176470588,4,2,1,77,1,0
141404,-45.4545454545455,4,2,1,77,0,0
141580,349.854227405247,4,2,1,77,1,0
141580,-52.6315789473684,4,2,1,77,0,0
142979,358.208955223879,4,2,1,77,1,0
142979,-52.6315789473684,4,2,1,77,0,0
143784,-45.4545454545455,4,2,0,77,0,0
143976,-45.4545454545455,4,2,1,77,0,0
144770,-52.6315789473684,4,2,1,77,0,0
145128,353.982300884955,4,2,1,77,1,0
145304,-52.6315789473684,4,2,1,77,0,0
146182,-45.4545454545455,4,2,0,77,0,0
146359,-45.4545454545455,4,2,1,77,0,0
146712,-52.6315789473684,4,2,1,77,0,0
146897,352.941176470587,4,2,2,77,1,0
146897,-45.4545454545455,4,2,2,77,0,0
147594,-50,4,2,2,77,0,0
149006,-55.5555555555556,4,2,2,77,0,0
149359,-45.4545454545455,4,2,2,77,0,0
149712,-45.4545454545455,4,2,2,77,0,0
150241,-50,4,2,2,77,0,0
150947,-45.4545454545455,4,2,2,77,0,0
151121,352.941176470587,4,2,2,77,1,0
151121,-45.4545454545455,4,2,2,77,0,0
151473,-41.6666666666667,4,2,2,77,0,0
152532,-41.6666666666667,4,2,1,77,0,1
152709,-41.6666666666667,4,2,1,77,0,1
153944,-41.6666666666667,4,2,1,77,0,1
154473,-40,4,2,1,77,0,1
154650,-37.037037037037,4,2,1,77,0,1
155356,350.877192982455,4,2,1,77,1,0
155356,-47.6190476190476,4,2,1,77,0,0
157461,361.445783132529,4,2,1,77,1,0
157822,-33.3333333333333,4,2,2,77,0,0
158184,352.941176470588,4,2,2,77,1,1
158184,-43.4782608695652,4,2,2,77,0,1
158535,-50,4,2,2,77,0,1
161006,-43.4782608695652,4,2,2,77,0,1
161359,-50,4,2,2,77,0,1
163109,352.941176470588,4,2,0,77,1,1
163109,-50,4,2,0,77,0,1
163285,-50,4,2,2,77,0,1
163814,370.37037037037,4,2,2,77,1,1
163814,-50,4,2,2,77,0,1
164184,352.941176470588,4,2,2,77,1,1
165066,-50,4,2,2,77,0,1
165242,352.941176470588,4,2,2,77,1,1
165418,-50,4,2,2,77,0,1
165594,-100,4,2,2,77,0,1
166300,-37.037037037037,4,2,2,77,0,1
166653,-43.4782608695652,4,2,2,77,0,1
167006,-50,4,2,2,77,0,1
168770,-50,4,2,0,77,0,1
168947,-50,4,2,2,77,0,1
169476,-43.4782608695652,4,2,2,77,0,1
169829,-50,4,2,2,77,0,1
172300,-43.4782608695652,4,2,2,77,0,1
172653,-50,4,2,2,77,0,1
175123,-43.4782608695652,4,2,2,77,0,1
175476,-50,4,2,2,77,0,1
177947,-43.4782608695652,4,2,2,77,0,1
178300,-50,4,2,2,77,0,1
180771,-50,4,2,2,77,0,0
181123,-90.9090909090909,4,2,2,45,0,0
183241,-90.9090909090909,4,2,0,45,0,0
183594,-90.9090909090909,4,2,2,45,0,0
186064,-90.9090909090909,4,2,0,45,0,0
186417,-90.9090909090909,4,2,2,45,0,0
189064,-90.9090909090909,4,2,2,55,0,0
189241,-83.3333333333333,4,2,2,55,0,0
189947,344.827586206896,4,2,2,55,1,0
189947,-83.3333333333333,4,2,2,55,0,0
190291,-76.9230769230769,4,2,2,55,0,0
190636,352.941176470588,4,2,2,55,1,0
190636,-71.4285714285714,4,2,2,55,0,0
191257,-66.6666666666667,4,2,2,55,0,0
192047,-66.6666666666667,4,2,2,45,0,0
193459,-90.9090909090909,4,2,2,45,0,0
194183,352.941176470588,4,2,2,45,1,0
194535,-90.9090909090909,4,2,0,45,0,0
194888,352.941176470588,4,2,2,45,1,0
194888,-90.9090909090909,4,2,2,45,0,0
197359,-90.9090909090909,4,2,0,45,0,0
197712,-90.9090909090909,4,2,2,45,0,0
200182,-90.9090909090909,4,2,0,45,0,0
200535,-76.9230769230769,4,2,2,55,0,0
201947,-71.4285714285714,4,2,2,55,0,0
202653,-66.6666666666667,4,2,2,55,0,0
203359,-76.9230769230769,4,2,2,50,0,0
208653,-76.9230769230769,4,2,0,50,0,0
209006,-76.9230769230769,4,2,2,50,0,0
211477,333.333333333333,4,2,2,50,1,0
211477,-76.9230769230769,4,2,2,50,0,0
211810,352.941176470588,4,2,2,50,1,0
211810,-66.6666666666667,4,2,2,50,0,0
212162,-76.9230769230769,4,2,2,50,0,0
213221,348.837209302325,4,2,2,50,1,0
213569,-76.9230769230769,4,2,2,50,0,0
213859,-76.9230769230769,4,2,0,50,0,0
214123,-76.9230769230769,4,2,2,50,0,0
214267,370.37037037037,4,2,2,50,1,0
214637,361.44578313253,4,2,2,50,1,0
214637,-76.9230769230769,4,2,2,50,0,0
215359,352.941176470588,4,2,2,50,1,0
215359,-76.9230769230769,4,2,2,50,0,0
216065,352.941176470588,4,2,2,50,1,0
216065,-76.9230769230769,4,2,2,50,0,0
218888,-66.6666666666667,4,2,2,50,0,0
221006,-66.6666666666667,4,2,2,50,0,0
221359,342.857142857143,4,2,2,50,1,0
221530,-66.6666666666667,4,2,2,50,0,0
222044,346.820809248555,4,2,2,50,1,0
222217,-66.6666666666667,4,2,2,50,0,0
223084,352.941176470588,4,2,2,50,1,0
223084,-66.6666666666667,4,2,2,60,0,0
224142,-100,4,2,2,60,0,0
224495,357.142857142857,4,2,2,60,1,0
224495,-66.6666666666667,4,2,2,60,0,0
224673,-58.8235294117647,4,2,2,60,0,0
225209,379.746835443038,4,2,2,60,1,0
225947,352.941176470588,4,2,2,60,1,0
225947,-66.6666666666667,4,2,2,60,0,0
227358,-66.6666666666667,4,2,2,45,0,0
227535,-66.6666666666667,4,2,2,60,0,0
233005,-66.6666666666667,4,2,2,45,0,0
233182,-66.6666666666667,4,2,2,60,0,0
234064,-76.9230769230769,4,2,2,60,0,0
234417,-66.6666666666667,4,2,2,60,0,0
235653,-62.5,4,2,2,65,0,0
237241,-62.5,4,2,2,65,0,0
242888,-58.8235294117647,4,2,2,65,0,0
244652,346.820809248555,4,2,2,65,1,0
244652,-58.8235294117647,4,2,2,65,0,0
245692,352.941176470588,4,2,2,65,1,0
245692,-50,4,2,2,65,0,0
247809,344.827586206897,4,2,2,65,1,0
248498,359.281437125749,4,2,2,65,1,0
248498,-50,4,2,2,65,0,0
249935,-33.3333333333333,4,2,2,65,0,0
251358,352.941176470588,4,2,2,65,1,0
251358,-25,4,2,2,65,0,0
253850,352.941176470588,4,2,2,65,1,0
254181,352.941176470588,4,2,2,77,1,1
254181,-90.9090909090909,4,2,2,77,0,1
254533,-37.037037037037,4,2,2,77,0,1
258063,-41.6666666666667,4,2,2,77,0,1
258416,-50,4,2,2,77,0,1
258769,-41.6666666666667,4,2,0,77,0,1
259122,-50,4,2,2,77,0,1
259828,-40,4,2,2,77,0,1
260181,-45.4545454545455,4,2,2,77,0,1
260522,352.941176470588,4,2,2,77,1,1
261051,-40,4,2,2,77,0,1
261227,352.941176470588,4,2,2,77,1,1
261403,-45.4545454545455,4,2,2,77,0,1
262638,-38.4615384615385,4,2,2,77,0,1
262991,-45.4545454545455,4,2,2,77,0,1
263874,-40,4,2,2,77,0,1
264227,-45.4545454545455,4,2,2,77,0,1
265109,-35.7142857142857,4,2,2,77,0,1
265462,-40,4,2,2,77,0,1
265828,352.941176470588,4,2,2,77,1,1
265828,-45.4545454545455,4,2,2,77,0,1
266886,352.941176470588,4,2,2,77,1,1
267060,-45.4545454545455,4,2,2,77,0,1
268297,-40,4,2,2,77,0,1
268650,-45.4545454545455,4,2,2,77,0,1
271120,-40,4,2,2,77,0,1
271473,-45.4545454545455,4,2,2,77,0,1
273944,-40,4,2,2,77,0,1
274297,-45.4545454545455,4,2,2,77,0,1
275709,-35.7142857142857,4,2,2,77,0,1
276414,-45.4545454545455,4,2,2,77,0,1
277120,-37.037037037037,4,2,2,77,0,1
281003,-50,4,2,2,77,0,1
281356,-62.5,4,2,2,77,0,1
281698,352.941176470588,4,2,2,77,1,1
282403,352.941176470588,4,2,2,77,1,1
282755,-37.037037037037,4,2,2,77,0,1
287344,-50,4,2,2,77,0,1
287697,-35.7142857142857,4,2,2,77,0,1
288050,-40,4,2,2,77,0,1
288417,-45.4545454545455,4,2,2,77,0,1
288418,352.941176470588,4,2,2,77,1,1
288418,-45.4545454545455,4,2,2,77,0,1
289653,-45.4545454545455,4,2,2,77,0,1
289854,352.941176470588,4,2,2,77,1,1
289854,-45.4545454545455,4,2,2,77,0,1
290912,342.857142857143,4,2,2,77,1,1
290912,-40,4,2,2,77,0,1
291254,-45.4545454545455,4,2,2,77,0,1
291597,352.941176470588,4,2,2,77,1,1
292302,352.941176470588,4,2,2,77,1,1
292831,-45.4545454545455,4,2,2,77,0,1
293712,-40,4,2,2,77,0,1
294064,-45.4545454545455,4,2,2,77,0,1
296182,-52.6315789473684,4,2,2,77,0,1
296535,-37.037037037037,4,2,2,77,0,1
299360,352.941176470588,4,2,0,77,1,0
299360,-215.05376344086,4,2,0,77,0,0
299448,-215.05376344086,4,2,1,5,0,0
309153,-215.05376344086,4,2,0,5,0,0

[Colours]
Combo1 : 171,160,99
Combo2 : 192,192,192
Combo3 : 87,106,185
Combo4 : 132,132,132
Combo5 : 92,163,105
Combo6 : 170,170,170
Combo7 : 153,89,89
Combo8 : 157,157,157

[HitObjects]
165,156,90,6,0,P|216:147|251:130,1,75.0000028610231,0|0,3:0|3:0,0:0:0:0:
113,9,775,2,0,P|135:20|152:38,1,50,0|0,3:0|3:0,0:0:0:0:
103,105,1136,1,0,3:0:0:0:
165,156,1317,6,0,P|216:147|251:130,1,75.0000028610231,0|0,3:0|0:0,0:0:0:0:
103,105,1830,2,0,L|67:116,1,37.5000014305115,0|0,3:0|0:0,0:0:0:0:
113,9,2157,2,0,P|135:20|152:38,1,50,0|0,3:0|0:0,0:0:0:0:
55,120,2516,2,0,L|103:105,1,50,0|0,3:0|0:0,0:0:0:0:
105,262,2862,6,0,P|68:256|34:239,1,75,0|0,3:0|3:0,0:0:0:0:
251,339,3567,2,0,P|248:314|239:291,1,50,0|0,3:0|3:0,0:0:0:0:
183,232,3931,1,0,3:0:0:0:
105,262,4113,6,0,P|68:256|34:239,1,75,0|0,3:0|0:0,0:0:0:0:
183,232,4625,2,0,L|194:196,1,37.5000014305115,0|0,3:0|0:0,0:0:0:0:
251,339,4973,2,0,P|248:314|239:291,1,50,0|0,3:0|0:0,0:0:0:0:
198,184,5322,2,0,L|180:239,1,50,0|0,3:0|0:0,0:0:0:0:
272,351,5717,6,0,P|337:321|382:321,1,100,0|0,3:0|3:0,0:0:0:0:
433,244,6238,1,0,3:0:0:0:
433,244,6324,1,0,3:0:0:0:
433,244,6409,1,0,3:0:0:0:
508,275,6586,2,0,P|476:271|443:252,1,50,0|0,3:0|0:0,0:0:0:0:
272,351,6941,6,0,P|337:321|395:320,1,125,2|0,3:2|0:0,0:0:0:0:
496,193,7466,2,0,L|488:142,1,50,0|0,3:0|0:0,0:0:0:0:
433,244,7830,1,0,3:0:0:0:
508,275,8006,2,0,P|476:271|443:252,1,50,0|0,3:0|0:0,0:0:0:0:
378,169,8359,1,0,3:0:0:0:
378,169,8447,1,0,3:0:0:0:
378,169,8535,6,0,P|332:164|296:141,1,62.5,0|0,3:0|0:0,0:0:0:0:
223,52,8881,2,0,L|214:-5,1,50,0|0,3:0|0:0,0:0:0:0:
149,95,9228,1,0,3:0:0:0:
114,171,9402,2,0,P|119:141|134:116,1,50,0|0,3:0|0:0,0:0:0:0:
378,169,9748,6,0,P|331:165|251:118,1,125,2|0,3:2|0:0,0:0:0:0:
222,253,10261,2,0,P|257:228|282:220,1,50,0|0,3:0|0:0,0:0:0:0:
130,374,10658,5,2,0:0:0:0:
249,358,10834,1,0,0:0:0:0:
230,351,10922,1,0,0:0:0:0:
211,344,11010,1,2,0:0:0:0:
376,294,11187,1,0,0:0:0:0:
350,304,11275,1,0,0:0:0:0:
322,312,11363,1,4,0:1:0:0:
385,97,11716,6,0,L|470:119,1,64.9999970245363,4|0,0:3|0:0,0:0:0:0:
456,122,11976,1,0,0:0:0:0:
464,131,12062,1,4,0:3:0:0:
385,15,12236,2,0,L|424:24,1,32.4999985122681,0|0,0:3|0:0,0:0:0:0:
441,13,12409,1,4,0:3:0:0:
339,108,12585,2,0,L|393:97,2,32.4999985122681,0|0|4,0:0|0:0|0:3,0:0:0:0:
208,60,12937,5,0,0:0:0:0:
219,65,13025,1,0,0:0:0:0:
230,70,13113,1,4,0:3:0:0:
151,143,13290,2,0,L|207:130,1,32.4999985122681
205,155,13466,1,4,0:3:0:0:
118,63,13643,2,0,L|75:54,1,32.4999985122681
62,69,13819,2,0,P|30:112|40:172,1,97.4999955368044,4|0,0:3|0:0,0:0:0:0:
39,164,14172,5,4,0:3:0:0:
18,317,14349,2,0,L|26:277,2,32.4999985122681,0|0|4,0:0|0:0|0:3,0:0:0:0:
151,143,14702,2,0,L|162:207,1,64.9999970245363,2|4,0:3|0:3,0:0:0:0:
66,383,15055,1,0,0:0:0:0:
77,377,15143,1,0,0:0:0:0:
88,371,15231,2,0,L|105:292,1,64.9999970245363,6|0,0:3|0:0,0:0:0:0:
113,301,15496,1,0,0:0:0:0:
124,295,15584,1,4,0:3:0:0:
285,343,15762,6,0,L|250:353,1,32.4999985122681
233,336,15941,1,4,0:3:0:0:
325,270,16119,1,0,0:0:0:0:
313,266,16209,1,0,0:0:0:0:
301,262,16298,1,4,0:3:0:0:
398,223,16476,1,0,0:0:0:0:
496,371,16655,2,0,P|497:316|443:299,1,120,6|0,0:3|0:0,0:0:0:0:
447,310,17011,6,0,P|500:252|496:159,1,142.49999619484,4|0,0:1|0:0,0:0:0:0:
494,166,17358,1,4,0:3:0:0:
384,122,17532,1,0,0:0:0:0:
381,110,17619,1,0,0:0:0:0:
377,98,17706,1,4,0:3:0:0:
471,53,17880,2,0,L|463:85,2,32.4999985122681,0|0|4,0:0|0:0|0:3,0:0:0:0:
323,12,18228,5,0,0:0:0:0:
319,24,18315,1,0,0:0:0:0:
315,36,18402,2,0,P|281:50|230:47,1,64.9999970245363,4|0,0:3|0:0,0:0:0:0:
243,42,18668,1,0,0:0:0:0:
234,32,18757,1,4,0:3:0:0:
119,154,18934,2,0,L|110:106,1,32.4999985122681
128,101,19112,1,4,0:3:0:0:
228,154,19289,1,0,0:0:0:0:
215,149,19378,1,0,0:0:0:0:
202,144,19467,1,4,0:3:0:0:
171,219,19644,1,0,0:0:0:0:
0,329,19822,6,0,P|43:300|73:296,1,64.9999970245363,4|0,0:3|0:0,0:0:0:0:
67,300,20086,1,0,0:0:0:0:
77,307,20174,1,4,0:3:0:0:
158,384,20351,2,0,L|151:343,1,32.4999985122681
167,331,20527,1,4,0:3:0:0:
274,380,20704,2,0,L|219:365,2,32.4999985122681,0|0|4,0:0|0:0|0:3,0:0:0:0:
329,243,21057,5,0,0:0:0:0:
316,239,21145,1,0,0:0:0:0:
303,235,21233,2,0,L|218:251,1,64.9999970245363,4|0,0:3|0:0,0:0:0:0:
226,243,21498,1,0,0:0:0:0:
213,239,21586,1,4,0:3:0:0:
384,120,21763,2,0,L|373:169,1,32.4999985122681
353,165,21939,1,4,0:3:0:0:
300,43,22116,6,2,L|312:107,1,44.999998626709
410,30,22292,6,0,B|373:41|373:41|283:12,1,110.000003356934,6|2,0:3|0:0,0:0:0:0:
37,86,22649,6,0,P|97:97|153:207,1,165.000005035401,4|0,0:1|0:0,0:0:0:0:
144,194,23001,2,0,P|124:234|125:285,1,75.0000028610231,6|0,0:3|0:0,0:0:0:0:
185,322,23266,1,0,0:0:0:0:
199,310,23354,2,0,L|281:296,1,75.0000028610231,6|0,0:3|0:0,0:0:0:0:
335,356,23619,1,0,0:0:0:0:
321,368,23707,1,6,0:3:0:0:
484,284,23884,6,0,P|478:262|466:238,1,42.5000008106232,2|0,0:0|0:0,0:0:0:0:
390,256,24060,2,0,P|396:293|412:326,1,75.0000028610231,6|0,0:3|0:0,0:0:0:0:
486,366,24325,1,0,0:0:0:0:
503,371,24413,1,6,0:3:0:0:
415,169,24590,1,0,0:0:0:0:
396,165,24678,1,0,0:0:0:0:
377,161,24766,1,6,0:3:0:0:
493,128,24943,1,2,0:0:0:0:
284,172,25119,2,0,P|249:119|244:56,1,127.50000243187,6|0,0:3|0:0,0:0:0:0:
255,41,25472,5,6,0:3:0:0:
111,77,25648,2,0,L|61:65,2,37.5000014305115,2|0|6,0:0|0:0|0:3,0:0:0:0:
176,195,26001,1,2,0:0:0:0:
157,200,26090,1,0,0:0:0:0:
139,205,26178,1,6,0:3:0:0:
70,153,26354,1,2,0:0:0:0:
196,273,26531,1,6,0:3:0:0:
57,288,26707,6,0,P|80:295|96:306,1,42.5000008106232,2|0,0:0|0:0,0:0:0:0:
78,384,26884,2,0,P|41:375|9:355,1,75.0000028610231,6|0,0:3|0:0,0:0:0:0:
332,314,27237,2,0,P|300:334|264:345,1,75.0000028610231,6|0,0:3|0:0,0:0:0:0:
202,291,27501,1,0,0:0:0:0:
196,273,27590,2,0,L|211:175,1,85.0000016212464,6|0,0:3|0:0,0:0:0:0:
47,112,27947,5,6,0:3:0:0:
279,154,28125,2,0,L|210:169,1,55.0000016784668,4|0,0:3|0:0,0:0:0:0:
32,129,28304,6,0,P|122:112|167:56,1,142.49999619484,10|0,0:3|0:0,0:0:0:0:
161,66,28646,1,4,0:3:0:0:
100,6,28818,1,0,0:0:0:0:
240,35,28989,2,0,L|331:21,1,64.9999970245363,4|0,0:3|0:0,0:0:0:0:
315,30,29255,1,0,0:0:0:0:
326,35,29344,1,4,0:3:0:0:
158,152,29521,6,0,L|121:144,2,32.4999985122681,0|0|4,0:0|0:0|0:3,0:0:0:0:
287,110,29875,1,0,0:0:0:0:
298,114,29963,1,0,0:0:0:0:
309,119,30051,2,0,L|327:201,1,64.9999970245363,4|0,0:3|0:0,0:0:0:0:
334,187,30316,1,0,0:0:0:0:
345,192,30404,1,4,0:3:0:0:
218,240,30581,2,0,L|227:195,1,32.4999985122681
243,192,30757,1,4,0:3:0:0:
315,321,30934,5,0,0:0:0:0:
302,317,31022,1,0,0:0:0:0:
289,313,31110,2,0,P|249:323|205:353,1,64.9999970245363,4|0,0:3|0:0,0:0:0:0:
220,344,31375,1,0,0:0:0:0:
212,354,31463,1,4,0:3:0:0:
103,280,31640,2,0,L|113:332,1,32.4999985122681
132,327,31816,1,4,0:3:0:0:
30,225,31993,2,0,L|23:257,2,32.4999985122681,0|0|4,0:0|0:0|0:3,0:0:0:0:
41,65,32346,1,0,0:0:0:0:
44,77,32434,1,0,0:0:0:0:
48,87,32522,6,0,P|106:73|137:49,1,75.0000028610231,6|0,0:3|0:0,0:0:0:0:
131,53,32788,1,0,0:0:0:0:
145,46,32877,2,0,P|182:69|219:132,1,89.9999972534181,6|0,0:3|0:0,0:0:0:0:
228,184,33143,1,0,0:0:0:0:
245,193,33232,2,0,P|325:181|375:138,1,100,6|0,0:3|0:0,0:0:0:0:
391,104,33498,1,0,0:0:0:0:
408,95,33587,2,0,P|479:158|489:261,1,165.000005035401,6|0,0:3|0:0,0:0:0:0:
467,326,33942,1,4,0:1:0:0:
12,218,34294,6,0,L|106:202,1,75.0000028610231,6|0,0:3|0:0,0:0:0:0:
101,215,34559,1,0,0:0:0:0:
117,224,34647,1,6,0:3:0:0:
36,129,34824,1,0,0:0:0:0:
33,110,34912,1,0,0:0:0:0:
30,91,35000,1,6,0:3:0:0:
203,30,35177,6,0,P|160:17|141:20,1,44.999998626709,2|0,0:0|0:0,0:0:0:0:
122,88,35353,2,0,P|171:108|209:110,1,75.0000028610231,6|0,0:3|0:0,0:0:0:0:
398,11,35706,2,0,P|356:18|327:35,1,75.0000028610231,6|0,0:3|0:0,0:0:0:0:
279,103,35971,1,0,0:0:0:0:
286,120,36059,1,6,0:3:0:0:
468,52,36236,2,0,L|461:88,1,37.5000014305115,2|0,0:0|0:0,0:0:0:0:
480,112,36412,1,6,0:3:0:0:
366,206,36589,2,0,L|357:169,1,37.5000014305115,2|0,0:0|0:0,0:0:0:0:
444,257,36765,5,6,0:3:0:0:
301,347,36941,2,0,P|283:310|278:261,1,75.0000028610231,2|6,0:0|0:3,0:0:0:0:
155,160,37294,2,0,P|173:197|178:246,1,75.0000028610231,2|6,0:0|0:3,0:0:0:0:
21,364,37647,5,2,0:0:0:0:
6,352,37736,1,0,0:0:0:0:
0,334,37824,1,6,0:3:0:0:
105,372,38000,1,2,0:0:0:0:
180,328,38177,1,6,0:3:0:0:
201,245,38353,1,2,0:0:0:0:
178,163,38530,2,0,L|89:178,1,75.0000028610231,6|0,0:3|0:0,0:0:0:0:
29,115,38794,1,0,0:0:0:0:
41,101,38883,2,0,L|114:88,1,75.0000028610231,6|0,0:3|0:0,0:0:0:0:
290,182,39241,5,6,0:3:0:0:
148,17,39420,2,0,L|135:90,1,55.0000016784668,4|0,0:3|0:0,0:0:0:0:
308,194,39599,6,0,P|354:111|338:19,1,165.000005035401,4|0,0:1|0:0,0:0:0:0:
270,15,39952,5,4,0:3:0:0:
241,82,40128,1,4,0:3:0:0:
231,29,40305,5,4,0:3:0:0:
238,107,40481,1,4,0:3:0:0:
188,55,40658,5,4,0:3:0:0:
240,145,40834,1,4,0:3:0:0:
147,124,41011,5,4,0:3:0:0:
262,185,41187,1,4,0:3:0:0:
110,212,41363,5,4,0:3:0:0:
301,223,41540,1,4,0:3:0:0:
134,335,41716,5,4,0:3:0:0:
369,234,41893,1,4,0:3:0:0:
259,384,42069,5,4,0:3:0:0:
441,212,42246,1,4,0:3:0:0:
512,361,42422,6,0,B|486:342|486:342|405:326,1,94.9999974632264,4|0,0:1|0:0,0:0:0:0:
134,335,42775,5,6,0:3:0:0:
255,298,42952,1,6,0:3:0:0:
344,332,43128,5,6,0:3:0:0:
92,239,43305,1,6,0:3:0:0:
0,284,43481,5,6,0:3:0:0:
256,160,43658,1,6,0:3:0:0:
390,214,43834,5,6,0:3:0:0:
287,6,44011,1,6,0:3:0:0:
79,109,44187,1,6,0:3:0:0:
182,317,44363,1,6,0:3:0:0:
312,0,44540,5,6,0:3:0:0:
395,236,44716,1,6,0:3:0:0:
158,320,44893,1,6,0:3:0:0:
75,83,45069,1,6,0:3:0:0:
28,350,45246,5,6,0:3:0:0:
484,34,47716,1,8,0:0:0:0:
484,34,48069,6,0,L|428:45,1,37.5000014305115,4|0,0:1|0:0,0:0:0:0:
371,98,48246,1,2,0:0:0:0:
393,104,48334,1,0,0:0:0:0:
416,111,48422,2,0,P|452:151|460:196,1,94.9999974632264,8|0,0:0|0:0,0:0:0:0:
409,250,48687,1,0,0:0:0:0:
390,237,48775,2,0,L|320:222,1,37.5000014305115,4|0,0:3|0:0,0:0:0:0:
262,274,48952,2,0,L|303:284,1,37.5000014305115,4|0,0:3|0:0,0:0:0:0:
401,344,49128,5,8,0:0:0:0:
267,372,49305,2,0,P|242:335|247:271,1,94.9999974632264,4|0,0:3|0:0,0:0:0:0:
205,217,49569,1,0,0:0:0:0:
184,206,49658,2,0,L|116:225,1,37.5000014305115,4|0,0:3|0:0,0:0:0:0:
99,277,49834,2,0,P|53:267|11:232,1,94.9999974632264,8|0,0:0|0:0,0:0:0:0:
54,67,50187,5,4,0:3:0:0:
50,91,50275,1,0,0:0:0:0:
56,115,50363,1,4,0:3:0:0:
67,134,50452,1,0,0:0:0:0:
84,147,50540,2,0,L|151:130,1,47.4999987316132,10|0,0:0|0:0,0:0:0:0:
169,68,50716,2,0,L|216:57,1,37.5000014305115,4|0,0:3|0:0,0:0:0:0:
283,138,50893,2,0,P|317:159|383:154,1,75.0000028610231,6|0,0:3|0:0,0:0:0:0:
424,138,51158,1,0,0:0:0:0:
440,123,51246,2,0,L|432:69,1,47.4999987316132,10|0,0:0|0:0,0:0:0:0:
458,4,51422,2,0,L|476:126,1,94.9999974632264,2|4,0:0|0:3,0:0:0:0:
343,240,51775,2,0,L|379:248,1,37.5000014305115,4|0,0:3|0:0,0:0:0:0:
426,344,51952,5,10,0:0:0:0:
404,336,52040,1,0,0:0:0:0:
380,328,52128,2,0,P|336:331|291:370,1,94.9999974632264,6|0,0:3|0:0,0:0:0:0:
218,373,52393,1,0,0:0:0:0:
197,368,52481,1,4,0:3:0:0:
114,202,52658,2,0,L|211:184,1,94.9999974632264,10|0,0:0|0:0,0:0:0:0:
226,192,52922,1,2,0:0:0:0:
241,207,53011,1,6,0:3:0:0:
248,228,53099,1,0,0:0:0:0:
244,250,53187,1,6,0:3:0:0:
231,268,53275,1,0,0:0:0:0:
212,279,53363,2,0,L|144:265,1,47.4999987316132,10|0,0:0|0:0,0:0:0:0:
46,302,53540,2,0,L|103:313,1,37.5000014305115,4|0,0:3|0:0,0:0:0:0:
101,329,53716,1,4,0:3:0:0:
15,217,53893,5,0,0:0:0:0:
36,211,53981,1,0,0:0:0:0:
57,205,54069,2,0,L|69:147,1,47.4999987316132,8|0,0:0|0:0,0:0:0:0:
131,67,54246,2,0,L|122:115,1,37.5000014305115,2|0,0:0|0:0,0:0:0:0:
184,155,54422,1,4,0:3:0:0:
201,140,54511,1,0,0:0:0:0:
221,130,54599,1,4,0:3:0:0:
242,125,54687,1,0,0:0:0:0:
264,123,54775,1,8,0:0:0:0:
474,244,54952,6,0,P|431:244|384:217,1,94.9999974632264,2|0,0:0|0:0,0:0:0:0:
345,145,55216,1,0,0:0:0:0:
352,126,55305,1,4,0:3:0:0:
495,99,55481,2,0,L|487:52,1,47.4999987316132,8|0,0:0|0:0,0:0:0:0:
467,35,55658,1,0,0:0:0:0:
360,105,55834,2,0,P|324:98|274:64,1,75.0000028610231,4|0,0:3|0:0,0:0:0:0:
221,33,56099,1,4,0:3:0:0:
208,77,56187,5,8,0:0:0:0:
194,119,56275,1,8,0:0:0:0:
182,95,56363,5,8,0:3:0:0:
179,116,56452,1,8,0:3:0:0:
173,108,56540,6,0,L|121:119,1,37.5000014305115,4|0,0:1|0:0,0:0:0:0:
50,179,56716,2,0,L|109:167,1,37.5000014305115,2|0,0:0|0:0,0:0:0:0:
258,212,56893,1,8,0:0:0:0:
178,343,57069,2,0,P|197:307|177:231,1,94.9999974632264,2|4,0:0|0:3,0:0:0:0:
116,243,57334,1,0,0:0:0:0:
103,259,57422,1,4,0:3:0:0:
258,212,57599,2,0,P|238:181|202:163,1,47.4999987316132,10|0,0:0|0:0,0:0:0:0:
136,115,57775,6,0,L|233:93,1,75.0000028610231,6|0,0:3|0:3,0:0:0:0:
223,80,58040,1,0,0:0:0:0:
242,68,58128,1,4,0:3:0:0:
263,60,58216,1,0,0:0:0:0:
285,57,58305,1,8,0:0:0:0:
391,162,58481,2,0,L|340:152,1,37.5000014305115,2|0,0:0|0:0,0:0:0:0:
338,136,58658,1,4,0:3:0:0:
454,111,58834,2,0,L|444:74,1,37.5000014305115,6|0,0:3|0:0,0:0:0:0:
507,12,59011,1,8,0:0:0:0:
472,126,59187,1,4,0:3:0:0:
438,241,59363,6,0,B|414:220|414:220|361:214|323:242,1,127.50000243187,6|0,0:3|0:0,0:0:0:0:
283,310,59716,2,0,L|299:371,1,47.4999987316132,8|0,0:0|0:0,0:0:0:0:
246,243,59893,1,2,0:0:0:0:
224,236,59981,1,0,0:0:0:0:
202,229,60069,2,0,L|131:212,1,37.5000014305115,4|0,0:3|0:0,0:0:0:0:
68,264,60246,2,0,L|124:278,1,37.5000014305115,6|0,0:3|0:0,0:0:0:0:
19,384,60422,1,8,0:0:0:0:
47,246,60599,1,4,0:3:0:0:
75,114,60775,5,6,0:3:0:0:
147,142,60952,1,6,0:3:0:0:
168,135,61040,1,0,0:0:0:0:
189,128,61128,2,0,L|179:69,1,47.4999987316132,8|0,0:0|0:0,0:0:0:0:
109,33,61305,2,0,P|198:60|226:52,1,94.9999974632264,2|4,0:0|0:3,0:0:0:0:
266,24,61569,1,0,0:0:0:0:
272,4,61658,1,4,0:3:0:0:
292,153,61834,2,0,L|359:137,1,47.4999987316132,8|0,0:0|0:0,0:0:0:0:
417,58,62011,5,2,0:0:0:0:
410,79,62099,1,0,0:0:0:0:
403,100,62187,2,0,B|436:111|436:111|480:147|473:226,1,142.49999619484,6|0,0:3|0:0,0:0:0:0:
426,265,62540,2,0,L|369:251,1,47.4999987316132,10|0,0:0|0:0,0:0:0:0:
272,235,62716,1,2,0:0:0:0:
253,247,62805,1,0,0:0:0:0:
243,267,62893,1,4,0:3:0:0:
378,332,63069,2,0,L|328:340,1,37.5000014305115,6|0,0:3|0:0,0:0:0:0:
182,365,63246,1,8,0:0:0:0:
155,251,63422,6,0,P|167:286|182:308,1,37.5000014305115,6|0,0:3|0:0,0:0:0:0:
205,188,63599,2,0,P|193:153|178:131,1,37.5000014305115,2|0,0:0|0:0,0:0:0:0:
121,115,63775,1,6,0:3:0:0:
98,120,63863,1,0,0:0:0:0:
76,125,63952,1,8,0:0:0:0:
25,33,64128,2,0,L|16:78,1,37.5000014305115,2|0,0:0|0:0,0:0:0:0:
0,179,64305,1,6,0:3:0:0:
20,186,64393,1,0,0:0:0:0:
38,198,64481,1,4,0:3:0:0:
52,214,64569,1,0,0:0:0:0:
62,234,64658,2,0,L|180:255,1,94.9999974632264,10|4,0:0|0:3,0:0:0:0:
215,298,64922,1,0,0:0:0:0:
203,315,65011,6,0,B|227:334|227:334|278:340|341:301,1,142.49999619484,6|0,0:3|0:0,0:0:0:0:
371,237,65363,1,8,0:0:0:0:
480,332,65540,1,2,0:0:0:0:
459,339,65628,1,0,0:0:0:0:
438,347,65716,1,4,0:3:0:0:
371,237,65893,2,0,L|418:252,1,37.5000014305115,4|0,0:3|0:0,0:0:0:0:
509,208,66069,2,0,L|440:187,1,47.4999987316132,8|0,0:0|0:0,0:0:0:0:
422,91,66246,2,0,P|379:42|318:35,1,94.9999974632264,6|0,0:3|0:0,0:0:0:0:
277,50,66508,1,0,0:0:0:0:
268,71,66594,1,4,0:3:0:0:
205,9,66766,1,8,0:0:0:0:
136,107,66939,1,2,0:0:0:0:
157,101,67025,1,0,0:0:0:0:
174,86,67111,1,8,0:3:0:0:
13,47,67284,5,8,0:3:0:0:
24,44,67375,1,8,0:3:0:0:
35,42,67467,1,8,0:0:0:0:
26,98,67558,1,8,0:0:0:0:
20,138,67650,1,8,0:3:0:0:
16,170,67742,1,4,0:3:0:0:
12,192,67834,6,0,P|68:220|124:208,1,104.999996795654,4|0,0:1|0:0,0:0:0:0:
192,171,68098,1,2,0:0:0:0:
185,192,68186,1,8,0:0:0:0:
328,305,68363,6,0,L|317:256,1,47.4999987316132,6|0,0:3|0:0,0:0:0:0:
470,185,68539,2,0,P|415:221|374:221,1,94.9999974632264,6|0,0:3|0:0,0:0:0:0:
304,139,68804,1,4,0:3:0:0:
319,180,68892,1,8,0:0:0:0:
199,316,69069,6,0,P|233:307|255:286,1,47.4999987316132,6|0,0:3|0:0,0:0:0:0:
228,217,69245,2,0,P|158:240|129:274,1,94.9999974632264,6|0,0:3|0:0,0:0:0:0:
105,345,69510,1,2,0:0:0:0:
109,326,69598,1,8,0:0:0:0:
46,148,69775,6,0,L|54:208,1,47.4999987316132,2|0,0:0|0:0,0:0:0:0:
26,298,69951,2,0,L|42:196,1,85.0000016212464,6|0,0:3|0:0,0:0:0:0:
169,142,70216,1,4,0:3:0:0:
128,154,70304,1,8,0:0:0:0:
84,45,70481,6,0,P|110:48|116:73,1,55.0000016784668,6|0,0:3|0:0,0:0:0:0:
34,127,70657,2,0,P|35:90|71:32,1,94.9999974632264,6|0,0:3|0:0,0:0:0:0:
219,18,70922,1,4,0:3:0:0:
179,5,71010,1,8,0:0:0:0:
359,119,71186,6,0,P|391:113|419:101,1,47.4999987316132,6|0,0:3|0:0,0:0:0:0:
403,26,71363,2,0,P|356:29|311:54,1,94.9999974632264,6|0,0:3|0:0,0:0:0:0:
268,165,71628,1,4,0:3:0:0:
279,126,71716,1,8,0:0:0:0:
380,261,71892,6,0,L|392:313,1,47.4999987316132,6|0,0:3|0:0,0:0:0:0:
273,325,72069,2,0,P|280:270|319:226,1,94.9999974632264,6|0,0:3|0:3,0:0:0:0:
424,178,72334,1,2,0:0:0:0:
433,198,72422,2,0,P|470:231|515:246,1,94.9999974632264,10|0,0:0|0:0,0:0:0:0:
497,118,72686,1,0,0:0:0:0:
477,124,72775,1,6,0:3:0:0:
364,59,72951,1,2,0:0:0:0:
384,66,73039,1,4,0:3:0:0:
402,73,73128,1,8,0:0:0:0:
327,156,73304,2,0,P|305:127|300:104,1,47.4999987316132,4|0,0:3|0:0,0:0:0:0:
296,8,73481,5,6,0:3:0:0:
211,173,73657,2,0,P|264:207|293:208,1,52.4999983978272,2|0,0:0|0:0,0:0:0:0:
208,66,73834,1,8,0:0:0:0:
123,160,74010,5,2,0:0:0:0:
130,138,74098,1,0,0:0:0:0:
147,123,74186,1,4,0:3:0:0:
13,132,74363,1,2,0:0:0:0:
23,176,74451,1,4,0:3:0:0:
57,206,74539,1,8,0:0:0:0:
22,330,74716,2,0,P|49:290|76:283,1,52.4999983978272,6|0,0:3|0:0,0:0:0:0:
87,384,74892,1,2,0:0:0:0:
194,244,75069,5,6,0:3:0:0:
4,346,75245,1,8,0:0:0:0:
197,370,75422,1,2,0:0:0:0:
219,363,75510,1,0,0:0:0:0:
235,345,75598,2,0,P|236:289|205:233,1,104.999996795654,4|0,0:3|0:0,0:0:0:0:
133,189,75863,1,4,0:3:0:0:
114,229,75951,1,8,0:0:0:0:
223,85,76128,1,2,0:0:0:0:
228,105,76216,1,0,0:0:0:0:
234,125,76304,6,0,L|330:145,1,85.0000016212464,4|0,0:3|0:0,0:0:0:0:
429,120,76569,1,4,0:3:0:0:
457,156,76657,2,0,P|423:212|404:217,1,52.4999983978272,8|0,0:0|0:0,0:0:0:0:
348,254,76834,2,0,P|371:267|397:272,1,52.4999983978272,2|0,0:0|0:0,0:0:0:0:
416,292,77010,1,4,0:3:0:0:
268,373,77186,1,2,0:0:0:0:
301,340,77275,1,4,0:3:0:0:
346,354,77363,1,8,0:0:0:0:
221,278,77539,5,2,0:0:0:0:
209,240,77628,1,0,0:0:0:0:
215,201,77716,1,0,0:0:0:0:
235,168,77804,1,0,0:0:0:0:
268,146,77892,1,4,0:3:0:0:
143,135,78069,1,8,0:0:0:0:
151,23,78245,2,0,P|165:106|154:138,1,104.999996795654,2|4,0:0|0:3,0:0:0:0:
32,172,78598,2,0,P|56:170|70:199,1,52.4999983978272,2|4,0:0|0:3,0:0:0:0:
6,331,78775,5,8,0:0:0:0:
57,319,78863,1,8,0:0:0:0:
107,307,78951,1,8,0:0:0:0:
62,281,79039,1,8,0:0:0:0:
15,256,79128,6,0,P|8:204|25:154,1,104.999996795654,4|0,0:1|0:0,0:0:0:0:
99,86,79392,1,2,0:0:0:0:
80,95,79481,1,8,0:0:0:0:
182,236,79657,6,0,L|228:245,1,47.4999987316132,2|0,0:0|0:0,0:0:0:0:
330,199,79834,2,0,P|279:206|241:235,1,94.9999974632264,6|0,0:3|0:0,0:0:0:0:
215,366,80098,1,4,0:3:0:0:
207,325,80186,1,8,0:0:0:0:
453,306,80363,6,0,P|451:329|441:352,1,47.4999987316132,2|0,0:0|0:0,0:0:0:0:
360,352,80539,2,0,P|370:286|397:248,1,94.9999974632264,2|0,0:0|0:3,0:0:0:0:
467,206,80804,1,2,0:0:0:0:
447,214,80892,1,8,0:0:0:0:
328,107,81069,6,0,L|387:116,1,47.4999987316132,2|0,0:0|0:0,0:0:0:0:
351,25,81245,2,0,L|247:42,1,85.0000016212464,4|0,0:3|0:0,0:0:0:0:
251,124,81510,1,4,0:3:0:0:
293,132,81598,1,8,0:0:0:0:
86,155,81775,6,0,P|64:143|70:114,1,47.4999987316132,2|0,0:0|0:0,0:0:0:0:
136,79,81951,2,0,P|127:143|87:176,1,94.9999974632264,4|0,0:3|0:0,0:0:0:0:
5,239,82216,1,4,0:3:0:0:
46,229,82304,1,8,0:0:0:0:
206,291,82481,6,0,P|182:281|136:273,1,47.4999987316132,2|0,0:0|0:0,0:0:0:0:
115,342,82657,2,0,P|174:372|210:372,1,94.9999974632264,4|0,0:3|0:0,0:0:0:0:
293,300,82922,1,4,0:3:0:0:
274,338,83010,1,8,0:0:0:0:
437,370,83186,6,0,P|409:330|408:306,1,47.4999987316132,2|0,0:0|0:0,0:0:0:0:
418,157,83363,2,0,P|391:220|365:258,1,104.999996795654,2|4,0:3|0:3,0:0:0:0:
240,205,83628,1,0,0:0:0:0:
250,189,83716,2,0,P|245:141|219:54,1,115.000002193451,10|0,0:0|0:0,0:0:0:0:
32,141,83981,1,0,0:0:0:0:
51,146,84069,2,0,P|92:207|111:262,1,119.999996337891,6|0,0:3|0:0,0:0:0:0:
60,355,84333,1,4,0:3:0:0:
17,345,84422,1,12,0:0:0:0:
18,21,84775,5,4,0:1:0:0:
177,113,84951,2,0,P|147:108|122:92,1,59.9999981689454,2|0,0:0|0:0,0:0:0:0:
237,55,85128,1,8,0:0:0:0:
222,185,85304,5,2,0:0:0:0:
237,206,85392,1,0,0:0:0:0:
261,217,85481,1,4,0:3:0:0:
406,176,85657,5,2,0:0:0:0:
371,138,85745,1,4,0:3:0:0:
371,87,85833,1,8,0:0:0:0:
457,339,86010,2,0,P|430:352|398:358,1,59.9999981689454,2|0,0:0|0:0,0:0:0:0:
331,240,86186,6,0,P|390:254|450:260,1,119.999996337891,6|0,0:3|0:0,0:0:0:0:
505,200,86451,1,2,3:2:0:0:
485,189,86539,1,8,0:0:0:0:
252,283,86716,6,0,P|241:310|238:340,1,59.9999981689454,2|0,0:0|0:0,0:0:0:0:
313,225,86892,1,4,0:3:0:0:
168,371,87069,6,0,P|141:349|145:304,1,67.5000002574921,2|0,0:0|0:0,0:0:0:0:
299,145,87245,2,0,P|233:166|156:181,1,135.000000514984,8|0,0:0|0:0,0:0:0:0:
42,67,87510,1,6,3:3:0:0:
61,115,87598,1,6,0:0:0:0:
106,13,87775,5,4,0:3:0:0:
7,282,87951,2,0,P|46:253|116:243,1,104.999996795654,8|0,0:0|0:0,0:0:0:0:
273,363,88290,6,0,P|298:374|342:384,1,52.4999983978272,4|0,0:3|0:0,0:0:0:0:
402,328,88466,1,2,0:0:0:0:
415,279,88554,1,4,0:3:0:0:
457,254,88642,2,0,L|521:267,2,52.4999983978272,8|0|0,0:0|0:0|0:0,0:0:0:0:
393,203,88907,2,0,B|374:167|374:167|383:102,1,104.999996795654,8|0,0:0|0:0,0:0:0:0:
449,56,89172,1,4,0:3:0:0:
196,115,89348,6,0,P|239:143|290:154,1,104.999996795654,8|0,0:0|0:0,0:0:0:0:
194,28,89613,1,8,0:0:0:0:
152,37,89701,2,0,P|151:71|178:120,1,85.0000016212464,4|0,0:3|0:0,0:0:0:0:
71,154,89977,1,4,0:3:0:0:
88,142,90063,5,8,0:0:0:0:
100,190,90149,1,8,0:0:0:0:
90,242,90234,1,8,0:0:0:0:
57,279,90320,1,8,0:0:0:0:
11,296,90406,6,0,P|132:330|184:356,1,172.500003290176,4|0,0:1|0:0,0:0:0:0:
280,380,90774,2,0,P|232:363|189:338,1,100,10|0,0:0|0:0,0:0:0:0:
290,176,91126,1,4,0:3:0:0:
308,266,91303,1,4,0:3:0:0:
502,205,91479,5,8,0:0:0:0:
437,90,91656,2,0,P|420:163|391:232,1,150,6|0,0:3|0:0,0:0:0:0:
308,266,92007,1,6,0:3:0:0:
502,205,92183,1,8,0:0:0:0:
386,344,92360,6,0,P|395:295|410:248,1,100,2|0,0:0|0:0,0:0:0:0:
209,116,92713,1,4,0:3:0:0:
321,171,92889,2,0,P|275:191|227:204,1,100,10|0,0:0|0:0,0:0:0:0:
6,97,93242,6,0,P|37:177|85:248,1,172.500003290176,4|0,0:1|0:0,0:0:0:0:
165,334,93595,2,0,P|139:290|107:252,1,100,10|0,0:0|0:0,0:0:0:0:
377,322,93948,1,4,0:3:0:0:
299,368,94125,1,4,0:3:0:0:
206,176,94301,5,8,0:0:0:0:
321,147,94478,2,0,P|285:213|262:284,1,150,6|0,0:3|0:0,0:0:0:0:
299,368,94831,1,6,0:3:0:0:
452,183,95007,1,8,0:0:0:0:
466,279,95183,1,2,0:0:0:0:
418,116,95360,6,0,P|422:147|428:172,1,57.5000010967255,6|0,0:3|0:0,0:0:0:0:
496,354,95536,2,0,P|494:327|485:297,1,57.5000010967255,6|0,0:3|0:0,0:0:0:0:
335,148,95713,1,8,0:0:0:0:
283,151,95801,1,8,0:3:0:0:
247,167,95889,1,4,0:3:0:0:
227,188,95978,1,4,0:3:0:0:
217,207,96066,6,0,P|148:191|94:113,1,150,4|0,0:1|0:0,0:0:0:0:
224,40,96419,1,12,0:0:0:0:
80,123,96595,1,2,0:0:0:0:
134,51,96772,1,6,0:3:0:0:
217,16,96948,1,2,0:0:0:0:
306,24,97125,1,8,0:0:0:0:
419,216,97301,6,0,P|408:193|403:169,1,50,6|0,0:3|0:0,0:0:0:0:
512,235,97478,1,2,0:0:0:0:
400,96,97654,2,0,P|411:119|416:143,1,50,6|0,0:3|0:0,0:0:0:0:
296,181,97831,1,10,0:0:0:0:
206,170,98007,1,2,0:0:0:0:
122,205,98183,1,6,0:3:0:0:
73,280,98360,1,6,0:3:0:0:
21,16,98536,6,0,B|37:89|37:89|44:92|44:92|55:143,1,135.000000514984,12|4,0:0|0:3,0:0:0:0:
156,362,98889,6,0,P|239:352|300:294,1,172.500003290176,4|0,0:1|0:0,0:0:0:0:
317,206,99242,1,10,0:0:0:0:
327,295,99419,1,2,0:0:0:0:
293,211,99595,1,6,0:3:0:0:
305,122,99772,1,2,0:0:0:0:
360,49,99948,1,10,0:0:0:0:
445,218,100125,6,0,P|388:195|375:184,1,50,6|0,0:3|0:0,0:0:0:0:
504,150,100301,1,2,0:0:0:0:
425,326,100478,2,0,P|482:303|495:292,1,50,6|0,0:3|0:0,0:0:0:0:
379,185,100654,1,8,0:0:0:0:
293,211,100831,1,2,0:0:0:0:
120,367,101007,6,0,P|71:362|26:340,1,100,4|0,0:0|0:0,0:0:0:0:
162,245,101259,1,8,0:0:0:0:
178,295,101344,1,8,0:0:0:0:
57,239,101512,1,8,0:3:0:0:
299,34,101681,6,0,P|267:115|204:206,1,172.500003290176,4|0,0:1|0:0,0:0:0:0:
178,295,102044,2,0,P|201:251|231:210,1,100,10|0,0:0|0:0,0:0:0:0:
493,255,102408,1,4,0:3:0:0:
512,343,102590,1,4,0:3:0:0:
308,257,102771,5,8,0:0:0:0:
422,314,102948,2,0,P|375:331|267:349,1,150,6|0,0:3|0:0,0:0:0:0:
192,313,103301,1,6,0:3:0:0:
343,174,103477,5,8,0:0:0:0:
308,257,103654,1,2,0:0:0:0:
194,46,103830,2,0,P|210:93|233:137,1,100,6|4,0:3|0:3,0:0:0:0:
78,338,104183,2,0,P|96:291|122:249,1,100,10|4,0:0|0:3,0:0:0:0:
479,316,104536,6,0,P|393:306|311:279,1,172.500003290176,4|0,0:1|0:0,0:0:0:0:
212,228,104889,2,0,P|275:243|334:269,1,100,10|0,0:0|0:0,0:0:0:0:
512,85,105242,1,4,0:3:0:0:
479,5,105419,1,4,0:3:0:0:
186,135,105595,5,8,0:0:0:0:
402,55,105772,2,0,P|317:65|235:95,1,150,6|0,0:3|0:0,0:0:0:0:
186,135,106125,1,6,0:3:0:0:
420,230,106301,2,0,P|398:184|370:139,1,100,10|0,0:0|0:0,0:0:0:0:
60,297,106645,6,0,P|70:329|83:325,1,50,2|0,0:3|0:0,0:0:0:0:
182,235,106818,1,8,0:0:0:0:
229,219,106904,1,8,0:0:0:0:
273,221,106990,1,8,0:3:0:0:
309,242,107076,1,8,0:3:0:0:
334,275,107163,1,4,0:3:0:0:
340,301,107249,1,4,0:3:0:0:
339,318,107335,6,0,P|419:290|465:213,1,172.500003290176,4|0,0:1|0:0,0:0:0:0:
449,123,107714,1,10,0:0:0:0:
479,207,107890,1,2,0:0:0:0:
429,132,108066,1,6,0:3:0:0:
346,95,108243,1,6,0:3:0:0:
256,97,108419,1,10,0:0:0:0:
163,200,108596,6,0,P|185:147|205:123,1,50,6|0,0:3|0:0,0:0:0:0:
228,271,108772,1,2,0:0:0:0:
79,266,108949,2,0,P|103:320|122:340,1,50,6|0,0:3|0:0,0:0:0:0:
240,251,109125,1,10,0:0:0:0:
156,221,109302,1,2,0:0:0:0:
69,244,109478,1,6,0:3:0:0:
4,302,109655,1,6,0:3:0:0:
46,61,109831,6,0,B|90:53|90:53|101:57|101:57|178:42,1,135.000000514984,12|4,0:0|0:3,0:0:0:0:
457,329,110184,6,0,P|410:259|329:235,1,172.500003290176,4|0,0:1|0:0,0:0:0:0:
261,286,110537,1,14,0:0:0:0:
319,218,110714,1,2,0:0:0:0:
204,349,110890,1,6,0:3:0:0:
278,298,111067,1,6,0:3:0:0:
113,355,111243,1,14,0:0:0:0:
12,261,111420,6,0,P|29:326|35:334,1,50,6|0,0:3|0:0,0:0:0:0:
78,195,111596,1,2,0:0:0:0:
147,246,111773,2,0,P|99:218|85:201,1,50,6|0,0:3|0:0,0:0:0:0:
86,22,111949,1,14,0:0:0:0:
94,111,112125,1,2,0:0:0:0:
7,26,112302,2,0,L|73:38,1,50,6|0,0:3|0:0,0:0:0:0:
259,125,112478,5,8,0:0:0:0:
231,84,112567,1,8,0:0:0:0:
186,61,112655,1,8,0:0:0:0:
202,64,112743,1,4,0:3:0:0:
218,67,112831,1,4,0:3:0:0:
235,70,112920,1,4,0:3:0:0:
250,73,113008,6,0,L|259:119,1,37.5000014305115,6|0,0:3|0:0,0:0:0:0:
356,67,113184,1,2,0:0:0:0:
370,49,113273,1,0,0:0:0:0:
390,40,113361,2,0,P|433:49|479:92,1,94.9999974632264,10|0,0:0|0:0,0:0:0:0:
505,170,113625,1,0,0:0:0:0:
483,156,113714,2,0,L|494:102,1,37.5000014305115,6|0,0:3|0:0,0:0:0:0:
409,142,113890,2,0,L|401:178,1,37.5000014305115,4|0,0:3|0:0,0:0:0:0:
428,347,114067,6,0,L|445:268,1,47.4999987316132,10|0,0:0|0:0,0:0:0:0:
369,262,114243,2,0,P|309:283|281:318,1,85.0000016212464,6|0,0:3|0:0,0:0:0:0:
242,353,114508,1,0,0:0:0:0:
233,375,114596,2,0,L|220:323,1,37.5000014305115,6|0,0:3|0:0,0:0:0:0:
188,162,114773,1,8,0:0:0:0:
204,264,114949,1,2,0:0:0:0:
186,253,115037,1,0,0:0:0:0:
173,237,115125,2,0,L|183:188,1,37.5000014305115,4|0,0:3|0:0,0:0:0:0:
269,146,115302,2,0,L|261:182,1,37.5000014305115,6|0,0:3|0:0,0:0:0:0:
143,35,115478,2,0,L|152:81,1,47.4999987316132,8|0,0:0|0:0,0:0:0:0:
176,99,115655,1,6,0:3:0:0:
41,64,115831,6,0,B|16:81|16:81|1:104|5:163,1,85.0000016212464,2|0,0:3|0:0,0:0:0:0:
43,213,116096,1,0,0:0:0:0:
59,200,116184,2,0,P|93:234|60:352,1,142.49999619484,10|0,0:0|0:0,0:0:0:0:
26,371,116537,2,0,L|79:357,1,37.5000014305115,4|0,0:3|0:0,0:0:0:0:
172,375,116714,2,0,L|135:384,1,37.5000014305115,4|0,0:3|0:0,0:0:0:0:
181,289,116890,1,8,0:0:0:0:
294,379,117067,6,0,P|265:350|288:244,1,127.50000243187,6|0,0:3|0:0,0:0:0:0:
328,226,117420,1,4,0:3:0:0:
347,233,117508,1,0,0:0:0:0:
360,248,117596,2,0,L|411:236,1,37.5000014305115,8|0,0:0|0:0,0:0:0:0:
494,213,117773,6,0,P|509:173|504:140,1,47.4999987316132,2|0,0:0|0:0,0:0:0:0:
374,59,117949,1,4,0:3:0:0:
370,81,118037,1,0,0:0:0:0:
374,102,118125,1,4,0:3:0:0:
385,121,118214,1,0,0:0:0:0:
402,134,118302,2,0,L|469:117,1,47.4999987316132,8|0,0:0|0:0,0:0:0:0:
486,37,118478,2,0,L|449:45,1,37.5000014305115,4|0,0:3|0:0,0:0:0:0:
284,82,118655,6,0,B|268:55|268:55|237:28|191:35,1,112.500004291535,2|0,0:3|0:0,0:0:0:0:
124,75,119008,2,0,L|135:142,1,47.4999987316132,10|0,0:0|0:0,0:0:0:0:
32,150,119184,2,0,P|87:129|130:139,1,94.9999974632264,2|4,0:0|0:3,0:0:0:0:
172,196,119449,1,0,0:0:0:0:
157,213,119537,2,0,L|108:221,1,37.5000014305115,6|0,0:3|0:0,0:0:0:0:
29,254,119714,1,8,0:0:0:0:
39,272,119802,1,0,0:0:0:0:
48,289,119890,2,0,P|91:291|149:353,1,94.9999974632264,6|0,0:3|0:0,0:0:0:0:
187,374,120155,1,0,0:0:0:0:
204,363,120243,2,0,L|214:300,1,47.4999987316132,6|0,0:3|0:0,0:0:0:0:
390,329,120420,5,8,0:0:0:0:
321,227,120596,1,0,0:0:0:0:
307,244,120684,1,0,0:0:0:0:
297,264,120773,1,4,0:3:0:0:
291,286,120861,1,0,0:0:0:0:
291,308,120949,1,4,0:3:0:0:
295,331,121037,1,0,0:0:0:0:
305,351,121125,2,0,L|319:278,1,47.4999987316132,8|0,0:0|0:0,0:0:0:0:
390,329,121302,2,0,L|383:366,1,37.5000014305115,4|0,0:3|0:0,0:0:0:0:
501,268,121478,6,0,B|467:258|467:258|438:227|441:149,1,142.49999619484,2|0,0:3|0:0,0:0:0:0:
470,78,121831,1,10,0:0:0:0:
305,17,122008,1,2,0:0:0:0:
328,21,122096,1,0,0:0:0:0:
349,29,122184,1,4,0:3:0:0:
368,40,122272,1,0,0:0:0:0:
385,55,122361,2,0,L|317:67,1,37.5000014305115,6|0,0:3|0:0,0:0:0:0:
303,150,122537,2,0,L|355:140,1,47.4999987316132,8|0,0:0|0:0,0:0:0:0:
440,156,122714,6,0,P|468:193|477:240,1,94.9999974632264,6|0,0:3|0:0,0:0:0:0:
309,255,123067,1,4,0:3:0:0:
329,265,123155,1,0,0:0:0:0:
351,268,123243,2,0,L|365:192,1,47.4999987316132,8|0,0:0|0:0,0:0:0:0:
217,242,123420,1,0,0:0:0:0:
223,263,123508,1,0,0:0:0:0:
235,281,123596,1,8,0:3:0:0:
8,328,123772,5,8,0:0:0:0:
63,314,123861,2,0,B|90:308|90:308|127:336,1,55.0000016784668,8|0,0:0|0:0,0:0:0:0:
20,227,124037,5,8,0:3:0:0:
32,242,124125,1,8,0:3:0:0:
128,338,124302,6,0,P|105:261|150:195,1,165.000005035401,4|0,0:1|0:0,0:0:0:0:
192,125,124655,2,0,L|145:114,1,47.4999987316132,10|0,0:0|0:0,0:0:0:0:
6,107,124831,1,2,0:0:0:0:
23,120,124920,1,0,0:0:0:0:
45,125,125008,2,0,P|72:86|70:40,1,94.9999974632264,6|4,0:3|0:3,0:0:0:0:
9,214,125361,2,0,L|83:192,1,47.4999987316132,10|0,0:0|0:0,0:0:0:0:
192,125,125537,5,4,0:3:0:0:
213,132,125625,1,0,0:0:0:0:
230,146,125714,1,0,0:0:0:0:
243,164,125802,1,0,0:0:0:0:
249,185,125890,2,0,L|241:239,1,37.5000014305115,4|0,0:3|0:0,0:0:0:0:
154,300,126067,1,8,0:0:0:0:
161,280,126155,1,0,0:0:0:0:
176,264,126243,1,0,0:0:0:0:
341,356,126420,6,0,L|405:342,1,37.5000014305115,6|0,0:3|0:0,0:0:0:0:
414,260,126596,2,0,L|352:273,1,37.5000014305115,6|0,0:3|0:0,0:0:0:0:
249,185,126772,1,8,0:0:0:0:
403,105,126949,1,6,0:3:0:0:
416,122,127037,1,0,0:0:0:0:
417,144,127125,2,0,B|390:113|390:113|283:92,1,127.50000243187,6|0,0:3|0:0,0:0:0:0:
249,185,127478,6,0,P|239:147|242:122,1,47.4999987316132,10|0,0:0|0:0,0:0:0:0:
265,12,127655,1,0,0:0:0:0:
257,31,127743,1,0,0:0:0:0:
242,46,127831,2,0,L|188:55,1,37.5000014305115,6|0,0:3|0:0,0:0:0:0:
99,16,128008,2,0,L|135:9,1,37.5000014305115,6|0,0:3|0:0,0:0:0:0:
92,157,128184,1,8,0:0:0:0:
17,93,128361,2,0,P|54:141|35:229,1,142.49999619484,6|0,0:3|0:0,0:0:0:0:
16,292,128714,1,4,0:3:0:0:
36,298,128802,1,0,0:0:0:0:
57,296,128890,1,8,0:0:0:0:
173,226,129067,5,0,0:0:0:0:
168,248,129155,1,0,0:0:0:0:
164,268,129243,2,0,P|203:278|243:313,1,94.9999974632264,6|4,0:3|0:3,0:0:0:0:
193,373,129508,1,0,0:0:0:0:
172,368,129596,1,10,0:0:0:0:
319,287,129772,2,0,L|329:346,1,37.5000014305115,6|0,0:3|0:0,0:0:0:0:
487,350,129949,6,0,B|515:323|515:323|527:267|480:214,1,142.49999619484,2|0,0:3|0:0,0:0:0:0:
418,184,130302,2,0,L|407:238,1,47.4999987316132,8|0,0:0|0:0,0:0:0:0:
306,117,130478,1,2,0:0:0:0:
290,99,130567,1,0,0:0:0:0:
289,77,130655,2,0,P|324:52|398:62,1,94.9999974632264,6|4,0:3|0:3,0:0:0:0:
477,83,130920,1,0,0:0:0:0:
458,71,131008,2,0,L|446:-6,1,47.4999987316132,10|0,0:0|0:0,0:0:0:0:
374,50,131184,2,0,L|383:107,1,37.5000014305115,4|0,0:3|0:0,0:0:0:0:
297,196,131361,6,0,P|250:195|211:169,1,94.9999974632264,2|4,0:0|0:3,0:0:0:0:
185,98,131625,1,0,0:0:0:0:
192,78,131714,1,10,0:0:0:0:
82,241,131890,2,0,L|70:177,1,47.4999987316132,2|0,0:0|0:0,0:0:0:0:
4,232,132067,1,8,0:3:0:0:
261,279,132243,5,8,0:0:0:0:
207,282,132331,1,8,0:0:0:0:
157,298,132420,1,8,0:0:0:0:
202,329,132508,5,8,0:3:0:0:
214,325,132596,1,8,0:3:0:0:
228,325,132684,1,8,0:3:0:0:
223,372,132773,5,4,0:1:0:0:
508,42,133125,6,0,B|462:31|462:31|412:52|389:127,1,157.499995193482,12|0,0:0|0:0,0:0:0:0:
424,188,133478,1,4,0:3:0:0:
290,76,133655,1,4,0:3:0:0:
386,284,133831,5,8,0:0:0:0:
303,185,134008,2,0,P|352:198|415:205,1,104.999996795654,2|4,0:0|0:3,0:0:0:0:
281,201,134361,5,4,0:3:0:0:
424,188,134537,1,8,0:0:0:0:
177,136,134714,6,0,P|202:130|227:122,1,52.4999983978272,2|0,0:0|0:0,0:0:0:0:
290,76,134890,1,4,0:1:0:0:
37,149,135067,5,8,0:0:0:0:
28,199,135155,1,8,0:0:0:0:
48,247,135243,1,8,0:0:0:0:
122,78,135420,6,0,P|98:85|105:100,1,47.4999987316132,2|0,0:3|0:0,0:0:0:0:
177,136,135596,2,0,P|259:120|329:68,1,165.000005035401,4|0,0:1|0:0,0:0:0:0:
356,0,135949,1,8,0:0:0:0:
382,186,136125,5,2,0:2:0:0:
202,116,136302,2,0,P|241:90|287:82,1,94.9999974632264,6|4,0:3|0:3,0:0:0:0:
207,247,136655,1,8,0:0:0:0:
382,186,136831,6,0,P|358:171|320:171,1,47.4999987316132,2|0,0:0|0:0,0:0:0:0:
289,230,137008,2,0,P|328:256|374:264,1,94.9999974632264,6|4,0:3|0:3,0:0:0:0:
370,152,137361,1,8,0:0:0:0:
480,341,137537,5,2,0:0:0:0:
512,252,137714,2,0,B|519:292|519:292|492:340,1,85.0000016212464,6|4,0:3|0:3,0:0:0:0:
370,152,138067,6,0,P|383:139|388:171,1,55.0000016784668,10|0,0:0|0:0,0:0:0:0:
431,275,138243,1,2,0:0:0:0:
407,285,138331,1,2,0:0:0:0:
383,282,138420,2,0,P|351:214|367:113,1,165.000005035401,4|0,0:1|0:0,0:0:0:0:
412,66,138772,1,8,0:0:0:0:
239,136,138949,5,2,0:0:0:0:
396,246,139125,2,0,P|396:199|377:157,1,94.9999974632264,6|4,0:3|0:3,0:0:0:0:
279,332,139478,1,8,0:0:0:0:
224,211,139655,6,0,P|233:231|234:256,1,47.4999987316132,2|0,0:0|0:0,0:0:0:0:
164,297,139831,2,0,P|144:254|144:207,1,94.9999974632264,6|4,0:3|0:3,0:0:0:0:
332,21,140184,2,0,P|271:27|219:57,1,94.9999974632264,10|0,0:0|0:0,0:0:0:0:
348,207,140537,5,6,0:3:0:0:
239,136,140714,1,4,0:3:0:0:
463,26,140890,6,0,B|498:58|489:106|489:106|471:135|471:135|477:179,1,165.000005035401,12|0,0:0|0:0,0:0:0:0:
488,256,141243,5,4,0:1:0:0:
348,207,141404,2,0,P|318:213|291:245,1,55.0000016784668,2|0,0:0|0:0,0:0:0:0:
440,377,141580,5,8,0:0:0:0:
321,310,141754,1,2,0:0:0:0:
346,315,141842,1,0,0:0:0:0:
367,331,141929,1,4,0:3:0:0:
148,361,142104,5,2,0:0:0:0:
201,366,142192,1,4,0:3:0:0:
238,328,142279,1,8,0:0:0:0:
58,278,142454,2,0,P|84:284|109:304,1,47.4999987316132,6|0,0:3|0:0,0:0:0:0:
0,335,142629,1,2,0:0:0:0:
187,236,142804,5,6,0:3:0:0:
200,213,142891,1,0,0:0:0:0:
201,187,142979,2,0,P|157:144|112:132,1,94.9999974632264,8|2,0:0|0:0,0:0:0:0:
39,94,143247,1,2,0:0:0:0:
57,87,143337,1,4,0:3:0:0:
286,146,143516,5,2,0:0:0:0:
277,99,143605,1,4,0:3:0:0:
238,72,143695,1,8,0:0:0:0:
224,84,143784,2,0,B|244:102|244:102|336:80,1,110.000003356934,2|0,0:3|0:0,0:0:0:0:
386,27,144053,1,4,0:1:0:0:
93,322,144411,5,8,0:0:0:0:
102,241,144590,1,0,0:0:0:0:
127,246,144680,1,0,0:0:0:0:
144,263,144770,2,0,P|134:315|93:355,1,94.9999974632264,4|0,0:3|0:0,0:0:0:0:
14,305,145038,1,4,0:3:0:0:
7,256,145128,1,8,0:0:0:0:
232,353,145304,6,0,P|215:369|191:377,1,47.4999987316132,6|0,0:3|0:0,0:0:0:0:
276,248,145481,2,0,P|286:299|277:322,1,47.4999987316132,2|0,0:0|0:0,0:0:0:0:
272,162,145658,1,4,0:3:0:0:
252,257,145835,1,8,0:0:0:0:
440,153,146012,5,2,0:0:0:0:
418,133,146101,1,0,0:0:0:0:
392,127,146189,2,0,B|377:149|377:149|402:262,1,110.000003356934,2|0,0:3|0:0,0:0:0:0:
494,89,146455,1,4,0:3:0:0:
503,39,146543,1,8,0:0:0:0:
401,310,146720,6,0,P|411:324|408:299,1,47.4999987316132,2|0,0:0|0:0,0:0:0:0:
308,202,146897,2,0,P|196:219|154:253,1,165.000005035401,4|0,0:1|0:0,0:0:0:0:
119,321,147249,1,8,0:0:0:0:
125,169,147426,5,2,0:0:0:0:
298,281,147602,2,0,P|231:313|185:312,1,100,4|4,0:3|0:3,0:0:0:0:
276,120,147955,1,8,0:0:0:0:
0,126,148132,6,0,P|2:150|12:173,1,50,6|0,0:3|0:0,0:0:0:0:
125,169,148308,2,0,P|122:119|101:74,1,100,6|0,0:3|0:0,0:0:0:0:
119,321,148661,1,8,0:0:0:0:
18,142,148838,5,2,0:0:0:0:
176,234,149014,2,0,B|170:278|170:278|141:313,1,89.9999972534181,6|4,0:3|0:3,0:0:0:0:
359,160,149367,6,0,P|327:162|341:183,1,55.0000016784668,8|0,0:0|0:0,0:0:0:0:
317,304,149544,1,6,0:3:0:0:
339,308,149632,1,2,0:0:0:0:
359,297,149720,2,0,P|388:220|374:140,1,165.000005035401,4|0,0:1|0:0,0:0:0:0:
326,77,150073,1,8,0:0:0:0:
465,148,150249,5,2,0:0:0:0:
257,248,150426,2,0,P|248:192|270:138,1,100,6|4,0:3|0:3,0:0:0:0:
451,344,150779,1,8,0:0:0:0:
368,162,150955,6,0,P|345:176|330:199,1,55.0000016784668,6|0,0:3|0:0,0:0:0:0:
508,271,151121,2,0,P|467:262|380:231,1,110.000003356934,2|4,0:0|0:3,0:0:0:0:
88,100,151473,2,0,P|272:157|311:177,1,179.999994506836,10|0,0:0|0:0,0:0:0:0:
331,199,151826,1,6,0:3:0:0:
87,208,152003,5,8,0:0:0:0:
82,262,152091,1,8,0:0:0:0:
74,316,152179,1,8,0:0:0:0:
66,370,152268,1,8,0:0:0:0:
48,320,152356,1,8,0:0:0:0:
31,269,152444,1,8,0:0:0:0:
14,218,152532,5,4,0:1:0:0:
213,174,152709,2,0,P|183:179|158:195,1,59.9999981689454,2|0,0:0|0:0,0:0:0:0:
261,239,152885,1,8,0:0:0:0:
227,361,153062,5,2,0:0:0:0:
209,342,153150,1,0,0:0:0:0:
202,318,153238,1,4,0:3:0:0:
376,218,153415,5,2,0:0:0:0:
341,256,153503,1,4,0:3:0:0:
341,307,153591,1,8,0:0:0:0:
463,382,153768,2,0,P|438:365|423:339,1,59.9999981689454,6|0,0:3|0:0,0:0:0:0:
512,183,153944,6,0,P|452:191|393:203,1,119.999996337891,2|0,0:0|0:0,0:0:0:0:
327,125,154209,1,2,0:0:0:0:
347,136,154297,1,8,0:0:0:0:
225,227,154473,6,0,P|227:262|250:248,1,62.5,2|0,0:0|0:0,0:0:0:0:
327,125,154650,2,0,P|269:118|189:93,1,135.000000514984,4|0,0:3|0:0,0:0:0:0:
80,146,154915,1,4,0:3:0:0:
48,75,155003,1,8,0:0:0:0:
32,356,155179,5,8,0:0:0:0:
46,307,155268,1,8,0:0:0:0:
63,258,155356,1,4,0:1:0:0:
413,306,155619,5,4,0:3:0:0:
382,356,155706,1,8,0:0:0:0:
366,366,155794,2,0,B|341:347|341:347|327:257,1,104.999996795654,4|0,0:3|0:0,0:0:0:0:
369,205,156057,2,0,P|408:153|413:98,1,104.999996795654,4|0,0:3|0:0,0:0:0:0:
386,42,156320,1,4,0:3:0:0:
340,21,156408,1,8,0:0:0:0:
256,228,156584,6,0,P|239:209|210:198,1,52.4999983978272,2|0,0:0|0:0,0:0:0:0:
118,238,156759,2,0,P|109:291|127:327,1,52.4999983978272,6|0,0:3|0:0,0:0:0:0:
64,153,156934,1,2,0:0:0:0:
29,117,157022,1,4,0:3:0:0:
29,67,157110,1,8,0:0:0:0:
43,55,157198,2,0,P|49:94|107:151,1,104.999996795654,4|0,0:3|0:0,0:0:0:0:
170,135,157461,5,6,0:2:0:0:
198,40,157641,1,4,0:3:0:0:
103,367,157822,2,0,L|91:311,1,37.5000014305115,8|0,0:0|0:0,0:0:0:0:
103,367,158184,6,0,P|171:320|276:284,1,172.500003290176,4|0,0:1|0:0,0:0:0:0:
364,261,158536,2,0,P|282:300|233:309,1,100,10|0,0:0|0:0,0:0:0:0:
60,58,158889,1,4,0:3:0:0:
143,80,159066,1,4,0:3:0:0:
20,211,159242,5,8,0:0:0:0:
238,208,159419,2,0,P|155:175|66:160,1,150,6|0,0:3|0:0,0:0:0:0:
20,211,159772,1,6,0:3:0:0:
143,80,159948,1,8,0:0:0:0:
265,193,160125,6,0,P|200:174|149:148,1,100,2|4,0:0|0:3,0:0:0:0:
344,95,160478,1,4,0:3:0:0:
272,283,160654,2,0,P|322:269|366:249,1,100,10|4,0:0|0:3,0:0:0:0:
512,24,161007,6,0,P|471:100|447:182,1,172.500003290176,4|0,0:1|0:0,0:0:0:0:
441,296,161360,2,0,P|458:249|466:200,1,100,10|0,0:0|0:0,0:0:0:0:
280,57,161713,1,4,0:3:0:0:
311,136,161889,1,4,0:3:0:0:
125,282,162066,5,8,0:0:0:0:
175,130,162242,2,0,P|202:198|217:286,1,150,6|0,0:3|0:0,0:0:0:0:
223,360,162595,1,6,0:3:0:0:
341,216,162772,1,8,0:0:0:0:
311,136,162948,1,2,0:0:0:0:
347,363,163109,6,0,P|372:355|366:342,1,50,2|0,0:3|0:0,0:0:0:0:
225,252,163285,1,8,0:0:0:0:
174,237,163373,1,8,0:0:0:0:
126,241,163461,1,8,0:0:0:0:
91,257,163550,1,8,0:3:0:0:
60,259,163638,1,8,0:3:0:0:
38,252,163726,1,4,0:3:0:0:
24,240,163814,6,0,P|34:177|107:118,1,150,4|0,0:1|0:0,0:0:0:0:
193,70,164184,1,10,0:0:0:0:
107,98,164360,1,2,0:0:0:0:
180,46,164536,1,6,0:3:0:0:
269,38,164713,1,6,0:3:0:0:
355,63,164889,1,10,0:0:0:0:
445,176,165066,6,0,P|456:153|461:129,1,50,6|0,0:3|0:0,0:0:0:0:
312,156,165242,1,2,0:0:0:0:
364,223,165418,2,0,P|340:178|318:157,1,50,6|0,0:3|0:0,0:0:0:0:
221,263,165594,1,10,0:0:0:0:
305,293,165771,1,2,0:0:0:0:
229,242,165947,1,6,0:3:0:0:
139,231,166124,1,6,0:3:0:0:
493,331,166300,6,0,B|442:342|442:342|439:349|439:349|341:371,1,135.000000514984,12|4,0:2|0:3,0:0:0:0:
329,36,166653,6,0,P|410:60|460:128,1,172.500003290176,4|0,0:1|0:0,0:0:0:0:
434,216,167006,1,10,0:0:0:0:
482,140,167183,1,2,0:0:0:0:
456,226,167359,1,6,0:3:0:0:
393,290,167536,1,6,0:3:0:0:
307,319,167712,1,10,0:0:0:0:
172,187,167889,6,0,P|229:210|242:221,1,50,6|0,0:3|0:0,0:0:0:0:
110,250,168065,1,2,0:0:0:0:
160,103,168242,2,0,P|103:126|90:137,1,50,6|0,0:3|0:0,0:0:0:0:
238,217,168418,1,10,0:0:0:0:
326,236,168594,1,2,0:0:0:0:
86,370,168771,6,0,P|82:321|96:273,1,100,6|0,0:3|0:0,0:0:0:0:
226,311,169036,1,8,0:0:0:0:
176,327,169124,1,8,0:0:0:0:
238,217,169300,1,8,0:3:0:0:
469,373,169477,6,0,P|388:341|297:278,1,172.500003290176,4|0,0:1|0:0,0:0:0:0:
238,217,169830,2,0,P|300:253|337:283,1,100,10|0,0:0|0:0,0:0:0:0:
90,224,170183,1,4,0:3:0:0:
69,137,170359,1,4,0:3:0:0:
22,334,170536,5,8,0:0:0:0:
165,273,170712,2,0,P|148:320|125:364,1,100,6|2,0:3|0:0,0:0:0:0:
73,213,171065,1,4,0:3:0:0:
353,354,171242,5,12,0:2:0:0:
452,271,171418,1,2,0:0:0:0:
279,301,171594,2,0,P|255:256|239:209,1,100,6|4,0:3|0:3,0:0:0:0:
101,22,171947,2,0,P|61:97|49:140,1,100,12|4,0:0|0:3,0:0:0:0:
332,221,172300,6,0,P|405:167|470:89,1,172.500003290176,4|0,0:1|0:0,0:0:0:0:
512,16,172653,2,0,P|465:61|427:113,1,100,12|0,0:0|0:0,0:0:0:0:
493,312,173006,1,4,0:3:0:0:
474,226,173183,1,4,0:3:0:0:
326,384,173359,5,8,0:0:0:0:
393,307,173536,2,0,P|402:336|409:378,1,50,4|0,0:3|0:0,0:0:0:0:
211,242,173712,5,4,0:0:0:0:
303,260,173889,1,4,0:3:0:0:
94,268,174065,5,12,0:0:0:0:
225,221,174242,1,4,0:3:0:0:
51,345,174418,5,4,0:0:0:0:
393,307,174594,1,4,0:3:0:0:
209,142,174771,1,12,0:0:0:0:
209,142,175124,6,0,P|153:221|47:234,1,172.500003290176,4|0,0:1|0:0,0:0:0:0:
23,88,175477,1,14,0:0:0:0:
65,253,175653,1,2,0:0:0:0:
0,86,175830,1,6,0:3:0:0:
10,182,176006,1,6,0:3:0:0:
26,0,176183,1,10,0:0:0:0:
189,117,176359,6,0,P|136:95|112:75,1,50,6|0,0:0|0:0,0:0:0:0:
260,52,176536,1,2,0:0:0:0:
255,201,176712,2,0,P|309:177|329:158,1,50,6|0,0:3|0:0,0:0:0:0:
240,40,176889,1,12,0:0:0:0:
233,211,177065,1,2,0:0:0:0:
210,124,177242,1,6,0:3:0:0:
289,280,177418,1,6,0:3:0:0:
481,189,177594,5,12,0:0:0:0:
398,206,177771,1,4,0:3:0:0:
243,358,177947,6,0,P|160:333|112:229,1,172.500003290176,4|0,0:1|0:0,0:0:0:0:
232,107,178300,1,14,0:0:0:0:
137,257,178477,1,2,0:0:0:0:
248,123,178653,1,6,0:3:0:0:
175,175,178830,1,6,0:3:0:0:
335,102,179006,1,10,0:0:0:0:
454,284,179183,6,0,P|399:268|382:257,1,50,6|0,0:0|0:0,0:0:0:0:
427,138,179359,1,6,0:3:0:0:
479,209,179536,2,0,P|443:172|432:148,1,50,6|0,0:3|0:0,0:0:0:0:
428,3,179712,5,12,0:0:0:0:
487,72,179889,1,6,0:3:0:0:
242,216,180065,5,6,0:3:0:0:
333,94,180242,1,6,0:3:0:0:
10,74,180418,5,14,0:0:0:0:
140,206,180594,1,6,0:3:0:0:
89,263,180771,5,4,0:1:0:0:
54,352,181477,5,8,0:0:0:0:
21,125,181830,1,0,0:0:0:0:
21,125,182183,6,0,L|10:178,1,55.0000016784668,12|0,0:3|0:0,0:0:0:0:
90,79,182536,1,0,0:0:0:0:
101,108,182712,1,4,0:3:0:0:
142,17,182889,1,8,0:0:0:0:
210,80,183065,1,4,0:3:0:0:
298,47,183242,2,0,B|321:61|321:61|391:73,1,82.5000025177003,2|0,0:3|0:0,0:0:0:0:
397,56,183594,5,4,0:3:0:0:
415,165,183947,1,0,0:0:0:0:
357,378,184300,5,8,0:0:0:0:
390,183,184653,1,0,0:0:0:0:
390,183,185006,6,0,L|458:195,1,55.0000016784668,4|0,0:3|0:0,0:0:0:0:
377,273,185359,1,0,0:0:0:0:
398,264,185536,1,4,0:3:0:0:
271,242,185712,1,8,0:0:0:0:
354,282,185889,1,4,0:3:0:0:
214,313,186065,2,0,L|160:302,1,55.0000016784668,2|0,0:3|0:0,0:0:0:0:
146,300,186330,1,0,0:0:0:0:
132,297,186418,5,4,0:0:0:0:
271,242,186771,1,0,0:0:0:0:
48,368,187124,5,8,0:0:0:0:
161,159,187477,1,0,0:0:0:0:
161,159,187830,6,0,L|173:231,1,55.0000016784668,4|0,0:3|0:0,0:0:0:0:
89,119,188183,1,0,0:0:0:0:
80,142,188359,1,4,0:3:0:0:
229,124,188536,1,8,0:0:0:0:
182,50,188712,1,4,0:3:0:0:
310,91,188889,2,0,L|358:77,1,27.5000008392334,4|0,0:3|0:0,0:0:0:0:
353,62,189065,5,2,0:0:0:0:
323,57,189153,1,2,0:0:0:0:
300,76,189242,2,0,P|276:127|297:209,1,119.999996337891,6|0,0:3|0:0,0:0:0:0:
366,212,189771,1,6,0:3:0:0:
181,245,189947,2,0,P|217:259|252:259,1,59.9999981689454,8|0,0:0|0:0,0:0:0:0:
194,117,190291,2,0,P|163:141|143:176,1,64.9999970245363,2|0,0:0|0:0,0:0:0:0:
181,245,190636,1,4,0:3:0:0:
34,31,190812,5,8,0:0:0:0:
108,76,190988,1,2,0:0:0:0:
24,56,191165,1,4,0:3:0:0:
127,174,191341,2,0,L|38:190,2,75.0000028610231,4|0|2,0:3|0:0|0:0,0:0:0:0:
0,257,191871,1,8,0:0:0:0:
163,348,192047,1,4,0:2:0:0:
58,366,192753,5,8,0:0:0:0:
269,328,193106,1,0,0:0:0:0:
269,328,193459,5,4,0:3:0:0:
347,364,193636,2,0,L|359:298,1,55.0000016784668
342,287,193988,1,4,0:3:0:0:
437,354,194183,1,8,0:0:0:0:
507,302,194359,1,4,0:3:0:0:
461,226,194535,2,0,B|468:205|468:205|459:137,1,82.5000025177003,2|0,0:3|0:0,0:0:0:0:
474,127,194889,5,4,0:3:0:0:
342,81,195241,1,0,0:0:0:0:
135,2,195594,5,8,0:0:0:0:
323,56,195947,1,0,0:0:0:0:
323,56,196300,5,4,0:3:0:0:
267,116,196477,2,0,L|213:107,1,55.0000016784668
190,122,196830,1,4,0:3:0:0:
289,222,197005,1,8,0:0:0:0:
221,282,197183,1,4,0:3:0:0:
136,249,197359,2,0,B|119:259|119:259|41:270,1,82.5000025177003,2|0,0:0|0:0,0:0:0:0:
39,254,197712,5,4,0:3:0:0:
141,347,198065,1,0,0:0:0:0:
192,161,198418,5,8,0:0:0:0:
156,366,198771,1,0,0:0:0:0:
156,366,199124,5,4,0:3:0:0:
99,307,199300,2,0,L|89:243,1,55.0000016784668
103,234,199653,1,4,0:3:0:0:
217,308,199830,1,8,0:0:0:0:
297,342,200006,1,4,0:3:0:0:
353,277,200183,2,0,B|345:254|345:254|354:182,1,82.5000025177003,2|0,0:0|0:0,0:0:0:0:
368,180,200536,6,0,L|453:166,1,64.9999970245363,6|0,0:3|0:0,0:0:0:0:
388,96,200889,2,0,L|473:82,1,64.9999970245363,2|0,0:0|0:0,0:0:0:0:
289,65,201241,2,0,L|227:14,1,64.9999970245363,10|0,0:0|0:0,0:0:0:0:
255,144,201594,2,0,L|193:93,1,64.9999970245363,2|0,0:0|0:0,0:0:0:0:
291,223,201947,1,6,0:3:0:0:
133,290,202124,5,8,0:0:0:0:
169,214,202300,1,2,0:0:0:0:
160,298,202477,1,4,0:3:0:0:
94,178,202653,5,6,0:3:0:0:
127,380,202830,1,10,0:0:0:0:
252,215,203006,1,10,0:0:0:0:
252,215,203359,6,0,P|314:207|394:191,1,129.999994049073,4|0,0:1|0:0,0:0:0:0:
447,135,203889,1,4,0:3:0:0:
384,288,204065,2,0,L|395:357,1,64.9999970245363,10|0,0:0|0:0,0:0:0:0:
403,360,204330,1,2,0:0:0:0:
411,366,204418,1,2,0:0:0:0:
447,135,204771,5,2,0:0:0:0:
269,84,204947,1,10,0:0:0:0:
347,39,205124,1,0,0:0:0:0:
257,62,205300,1,4,0:3:0:0:
192,124,205477,2,0,P|186:156|179:187,1,64.9999970245363,2|4,0:0|0:3,0:0:0:0:
61,47,205830,2,0,B|80:68|80:68|92:149,1,97.4999955368044,12|0,0:0|0:0,0:0:0:0:
71,155,206183,6,0,P|52:242|46:303,1,129.999994049073,4|0,0:3|0:0,0:0:0:0:
3,360,206712,1,4,0:3:0:0:
225,293,206889,2,0,L|141:307,1,64.9999970245363,10|0,0:0|0:0,0:0:0:0:
154,310,207153,1,2,0:0:0:0:
147,317,207241,1,2,0:0:0:0:
61,47,207594,5,2,0:0:0:0:
267,84,207771,1,8,0:0:0:0:
205,23,207947,1,0,0:0:0:0:
229,184,208124,5,8,0:3:0:0:
278,160,208300,1,4,0:3:0:0:
333,166,208477,1,4,0:3:0:0:
241,268,208653,2,0,B|273:259|273:259|361:281,1,97.4999955368044,6|0,0:3|0:0,0:0:0:0:
355,294,209006,6,0,P|440:285|505:267,1,129.999994049073,4|0,0:3|0:0,0:0:0:0:
494,189,209536,1,4,0:3:0:0:
291,358,209712,2,0,P|250:364|214:374,1,64.9999970245363,10|0,0:0|0:0,0:0:0:0:
218,366,209977,1,2,0:0:0:0:
208,362,210065,1,2,0:0:0:0:
362,20,210418,5,2,0:0:0:0:
245,137,210594,1,8,0:0:0:0:
288,68,210771,1,0,0:0:0:0:
269,149,210947,1,4,0:3:0:0:
214,219,211124,2,0,P|194:271|188:302,1,64.9999970245363,0|4,0:0|0:3,0:0:0:0:
37,162,211477,2,0,B|69:176|69:176|146:162,1,97.4999955368044,10|0,0:0|0:0,0:0:0:0:
153,152,211810,6,0,P|173:97|181:57,1,75.0000028610231,6|0,0:0|0:0,0:0:0:0:
83,2,212162,2,0,P|91:48|88:85,1,64.9999970245363,2|4,0:0|0:3,0:0:0:0:
43,275,212515,2,0,P|44:307|56:356,1,64.9999970245363,8|0,0:0|0:0,0:0:0:0:
47,348,212780,1,2,0:0:0:0:
44,357,212868,1,2,0:0:0:0:
125,383,213045,2,0,P|183:351|206:343,1,64.9999970245363,2|0,0:0|0:0,0:0:0:0:
261,234,213395,5,8,0:0:0:0:
251,282,213482,1,8,0:0:0:0:
258,298,213569,2,0,P|289:287|348:276,1,64.9999970245363,2|4,0:0|0:3,0:0:0:0:
474,350,213918,1,0,0:3:0:0:
387,126,214093,5,4,0:3:0:0:
377,174,214180,1,8,0:3:0:0:
394,168,214267,1,8,0:0:0:0:
307,139,214452,1,4,0:3:0:0:
178,226,214637,6,0,P|126:243|32:257,1,129.999994049073,4|0,0:1|0:0,0:0:0:0:
67,170,215179,1,4,0:3:0:0:
234,340,215359,2,0,L|301:355,1,64.9999970245363,10|0,0:0|0:0,0:0:0:0:
306,349,215624,1,2,0:0:0:0:
315,347,215712,1,2,0:0:0:0:
67,170,216065,5,2,0:0:0:0:
211,68,216241,1,8,0:0:0:0:
126,77,216418,1,0,0:0:0:0:
207,41,216594,2,0,P|241:31|290:26,1,64.9999970245363,4|0,0:3|0:0,0:0:0:0:
133,104,216947,1,4,0:3:0:0:
382,148,217124,2,0,B|360:131|360:131|275:118,1,97.4999955368044,10|0,0:0|0:0,0:0:0:0:
268,134,217477,6,0,P|281:225|304:281,1,129.999994049073,4|0,0:3|0:0,0:0:0:0:
374,302,218006,1,4,0:3:0:0:
469,87,218183,2,0,L|481:10,1,64.9999970245363,10|0,0:0|0:0,0:0:0:0:
450,101,218536,1,2,0:0:0:0:
116,47,218889,6,0,P|148:34|189:31,1,50.0000019073487,4|0,0:3|0:0,0:0:0:0:
83,122,219124,1,8,0:0:0:0:
83,122,219241,6,0,P|56:101|32:66,1,50.0000019073487,4|0,0:3|0:0,0:0:0:0:
163,117,219477,1,8,0:0:0:0:
163,117,219594,6,0,P|159:152|140:188,1,50.0000019073487,4|0,0:3|0:0,0:0:0:0:
116,47,219830,1,8,0:0:0:0:
154,100,219947,5,8,0:0:0:0:
102,110,220065,5,8,0:0:0:0:
119,61,220183,6,8,L|123:92,1,25.0000009536744
125,90,220300,6,0,P|226:111|299:146,1,150.000005722046,4|0,0:1|0:0,0:0:0:0:
338,183,220830,1,4,0:3:0:0:
461,35,221006,2,0,P|458:76|445:123,1,75.0000028610231,10|0,0:0|0:0,0:0:0:0:
354,199,221359,1,2,0:0:0:0:
442,307,221530,6,0,P|401:290|352:281,1,75.0000028610231,2|0,0:0|0:0,0:0:0:0:
142,367,221873,2,0,P|131:331|127:293,1,75.0000028610231,10|0,0:0|0:0,0:0:0:0:
228,173,222217,2,0,P|238:208|242:246,1,75.0000028610231,6|0,0:3|0:0,0:0:0:0:
65,145,222564,1,6,0:3:0:0:
42,268,222737,2,0,B|27:232|27:232|45:154,1,112.500004291535,8|0,0:0|0:0,0:0:0:0:
65,145,223084,5,4,0:3:0:0:
20,86,223260,1,4,0:3:0:0:
146,103,223436,5,4,0:3:0:0:
125,16,223613,1,4,0:3:0:0:
247,171,223789,5,8,0:0:0:0:
282,15,223966,2,0,P|274:32|273:50,1,37.5000014305115,2|0,0:0|0:0,0:0:0:0:
329,106,224142,2,2,L|361:97,3,25
379,93,224495,1,2,0:0:0:0:
309,228,224673,6,0,P|358:237|407:327,1,127.50000243187,10|0,0:0|0:0,0:0:0:0:
396,320,225030,1,4,0:3:0:0:
213,278,225209,1,8,0:3:0:0:
282,332,225398,1,4,0:3:0:0:
37,286,225588,1,12,0:0:0:0:
37,286,225947,6,0,B|59:201|38:228|65:127,1,150.000005722046,4|0,0:1|0:0,0:0:0:0:
119,68,226477,1,4,0:3:0:0:
211,220,226653,1,10,0:0:0:0:
301,95,226830,2,0,P|288:130|278:185,1,75.0000028610231,2|0,0:0|0:0,0:0:0:0:
456,95,227183,2,0,P|468:60|476:23,1,75.0000028610231,2|6,0:0|0:0,0:0:0:0:
294,188,227536,5,8,0:0:0:0:
475,218,227712,1,2,0:0:0:0:
409,262,227889,1,4,0:3:0:0:
411,272,227977,1,4,0:3:0:0:
414,282,228065,1,8,0:0:0:0:
336,339,228241,1,4,0:3:0:0:
237,305,228418,2,0,B|187:313|187:313|178:320|178:320|110:331,1,112.500004291535,2|0,0:0|0:0,0:0:0:0:
107,308,228771,6,0,P|217:323|275:351,1,150.000005722046,4|0,0:1|0:0,0:0:0:0:
162,223,229300,1,4,0:3:0:0:
413,192,229477,1,10,0:0:0:0:
341,237,229653,2,0,P|299:207|273:181,1,75.0000028610231,2|0,0:0|0:0,0:0:0:0:
57,104,230006,2,0,P|99:134|108:143,1,37.5000014305115,2|0,0:0|0:0,0:0:0:0:
93,150,230183,1,6,0:2:0:0:
244,0,230359,5,8,0:0:0:0:
219,93,230536,1,2,0:0:0:0:
269,11,230712,1,12,0:3:0:0:
325,89,230889,5,10,0:0:0:0:
142,15,231065,1,10,0:0:0:0:
209,116,231241,1,10,0:3:0:0:
57,334,231594,6,0,B|147:305|122:328|223:297,1,150.000005722046,4|0,0:1|0:0,0:0:0:0:
255,231,232124,1,4,0:3:0:0:
508,321,232300,1,12,0:0:0:0:
397,381,232477,2,0,P|411:331|429:298,1,75.0000028610231,2|0,0:0|0:0,0:0:0:0:
357,124,232830,2,0,P|343:174|325:207,1,75.0000028610231,2|6,0:0|0:2,0:0:0:0:
177,83,233183,5,8,0:0:0:0:
271,125,233359,1,4,0:3:0:0:
260,129,233447,1,4,0:3:0:0:
249,133,233536,1,4,0:3:0:0:
408,50,233712,1,12,0:0:0:0:
469,117,233889,1,2,0:0:0:0:
498,34,234065,2,0,L|483:128,1,64.9999970245363,8|0,0:3|0:0,0:0:0:0:
471,280,234418,6,0,P|400:267|375:268,1,75.0000028610231,4|0,0:1|0:0,0:0:0:0:
234,347,234771,2,0,P|183:364|141:371,1,75.0000028610231,2|4,0:0|0:3,0:0:0:0:
382,251,235124,1,12,0:0:0:0:
300,279,235300,2,0,P|233:255|216:247,1,75.0000028610231,2|0,0:0|0:0,0:0:0:0:
19,261,235653,2,0,P|58:279|76:290,1,40,2|0,0:0|0:0,0:0:0:0:
72,298,235830,1,6,0:2:0:0:
47,116,236006,5,12,0:0:0:0:
114,183,236183,1,2,0:0:0:0:
71,97,236359,1,4,0:3:0:0:
86,199,236536,1,4,0:3:0:0:
199,58,236712,5,10,0:0:0:0:
176,261,236889,1,10,0:0:0:0:
224,62,237065,1,10,0:0:0:0:
449,143,237241,6,0,B|344:154|402:162|294:178,1,160,4|4,0:1|0:3,0:0:0:0:
384,62,237771,1,2,0:0:0:0:
201,269,237947,1,12,0:0:0:0:
363,299,238124,2,0,P|296:266|254:255,1,80,2|4,0:0|0:3,0:0:0:0:
56,121,238477,1,2,0:0:0:0:
63,138,238565,1,2,0:0:0:0:
72,155,238653,2,0,P|104:144|129:125,1,40,6|0,0:2|0:0,0:0:0:0:
162,26,238830,5,8,0:0:0:0:
187,190,239006,2,0,L|203:287,1,80,4|0,0:3|0:0,0:0:0:0:
332,65,239359,2,0,L|314:180,1,80,12|0,0:0|0:0,0:0:0:0:
482,332,239712,1,4,0:3:0:0:
459,244,239889,1,2,0:0:0:0:
252,341,240065,6,0,B|354:355|302:366|405:382,1,160,4|4,0:1|0:3,0:0:0:0:
482,332,240594,1,2,0:0:0:0:
186,281,240771,1,12,0:0:0:0:
306,168,240947,2,0,P|276:214|247:247,1,80,2|4,0:0|0:3,0:0:0:0:
47,106,241300,2,0,P|59:42|59:35,1,40,2|0,0:0|0:0,0:0:0:0:
45,39,241477,1,6,0:0:0:0:
58,229,241653,5,12,0:0:0:0:
132,160,241830,1,4,0:3:0:0:
81,244,242006,1,2,0:0:0:0:
254,239,242183,5,8,0:0:0:0:
73,341,242359,1,8,0:0:0:0:
0,143,242536,2,0,P|16:65|42:25,1,120,4|0,0:3|0:0,0:0:0:0:
60,19,242889,6,0,P|102:33|164:42,1,85.0000016212464,4|0,0:1|0:0,0:0:0:0:
373,147,243241,2,0,P|313:132|274:127,1,85.0000016212464,4|0,0:3|0:0,0:0:0:0:
69,219,243594,1,8,0:0:0:0:
200,114,243771,1,2,0:0:0:0:
51,203,243947,1,6,0:3:0:0:
109,110,244124,6,0,P|111:130|127:168,1,42.5000008106232,2|0,0:0|0:0,0:0:0:0:
197,226,244300,1,6,0:2:0:0:
345,20,244477,5,8,0:0:0:0:
408,85,244653,2,0,P|389:154|388:189,1,85.0000016212464,4|0,0:3|0:0,0:0:0:0:
476,336,244998,1,8,0:0:0:0:
458,349,245085,2,0,P|389:323|348:316,1,85.0000016212464,8|8,0:3|0:3,0:0:0:0:
291,359,245345,5,4,0:3:0:0:
278,362,245432,1,4,0:3:0:0:
265,365,245519,1,4,0:3:0:0:
252,368,245605,1,4,0:3:0:0:
238,371,245692,2,0,P|222:329|216:261,1,100,4|4,0:1|0:3,0:0:0:0:
408,118,246044,5,6,0:3:0:0:
339,251,246221,1,6,0:3:0:0:
278,53,246397,5,6,0:3:0:0:
316,249,246574,1,6,0:3:0:0:
90,15,246750,5,10,0:0:0:0:
151,319,246927,1,10,0:0:0:0:
0,199,247103,1,6,0:3:0:0:
237,297,247280,5,12,0:0:0:0:
180,13,247456,1,8,0:0:0:0:
23,194,247633,1,4,0:3:0:0:
408,87,247809,1,12,0:0:0:0:
137,310,247981,5,8,0:0:0:0:
91,293,248067,1,8,0:0:0:0:
60,256,248153,1,8,0:0:0:0:
104,249,248240,5,8,0:3:0:0:
128,257,248326,1,8,0:3:0:0:
153,259,248412,1,8,0:3:0:0:
128,205,248498,6,0,P|116:210|94:212,1,25,4|0,0:2|0:0,0:0:0:0:
89,133,249935,6,0,P|70:131|45:124,1,37.5000014305115,4|0,0:0|0:0,0:0:0:0:
56,43,251359,6,0,P|26:33|-9:4,1,50,6|0,0:0|0:0,0:0:0:0:
437,313,253850,1,8,0:0:0:0:
56,43,254182,5,12,0:0:0:0:
168,322,254358,1,4,0:3:0:0:
21,147,254533,2,0,P|51:228|81:283,1,135.000000514984,8|4,0:0|0:3,0:0:0:0:
56,43,254886,5,12,0:0:0:0:
354,131,255063,1,4,0:3:0:0:
124,133,255239,2,0,P|221:169|281:175,1,135.000000514984,8|4,0:0|0:3,0:0:0:0:
22,354,255592,5,12,0:0:0:0:
275,190,255769,1,4,0:3:0:0:
137,371,255945,2,0,P|205:320|274:289,1,135.000000514984,8|4,0:0|0:3,0:0:0:0:
22,354,256298,5,12,0:0:0:0:
85,77,256475,1,4,0:3:0:0:
92,294,256651,2,0,P|114:208|148:151,1,135.000000514984,8|4,0:0|0:3,0:0:0:0:
431,10,257004,5,12,0:0:0:0:
258,178,257181,1,4,0:3:0:0:
496,143,257357,1,8,0:0:0:0:
284,31,257533,1,4,0:3:0:0:
390,248,257710,1,12,0:0:0:0:
211,97,257886,5,4,0:3:0:0:
396,84,258063,2,0,P|366:127|335:199,1,119.999996337891,8|0,0:0|0:3,0:0:0:0:
442,301,258328,5,8,0:0:0:0:
430,257,258416,1,8,0:0:0:0:
379,346,258592,1,4,0:3:0:0:
507,260,258769,6,0,B|470:278|470:278|363:268|363:268|300:296,1,179.999994506836,6|0,0:3|0:0,0:0:0:0:
223,328,259122,5,12,0:0:0:0:
503,355,259298,1,4,0:3:0:0:
248,318,259475,1,8,0:0:0:0:
479,366,259651,1,4,0:3:0:0:
174,211,259828,6,0,P|149:155|122:2,1,187.5,4|0,0:1|0:0,0:0:0:0:
196,221,260181,2,0,P|212:273|222:327,1,110.000003356934,12|0,0:0|0:0,0:0:0:0:
0,112,260522,1,4,0:3:0:0:
20,13,260698,1,4,0:3:0:0:
233,126,260874,5,8,0:0:0:0:
76,173,261051,2,0,P|49:189|26:209,1,62.5,4|0,0:0|0:0,0:0:0:0:
174,211,261227,1,2,0:0:0:0:
29,236,261403,2,0,P|-3:303|-5:320,1,55.0000016784668,4|0,0:3|0:0,0:0:0:0:
244,375,261579,6,0,P|284:304|300:260,1,110.000003356934,12|0,0:0|0:0,0:0:0:0:
458,70,261932,1,4,0:3:0:0:
486,174,262109,1,4,0:3:0:0:
386,348,262285,2,0,P|400:277|397:211,1,110.000003356934,8|4,0:0|0:3,0:0:0:0:
123,24,262638,6,0,P|217:45|321:86,1,194.999991073609,4|0,0:1|0:0,0:0:0:0:
105,45,262991,2,0,P|45:30|-4:14,1,110.000003356934,12|0,0:0|0:0,0:0:0:0:
289,172,263344,1,4,0:3:0:0:
190,207,263521,1,4,0:3:0:0:
0,341,263697,5,8,0:0:0:0:
133,367,263874,2,0,P|116:340|96:273,1,62.5,4|0,0:0|0:0,0:0:0:0:
171,195,264050,1,2,0:0:0:0:
85,300,264227,2,0,P|98:240|111:218,1,55.0000016784668,2|0,0:0|0:0,0:0:0:0:
278,336,264403,6,0,P|373:360|423:364,1,110.000003356934,12|0,0:0|0:0,0:0:0:0:
307,112,264756,1,4,0:3:0:0:
154,183,264932,1,4,0:3:0:0:
473,373,265109,6,0,B|479:335|459:304|459:304|434:289|434:289|417:251,1,139.999995727539,12|4,0:0|0:3,0:0:0:0:
474,22,265462,6,0,P|426:99|309:113,1,187.5,4|0,0:1|0:0,0:0:0:0:
145,11,265828,2,0,P|217:29|264:56,1,110.000003356934,12|0,0:0|0:0,0:0:0:0:
35,90,266180,1,4,0:3:0:0:
130,30,266357,1,4,0:3:0:0:
223,196,266533,5,8,0:0:0:0:
118,231,266710,1,8,0:3:0:0:
95,221,266798,1,8,0:3:0:0:
85,200,266886,1,4,0:3:0:0:
334,278,267062,6,0,P|306:281|281:291,1,55.0000016784668,4|0,0:3|0:0,0:0:0:0:
123,343,267238,2,0,P|82:336|10:308,1,110.000003356934,12|0,0:0|0:0,0:0:0:0:
402,223,267591,2,0,P|491:255|533:286,1,110.000003356934,4|0,0:3|0:0,0:0:0:0:
139,362,267944,5,8,0:0:0:0:
383,202,268121,1,4,0:3:0:0:
232,349,268297,6,0,P|216:257|298:181,1,187.5,4|0,0:1|0:0,0:0:0:0:
468,148,268650,2,0,P|419:171|331:190,1,110.000003356934,12|0,0:0|0:0,0:0:0:0:
417,9,269003,1,4,0:3:0:0:
512,38,269180,1,4,0:3:0:0:
194,122,269356,5,8,0:0:0:0:
298,97,269533,1,8,0:3:0:0:
313,83,269621,1,8,0:3:0:0:
321,60,269709,1,4,0:3:0:0:
76,130,269886,5,8,0:0:0:0:
116,163,269974,1,8,0:0:0:0:
132,215,270062,1,8,0:0:0:0:
28,351,270238,6,0,P|18:325|19:291,1,55.0000016784668,2|0,0:0|0:0,0:0:0:0:
189,314,270415,1,4,0:3:0:0:
123,384,270591,1,2,0:0:0:0:
320,333,270768,2,0,P|375:338|428:353,1,110.000003356934,12|0,0:0|0:0,0:0:0:0:
132,215,271121,6,0,P|106:137|47:23,1,187.5,4|0,0:1|0:0,0:0:0:0:
116,237,271474,2,0,P|134:289|165:353,1,110.000003356934,12|0,0:0|0:0,0:0:0:0:
301,75,271827,1,4,0:3:0:0:
201,120,272003,1,4,0:3:0:0:
437,199,272180,5,8,0:0:0:0:
309,99,272356,2,0,P|333:112|359:119,1,55.0000016784668,6|0,0:3|0:0,0:0:0:0:
457,53,272533,1,2,0:0:0:0:
268,30,272709,2,0,P|281:52|300:74,1,55.0000016784668,6|0,0:3|0:0,0:0:0:0:
473,307,272886,6,0,P|395:289|339:258,1,110.000003356934,12|0,0:0|0:0,0:0:0:0:
33,258,273238,1,4,0:3:0:0:
169,177,273415,1,4,0:3:0:0:
328,370,273591,2,0,P|260:323|225:279,1,110.000003356934,12|0,0:0|0:0,0:0:0:0:
85,91,273944,6,0,P|50:144|7:290,1,187.5,4|0,0:1|0:0,0:0:0:0:
101,109,274297,2,0,P|140:46|154:9,1,110.000003356934,12|0,0:0|0:0,0:0:0:0:
113,314,274650,1,4,0:3:0:0:
217,285,274827,1,4,0:3:0:0:
275,99,275003,5,8,0:0:0:0:
367,221,275180,2,0,P|294:196|275:176,1,55.0000016784668,6|0,0:0|0:0,0:0:0:0:
292,81,275356,1,0,0:3:0:0:
293,223,275533,2,0,P|251:178|237:147,1,55.0000016784668,6|0,0:3|0:0,0:0:0:0:
487,56,275709,6,0,B|495:88|495:88|451:214|451:214|463:267,1,209.999993591309,12|0,0:0|0:0,0:0:0:0:
486,354,276062,5,8,0:0:0:0:
384,129,276238,1,4,0:3:0:0:
512,343,276415,1,12,0:0:0:0:
38,254,276768,5,12,0:0:0:0:
293,153,276944,1,4,0:3:0:0:
131,300,277121,2,0,P|212:274|266:241,1,135.000000514984,8|4,0:0|0:3,0:0:0:0:
38,27,277474,5,12,0:0:0:0:
293,153,277650,1,4,0:3:0:0:
76,116,277827,2,0,P|153:159|231:177,1,135.000000514984,8|4,0:0|0:3,0:0:0:0:
456,36,278180,5,12,0:0:0:0:
400,310,278356,1,4,0:3:0:0:
511,117,278533,2,0,P|477:205|471:264,1,135.000000514984,8|4,0:0|0:3,0:0:0:0:
203,63,278886,5,12,0:0:0:0:
400,310,279062,1,4,0:3:0:0:
302,96,279238,2,0,P|338:158|384:210,1,135.000000514984,8|0,0:0|0:0,0:0:0:0:
393,74,279503,5,4,0:3:0:0:
384,38,279591,1,12,0:0:0:0:
307,273,279768,1,4,0:3:0:0:
0,102,279944,2,0,P|27:199|77:291,1,202.500000772476,12|0,0:0|0:0,0:0:0:0:
6,82,280297,5,12,0:0:0:0:
239,192,280474,1,4,0:3:0:0:
87,75,280650,2,0,P|111:139|148:195,1,135.000000514984,8|0,0:0|0:0,0:0:0:0:
256,118,280915,5,8,0:0:0:0:
239,192,281003,2,0,B|256:165|256:165|338:148,1,100,8|8,0:0|0:3,0:0:0:0:
22,248,281356,2,0,B|52:257|52:257|95:301,1,80,8|12,0:0|0:3,0:0:0:0:
384,342,281698,5,12,0:0:0:0:
447,142,281874,1,4,0:3:0:0:
404,349,282050,1,8,0:0:0:0:
425,137,282227,1,4,0:3:0:0:
203,361,282403,5,12,0:0:0:0:
31,156,282579,1,4,0:3:0:0:
182,272,282755,2,0,P|115:260|50:241,1,135.000000514984,12|4,0:0|0:3,0:0:0:0:
461,123,283108,5,12,0:0:0:0:
289,328,283285,1,4,0:3:0:0:
441,208,283461,2,0,P|376:227|310:239,1,135.000000514984,12|0,0:0|0:0,0:0:0:0:
307,116,283726,5,4,0:3:0:0:
353,146,283814,1,12,0:0:0:0:
153,24,283991,1,4,0:3:0:0:
220,167,284167,2,0,P|229:100|246:35,1,135.000000514984,12|4,0:0|0:3,0:0:0:0:
325,338,284520,5,12,0:0:0:0:
126,145,284697,1,4,0:3:0:0:
235,317,284873,2,0,P|225:250|208:185,1,135.000000514984,12|0,0:0|0:3,0:0:0:0:
39,69,285138,5,4,0:3:0:0:
21,119,285226,1,12,0:0:0:0:
261,104,285403,1,4,0:3:0:0:
74,257,285579,1,12,0:0:0:0:
136,25,285755,1,4,0:3:0:0:
225,248,285932,1,12,0:0:0:0:
139,149,286108,5,4,0:3:0:0:
16,327,286285,2,0,P|98:352|156:378,1,135.000000514984,12|4,0:0|0:3,0:0:0:0:
21,119,286638,5,12,0:0:0:0:
229,269,286814,1,4,0:3:0:0:
406,51,286991,2,0,P|346:144|311:259,1,202.500000772476,12|0,0:0|0:0,0:0:0:0:
370,170,287344,6,0,B|345:143|345:143|331:82,1,100,8|4,0:0|0:3,0:0:0:0:
491,366,287697,6,0,B|453:372|422:352|422:352|407:327|407:327|368:310,1,139.999995727539,12|4,0:0|0:3,0:0:0:0:
154,45,288050,6,0,P|65:66|16:143,1,187.5,4|0,0:1|0:0,0:0:0:0:
31,327,288418,2,0,P|54:277|65:223,1,110.000003356934,12|0,0:0|0:0,0:0:0:0:
253,8,288770,1,4,0:3:0:0:
315,98,288947,1,4,0:3:0:0:
168,267,289123,5,8,0:0:0:0:
133,162,289300,1,10,0:3:0:0:
143,139,289388,1,10,0:3:0:0:
164,129,289476,1,6,0:3:0:0:
31,327,289653,6,0,P|59:330|84:340,1,55.0000016784668,6|0,0:3|0:0,0:0:0:0:
251,384,289854,2,0,P|292:377|364:349,1,110.000003356934,12|0,0:0|0:0,0:0:0:0:
66,227,290206,2,0,P|155:259|197:290,1,110.000003356934,4|4,0:3|0:3,0:0:0:0:
473,377,290559,5,12,0:0:0:0:
430,232,290736,1,4,0:3:0:0:
158,287,290912,6,0,P|250:303|326:220,1,187.5,4|0,0:1|0:0,0:0:0:0:
256,161,291254,2,0,P|233:112|214:24,1,110.000003356934,12|0,0:0|0:0,0:0:0:0:
484,136,291597,1,4,0:3:0:0:
430,232,291773,1,4,0:3:0:0:
229,34,291949,5,12,0:0:0:0:
387,120,292126,1,10,0:3:0:0:
374,139,292214,1,10,0:3:0:0:
354,149,292302,1,6,0:3:0:0:
497,37,292478,1,6,0:3:0:0:
485,20,292566,1,6,0:3:0:0:
464,8,292654,1,10,0:0:0:0:
483,135,292831,6,0,P|482:163|472:188,1,55.0000016784668,2|2,0:0|0:0,0:0:0:0:
322,76,293007,1,4,0:3:0:0:
432,254,293184,2,0,P|455:238|473:217,1,55.0000016784668,6|2,0:3|0:0,0:0:0:0:
300,63,293360,2,0,P|245:67|192:82,1,110.000003356934,12|0,0:0|0:0,0:0:0:0:
115,341,293713,6,0,P|195:357|323:363,1,187.5,4|0,0:1|0:0,0:0:0:0:
98,320,294066,2,0,P|47:306|-18:301,1,110.000003356934,12|0,0:0|0:0,0:0:0:0:
272,265,294419,1,4,0:3:0:0:
227,165,294596,1,4,0:3:0:0:
466,381,294772,5,12,0:0:0:0:
441,181,294949,2,0,P|422:232|414:287,1,110.000003356934,4|4,0:3|0:3,0:0:0:0:
511,116,295302,1,4,0:3:0:0:
334,179,295478,2,0,P|325:124|307:72,1,110.000003356934,12|4,0:0|0:3,0:0:0:0:
22,63,295831,6,0,P|92:31|121:32,1,55.0000016784668,6|0,0:3|0:0,0:0:0:0:
205,63,296007,2,0,P|240:118|242:135,1,55.0000016784668,4|0,0:3|0:0,0:0:0:0:
75,131,296184,2,0,P|120:139|178:155,1,94.9999974632264,12|2,0:0|0:0,0:0:0:0:
496,282,296537,5,12,0:0:0:0:
205,357,296713,1,4,0:3:0:0:
428,358,296890,2,0,P|362:343|300:317,1,135.000000514984,12|4,0:0|0:3,0:0:0:0:
350,43,297243,5,12,0:0:0:0:
280,329,297419,1,4,0:3:0:0:
367,36,297596,5,8,0:0:0:0:
262,342,297772,1,4,0:3:0:0:
56,14,297949,5,12,0:0:0:0:
267,228,298125,1,4,0:3:0:0:
156,35,298302,2,0,P|176:99|184:166,1,135.000000514984,12|4,0:0|0:3,0:0:0:0:
446,46,298654,5,12,0:0:0:0:
372,169,298831,5,8,0:3:0:0:
244,230,299007,5,8,0:3:0:0:
156,304,299184,5,4,0:3:0:0:
100,364,299360,6,0,B|1:364|-79:254|24:117|110:151|160:182|160:182|145:153|151:127|151:127|188:128|211:103|211:103|180:78|181:35|181:35|255:111|347:76|309:69|396:-4|534:64|586:211|464:401|216:322|238:133|325:102,1,1290.3750403636,4|0,0:1|0:0,0:0:0:0:
