osu file format v14

[General]
AudioFilename: audio.mp3
AudioLeadIn: 0
PreviewTime:112752
Countdown: 0
SampleSet: Soft
StackLeniency: 0.4
Mode: 0
LetterboxInBreaks: 0
WidescreenStoryboard: 0

[Editor]
Bookmarks:13839,25839,49839,73839,97839,112839,118853
DistanceSpacing: 1.3
BeatDivisor: 3
GridSize: 16
TimelineZoom: 2

[Metadata]
Title:Admiral
TitleUnicode:Admiral
Artist:Michael Cera Palin
ArtistUnicode:Michael Cera Palin
Creator:WashedUp Player
Version:loathe
Source:
Tags:blitzifyyy i don't dont know how to explain it rock punk pop emo indie english fa featured artist mpg mappers' guild
BeatmapID:3118763
BeatmapSetID:1524273

[Difficulty]
HPDrainRate:6
CircleSize:4.4
OverallDifficulty:8
ApproachRate:9
SliderMultiplier:1.4
SliderTickRate:1

[Events]
//Background and Video events
0,0,"1125781.jpg",0,0
//Break Periods
2,113423,117489
//Storyboard Layer 0 (Background)
//Storyboard Layer 1 (Fail)
//Storyboard Layer 2 (Pass)
//Storyboard Layer 3 (Foreground)
//Storyboard Layer 4 (Overlay)
//Storyboard Sound Samples

[TimingPoints]
339,375,4,2,1,70,1,0
339,-100,4,2,1,70,0,0
620,-133.333333333333,4,2,1,5,0,0
714,-66.6666666666667,4,2,1,70,0,0
1932,-66.6666666666667,4,2,1,70,0,0
2026,-66.6666666666667,4,2,1,70,0,0
3526,-100,4,2,1,70,0,0
3620,-133.333333333333,4,2,1,5,0,0
3714,-66.6666666666667,4,2,1,70,0,0
4276,-100,4,2,1,70,0,0
4557,-100,4,2,1,5,0,0
4651,-100,4,2,1,70,0,0
4932,-100,4,2,1,70,0,0
5026,-100,4,2,1,70,0,0
6714,-66.6666666666667,4,2,1,70,0,0
7651,-100,4,2,1,70,0,0
7932,-100,4,2,1,70,0,0
8026,-100,4,2,1,70,0,0
8870,-133.333333333333,4,2,1,5,0,0
8964,-100,4,2,1,70,0,0
9714,-153.846153846153,4,2,1,70,0,0
9995,-153.846153846153,4,2,1,5,0,0
10089,-153.846153846153,4,2,1,70,0,0
13839,-80,4,2,1,85,0,0
15995,-80,4,2,1,85,0,0
16089,-80,4,2,1,85,0,0
17776,-285.714285714286,4,2,1,85,0,0
18057,-133.333333333333,4,2,1,5,0,0
18151,-80,4,2,1,85,0,0
18432,-80,4,2,1,85,0,0
18526,-80,4,2,1,85,0,0
19182,-80,4,2,1,85,0,0
19276,-80,4,2,1,85,0,0
21995,-80,4,2,1,85,0,0
22089,-80,4,2,1,85,0,0
24995,-80,4,2,1,85,0,0
25089,-80,4,2,1,85,0,0
25839,-100,4,2,1,70,0,0
27057,-100,4,2,1,5,0,0
27151,-100,4,2,1,70,0,0
30432,-133.333333333333,4,2,1,5,0,0
30526,-100,4,2,1,70,0,0
33432,-100,4,2,1,70,0,0
33526,-100,4,2,1,70,0,0
37839,-200,4,2,1,70,0,0
38401,-100,4,2,1,70,0,0
40557,-100,4,2,1,70,0,0
40651,-100,4,2,1,70,0,0
42057,-133.333333333333,4,2,1,5,0,0
42151,-100,4,2,1,70,0,0
43839,376.175548589342,4,2,1,70,1,0
45061,-100,4,2,1,70,0,0
45155,-100,4,2,1,70,0,0
47130,-133.333333333333,4,2,1,5,0,0
47224,-100,4,2,1,70,0,0
48235,-133.333333333333,4,2,1,70,0,0
48259,-133.333333333333,4,2,1,5,0,0
48329,-100,4,2,1,70,0,0
48611,-133.333333333333,4,2,1,70,0,0
48635,-133.333333333333,4,2,1,5,0,0
48705,-100,4,2,1,70,0,0
49105,355.029585798817,4,2,1,70,1,0
49282,397.350993377483,4,2,1,70,1,0
49480,353.460972017673,4,2,1,70,1,0
49839,-100,4,2,1,85,0,0
49857,375,4,2,1,85,1,1
49857,-80,4,2,1,85,0,1
51075,-80,4,2,1,85,0,1
51169,-80,4,2,1,85,0,1
52177,-80,4,2,1,85,0,1
52200,-80,4,2,1,5,0,1
52271,-80,4,2,1,85,0,1
52763,-80,4,2,1,85,0,1
52857,372.670807453416,4,2,1,85,1,1
52857,-80,4,2,1,85,0,1
53485,-80,4,2,1,85,0,1
53508,-80,4,2,1,5,0,1
53579,-80,4,2,1,85,0,1
55838,375.586854460094,4,2,1,85,1,1
55838,-80,4,2,1,85,0,1
57058,-80,4,2,1,85,0,1
57152,-80,4,2,1,85,0,1
58842,374.221152226928,4,2,1,85,1,1
59496,-100,4,2,1,85,0,1
59590,-100,4,2,1,85,0,1
61835,-80,4,2,1,85,0,1
62490,-80,4,2,1,85,0,1
62584,-80,4,2,1,85,0,1
63051,-80,4,2,1,85,0,1
63145,-80,4,2,1,85,0,1
64829,377.358490566038,4,2,1,85,1,1
64829,-80,4,2,1,85,0,1
65489,-80,4,2,1,85,0,1
65583,-80,4,2,1,85,0,1
66055,-80,4,2,1,85,0,1
66149,-80,4,2,1,85,0,1
66998,-80,4,2,1,5,0,1
67093,-80,4,2,1,85,0,1
67847,373.831775700935,4,2,1,85,1,1
67847,-80,4,2,1,85,0,1
68501,-80,4,2,1,5,0,1
68594,-80,4,2,1,85,0,1
70837,375,4,2,1,85,1,1
71587,-80,4,2,1,85,0,1
72149,-133.333333333333,4,2,1,85,0,1
73837,-133.333333333333,4,2,1,70,0,0
76743,-133.333333333333,4,2,1,70,0,0
76837,-133.333333333333,4,2,1,70,0,0
77118,-133.333333333333,4,2,1,5,0,0
77212,-66.6666666666667,4,2,1,70,0,0
77493,-133.333333333333,4,2,1,70,0,0
77587,-133.333333333333,4,2,1,70,0,0
80118,-133.333333333333,4,2,1,5,0,0
80212,-66.6666666666667,4,2,1,70,0,0
80493,-133.333333333333,4,2,1,70,0,0
80587,-133.333333333333,4,2,1,70,0,0
82837,373.831775700935,4,2,1,70,1,0
82837,-133.333333333333,4,2,1,70,0,0
83210,-66.6666666666667,4,2,1,70,0,0
83491,-133.333333333333,4,2,1,70,0,0
83584,-66.6666666666667,4,2,1,70,0,0
84332,375,4,2,1,70,1,0
85832,393.44262295082,4,2,1,70,1,0
85832,-200,4,2,1,70,0,0
86225,382.775119617225,4,2,1,70,1,0
86392,-133.333333333333,4,2,1,70,0,0
86607,376.175548589342,4,2,1,70,1,0
86983,356.083086053412,4,2,1,70,1,0
87161,-140.845070422535,4,2,1,70,0,0
87337,375,4,2,1,70,1,0
88837,371.517027863777,4,2,1,70,1,0
88837,-133.333333333333,4,2,1,70,0,0
89115,-133.333333333333,4,2,1,5,0,0
89208,-66.6666666666667,4,2,1,70,0,0
89487,-133.333333333333,4,2,1,70,0,0
89580,-66.6666666666667,4,2,1,70,0,0
89765,-133.333333333333,4,2,1,70,0,0
90137,-134.228187919463,4,2,1,70,0,0
90323,376.766091051805,4,2,1,70,1,0
90323,-133.333333333333,4,2,1,70,0,0
91830,379.746835443038,4,2,1,70,1,0
91830,-133.333333333333,4,2,1,70,0,0
92114,-133.333333333333,4,2,1,5,0,0
92209,-66.6666666666667,4,2,1,70,0,0
92494,-133.333333333333,4,2,1,70,0,0
92589,-66.6666666666667,4,2,1,70,0,0
92779,-83.3333333333333,4,2,1,70,0,0
93348,374.414976599064,4,2,1,70,1,0
93722,-133.333333333333,4,2,1,70,0,0
96343,371.517027863777,4,2,1,70,1,0
97829,378.548895899054,4,2,1,70,1,0
97829,-133.333333333333,4,2,1,70,0,0
97839,-133.333333333333,4,2,1,60,0,0
99343,375,4,2,1,60,1,0
99343,-200,4,2,1,60,0,0
100843,379.14691943128,4,2,1,60,1,0
102359,372.093023255814,4,2,1,60,1,0
102359,-200,4,2,1,60,0,0
103847,375.586854460094,4,2,1,60,1,0
105349,375,4,2,1,60,1,0
105349,-200,4,2,1,60,0,0
112661,-200,4,2,1,5,0,0
112839,-200,4,2,1,70,0,0
112849,-1000,4,2,1,70,0,0
118089,392.798690671031,4,2,1,90,1,0
118089,-76.9230769230769,4,2,1,90,0,0
118853,400,4,2,1,90,1,1
118853,-76.9230769230769,4,2,1,90,0,1
119253,375,4,2,1,90,1,1
119253,-76.9230769230769,4,2,1,90,0,1
119440,-76.9230769230769,4,2,1,5,0,1
119534,-76.9230769230769,4,2,1,90,0,1
119628,364.188163884674,4,2,1,90,1,1
119628,-76.9230769230769,4,2,1,90,0,1
119992,369.230769230769,4,2,1,90,1,1
119992,-76.9230769230769,4,2,1,90,0,1
120730,368.098159509202,4,2,1,90,1,1
120730,-76.9230769230769,4,2,1,90,0,1
121845,375,4,2,1,90,1,1
121845,-76.9230769230769,4,2,1,90,0,1
123251,-133.333333333333,4,2,1,5,0,1
123345,-76.9230769230769,4,2,1,90,0,1
128407,-133.333333333333,4,2,1,5,0,1
128501,-76.9230769230769,4,2,1,90,0,1
130720,-76.9230769230769,4,2,1,5,0,1
130845,-76.9230769230769,4,2,1,90,0,1
133657,387.096774193548,4,2,1,90,1,1
133657,-76.9230769230769,4,2,1,90,0,1
134624,368.663594470046,4,2,1,90,1,1
134624,-76.9230769230769,4,2,1,90,0,1
135361,369.79969183359,4,2,1,90,1,1
135361,-76.9230769230769,4,2,1,90,0,1
136840,-222.222222222221,4,2,1,90,0,0

[Colours]
Combo1 : 107,107,107
Combo2 : 255,174,136
Combo3 : 165,164,166
Combo4 : 255,165,74

[HitObjects]
202,0,339,5,6,3:1:0:0:
131,137,526,2,0,L|136:189,1,35,0|0,3:1|0:0,0:0:0:0:
208,116,714,2,0,L|99:102,1,105,8|0,1:1|3:0,0:0:0:0:
26,72,995,1,0,3:0:0:0:
1,74,1089,1,0,3:0:0:0:
202,0,1276,1,0,3:0:0:0:
131,137,1464,5,8,1:1:0:0:
26,72,1651,1,0,3:1:0:0:
26,72,2026,5,0,3:0:0:0:
208,116,2214,2,0,L|194:225,1,105,8|0,1:0|3:0,0:0:0:0:
237,314,2495,1,0,3:0:0:0:
241,340,2589,1,0,3:0:0:0:
331,243,2776,1,0,3:0:0:0:
194,220,2964,5,8,1:0:0:0:
341,347,3151,1,0,3:0:0:0:
148,294,3339,5,0,3:1:0:0:
77,185,3526,2,0,L|72:133,1,35,0|0,3:1|0:0,0:0:0:0:
0,206,3714,2,0,L|109:220,1,105,8|0,1:1|3:0,0:0:0:0:
177,149,3995,1,0,3:0:0:0:
202,143,4089,1,0,3:0:0:0:
327,189,4276,6,0,P|351:235|322:293,1,105,0|0,3:0|0:0,0:0:0:0:
279,239,4651,2,0,L|421:226,1,140,0|2,3:1|3:1,0:0:0:0:
490,278,5214,5,10,1:1:0:0:
307,165,5401,1,2,3:1:0:0:
289,162,5495,1,0,3:0:0:0:
271,159,5589,1,0,3:0:0:0:
397,119,5776,1,2,3:1:0:0:
322,301,5964,5,8,1:0:0:0:
312,85,6151,1,0,3:0:0:0:
378,358,6339,6,0,P|343:375|287:370,1,70,2|0,3:1|3:1,0:0:0:0:
409,251,6714,2,0,L|518:268,1,105,8|0,1:1|3:0,0:0:0:0:
383,342,6995,1,0,3:0:0:0:
378,358,7089,1,0,3:0:0:0:
328,216,7276,1,0,3:0:0:0:
467,354,7464,5,8,1:1:0:0:
280,301,7651,2,0,P|205:289|135:292,1,140,0|0,3:1|3:0,0:0:0:0:
72,332,8214,1,8,1:0:0:0:
139,366,8401,1,0,3:0:0:0:
137,166,8589,1,0,3:0:0:0:
65,200,8776,2,0,L|117:190,1,35,2|0,3:0|0:0,0:0:0:0:
3,67,8964,1,10,1:0:0:0:
79,77,9151,1,0,3:0:0:0:
140,16,9339,5,10,1:0:0:0:
65,200,9526,1,0,3:0:0:0:
224,96,9714,2,0,L|155:88,1,68.2500000000004,10|0,1:0|0:0,0:0:0:0:
302,106,10089,5,10,1:0:0:0:
79,77,10276,1,0,3:0:0:0:
269,27,10464,1,0,3:0:0:0:
240,250,10651,1,4,3:0:0:0:
310,301,12339,5,8,1:0:0:0:
272,316,12432,1,0,3:0:0:0:
233,300,12526,1,0,3:0:0:0:
205,269,12620,1,0,3:0:0:0:
165,259,12714,2,0,L|144:260,1,11.3750000000001,8|8,1:0|1:0,0:0:0:0:
361,240,12901,1,0,3:0:0:0:
90,201,13089,6,0,L|89:182,1,11.3750000000001,8|8,1:0|1:0,0:0:0:0:
66,298,13370,1,8,3:0:0:0:
165,259,13651,1,8,3:0:0:0:
146,121,13839,6,0,P|103:106|50:113,1,87.5,6|0,3:0|0:0,0:0:0:0:
217,27,14214,1,10,1:0:0:0:
189,379,14495,1,8,1:0:0:0:
189,379,14589,1,2,3:1:0:0:
328,272,14776,1,0,3:0:0:0:
328,272,15151,6,0,P|236:264|143:260,1,175,4|0,3:0|3:0,0:0:0:0:
400,240,15714,2,0,P|406:288|390:324,1,87.5,10|0,1:0|0:0,0:0:0:0:
335,190,16089,5,2,3:1:0:0:
361,112,16276,1,0,3:0:0:0:
241,110,16464,5,10,1:1:0:0:
456,193,16651,1,0,3:0:0:0:
195,41,16839,6,0,P|162:85|158:119,1,87.5,6|0,3:1|0:0,0:0:0:0:
111,0,17214,1,10,1:0:0:0:
208,271,17495,1,8,1:0:0:0:
208,271,17589,1,2,3:1:0:0:
85,191,17776,2,0,L|42:187,1,36.75,0|0,3:0|0:0,0:0:0:0:
113,207,18151,6,0,L|296:190,1,175,4|0,3:0|3:0,0:0:0:0:
423,306,18714,1,10,1:1:0:0:
236,122,18901,6,0,L|133:131,1,87.5,2|6,0:1|3:1,0:0:0:0:
208,271,19276,1,0,3:0:0:0:
184,48,19464,1,14,1:1:0:0:
184,48,19651,1,0,3:0:0:0:
34,188,19839,6,0,P|86:186|119:218,1,87.5,6|0,3:0|0:0,0:0:0:0:
0,116,20214,1,10,1:1:0:0:
266,44,20495,1,8,1:0:0:0:
266,44,20589,1,2,3:1:0:0:
340,36,20776,5,0,3:0:0:0:
184,45,20964,1,10,1:1:0:0:
270,176,21151,1,4,3:0:0:0:
270,176,21526,5,0,3:0:0:0:
407,166,21714,1,10,1:1:0:0:
426,245,21901,1,0,0:0:0:0:
155,226,22089,1,2,3:1:0:0:
181,126,22276,1,0,3:0:0:0:
256,301,22464,1,10,1:0:0:0:
255,317,22651,1,0,3:0:0:0:
52,222,22839,5,14,1:1:0:0:
256,288,23026,1,0,3:0:0:0:
40,191,23214,1,14,1:0:0:0:
48,316,23401,1,0,3:0:0:0:
228,94,23589,5,12,1:0:0:0:
138,289,23776,1,0,0:0:0:0:
135,135,23964,1,0,3:0:0:0:
256,192,24151,1,6,3:3:0:0:
256,192,24526,5,0,3:0:0:0:
163,33,24714,1,8,1:0:0:0:
163,33,25089,5,0,3:0:0:0:
370,3,25276,1,8,1:0:0:0:
400,45,25370,1,8,1:0:0:0:
408,96,25464,1,8,1:0:0:0:
377,138,25557,1,8,1:0:0:0:
357,186,25651,1,0,3:0:0:0:
361,238,25745,1,8,1:0:0:0:
401,271,25839,5,4,3:0:0:0:
441,200,26026,1,0,0:0:0:0:
329,314,26214,2,0,L|244:311,1,70,8|2,1:0|3:0,0:0:0:0:
186,349,26495,1,0,3:0:0:0:
168,351,26589,1,2,3:0:0:0:
112,275,26776,2,0,P|75:254|10:270,1,105,2|0,3:0|0:0,0:0:0:0:
58,323,27151,6,0,P|74:245|59:167,1,140,2|0,3:0|3:0,0:0:0:0:
24,116,27714,1,10,1:0:0:0:
100,36,27901,1,2,3:0:0:0:
103,18,27995,1,0,3:0:0:0:
106,0,28089,1,0,3:0:0:0:
19,33,28276,1,2,3:0:0:0:
259,94,28464,5,8,1:0:0:0:
116,121,28651,1,2,3:0:0:0:
227,29,28839,6,0,P|279:25|299:34,1,70,0|0,3:0|3:0,0:0:0:0:
229,161,29214,2,0,P|263:167|296:158,1,70,10|0,1:0|3:0,0:0:0:0:
351,96,29495,1,0,3:0:0:0:
368,96,29589,1,2,3:0:0:0:
382,182,29776,1,0,3:0:0:0:
496,40,29964,5,10,1:0:0:0:
387,276,30151,2,0,P|365:223|398:168,1,105,2|0,3:0|0:0,0:0:0:0:
403,296,30526,2,0,L|302:300,1,70,2|8,3:0|1:0,0:0:0:0:
512,350,30901,5,2,3:0:0:0:
509,367,30995,1,0,3:0:0:0:
506,384,31089,1,0,3:0:0:0:
484,264,31276,1,2,3:0:0:0:
241,378,31464,1,8,1:0:0:0:
219,258,31651,1,2,3:0:0:0:
341,229,31839,6,0,L|332:306,1,70,0|0,3:0|3:0,0:0:0:0:
262,171,32214,1,8,1:0:0:0:
404,107,32401,1,2,3:0:0:0:
421,106,32495,1,0,3:0:0:0:
438,105,32589,1,2,3:0:0:0:
293,22,32776,1,0,3:0:0:0:
276,21,32870,1,2,0:3:0:0:
259,20,32964,1,8,1:0:0:0:
341,229,33151,6,0,L|332:306,1,70,2|0,3:0|3:0,0:0:0:0:
253,101,33526,2,0,L|262:178,1,70,2|8,3:0|1:0,0:0:0:0:
427,262,33901,1,2,3:0:0:0:
444,260,33995,1,0,3:0:0:0:
461,258,34089,1,0,3:0:0:0:
268,357,34276,1,2,3:0:0:0:
332,298,34464,5,8,1:0:0:0:
126,255,34651,1,2,3:0:0:0:
170,351,34839,1,2,3:0:0:0:
170,351,35026,1,0,3:0:0:0:
82,159,35214,1,8,1:0:0:0:
34,248,35401,1,0,3:0:0:0:
31,265,35495,1,0,3:0:0:0:
28,282,35589,1,0,3:0:0:0:
166,104,35776,2,0,P|211:96|248:97,1,70,0|8,3:0|1:0,0:0:0:0:
289,293,36151,6,0,B|271:255|286:218|299:234|315:194|300:158,1,140,0|0,3:0|3:0,0:0:0:0:
356,265,36714,1,8,1:0:0:0:
282,375,36901,1,0,3:0:0:0:
435,306,37089,5,0,3:0:0:0:
462,302,37182,1,0,3:0:0:0:
492,278,37276,1,0,3:0:0:0:
505,225,37370,1,8,1:0:0:0:
463,178,37464,5,8,1:0:0:0:
452,178,37557,1,0,3:0:0:0:
441,179,37651,1,0,3:0:0:0:
430,180,37745,1,0,3:0:0:0:
398,194,37839,6,0,L|324:189,1,70,4|8,3:0|1:0,0:0:0:0:
464,74,38401,1,0,3:0:0:0:
462,56,38495,1,0,3:0:0:0:
460,38,38589,1,2,3:0:0:0:
347,115,38776,1,2,3:0:0:0:
435,306,38964,1,8,1:0:0:0:
463,178,39151,6,0,B|419:161|380:174|400:184|367:202|327:189,1,140,2|0,3:0|3:0,0:0:0:0:
297,58,39714,2,0,P|327:42|370:45,1,70,10|2,1:0|3:0,0:0:0:0:
261,134,39995,1,0,3:0:0:0:
243,129,40089,1,0,3:0:0:0:
161,108,40276,1,2,3:0:0:0:
343,155,40464,1,8,1:0:0:0:
222,45,40651,1,2,3:0:0:0:
276,215,40839,6,0,P|279:259|272:297,1,70,0|0,3:0|3:0,0:0:0:0:
120,286,41214,2,0,P|117:242|124:204,1,70,10|0,1:0|3:0,0:0:0:0:
198,334,41495,1,0,3:0:0:0:
198,351,41589,1,2,3:0:0:0:
198,164,41776,2,0,P|234:132|296:120,1,105,2|0,3:0|0:0,0:0:0:0:
365,178,42151,6,0,L|444:183,1,70,2|0,3:0|3:0,0:0:0:0:
243,49,42526,2,0,L|322:44,1,70,2|8,3:0|1:0,0:0:0:0:
121,178,42901,1,2,3:0:0:0:
138,179,42995,1,0,3:0:0:0:
155,180,43089,1,0,3:0:0:0:
59,118,43276,1,2,3:0:0:0:
101,283,43464,1,8,1:0:0:0:
26,240,43651,1,2,3:0:0:0:
206,278,43839,6,0,L|291:272,1,70.2194357366772,0|0,3:0|3:0,0:0:0:0:
101,283,44215,1,8,1:0:0:0:
380,268,44403,1,2,3:0:0:0:
397,266,44497,1,0,3:0:0:0:
414,265,44591,1,2,3:0:0:0:
298,192,44779,1,2,3:0:0:0:
158,349,44967,1,8,1:0:0:0:
301,286,45155,6,0,L|298:212,1,70.2194357366772,2|0,3:0|3:0,0:0:0:0:
158,349,45531,2,0,L|161:275,1,70.2194357366772,2|8,3:0|1:0,0:0:0:0:
372,379,45907,1,2,3:0:0:0:
389,381,46002,1,0,3:0:0:0:
406,384,46096,1,0,3:0:0:0:
260,364,46284,1,2,3:0:0:0:
485,274,46472,1,8,1:0:0:0:
349,256,46660,1,2,3:0:0:0:
409,167,46848,6,0,L|407:35,1,105.329153605016,0|0,3:0|0:0,0:0:0:0:
408,32,47224,1,8,1:0:0:0:
487,141,47412,1,2,3:0:0:0:
487,158,47506,1,0,3:0:0:0:
488,175,47600,1,0,3:0:0:0:
346,81,47788,1,2,3:0:0:0:
488,61,47976,1,8,1:0:0:0:
228,21,48165,6,0,L|179:16,1,35.1097178683386,2|0,3:1|0:0,0:0:0:0:
265,92,48353,1,2,3:0:0:0:
140,174,48541,6,0,L|91:179,1,35.1097178683386,2|0,3:1|0:0,0:0:0:0:
177,103,48729,1,8,1:0:0:0:
177,103,48917,1,0,3:0:0:0:
265,92,49105,6,0,L|285:82,1,17.5,8|8,1:0|1:0,0:0:0:0:
78,75,49282,1,0,3:0:0:0:
269,242,49480,6,0,L|293:257,1,17.8733333333333,8|8,1:0|1:0,0:0:0:0:
82,259,49656,1,0,3:0:0:0:
416,192,49857,6,0,P|380:167|322:171,1,87.9666666666667,6|0,3:0|0:0,0:0:0:0:
512,255,50232,2,0,L|500:87,1,131.25,10|0,1:0|0:0,0:0:0:0:
499,91,50607,1,2,3:1:0:0:
337,165,50794,2,0,P|293:163|258:138,1,87.5,0|10,3:0|1:0,0:0:0:0:
442,302,51169,6,0,P|362:250|271:275,1,175,4|2,3:0|3:0,0:0:0:0:
225,321,51732,1,10,1:0:0:0:
404,232,51919,2,0,P|425:180|400:96,1,131.25,2|0,0:3|0:0,0:0:0:0:
383,85,52294,1,0,3:0:0:0:
442,302,52482,1,10,1:1:0:0:
492,229,52669,1,0,3:0:0:0:
255,155,52857,6,0,P|298:157|341:167,1,87.5,6|0,3:0|0:0,0:0:0:0:
186,176,53229,2,0,B|171:140|186:104|197:125|209:82|190:51,1,131.25,10|0,1:1|0:0,0:0:0:0:
177,25,53602,1,2,3:1:0:0:
79,201,53788,2,0,P|121:202|165:189,1,87.5,0|10,3:0|1:1,0:0:0:0:
174,369,54161,6,0,P|137:311|152:201,1,175,6|6,3:0|3:0,0:0:0:0:
5,221,54720,1,10,1:1:0:0:
239,237,54906,2,0,P|326:231|397:171,1,175,6|2,0:3|3:0,0:0:0:0:
369,107,55465,5,10,1:0:0:0:
396,325,55652,1,2,3:0:0:0:
411,35,55838,6,0,L|321:30,1,87.5,6|2,3:1|0:3,0:0:0:0:
402,190,56213,2,0,P|447:149|408:33,1,175,10|2,1:1|3:1,0:0:0:0:
369,107,56776,1,0,3:0:0:0:
512,185,56964,1,10,1:1:0:0:
323,30,57152,6,0,B|273:6|236:30|252:46|207:70|152:51,1,175,6|2,3:0|3:0,0:0:0:0:
98,0,57715,1,10,1:1:0:0:
224,84,57903,2,0,P|235:132|215:178,1,87.5,2|2,0:3|3:1,0:0:0:0:
80,92,58279,1,2,3:0:0:0:
208,189,58467,1,10,1:0:0:0:
208,189,58654,1,0,3:0:0:0:
356,205,58842,5,14,1:1:0:0:
130,259,59029,1,0,3:0:0:0:
292,288,59216,1,10,1:0:0:0:
314,283,59403,1,0,3:0:0:0:
128,180,59590,5,14,1:0:0:0:
240,363,59777,1,0,0:0:0:0:
314,283,59964,1,0,3:0:0:0:
152,341,60151,1,6,3:1:0:0:
152,341,60525,5,0,3:0:0:0:
412,376,60713,1,8,1:0:0:0:
413,345,60806,1,8,1:0:0:0:
414,314,60900,1,8,1:0:0:0:
415,283,60993,1,8,1:0:0:0:
416,252,61087,5,8,1:0:0:0:
389,202,61180,1,8,1:0:0:0:
349,182,61274,1,0,3:0:0:0:
313,179,61367,1,0,3:0:0:0:
292,186,61461,1,0,3:0:0:0:
281,193,61555,1,0,3:0:0:0:
270,226,61648,5,8,1:0:0:0:
300,263,61742,1,8,1:0:0:0:
355,248,61835,6,0,P|366:195|348:159,1,87.3182688529499,4|0,3:0|0:0,0:0:0:0:
175,330,62209,2,0,P|264:343|360:321,1,175,10|2,1:1|3:1,0:0:0:0:
120,278,62771,2,0,P|100:324|114:375,1,87.3182688529499,0|10,3:0|1:1,0:0:0:0:
130,94,63145,6,0,P|154:178|138:263,1,175,4|2,3:0|3:3,0:0:0:0:
112,73,63706,1,10,1:1:0:0:
248,188,63893,2,0,L|58:179,1,175,2|0,0:3|3:0,0:0:0:0:
303,250,64455,5,10,1:0:0:0:
31,115,64642,1,0,3:0:0:0:
238,300,64829,6,0,P|222:248|235:205,1,87.5,6|0,3:1|0:0,0:0:0:0:
431,353,65206,2,0,P|342:332|239:354,1,175,10|2,1:1|3:1,0:0:0:0:
499,301,65772,2,0,P|514:341|508:384,1,87.5,0|10,3:0|1:1,0:0:0:0:
438,151,66149,6,0,P|454:62|514:-5,1,175,4|0,3:0|3:0,0:0:0:0:
421,172,66715,2,0,L|269:164,1,131.25,10|0,1:1|0:0,0:0:0:0:
191,84,67093,5,6,3:1:0:0:
234,281,67281,1,2,3:0:0:0:
341,156,67470,5,14,1:0:0:0:
62,98,67659,1,2,3:0:0:0:
149,270,67847,6,0,P|202:285|240:278,1,87.5,6|0,3:1|0:0,0:0:0:0:
57,205,68220,2,0,L|65:367,1,131.25,10|0,1:1|0:0,0:0:0:0:
65,355,68594,1,2,3:1:0:0:
121,150,68781,2,0,P|78:126|35:124,1,87.5,0|10,3:0|1:1,0:0:0:0:
313,242,69155,6,0,P|226:233|148:269,1,175,4|0,3:0|3:0,0:0:0:0:
393,197,69716,1,10,1:1:0:0:
393,197,70089,1,2,3:1:0:0:
383,281,70276,1,0,3:0:0:0:
316,101,70463,2,0,L|426:115,1,87.2274143302182,10|2,1:0|3:0,0:0:0:0:
286,320,70837,5,14,1:0:0:0:
284,90,71024,1,0,3:0:0:0:
164,286,71212,5,14,1:0:0:0:
243,24,71399,1,0,3:0:0:0:
354,275,71587,5,14,1:0:0:0:
281,238,71712,6,0,L|243:228,4,29.1666666666667,0|0|0|0|2,0:0|3:0|0:0|0:0|3:1,0:0:0:0:
435,355,72149,6,0,P|463:313|453:238,1,105,4|0,3:0|3:0,0:0:0:0:
201,384,72712,1,8,1:0:0:0:
281,238,72899,5,8,3:0:0:0:
280,201,72993,1,8,3:0:0:0:
275,164,73087,1,8,3:0:0:0:
152,40,73274,5,8,3:0:0:0:
151,61,73368,1,8,3:0:0:0:
148,82,73462,1,8,3:0:0:0:
359,305,73649,5,0,3:0:0:0:
358,295,73743,1,0,3:0:0:0:
357,286,73837,1,4,3:0:0:0:
357,286,74212,5,8,1:0:0:0:
245,341,74399,1,2,3:0:0:0:
234,341,74493,1,0,3:0:0:0:
223,341,74587,1,2,3:0:0:0:
144,294,74774,2,0,L|81:291,1,52.5000000000001,2|8,3:0|1:0,0:0:0:0:
29,234,75149,2,0,P|56:202|56:136,1,105,2|0,3:0|3:0,0:0:0:0:
29,234,75712,5,10,1:0:0:0:
15,77,75899,2,0,P|52:66|85:69,1,52.5000000000001,2|0,3:0|3:0,0:0:0:0:
162,147,76274,2,0,L|56:140,1,105,2|0,3:0|3:0,0:0:0:0:
226,91,76837,2,0,P|263:81|309:88,1,78.7500000000002,2|0,3:0|0:0,0:0:0:0:
320,197,77212,6,0,P|243:153|228:71,1,157.5,14|0,1:1|3:0,0:0:0:0:
389,155,77587,1,2,3:0:0:0:
389,155,77774,2,0,P|401:192|396:226,1,52.5000000000001,2|8,3:0|1:0,0:0:0:0:
247,291,78149,2,0,P|298:269|362:285,1,105,2|0,3:0|3:0,0:0:0:0:
247,291,78712,5,10,1:0:0:0:
120,289,78899,2,0,P|148:305|186:303,1,52.5000000000001,2|0,3:0|3:0,0:0:0:0:
12,230,79274,2,0,P|28:265|38:330,1,105,2|0,3:0|3:0,0:0:0:0:
56,151,79837,2,0,P|58:111|74:76,1,78.7500000000002,2|0,3:0|0:0,0:0:0:0:
187,94,80212,6,0,P|133:149|56:151,1,157.5,14|0,1:0|3:0,0:0:0:0:
141,22,80587,1,0,3:0:0:0:
141,22,80774,2,0,P|179:8|213:8,1,52.5000000000001,2|10,3:0|1:0,0:0:0:0:
330,6,81149,2,0,P|283:32|263:85,1,105,2|0,3:0|3:0,0:0:0:0:
408,35,81712,5,10,1:0:0:0:
347,110,81899,1,2,3:0:0:0:
345,99,81993,1,0,3:0:0:0:
344,88,82087,1,2,3:0:0:0:
414,182,82274,1,2,3:0:0:0:
397,297,82462,1,8,1:0:0:0:
303,366,82649,1,2,3:0:0:0:
415,293,82837,2,0,L|487:298,1,52.336448598131,0|2,3:0|3:0,0:0:0:0:
303,366,83210,6,0,L|132:352,1,157.500006008148,12|0,1:0|3:0,0:0:0:0:
117,352,83584,1,0,3:0:0:0:
31,369,83771,1,2,3:0:0:0:
0,199,83958,1,8,1:0:0:0:
86,216,84145,1,2,3:0:0:0:
28,281,84332,1,0,3:0:0:0:
154,84,84519,5,8,1:0:0:0:
68,101,84707,1,0,3:0:0:0:
237,126,84894,1,2,3:0:0:0:
83,0,85082,5,0,3:0:0:0:
86,10,85269,1,2,3:0:0:0:
89,20,85457,1,0,3:0:0:0:
92,30,85644,1,2,3:0:0:0:
154,84,85832,6,0,L|146:167,1,70,4|10,3:0|1:0,0:0:0:0:
42,300,86512,1,0,3:0:0:0:
44,315,86607,1,2,3:0:0:0:
97,234,86795,1,2,3:0:0:0:
89,379,86983,1,8,1:0:0:0:
220,336,87161,2,0,P|174:315|111:312,1,101.640004005432,2|0,3:0|3:0,0:0:0:0:
235,350,87712,5,10,1:0:0:0:
325,327,87899,1,2,3:0:0:0:
326,310,87993,1,0,3:0:0:0:
329,294,88087,1,0,3:0:0:0:
292,217,88274,2,0,P|274:170|299:75,1,140,2|0,3:0|3:0,0:0:0:0:
219,203,88837,2,0,P|266:204|307:231,1,78.7500030040742,2|0,3:0|0:0,0:0:0:0:
133,243,89208,6,0,P|212:255|309:229,1,157.500006008148,14|0,1:0|3:0,0:0:0:0:
145,162,89580,1,2,3:0:0:0:
58,236,89765,2,0,P|62:275|82:303,1,52.5000020027161,2|8,3:0|1:0,0:0:0:0:
85,109,90137,2,0,P|117:87|197:101,1,105.000004005432,2|0,3:0|3:0,0:0:0:0:
8,63,90699,5,10,1:0:0:0:
93,36,90888,2,0,P|124:46|144:65,1,52.5000020027161,2|0,3:0|3:0,0:0:0:0:
190,184,91264,2,0,P|169:168|144:161,1,52.7472527472528,2|8,3:0|1:0,0:0:0:0:
58,236,91641,1,0,3:0:0:0:
250,237,91830,2,0,P|269:200|258:144,1,78.7500030040742,2|0,3:0|0:0,0:0:0:0:
237,260,92209,6,0,P|235:313|333:347,1,157.500006008148,14|0,1:0|3:0,0:0:0:0:
344,342,92589,1,0,3:0:0:0:
237,260,92779,2,0,B|191:233|144:253|162:264|115:286|70:258,1,167.999994873047,10|2,1:0|3:0,0:0:0:0:
184,319,93348,1,0,3:0:0:0:
181,346,93535,1,2,3:0:0:0:
112,201,93722,1,8,1:0:0:0:
160,125,93909,1,2,3:0:0:0:
158,109,94003,1,0,3:0:0:0:
156,93,94096,1,0,3:0:0:0:
112,201,94284,2,0,L|117:270,1,52.5000020027161,0|8,3:0|1:0,0:0:0:0:
186,327,94658,5,2,3:0:0:0:
184,343,94752,1,0,3:0:0:0:
182,359,94845,1,6,3:1:0:0:
507,234,95220,1,12,1:1:0:0:
182,359,95594,5,0,3:0:0:0:
77,317,95781,1,0,3:0:0:0:
172,330,95968,5,8,1:0:0:0:
67,288,96156,1,0,3:0:0:0:
207,159,96343,5,2,3:0:0:0:
234,256,96528,1,2,3:0:0:0:
331,229,96714,1,0,3:0:0:0:
304,132,96900,1,2,3:0:0:0:
261,353,97086,5,10,1:0:0:0:
398,157,97271,1,2,3:0:0:0:
360,325,97457,5,0,3:0:0:0:
304,132,97643,1,0,3:0:0:0:
78,269,97829,5,4,3:0:0:0:
78,269,98207,1,0,3:0:0:0:
78,269,98586,1,2,3:0:0:0:
0,297,98775,1,2,0:3:0:0:
148,377,98964,1,0,3:0:0:0:
70,349,99153,1,2,0:1:0:0:
218,268,99343,6,0,L|262:261,1,35,0|2,3:0|0:1,0:0:0:0:
305,195,99718,2,0,L|349:202,1,35,2|2,3:0|0:3,0:0:0:0:
227,280,100093,2,0,L|271:273,1,35,0|2,3:0|0:1,0:0:0:0:
156,197,100468,5,2,3:1:0:0:
154,186,100561,1,2,0:1:0:0:
153,175,100655,1,2,0:1:0:0:
152,163,100749,1,2,0:1:0:0:
151,152,100843,5,6,3:3:0:0:
150,152,101222,1,2,3:0:0:0:
150,152,101601,1,2,3:0:0:0:
63,127,101790,1,2,0:3:0:0:
217,36,101980,1,0,3:0:0:0:
130,61,102170,1,2,0:1:0:0:
318,76,102359,6,0,L|321:35,1,35,0|2,3:0|0:1,0:0:0:0:
395,177,102731,2,0,L|392:136,1,35,2|2,3:0|0:3,0:0:0:0:
327,93,103103,1,0,3:0:0:0:
329,58,103289,1,10,3:0:0:0:
480,149,103475,1,8,3:0:0:0:
469,234,103661,1,8,3:0:0:0:
304,323,103847,5,6,3:3:0:0:
304,323,104222,1,2,3:0:0:0:
304,323,104598,1,0,3:0:0:0:
216,301,104785,1,2,0:3:0:0:
369,218,104973,1,0,3:0:0:0:
281,240,105161,1,2,0:1:0:0:
453,269,105349,6,0,L|500:273,1,35,0|2,3:0|0:1,0:0:0:0:
369,348,105724,2,0,L|416:344,1,35,2|2,3:0|0:3,0:0:0:0:
458,283,106099,6,0,L|474:280,1,8.75,8|8,1:0|1:0,0:0:0:0:
329,134,106286,1,2,3:0:0:0:
256,192,106474,1,0,3:0:0:0:
256,192,106849,5,4,3:0:0:0:
256,192,106942,12,0,112661,0:0:0:0:
1,378,112849,6,0,L|0:392,1,14,6|2,3:0|0:3,0:0:0:0:
308,139,118089,6,0,L|304:110,1,22.7499989585877,8|8,1:0|1:0,0:0:0:0:
128,191,118285,1,0,3:0:0:0:
374,236,118481,2,0,L|370:265,1,22.7499989585877,8|8,1:0|1:0,0:0:0:0:
128,191,118853,5,6,3:0:0:0:
8,134,119053,1,0,0:0:0:0:
164,282,119253,2,0,P|120:267|49:269,1,91,10|0,1:0|0:0,0:0:0:0:
6,332,119534,1,0,3:0:0:0:
0,358,119628,1,2,3:1:0:0:
216,195,119810,2,0,P|231:139|223:98,1,90.9999958343508,2|10,3:0|1:0,0:0:0:0:
155,343,120176,6,0,P|192:306|341:299,1,182,2|2,3:0|3:0,0:0:0:0:
374,343,120730,5,10,1:0:0:0:
343,212,120914,1,2,3:0:0:0:
473,130,121098,5,10,1:0:0:0:
442,261,121282,1,2,3:0:0:0:
263,135,121466,5,10,1:0:0:0:
368,50,121650,1,2,3:0:0:0:
315,291,121845,5,14,1:0:0:0:
315,291,122032,1,0,3:0:0:0:
115,347,122220,5,8,1:0:0:0:
123,348,122313,1,8,1:0:0:0:
131,349,122407,1,8,1:0:0:0:
140,350,122501,1,8,1:0:0:0:
149,351,122595,5,8,1:0:0:0:
183,308,122688,1,8,1:0:0:0:
186,253,122782,1,8,1:0:0:0:
160,204,122876,1,8,1:0:0:0:
120,165,122970,1,8,1:0:0:0:
113,111,123063,1,8,1:0:0:0:
130,59,123157,6,0,P|144:32|179:0,1,45.5,4|0,3:0|0:0,0:0:0:0:
256,96,123345,5,8,1:0:0:0:
38,35,123532,1,4,3:1:0:0:
320,145,123720,5,8,1:0:0:0:
330,130,123813,1,8,1:0:0:0:
335,112,123907,1,8,1:0:0:0:
335,93,124001,1,8,1:0:0:0:
332,74,124095,5,8,1:0:0:0:
312,104,124188,1,8,1:0:0:0:
306,140,124282,1,0,3:0:0:0:
309,176,124376,1,0,3:0:0:0:
325,208,124470,2,0,P|336:238|337:266,1,45.5,0|0,3:0|3:0,0:0:0:0:
281,329,124657,5,8,1:0:0:0:
221,304,124751,1,8,1:0:0:0:
157,311,124845,1,6,3:1:0:0:
157,311,125032,1,0,3:0:0:0:
464,331,125220,2,0,P|430:299|332:284,1,136.5,10|0,1:0|3:0,0:0:0:0:
281,329,125595,1,2,3:1:0:0:
438,260,125782,2,0,P|440:213|416:138,1,91,0|10,3:0|1:0,0:0:0:0:
154,271,126157,6,0,B|195:297|246:273|227:261|278:239|327:268,1,182,4|2,3:0|3:0,0:0:0:0:
284,332,126720,1,10,1:0:0:0:
284,332,126907,1,2,0:3:0:0:
205,128,127095,5,6,3:1:0:0:
194,210,127282,1,0,3:0:0:0:
141,37,127470,5,14,1:1:0:0:
306,118,127657,1,0,3:0:0:0:
45,222,127845,5,6,3:1:0:0:
45,222,128032,1,0,0:0:0:0:
62,337,128220,2,0,P|46:291|46:231,1,91,10|0,1:0|0:0,0:0:0:0:
86,151,128501,1,0,3:0:0:0:
84,130,128595,1,2,3:1:0:0:
28,62,128782,1,0,3:0:0:0:
131,224,128970,1,10,1:0:0:0:
230,71,129157,6,0,P|168:71|96:125,1,136.5,4|0,3:0|0:0,0:0:0:0:
84,130,129532,1,0,3:0:0:0:
330,286,129720,2,0,P|310:231|323:163,1,91,10|0,1:0|0:0,0:0:0:0:
300,363,130095,1,6,3:1:0:0:
376,154,130282,1,2,3:0:0:0:
240,298,130470,5,14,1:1:0:0:
169,278,130595,6,0,P|128:278|94:287,1,60.6666666666667,2|0,3:0|3:0,0:0:0:0:
56,177,130845,6,0,P|91:247|92:285,1,91,6|0,3:0|0:0,0:0:0:0:
182,89,131220,2,0,P|117:87|23:188,1,182,10|2,1:0|3:1,0:0:0:0:
209,105,131782,1,0,3:0:0:0:
225,20,131970,1,10,1:0:0:0:
56,177,132157,6,0,P|75:231|58:337,1,136.5,4|0,3:0|0:0,0:0:0:0:
55,333,132532,1,0,3:0:0:0:
284,283,132720,2,0,P|232:253|96:246,1,182,10|2,1:0|3:1,0:0:0:0:
55,333,133282,1,2,3:0:0:0:
168,147,133470,5,10,1:1:0:0:
246,345,133657,1,0,3:0:0:0:
279,357,133753,1,0,3:0:0:0:
315,354,133850,1,14,1:0:0:0:
469,186,134044,1,2,3:0:0:0:
433,183,134140,1,0,3:0:0:0:
400,195,134237,1,14,1:0:0:0:
486,327,134431,5,0,3:0:0:0:
499,325,134527,1,0,3:0:0:0:
512,323,134624,1,14,1:0:0:0:
284,283,134808,1,2,3:0:0:0:
413,384,134992,1,0,3:0:0:0:
479,110,135176,1,4,3:0:0:0:
374,98,135361,6,0,P|424:86|471:98,1,91,0|0,3:0|0:0,0:0:0:0:
302,146,135730,5,8,1:0:0:0:
264,171,135823,1,8,1:0:0:0:
221,178,135915,1,8,1:0:0:0:
173,164,136008,1,8,1:0:0:0:
138,134,136100,1,10,1:0:0:0:
105,102,136193,1,8,1:0:0:0:
59,98,136285,5,0,3:0:0:0:
49,111,136377,1,0,3:0:0:0:
43,128,136470,1,2,3:0:0:0:
44,161,136562,1,0,3:0:0:0:
57,191,136655,1,0,3:0:0:0:
86,225,136747,1,0,3:0:0:0:
104,268,136840,6,0,L|98:340,1,63.0000000000003,2|0,3:0|0:0,0:0:0:0:
