osu file format v14

[General]
AudioFilename: audio.mp3
AudioLeadIn: 0
PreviewTime: 112752
Countdown: 0
SampleSet: Soft
StackLeniency: 0.4
Mode: 0
LetterboxInBreaks: 0
WidescreenStoryboard: 1

[Editor]
Bookmarks: 13839,25839,49833,97805,112825,118789
DistanceSpacing: 1.4
BeatDivisor: 4
GridSize: 32
TimelineZoom: 6.499996

[Metadata]
Title:Admiral
TitleUnicode:Admiral
Artist:Michael Cera Palin
ArtistUnicode:Michael Cera Palin
Creator:WashedUp Player
Version:Normal
Source:
Tags:blitzifyyy i don't dont know how to explain it rock punk pop emo indie english fa featured artist mpg mappers' guild
BeatmapID:3118764
BeatmapSetID:1524273

[Difficulty]
HPDrainRate:4
CircleSize:3
OverallDifficulty:4
ApproachRate:5
SliderMultiplier:1.4
SliderTickRate:1

[Events]
//Background and Video events
0,0,"1125781.jpg",0,0
//Break Periods
2,113049,116889
//Storyboard Layer 0 (Background)
//Storyboard Layer 1 (Fail)
//Storyboard Layer 2 (Pass)
//Storyboard Layer 3 (Foreground)
//Storyboard Layer 4 (Overlay)
//Storyboard Sound Samples

[TimingPoints]
339,375,4,2,1,70,1,0
339,-125,4,2,1,70,0,0
13839,-111.111111111111,4,2,1,85,0,0
25839,-125,4,2,1,70,0,0
43839,376.175548589342,4,2,1,70,1,0
43839,-125,4,2,1,70,0,0
49105,355.029585798817,4,2,1,70,1,0
49105,-125,4,2,1,70,0,0
49282,397.350993377483,4,2,1,70,1,0
49282,-125,4,2,1,70,0,0
49480,353.460972017673,4,2,1,70,1,0
49480,-125,4,2,1,70,0,0
49839,-125,4,2,1,85,0,0
49857,375,4,2,1,85,1,1
49857,-111.111111111111,4,2,1,85,0,1
52857,372.670807453416,4,2,1,85,1,1
52857,-111.111111111111,4,2,1,85,0,1
55838,375.586854460094,4,2,1,85,1,1
55838,-111.111111111111,4,2,1,85,0,1
58842,374.221152226928,4,2,1,85,1,1
58842,-111.111111111111,4,2,1,85,0,1
64829,377.358490566038,4,2,1,85,1,1
64829,-111.111111111111,4,2,1,85,0,1
67847,373.831775700935,4,2,1,85,1,1
67847,-111.111111111111,4,2,1,85,0,1
70837,375,4,2,1,85,1,1
70837,-111.111111111111,4,2,1,85,0,1
73837,-125,4,2,1,70,0,0
82837,373.831775700935,4,2,1,70,1,0
82837,-125,4,2,1,70,0,0
84332,375,4,2,1,70,1,0
84332,-125,4,2,1,70,0,0
85832,393.44262295082,4,2,1,70,1,0
85832,-125,4,2,1,70,0,0
86225,382.775119617225,4,2,1,70,1,0
86225,-125,4,2,1,70,0,0
86607,376.175548589342,4,2,1,70,1,0
86607,-125,4,2,1,70,0,0
86983,356.083086053412,4,2,1,70,1,0
86983,-125,4,2,1,70,0,0
87161,-127.713920817369,4,2,1,70,0,0
87337,375,4,2,1,70,1,0
87339,-125,4,2,1,70,0,0
88837,371.517027863777,4,2,1,70,1,0
88837,-125,4,2,1,70,0,0
90323,376.766091051805,4,2,1,70,1,0
90323,-125,4,2,1,70,0,0
91830,379.746835443038,4,2,1,70,1,0
91830,-125,4,2,1,70,0,0
93159,-123.456790123457,4,2,1,70,0,0
93348,374.414976599064,4,2,1,70,1,0
93348,-125,4,2,1,70,0,0
96343,371.517027863777,4,2,1,70,1,0
96343,-125,4,2,1,70,0,0
97829,378.548895899054,4,2,1,70,1,0
97829,-142.857142857143,4,2,1,70,0,0
97839,-142.857142857143,4,2,1,60,0,0
99343,375,4,2,1,60,1,0
99343,-142.857142857143,4,2,1,60,0,0
100843,379.14691943128,4,2,1,60,1,0
100843,-142.857142857143,4,2,1,60,0,0
102170,-141.843971631206,4,2,1,60,0,0
102359,372.093023255814,4,2,1,60,1,0
102359,-142.857142857143,4,2,1,60,0,0
103847,375.586854460094,4,2,1,60,1,0
103847,-142.857142857143,4,2,1,60,0,0
105349,375,4,2,1,60,1,0
105349,-142.857142857143,4,2,1,60,0,0
112825,-250,4,2,1,60,0,0
112839,-250,4,2,1,70,0,0
118089,392.798690671031,4,2,1,90,1,0
118089,-111.111111111111,4,2,1,90,0,0
118853,400,4,2,1,90,1,1
118853,-111.111111111111,4,2,1,90,0,1
119253,375,4,2,1,90,1,1
119253,-111.111111111111,4,2,1,90,0,1
119628,364.188163884674,4,2,1,90,1,1
119628,-111.111111111111,4,2,1,90,0,1
119992,369.230769230769,4,2,1,90,1,1
119992,-111.111111111111,4,2,1,90,0,1
120730,368.098159509202,4,2,1,90,1,1
120730,-111.111111111111,4,2,1,90,0,1
121845,375,4,2,1,90,1,1
121845,-111.111111111111,4,2,1,90,0,1
133657,387.096774193548,4,2,1,90,1,1
133657,-111.111111111111,4,2,1,90,0,1
134624,368.663594470046,4,2,1,90,1,1
134624,-111.111111111111,4,2,1,90,0,1
135361,369.79969183359,4,2,1,90,1,1
135361,-111.111111111111,4,2,1,90,0,1
136840,-111.111111111111,4,2,1,90,0,0

[Colours]
Combo1 : 107,107,107
Combo2 : 255,174,136
Combo3 : 165,164,166
Combo4 : 255,165,74

[HitObjects]
39,120,339,6,0,P|70:123|100:115,1,56,6|0,3:1|3:1,0:0:0:0:
161,77,714,2,0,P|200:74|243:95,1,56,8|0,1:1|3:0,0:0:0:0:
280,123,1089,2,0,P|311:126|393:97,1,112,0|8,3:0|1:1,0:0:0:0:
461,125,1651,2,0,B|470:161|452:186|452:186|430:212|442:265,1,112,0|0,3:1|3:0,0:0:0:0:
422,308,2214,1,8,1:0:0:0:
280,374,2589,2,0,L|216:370,2,56,0|0|8,3:0|3:0|1:0,0:0:0:0:
141,301,3339,6,0,L|50:306,1,56,0|0,3:1|3:1,0:0:0:0:
77,225,3714,2,0,L|139:221,1,56,8|0,1:1|3:0,0:0:0:0:
122,143,4089,2,0,L|31:148,2,56,0|0|8,3:0|3:0|1:1,0:0:0:0:
191,107,4651,2,0,B|238:103|238:103|265:122|265:122|325:118,1,112,0|2,3:1|3:1,0:0:0:0:
363,76,5214,1,10,1:1:0:0:
363,76,5401,1,2,3:1:0:0:
501,150,5776,2,0,P|509:204|493:282,1,112,2|0,3:1|3:0,0:0:0:0:
433,301,6339,6,0,L|346:309,1,56,2|0,3:1|3:1,0:0:0:0:
363,228,6714,2,0,L|425:222,1,56,8|0,1:1|3:0,0:0:0:0:
407,144,7089,2,0,L|345:150,1,56,0|0,3:0|3:0,0:0:0:0:
289,103,7464,1,8,1:1:0:0:
289,103,7651,1,0,3:1:0:0:
57,73,8214,2,0,P|45:120|52:159,1,56,8|0,1:0|3:0,0:0:0:0:
111,169,8589,2,0,P|123:216|116:255,1,56,0|2,3:0|3:0,0:0:0:0:
77,287,8964,2,0,P|65:334|70:367,1,56,10|0,1:0|3:0,0:0:0:0:
132,382,9339,2,0,P|183:359|265:365,1,112,10|10,1:0|1:0,0:0:0:0:
393,380,10089,2,0,P|383:351|378:310,1,56,10|0,1:0|3:0,0:0:0:0:
426,264,10464,1,0,3:0:0:0:
426,264,10651,1,4,3:0:0:0:
57,65,12339,6,0,L|195:59,1,112,8|8,1:0|1:0,0:0:0:0:
239,106,12901,1,0,3:0:0:0:
239,106,13089,2,0,B|347:108,2,84,8|8|8,1:0|3:0|3:0,0:0:0:0:
174,166,13839,6,0,P|128:169|90:183,2,62.9999980773926,6|0|10,3:0|0:0|1:0,0:0:0:0:
338,250,14589,1,2,3:1:0:0:
338,250,14776,2,0,L|424:241,1,62.9999980773926,0|10,3:0|1:0,0:0:0:0:
443,320,15151,2,0,L|303:334,1,125.999996154785,4|0,3:0|3:0,0:0:0:0:
244,283,15714,2,0,P|196:273|143:278,1,62.9999980773926,10|0,1:0|0:0,0:0:0:0:
113,323,16089,2,0,P|65:337|25:340,2,62.9999980773926,2|0|10,3:1|3:0|1:1,0:0:0:0:
1,185,16839,2,0,L|9:102,1,62.9999980773926,6|0,3:1|0:0,0:0:0:0:
18,34,17214,1,10,1:0:0:0:
114,188,17589,1,2,3:1:0:0:
114,188,17776,2,0,L|195:197,1,62.9999980773926,0|10,3:0|1:1,0:0:0:0:
216,116,18151,2,0,L|378:123,1,125.999996154785,4|0,3:0|3:0,0:0:0:0:
407,62,18714,1,10,1:1:0:0:
407,62,18901,2,0,P|433:122|394:197,1,125.999996154785,2|0,0:1|3:0,0:0:0:0:
359,245,19464,2,0,P|348:288|350:334,1,62.9999980773926,14|0,1:1|3:0,0:0:0:0:
407,371,19839,5,6,3:0:0:0:
253,282,20214,2,0,P|182:263|109:281,1,125.999996154785,10|2,1:1|3:1,0:0:0:0:
63,328,20776,1,0,3:0:0:0:
3,161,21151,2,0,L|17:11,1,125.999996154785,4|0,3:0|3:0,0:0:0:0:
98,5,21714,2,0,L|193:0,1,62.9999980773926,10|0,1:1|0:0,0:0:0:0:
176,93,22089,1,2,3:1:0:0:
176,93,22276,2,0,L|113:95,1,62.9999980773926,0|10,3:0|1:0,0:0:0:0:
71,266,22839,6,0,P|108:278|154:273,1,62.9999980773926,14|0,1:1|3:0,0:0:0:0:
214,249,23214,2,0,L|359:235,1,125.999996154785,14|12,1:0|1:0,0:0:0:0:
416,264,23776,2,0,P|423:323|413:352,1,62.9999980773926,0|0,0:0|3:0,0:0:0:0:
340,324,24151,1,6,3:3:0:0:
333,164,24526,1,0,3:0:0:0:
333,164,24714,2,0,L|339:85,1,62.9999980773926,8|0,1:0|0:0,0:0:0:0:
295,30,25089,2,0,B|236:-4|162:19|218:44|154:74|90:43,1,188.999994232178,0|0,3:0|3:0,0:0:0:0:
47,61,25839,5,4,3:0:0:0:
15,214,26214,2,0,P|2:257|7:297,1,56,8|2,1:0|3:0,0:0:0:0:
49,337,26589,1,2,3:0:0:0:
49,337,26776,2,0,L|126:331,1,56,2|8,3:0|1:0,0:0:0:0:
169,287,27151,2,0,L|298:291,1,112,2|0,3:0|3:0,0:0:0:0:
354,331,27714,1,10,1:0:0:0:
354,331,27901,2,0,P|364:298|353:249,1,56,2|0,3:0|3:0,0:0:0:0:
318,212,28276,2,0,P|307:182|309:151,1,56,2|8,3:0|1:0,0:0:0:0:
362,102,28651,1,2,3:0:0:0:
362,102,28839,1,0,3:0:0:0:
238,5,29214,6,0,L|156:0,1,56,10|0,1:0|3:0,0:0:0:0:
110,34,29589,2,0,L|28:39,1,56,2|0,3:0|3:0,0:0:0:0:
14,106,29964,1,10,1:0:0:0:
14,106,30151,2,0,P|43:140|49:222,1,112,2|2,3:0|3:0,0:0:0:0:
117,348,30901,2,0,P|134:315|225:271,1,112,2|2,3:0|3:0,0:0:0:0:
268,315,31464,1,8,1:0:0:0:
268,315,31651,2,0,L|396:323,1,112,2|0,3:0|3:0,0:0:0:0:
438,179,32401,5,2,3:0:0:0:
438,179,32589,2,0,L|312:171,1,112,2|8,3:0|1:0,0:0:0:0:
256,135,33151,2,0,P|219:132|171:151,1,56,2|0,3:0|3:0,0:0:0:0:
137,182,33526,2,0,P|106:188|75:185,1,56,2|8,3:0|1:0,0:0:0:0:
27,129,33901,1,2,3:0:0:0:
132,12,34276,1,2,3:0:0:0:
288,53,34651,5,2,3:0:0:0:
288,53,34839,2,0,L|415:51,1,112,2|8,3:0|1:0,0:0:0:0:
465,103,35401,1,0,3:0:0:0:
465,103,35589,2,0,L|456:180,1,56,0|0,3:0|3:0,0:0:0:0:
419,228,35964,1,8,1:0:0:0:
419,228,36151,2,0,L|434:359,1,112,0|0,3:0|3:0,0:0:0:0:
367,383,36714,1,8,1:0:0:0:
233,300,37089,2,0,L|178:303,1,56,0|0,3:0|3:0,0:0:0:0:
118,250,37464,2,0,L|63:247,1,56,8|0,1:0|3:0,0:0:0:0:
11,187,37839,1,4,3:0:0:0:
142,100,38214,6,0,P|190:86|211:90,1,56,8|0,1:0|3:0,0:0:0:0:
277,101,38589,1,2,3:0:0:0:
277,101,38776,2,0,L|362:103,1,56,2|8,3:0|1:0,0:0:0:0:
405,72,39151,2,0,P|386:108|380:204,1,112,2|0,3:0|3:0,0:0:0:0:
420,250,39714,1,10,1:0:0:0:
420,250,39901,2,0,P|373:231|294:230,1,112,2|2,3:0|3:0,0:0:0:0:
200,337,40651,2,0,P|138:357|72:343,1,112,2|0,3:0|3:0,0:0:0:0:
31,285,41214,6,0,L|37:196,1,56,10|0,1:0|3:0,0:0:0:0:
9,148,41589,2,0,L|3:59,2,56,2|2|8,3:0|3:0|1:0,0:0:0:0:
90,128,42151,2,0,P|122:137|173:123,1,56,2|0,3:0|3:0,0:0:0:0:
227,123,42526,2,0,P|259:114|310:128,1,56,2|8,3:0|1:0,0:0:0:0:
317,190,42901,2,0,L|308:323,2,112,2|2|2,3:0|3:0|3:0,0:0:0:0:
387,144,43839,1,0,3:0:0:0:
465,12,44215,5,8,1:0:0:0:
465,12,44403,2,0,L|398:7,1,56,2|2,3:0|3:0,0:0:0:0:
338,41,44779,2,0,L|271:46,1,56,2|8,3:0|1:0,0:0:0:0:
203,41,45155,2,0,L|67:30,2,112,2|2|2,3:0|3:0|3:0,0:0:0:0:
307,157,46284,2,0,P|315:202|314:238,1,56,2|8,3:0|1:0,0:0:0:0:
242,242,46660,6,0,P|222:299|241:369,1,112,2|2,3:0|3:0,0:0:0:0:
312,352,47224,1,8,1:0:0:0:
312,352,47412,2,0,P|332:295|313:225,1,112,2|2,3:0|3:0,0:0:0:0:
177,188,48165,2,0,L|99:191,1,56,2|2,3:1|3:0,0:0:0:0:
71,250,48541,2,0,L|-7:253,2,56,2|8|0,3:1|1:0|3:0,0:0:0:0:
118,318,49105,2,0,L|173:315,1,56,8|0,1:0|3:0,0:0:0:0:
261,310,49480,1,8,1:0:0:0:
436,337,49857,6,0,P|421:286|422:242,1,62.9999980773926,6|0,3:0|0:0,0:0:0:0:
464,199,50232,2,0,P|471:146|440:55,1,125.999996154785,10|2,1:0|3:1,0:0:0:0:
380,25,50794,1,0,3:0:0:0:
213,82,51169,2,0,L|60:73,1,125.999996154785,4|2,3:0|3:0,0:0:0:0:
31,144,51732,1,10,1:0:0:0:
31,144,51919,2,0,P|47:188|52:219,1,62.9999980773926,2|2,0:3|3:1,0:0:0:0:
24,291,52294,1,0,3:0:0:0:
24,291,52482,2,0,P|64:292|107:304,1,62.9999980773926,10|0,1:1|3:0,0:0:0:0:
140,366,52857,5,6,3:0:0:0:
122,190,53229,2,0,P|113:125|132:47,1,125.999996154785,10|2,1:1|3:1,0:0:0:0:
208,38,53788,2,0,P|245:28|284:35,1,62.9999980773926,0|10,3:0|1:1,0:0:0:0:
331,92,54161,2,0,B|355:141|340:185|313:157|307:223|342:254,2,125.999996154785,6|6|6,3:0|3:0|0:3,0:0:0:0:
269,30,55093,2,0,L|185:25,2,62.9999980773926,2|2|10,3:1|3:0|1:0,0:0:0:0:
95,54,55838,6,0,P|115:108|115:149,1,62.9999980773926,6|2,3:1|0:3,0:0:0:0:
82,195,56213,2,0,P|67:237|56:345,1,125.999996154785,10|2,1:1|3:1,0:0:0:0:
126,369,56776,2,0,L|208:364,1,62.9999980773926,0|10,3:0|1:1,0:0:0:0:
269,325,57152,2,0,L|414:333,1,125.999996154785,6|2,3:0|3:0,0:0:0:0:
393,247,57715,1,10,1:1:0:0:
393,247,57903,2,0,L|308:243,1,62.9999980773926,2|2,0:3|3:1,0:0:0:0:
274,175,58279,1,2,3:0:0:0:
429,89,58654,5,0,3:0:0:0:
429,89,58842,2,0,P|399:54|354:44,1,62.9999980773926,14|0,1:1|3:0,0:0:0:0:
301,18,59216,2,0,P|254:38|164:28,1,125.999996154785,10|14,1:0|1:0,0:0:0:0:
98,1,59777,1,0,0:0:0:0:
102,177,60151,2,0,P|125:224|96:334,1,125.999996154785,6|0,3:1|3:0,0:0:0:0:
61,362,60713,2,0,P|100:381|135:381,1,62.9999980773926,8|8,1:0|1:0,0:0:0:0:
196,340,61087,2,0,P|235:321|270:321,1,62.9999980773926,8|0,1:0|3:0,0:0:0:0:
329,364,61461,1,0,3:0:0:0:
504,383,61835,6,0,P|477:343|473:302,1,62.9999980773926,4|0,3:0|0:0,0:0:0:0:
501,245,62209,2,0,P|519:175|504:101,1,125.999996154785,10|2,1:1|3:1,0:0:0:0:
453,55,62771,1,0,3:0:0:0:
285,114,63145,2,0,L|132:104,1,125.999996154785,4|2,3:0|3:3,0:0:0:0:
87,155,63706,1,10,1:1:0:0:
87,155,63893,2,0,L|62:304,1,125.999996154785,2|0,0:3|3:0,0:0:0:0:
96,362,64455,2,0,L|165:366,1,62.9999980773926,10|0,1:0|3:0,0:0:0:0:
226,309,64829,6,0,P|271:300|301:303,1,62.9999980773926,6|0,3:1|0:0,0:0:0:0:
344,368,65206,2,0,P|370:323|353:237,1,125.999996154785,10|2,1:1|3:1,0:0:0:0:
288,203,65772,1,0,3:0:0:0:
207,45,66149,2,0,P|268:25|340:17,1,125.999996154785,4|0,3:0|3:0,0:0:0:0:
404,64,66715,2,0,P|388:105|390:139,1,62.9999980773926,10|0,1:1|0:0,0:0:0:0:
473,143,67093,2,0,P|489:184|487:218,1,62.9999980773926,6|2,3:1|3:0,0:0:0:0:
462,286,67470,5,14,1:0:0:0:
309,374,67847,2,0,L|161:369,1,125.999996154785,6|10,3:1|1:1,0:0:0:0:
25,290,68594,2,0,P|15:247|33:207,1,62.9999980773926,2|0,3:1|3:0,0:0:0:0:
109,215,68968,1,10,1:1:0:0:
109,215,69155,2,0,P|128:170|102:82,1,125.999996154785,4|0,3:0|3:0,0:0:0:0:
61,24,69716,1,10,1:1:0:0:
236,12,70089,2,0,L|331:6,1,62.9999980773926,2|0,3:1|3:0,0:0:0:0:
378,46,70463,2,0,L|473:40,1,62.9999980773926,10|2,1:0|3:0,0:0:0:0:
501,106,70837,6,0,P|512:174|508:202,1,62.9999980773926,14|0,1:0|3:0,0:0:0:0:
428,197,71212,2,0,P|417:265|421:293,1,62.9999980773926,14|0,1:0|3:0,0:0:0:0:
352,318,71587,2,0,L|231:310,2,62.9999980773926,14|0|2,1:0|3:0|3:1,0:0:0:0:
412,382,72149,1,4,3:0:0:0:
164,378,72712,2,0,P|156:330|163:274,1,62.9999980773926,8|8,1:0|3:0,0:0:0:0:
200,239,73087,2,0,P|208:166|176:85,2,125.999996154785,8|8|4,3:0|3:0|3:0,0:0:0:0:
52,185,74212,5,8,1:0:0:0:
194,116,74587,2,0,L|313:120,1,112,2|8,3:0|1:0,0:0:0:0:
371,75,75149,2,0,P|393:139|383:233,1,112,2|0,3:0|3:0,0:0:0:0:
352,251,75712,1,10,1:0:0:0:
352,251,75899,2,0,P|330:314|348:381,2,112,2|2|0,3:0|3:0|3:0,0:0:0:0:
395,180,76837,1,2,3:0:0:0:
238,184,77212,6,0,B|186:211|124:189|161:165|97:150|35:183,1,168,14|2,1:1|3:0,0:0:0:0:
18,225,77962,1,8,1:0:0:0:
18,225,78149,2,0,P|10:291|16:364,1,112,2|0,3:0|3:0,0:0:0:0:
82,383,78712,1,10,1:0:0:0:
82,383,78899,2,0,L|174:376,1,56,2|0,3:0|3:0,0:0:0:0:
202,334,79274,2,0,L|350:341,1,112,2|0,3:0|3:0,0:0:0:0:
392,340,79837,5,2,3:0:0:0:
490,218,80212,2,0,P|435:177|292:165,1,168,14|2,1:0|3:0,0:0:0:0:
268,186,80962,1,10,1:0:0:0:
268,186,81149,2,0,P|194:203|128:193,1,112,2|0,3:0|3:0,0:0:0:0:
147,122,81712,2,0,P|207:105|270:110,1,112,10|2,1:0|3:0,0:0:0:0:
328,137,82274,2,0,P|371:148|406:146,1,56,2|8,3:0|1:0,0:0:0:0:
455,119,82649,5,2,3:0:0:0:
423,275,83023,1,2,3:0:0:0:
423,275,83210,2,0,B|371:302|309:280|346:256|282:241|220:274,1,168,12|2,1:0|3:0,0:0:0:0:
187,281,83958,2,0,L|89:278,1,56,8|2,1:0|3:0,0:0:0:0:
132,200,84332,2,0,L|194:201,2,56,0|8|0,3:0|1:0|3:0,0:0:0:0:
74,146,84894,2,0,L|18:145,1,56,2|0,3:0|3:0,0:0:0:0:
17,66,85269,2,0,L|135:68,1,112,2|2,3:0|3:0,0:0:0:0:
203,62,85832,5,4,3:0:0:0:
234,220,86225,2,0,L|319:225,1,56,10|0,1:0|3:0,0:0:0:0:
360,269,86607,1,2,3:0:0:0:
360,269,86795,2,0,L|445:264,1,56,2|8,3:0|1:0,0:0:0:0:
475,317,87161,2,0,P|437:373|371:378,1,112,2|0,3:0|3:0,0:0:0:0:
328,355,87712,1,10,1:0:0:0:
328,355,87899,2,0,L|190:349,1,112,2|2,3:0|3:0,0:0:0:0:
160,294,88462,2,0,L|82:300,1,56,8|0,1:0|3:0,0:0:0:0:
41,345,88837,5,2,3:0:0:0:
42,188,89208,2,0,L|247:176,1,168,14|2,1:0|3:0,0:0:0:0:
277,135,89951,1,8,1:0:0:0:
277,135,90137,2,0,L|380:140,1,56,2|0,3:0|3:0,0:0:0:0:
227,21,90699,2,0,P|176:8|142:14,1,56,10|2,1:0|3:0,0:0:0:0:
114,60,91076,2,0,P|63:73|29:67,1,56,0|2,3:0|3:0,0:0:0:0:
0,21,91453,1,8,1:0:0:0:
45,169,91830,5,2,3:0:0:0:
10,321,92209,2,0,P|87:286|201:294,1,168,14|10,1:0|1:0,0:0:0:0:
240,331,92969,1,0,3:0:0:0:
240,331,93159,2,0,B|267:279|245:217|221:254|206:190|239:128,1,168,2|8,3:0|1:0,0:0:0:0:
288,125,93909,2,0,L|393:136,1,56,2|0,3:0|3:0,0:0:0:0:
362,54,94284,2,0,L|233:40,1,112,0|2,3:0|3:0,0:0:0:0:
179,73,94845,6,0,P|139:129|118:183,1,112,6|12,3:1|1:1,0:0:0:0:
206,307,95594,1,0,3:0:0:0:
206,307,95781,2,0,P|216:234|208:205,1,56,0|8,3:0|1:0,0:0:0:0:
225,178,96156,1,0,3:0:0:0:
225,178,96343,2,0,P|197:109|131:74,1,112,2|0,3:0|3:0,0:0:0:0:
91,103,96900,2,0,L|100:178,1,56,2|10,3:0|1:0,0:0:0:0:
128,230,97271,2,0,L|110:366,1,112,2|0,3:0|3:0,0:0:0:0:
50,369,97829,5,4,3:0:0:0:
247,304,98396,1,2,0:3:0:0:
247,304,98586,2,0,L|315:307,2,48.9999985046387,2|2|0,3:0|0:3|3:0,0:0:0:0:
192,262,99153,2,0,P|169:194|192:128,1,97.9999970092774,2|2,0:1|0:1,0:0:0:0:
197,108,99718,1,2,3:0:0:0:
197,108,99905,2,0,L|272:104,1,48.9999985046387,2|0,0:3|3:0,0:0:0:0:
296,58,100280,1,2,0:1:0:0:
496,105,100843,6,0,B|522:146|499:200|489:167|474:228|493:268,1,146.999995513916,6|0,3:3|0:3,0:0:0:0:
439,299,101601,2,0,P|399:283|362:287,1,48.9999985046387,2|2,3:0|0:3,0:0:0:0:
342,327,101980,1,0,3:0:0:0:
342,327,102170,2,0,P|282:342|222:334,1,97.9999970092774,2|2,0:1|0:1,0:0:0:0:
196,301,102731,1,2,3:0:0:0:
196,301,102917,2,0,L|210:167,2,97.9999970092774,2|10|8,0:3|3:0|3:0,0:0:0:0:
145,347,103847,1,6,3:3:0:0:
33,277,104222,5,2,3:0:0:0:
33,277,104410,2,0,L|52:138,2,97.9999970092774,2|2|2,0:3|0:3|0:1,0:0:0:0:
60,339,105349,2,0,P|87:360|145:362,1,48.9999985046387,0|2,3:0|0:1,0:0:0:0:
151,318,105724,2,0,P|175:306|237:304,1,48.9999985046387,2|2,3:0|0:3,0:0:0:0:
251,341,106099,5,8,1:0:0:0:
388,345,106474,1,0,3:0:0:0:
463,230,106849,1,4,3:0:0:0:
256,192,107224,12,6,112849,3:0:0:0:
180,340,118089,5,8,1:0:0:0:
355,350,118481,1,8,1:0:0:0:
481,250,118853,2,0,P|401:268|365:260,1,62.9999980773926,6|0,3:0|0:0,0:0:0:0:
350,206,119253,2,0,P|281:180|171:191,1,125.999996154785,10|2,1:0|3:1,0:0:0:0:
156,228,119810,1,2,3:0:0:0:
268,94,120176,2,0,P|307:97|376:125,1,62.9999980773926,2|2,3:0|0:1,0:0:0:0:
406,146,120545,2,0,P|445:143|514:115,1,62.9999980773926,2|10,3:0|1:0,0:0:0:0:
508,58,120914,1,2,3:0:0:0:
340,2,121282,2,0,L|217:11,1,62.9999980773926,2|10,3:0|1:0,0:0:0:0:
204,53,121650,5,2,3:0:0:0:
204,53,121845,2,0,L|86:46,1,62.9999980773926,14|0,1:0|3:0,0:0:0:0:
59,16,122220,1,8,1:0:0:0:
8,184,122595,2,0,B|65:217|121:190|99:180|160:152|214:186,1,188.999994232178,8|4,1:0|3:0,0:0:0:0:
250,238,123345,2,0,L|324:229,1,62.9999980773926,8|4,1:0|3:1,0:0:0:0:
400,241,123720,1,8,1:0:0:0:
310,90,124095,1,8,1:0:0:0:
204,231,124470,2,0,L|221:319,1,62.9999980773926,0|8,3:0|1:0,0:0:0:0:
194,374,124845,6,0,P|148:382|115:375,1,62.9999980773926,6|0,3:1|3:0,0:0:0:0:
70,316,125220,2,0,P|83:258|54:166,1,125.999996154785,10|2,1:0|3:1,0:0:0:0:
3,135,125782,2,0,B|4:129|-12:94|5:64,1,62.9999980773926,0|10,3:0|1:0,0:0:0:0:
56,3,126157,1,4,3:0:0:0:
292,133,126720,1,10,1:0:0:0:
292,133,126907,2,0,L|442:144,1,125.999996154785,2|0,0:3|3:0,0:0:0:0:
464,217,127470,2,0,P|426:254|425:296,1,62.9999980773926,14|0,1:1|3:0,0:0:0:0:
452,345,127845,6,0,P|410:357|372:353,1,62.9999980773926,6|0,3:1|0:0,0:0:0:0:
315,311,128220,2,0,P|243:293|167:303,1,125.999996154785,10|2,1:0|3:1,0:0:0:0:
129,358,128782,2,0,B|128:357|131:361|83:366|45:350,1,62.9999980773926,0|10,3:0|1:0,0:0:0:0:
0,298,129157,1,4,3:0:0:0:
241,189,129720,2,0,L|386:195,1,125.999996154785,10|6,1:0|3:1,0:0:0:0:
346,108,130282,2,0,L|248:104,1,62.9999980773926,2|14,3:0|1:1,0:0:0:0:
133,33,130845,6,0,B|48:32,1,62.9999980773926,6|0,3:0|0:0,0:0:0:0:
25,108,131220,2,0,P|5:155|2:249,1,125.999996154785,10|2,1:0|3:1,0:0:0:0:
85,245,131782,2,0,P|98:300|97:322,1,62.9999980773926,0|10,3:0|1:0,0:0:0:0:
54,383,132157,2,0,P|92:362|203:375,1,125.999996154785,4|0,3:0|3:0,0:0:0:0:
258,383,132720,1,10,1:0:0:0:
432,356,133095,2,0,P|462:364|486:383,2,62.9999980773926,2|2|10,3:1|3:0|1:1,0:0:0:0:
384,189,133850,6,0,L|392:104,2,62.9999980773926,14|2|14,1:0|3:0|1:0,0:0:0:0:
316,244,134431,1,0,3:0:0:0:
316,244,134624,2,0,L|253:249,2,62.9999980773926,14|2|0,1:0|3:0|3:0,0:0:0:0:
305,156,135176,2,0,L|220:162,1,62.9999980773926,4|0,3:0|3:0,0:0:0:0:
129,296,135730,2,0,P|101:254|8:225,1,125.999996154785,8|10,1:0|1:0,0:0:0:0:
55,141,136285,1,0,3:0:0:0:
55,141,136470,2,0,P|121:122|164:68,1,125.999996154785,2|2,3:0|3:0,0:0:0:0:
