osu file format v14

[General]
AudioFilename: audio.mp3
AudioLeadIn: 0
PreviewTime: 112752
Countdown: 0
SampleSet: Soft
StackLeniency: 0.4
Mode: 0
LetterboxInBreaks: 0
WidescreenStoryboard: 1

[Editor]
Bookmarks: 13839,25839,49839,73839,97839,112839,118853
DistanceSpacing: 1
BeatDivisor: 4
GridSize: 32
TimelineZoom: 1

[Metadata]
Title:Admiral
TitleUnicode:Admiral
Artist:Michael Cera Palin
ArtistUnicode:Michael Cera Palin
Creator:WashedUp Player
Version:Easy
Source:
Tags:blitzifyyy i don't dont know how to explain it rock punk pop emo indie english fa featured artist mpg mappers' guild
BeatmapID:3118761
BeatmapSetID:1524273

[Difficulty]
HPDrainRate:3
CircleSize:2.5
OverallDifficulty:3
ApproachRate:4
SliderMultiplier:0.9
SliderTickRate:1

[Events]
//Background and Video events
0,0,"1125781.jpg",0,0
//Break Periods
2,113049,116769
//Storyboard Layer 0 (Background)
//Storyboard Layer 1 (Fail)
//Storyboard Layer 2 (Pass)
//Storyboard Layer 3 (Foreground)
//Storyboard Layer 4 (Overlay)
//Storyboard Sound Samples

[TimingPoints]
339,375,4,2,1,70,1,0
339,-100,4,2,1,70,0,0
526,-100,4,2,1,70,0,0
714,-100,4,2,1,70,0,0
3526,-100,4,2,1,70,0,0
3714,-100,4,2,1,70,0,0
8776,-100,4,2,1,70,0,0
8964,-100,4,2,1,70,0,0
13839,-100,4,2,1,85,0,0
17964,-100,4,2,1,85,0,0
18151,-100,4,2,1,85,0,0
25839,-100,4,2,1,70,0,0
30339,-100,4,2,1,70,0,0
30526,-100,4,2,1,70,0,0
41964,-100,4,2,1,70,0,0
42151,-100,4,2,1,70,0,0
43839,376.175548589342,4,2,1,70,1,0
47036,-100,4,2,1,70,0,0
47224,-100,4,2,1,70,0,0
48165,-100,4,2,1,70,0,0
48353,-100,4,2,1,70,0,0
48541,-100,4,2,1,70,0,0
48729,-100,4,2,1,70,0,0
49105,355.029585798817,4,2,1,70,1,0
49282,397.350993377483,4,2,1,70,1,0
49480,353.460972017673,4,2,1,70,1,0
49833,-100,4,2,1,70,0,1
49839,-100,4,2,1,85,0,1
49857,375,4,2,1,85,1,1
52107,-100,4,2,1,85,0,1
52294,-100,4,2,1,85,0,1
52857,372.670807453416,4,2,1,85,1,1
55838,375.586854460094,4,2,1,85,1,1
58842,374.221152226928,4,2,1,85,1,1
64829,377.358490566038,4,2,1,85,1,1
66904,-100,4,2,1,85,0,1
67093,-100,4,2,1,85,0,1
67847,373.831775700935,4,2,1,85,1,1
68407,-100,4,2,1,85,0,1
68594,-100,4,2,1,85,0,1
70837,375,4,2,1,85,1,1
73837,-100,4,2,1,70,0,0
77587,-100,4,2,1,70,0,0
80212,-100,4,2,1,70,0,0
80587,-100,4,2,1,70,0,0
82837,373.831775700935,4,2,1,70,1,0
83584,-100,4,2,1,70,0,0
84332,375,4,2,1,70,1,0
85832,393.44262295082,4,2,1,70,1,0
86225,382.775119617225,4,2,1,70,1,0
86607,376.175548589342,4,2,1,70,1,0
86983,356.083086053412,4,2,1,70,1,0
87337,375,4,2,1,70,1,0
88837,371.517027863777,4,2,1,70,1,0
89208,-100,4,2,1,70,0,0
89580,-100,4,2,1,70,0,0
90323,376.766091051805,4,2,1,70,1,0
91830,379.746835443038,4,2,1,70,1,0
92209,-100,4,2,1,70,0,0
92589,-100,4,2,1,70,0,0
93348,374.414976599064,4,2,1,70,1,0
96343,371.517027863777,4,2,1,70,1,0
97829,378.548895899054,4,2,1,70,1,0
97829,-100,4,2,1,70,0,0
97839,-100,4,2,1,60,0,0
99343,375,4,2,1,60,1,0
100843,379.14691943128,4,2,1,60,1,0
102359,372.093023255814,4,2,1,60,1,0
103847,375.586854460094,4,2,1,60,1,0
105349,375,4,2,1,60,1,0
112839,-100,4,2,1,70,0,0
112849,-100,4,2,1,70,0,0
118089,392.798690671031,4,2,1,90,1,0
118089,-100,4,2,1,90,0,0
118853,400,4,2,1,90,1,1
118853,-100,4,2,1,90,0,1
119253,375,4,2,1,90,1,1
119253,-100,4,2,1,90,0,1
119628,364.188163884674,4,2,1,90,1,1
119628,-100,4,2,1,90,0,1
119992,369.230769230769,4,2,1,90,1,1
119992,-100,4,2,1,90,0,1
120730,368.098159509202,4,2,1,90,1,1
120730,-100,4,2,1,90,0,1
121845,375,4,2,1,90,1,1
121845,-100,4,2,1,90,0,1
123345,-100,4,2,1,90,0,1
128407,-100,4,2,1,90,0,1
133657,387.096774193548,4,2,1,90,1,1
133657,-100,4,2,1,90,0,1
134624,368.663594470046,4,2,1,90,1,1
134624,-100,4,2,1,90,0,1
135361,369.79969183359,4,2,1,90,1,1
135361,-100,4,2,1,90,0,1
136840,-100,4,2,1,90,0,0

[Colours]
Combo1 : 107,107,107
Combo2 : 255,174,136
Combo3 : 165,164,166
Combo4 : 255,165,74

[HitObjects]
38,38,339,5,6,3:1:0:0:
102,100,714,2,0,L|213:90,1,90,8|0,1:1|3:0,0:0:0:0:
276,62,1464,2,0,L|387:71,1,90,8|0,1:1|3:0,0:0:0:0:
432,130,2214,2,0,B|449:173|431:245|408:199|389:259|413:330,1,180,8|8,1:0|1:0,0:0:0:0:
349,372,3339,1,0,3:1:0:0:
266,335,3714,2,0,L|164:331,1,90,8|0,1:1|3:0,0:0:0:0:
178,241,4464,2,0,L|267:244,1,90,8|0,1:1|3:0,0:0:0:0:
276,154,5214,5,10,1:1:0:0:
282,64,5589,2,0,L|192:60,1,90,0|8,3:0|1:0,0:0:0:0:
108,26,6339,2,0,B|87:69|113:124|124:106|137:155|115:206,1,180,2|0,3:1|3:0,0:0:0:0:
79,281,7464,1,8,1:1:0:0:
227,382,8214,2,0,L|345:378,1,90,8|0,1:0|3:0,0:0:0:0:
362,301,8964,2,0,L|480:305,1,90,10|10,1:0|1:0,0:0:0:0:
507,233,9714,1,10,1:0:0:0:
463,154,10089,2,0,B|314:146,1,135,10|4,1:0|3:0,0:0:0:0:
18,42,12339,6,0,P|59:34|108:33,1,90,8|8,1:0|1:0,0:0:0:0:
170,96,13089,2,0,P|178:137|178:180,2,67.5,8|8|8,1:0|3:0|3:0,0:0:0:0:
193,57,13839,5,6,3:0:0:0:
265,4,14214,2,0,P|306:-4|359:2,1,90,10|2,1:0|3:1,0:0:0:0:
456,87,15151,2,0,P|443:136|445:224,1,135,4|10,3:0|1:0,0:0:0:0:
371,273,16089,2,0,L|275:281,2,90,2|10|6,3:1|1:1|3:1,0:0:0:0:
455,302,17214,1,10,1:0:0:0:
391,366,17589,1,2,3:1:0:0:
250,361,18151,2,0,L|157:349,1,90,4|0,3:0|3:0,0:0:0:0:
115,346,18714,1,10,1:1:0:0:
55,278,19089,2,0,P|44:226|49:177,1,90,6|14,3:1|1:1,0:0:0:0:
113,129,19839,6,0,P|157:127|201:137,1,90,6|10,3:0|1:1,0:0:0:0:
267,198,20589,2,0,P|311:199|355:189,1,90,2|10,3:1|1:1,0:0:0:0:
393,164,21151,1,4,3:0:0:0:
357,33,21714,2,0,L|263:35,1,90,10|2,1:1|3:1,0:0:0:0:
191,84,22464,1,10,1:0:0:0:
113,37,22839,2,0,P|58:19|19:17,2,90,14|14|12,1:1|1:0|1:0,0:0:0:0:
12,127,24151,2,0,P|-6:191|6:257,1,135,6|8,3:3|1:0,0:0:0:0:
78,311,25089,1,0,3:0:0:0:
167,298,25464,1,8,1:0:0:0:
251,330,25839,6,0,L|342:337,2,90,4|8|2,3:0|1:0|3:0,0:0:0:0:
231,196,27151,2,0,L|384:207,1,135,2|10,3:0|1:0,0:0:0:0:
479,133,28276,2,0,P|427:104|384:109,1,90,2|2,3:0|3:0,0:0:0:0:
261,143,29214,2,0,P|203:126|176:92,1,90,10|2,1:0|3:0,0:0:0:0:
209,19,29964,1,10,1:0:0:0:
329,81,30526,2,0,P|351:121|348:178,1,90,2|2,3:0|3:0,0:0:0:0:
304,241,31276,1,2,3:0:0:0:
289,329,31651,2,0,L|154:324,1,135,2|8,3:0|1:0,0:0:0:0:
81,270,32589,5,2,3:0:0:0:
162,232,32964,2,0,L|272:236,2,90,8|0|8,1:0|3:0|1:0,0:0:0:0:
85,184,34089,1,0,3:0:0:0:
66,95,34464,1,8,1:0:0:0:
131,33,34839,2,0,L|232:38,1,90,2|8,3:0|1:0,0:0:0:0:
302,75,35589,2,0,L|398:69,2,90,0|8|0,3:0|1:0|3:0,0:0:0:0:
267,158,36714,1,8,1:0:0:0:
317,232,37089,2,0,B|368:216|434:232|386:269|443:289|498:271,1,180,0|4,3:0|3:0,0:0:0:0:
336,382,38589,5,2,3:0:0:0:
211,328,39151,2,0,L|75:343,1,135,2|10,3:0|1:0,0:0:0:0:
8,284,40089,1,0,3:0:0:0:
51,205,40464,1,8,1:0:0:0:
8,125,40839,2,0,P|1:74|5:21,2,90,0|10|2,3:0|1:0|3:0,0:0:0:0:
121,197,42151,2,0,L|228:187,2,90,2|2|2,3:0|3:0|3:0,0:0:0:0:
112,107,43276,1,2,3:0:0:0:
180,49,43651,1,2,3:0:0:0:
357,76,44403,6,0,L|413:68,2,45.141065830721,2|2|2,3:0|3:0|3:0,0:0:0:0:
272,46,45155,1,2,3:0:0:0:
243,131,45531,1,2,3:0:0:0:
262,218,45907,1,2,3:0:0:0:
322,284,46284,2,0,P|382:270|417:281,2,90,2|2|2,3:0|3:0|3:0,0:0:0:0:
251,340,47412,2,0,P|206:346|164:332,1,90,2|2,3:0|3:0,0:0:0:0:
85,289,48165,2,0,L|80:188,1,90,2|2,3:1|3:1,0:0:0:0:
24,76,49105,1,8,1:0:0:0:
103,33,49480,1,8,1:0:0:0:
191,49,49857,6,0,P|242:59|286:46,1,90,6|10,3:0|1:0,0:0:0:0:
354,2,50607,1,2,3:1:0:0:
462,73,51169,2,0,L|455:174,1,90,4|2,3:0|3:0,0:0:0:0:
450,207,51732,1,10,1:0:0:0:
442,296,52107,1,2,3:1:0:0:
352,288,52482,1,10,1:1:0:0:
278,340,52857,2,0,L|176:348,2,90,6|10|2,3:0|1:1|3:1,0:0:0:0:
265,205,54161,2,0,L|163:213,1,90,6|6,3:0|3:0,0:0:0:0:
114,145,54906,2,0,L|12:137,2,90,6|2|2,0:3|3:0|3:0,0:0:0:0:
154,125,55838,5,6,3:1:0:0:
227,72,56213,2,0,P|273:63|319:71,1,90,10|2,1:1|3:1,0:0:0:0:
403,171,57152,2,0,P|390:202|396:303,1,135,6|10,3:0|1:1,0:0:0:0:
478,335,58091,1,2,3:1:0:0:
492,246,58467,1,10,1:0:0:0:
460,161,58842,2,0,L|453:62,2,90,14|10|14,1:1|1:0|1:0,0:0:0:0:
333,209,60151,2,0,L|326:298,1,90,6|0,3:1|3:0,0:0:0:0:
303,337,60713,2,0,B|238:374|152:335|188:320|109:275|35:321,1,270,8|4,1:0|3:0,0:0:0:0:
1,237,62209,5,10,1:1:0:0:
51,162,62584,2,0,L|41:71,1,90,2|10,3:1|1:1,0:0:0:0:
34,28,63145,1,4,3:0:0:0:
166,3,63706,2,0,L|178:92,1,90,10|2,1:1|3:1,0:0:0:0:
241,155,64455,2,0,L|253:244,1,90,10|6,1:0|3:1,0:0:0:0:
217,327,65206,1,10,1:1:0:0:
286,383,65583,1,2,3:1:0:0:
402,319,66149,2,0,L|393:174,1,135,4|10,3:0|1:1,0:0:0:0:
437,105,67093,1,6,3:1:0:0:
377,37,67470,1,14,1:0:0:0:
289,57,67847,6,0,P|226:69|193:63,1,90,6|10,3:1|1:1,0:0:0:0:
124,18,68594,2,0,P|61:6|28:12,1,90,2|10,3:1|1:1,0:0:0:0:
1,37,69155,1,4,3:0:0:0:
55,160,69716,1,10,1:1:0:0:
35,247,70089,2,0,P|33:291|52:334,1,90,2|10,3:1|1:0,0:0:0:0:
140,321,70837,2,0,P|191:302|233:305,1,90,14|14,1:0|1:0,0:0:0:0:
300,353,71587,1,14,1:0:0:0:
374,240,72149,2,0,P|382:174|362:99,1,135,4|8,3:0|1:0,0:0:0:0:
288,62,73087,1,8,3:0:0:0:
215,115,73462,1,8,3:0:0:0:
136,70,73837,6,0,L|32:68,2,90,4|8|2,3:0|1:0|3:0,0:0:0:0:
215,115,74962,1,8,1:0:0:0:
139,164,75337,2,0,L|136:275,1,90,0|10,3:0|1:0,0:0:0:0:
167,338,76087,1,0,3:0:0:0:
246,379,76462,1,8,1:0:0:0:
326,352,76837,2,0,L|422:348,2,90,2|14|2,3:0|1:1|3:0,0:0:0:0:
253,297,77962,2,0,P|227:232|253:121,1,180,8|10,1:0|1:0,0:0:0:0:
330,89,79087,1,0,3:0:0:0:
401,143,79462,1,8,1:0:0:0:
475,194,79837,6,0,P|492:162|493:92,2,90,2|14|0,3:0|1:0|3:0,0:0:0:0:
408,254,80962,1,10,1:0:0:0:
365,333,81337,1,0,3:0:0:0:
275,344,81712,2,0,L|167:332,1,90,10|2,1:0|3:0,0:0:0:0:
108,287,82462,1,8,1:0:0:0:
102,198,82837,2,0,L|96:95,2,90,0|12|0,3:0|1:0|3:0,0:0:0:0:
62,278,83958,1,8,1:0:0:0:
185,334,84519,1,8,1:0:0:0:
290,249,85082,2,0,L|392:239,2,90,0|0|4,3:0|3:0|3:0,0:0:0:0:
225,185,86225,5,10,1:0:0:0:
267,105,86607,2,0,L|369:95,1,90.24,2|8,3:0|1:0,0:0:0:0:
439,115,87337,1,0,3:0:0:0:
504,177,87712,2,0,L|495:266,1,90,10|0,1:0|3:0,0:0:0:0:
432,331,88462,1,8,1:0:0:0:
351,291,88837,2,0,P|299:273|247:281,2,90,2|14|2,3:0|1:0|3:0,0:0:0:0:
432,331,89951,1,8,1:0:0:0:
495,266,90323,2,0,L|504:177,1,90,0|10,3:0|1:0,0:0:0:0:
422,139,91076,2,0,L|413:49,1,90,0|8,3:0|1:0,0:0:0:0:
336,2,91830,5,2,3:0:0:0:
252,36,92209,2,0,L|99:31,1,135,14|10,1:0|1:0,0:0:0:0:
40,78,93159,1,2,3:0:0:0:
168,121,93722,1,8,1:0:0:0:
246,164,94096,1,0,3:0:0:0:
279,247,94471,1,8,1:0:0:0:
261,338,94845,2,0,L|156:332,2,90,6|12|0,3:1|1:1|3:0,0:0:0:0:
350,342,95968,1,8,1:0:0:0:
439,344,96343,2,0,P|457:291|448:245,1,90,2|0,3:0|3:0,0:0:0:0:
404,182,97086,2,0,P|386:129|395:83,1,90,10|0,1:0|3:0,0:0:0:0:
418,10,97829,5,4,3:0:0:0:
328,1,98207,1,0,3:0:0:0:
243,32,98586,2,0,P|192:38|134:38,1,90,2|0,3:0|3:0,0:0:0:0:
79,89,99343,2,0,P|79:133|85:178,1,90,0|2,3:0|3:0,0:0:0:0:
131,256,100093,2,0,P|130:300|124:345,2,90,0|2|6,3:0|3:1|3:3,0:0:0:0:
85,178,101222,1,2,3:0:0:0:
138,105,101601,2,0,P|197:90|233:96,1,90,2|0,3:0|3:0,0:0:0:0:
296,148,102359,2,0,P|355:163|391:157,2,90,0|2|0,3:0|3:0|3:0,0:0:0:0:
472,112,103847,6,0,P|483:173|471:214,1,90,6|2,3:3|3:0,0:0:0:0:
414,264,104598,2,0,P|403:325|415:366,2,90,0|0|0,3:0|3:0|3:0,0:0:0:0:
477,199,105724,1,2,3:0:0:0:
432,120,106099,2,0,P|421:59|433:18,2,90,8|0|4,1:0|3:0|3:0,0:0:0:0:
256,192,107224,12,6,112849,3:0:0:0:
407,116,118089,6,0,L|469:118,2,45,8|0|8,1:0|3:0|1:0,0:0:0:0:
317,115,118853,2,0,L|191:112,1,90,6|10,3:0|1:0,0:0:0:0:
145,69,119628,1,2,3:1:0:0:
29,135,120176,2,0,L|40:230,1,90,2|2,3:0|3:0,0:0:0:0:
129,217,120914,2,0,L|118:127,2,90,2|2|2,3:0|3:0|3:0,0:0:0:0:
135,263,121845,1,14,1:0:0:0:
273,334,122595,2,0,P|312:276|284:183,1,135,8|4,1:0|3:0,0:0:0:0:
280,176,123345,1,8,1:0:0:0:
326,98,123720,2,0,L|455:90,2,90,8|8|0,1:0|1:0|3:0,0:0:0:0:
246,54,124845,5,6,3:1:0:0:
167,9,125220,2,0,P|117:5|72:33,1,90,10|2,1:0|3:1,0:0:0:0:
55,59,125782,1,0,3:0:0:0:
15,139,126157,2,0,P|42:208|47:275,1,135,4|10,3:0|1:0,0:0:0:0:
103,338,127095,1,6,3:1:0:0:
192,329,127470,1,14,1:1:0:0:
281,318,127845,2,0,P|334:307|385:316,1,90,6|10,3:1|1:0,0:0:0:0:
424,239,128595,2,0,P|412:184|433:124,1,90,2|10,3:1|1:0,0:0:0:0:
439,111,129157,1,4,3:0:0:0:
359,1,129720,6,0,L|240:-2,2,90,10|6|14,1:0|3:1|1:1,0:0:0:0:
347,90,130845,2,0,P|292:115|246:115,1,90,6|10,3:0|1:0,0:0:0:0:
189,64,131595,2,0,P|134:39|88:39,1,90,2|10,3:1|1:0,0:0:0:0:
60,44,132157,1,4,3:0:0:0:
100,172,132720,2,0,L|106:273,1,90,10|2,1:0|3:1,0:0:0:0:
109,351,133470,1,10,1:1:0:0:
209,376,133850,1,14,1:0:0:0:
295,325,134237,2,0,P|329:307|385:304,1,90,14|14,1:0|1:0,0:0:0:0:
446,243,134992,1,0,3:0:0:0:
382,182,135361,6,0,P|362:105|361:78,1,90,0|8,3:0|1:0,0:0:0:0:
309,21,136100,2,0,B|262:-5|206:7|236:35|177:54|125:19,1,180,10|2,1:0|3:0,0:0:0:0:
