osu file format v14

[General]
AudioFilename: audio.mp3
AudioLeadIn: 0
PreviewTime: -1
Countdown: 1
SampleSet: None
StackLeniency: 0.7
Mode: 0
LetterboxInBreaks: 0
WidescreenStoryboard: 0

[Editor]
DistanceSpacing: 1
BeatDivisor: 4
GridSize: 32
TimelineZoom: 2.2

[Metadata]
Title:Resurrection (Original Mix)
TitleUnicode:Resurrection (Original Mix)
Artist:Michael Calfan
ArtistUnicode:Michael Calfan
Creator:LifeJumb
Version:Hard
Source:
Tags:
BeatmapID:1405489
BeatmapSetID:664054

[Difficulty]
HPDrainRate:5
CircleSize:4
OverallDifficulty:6
ApproachRate:8.5
SliderMultiplier:1.5
SliderTickRate:1

[Events]
//Background and Video events
0,0,"maxresdefault.jpg",0,0
//Break Periods
2,118225,124725
//Storyboard Layer 0 (Background)
//Storyboard Layer 1 (Fail)
//Storyboard Layer 2 (Pass)
//Storyboard Layer 3 (Foreground)
//Storyboard Sound Samples

[TimingPoints]
946.634527277447,460.938461538461,4,2,0,50,1,0
44274,-71.4285714285714,4,2,0,100,0,0
59024,-62.5,4,2,0,100,0,0
66399,-50,4,2,0,100,0,0
81149,-62.5,4,2,0,100,0,0
88524,-62.5,4,2,0,100,0,1
110649,-50,4,2,0,100,0,1
118025,-166.666666666667,4,2,0,100,0,0
125515,-166.666666666667,4,2,0,45,0,0
140150,-83.3333333333333,4,2,0,50,0,0
141532,-166.666666666667,4,2,0,100,0,0
141993,-83.3333333333333,4,2,0,50,0,0
143376,-166.666666666667,4,2,0,100,0,0
143837,-55.5555555555556,4,2,0,60,0,0
144989,-100,4,2,0,100,0,0
145681,-55.5555555555556,4,2,0,60,0,0
146833,-100,4,2,0,100,0,0
147525,-83.3333333333333,4,2,0,90,0,0
169650,-55.5555555555556,4,2,0,100,0,1
191775,-50,4,2,0,100,0,1
199150,-66.6666666666667,4,2,0,43,0,0
205603,-50,4,2,0,43,0,0
206525,-100,4,2,0,43,0,0
207216,-58.8235294117647,4,2,0,43,0,0
211134,-200,4,2,0,43,0,0
212978,-100,4,2,0,43,0,0

[HitObjects]
180,224,29524,6,0,L|272:252,1,75,10|0,0:0|0:0,0:0:0:0:
275,254,29870,1,0,0:0:0:0:
228,112,30100,1,0,0:0:0:0:
376,144,30331,2,0,L|348:80,1,37.5,2|0,0:0|0:0,0:0:0:0:
348,88,30561,1,0,0:0:0:0:
328,68,30677,1,0,0:0:0:0:
220,56,30907,1,0,0:0:0:0:
128,136,31138,1,0,0:0:0:0:
200,120,31368,6,0,P|196:164|160:204,1,75,2|0,0:0|0:0,0:0:0:0:
166,203,31714,1,0,0:0:0:0:
296,264,31944,1,0,0:0:0:0:
384,164,32175,2,0,L|356:100,1,37.5,2|0,0:0|0:0,0:0:0:0:
360,111,32405,1,0,0:0:0:0:
347,93,32521,1,0,0:0:0:0:
447,40,32751,1,0,0:0:0:0:
268,72,32982,1,0,0:0:0:0:
184,172,33212,6,0,P|208:200|264:216,1,75,2|0,0:0|0:0,0:0:0:0:
264,232,33558,1,0,0:0:0:0:
256,136,33788,1,0,0:0:0:0:
176,142,34019,2,0,P|180:107|194:77,1,37.5,2|0,0:0|0:0,0:0:0:0:
189,80,34249,1,0,0:0:0:0:
204,58,34365,1,0,0:0:0:0:
84,90,34595,1,0,0:0:0:0:
84,90,34826,1,0,0:0:0:0:
133,219,35056,6,0,L|225:247,1,75,2|0,0:0|0:0,0:0:0:0:
230,248,35402,1,0,0:0:0:0:
337,276,35632,1,0,0:0:0:0:
253,174,35863,2,0,L|198:132,1,37.5,2|0,0:0|0:0,0:0:0:0:
202,135,36093,1,0,0:0:0:0:
180,120,36209,1,0,0:0:0:0:
113,210,36439,1,0,0:0:0:0:
241,244,36670,1,0,0:0:0:0:
376,250,36900,6,0,P|372:294|336:334,1,75,2|0,0:0|0:0,0:0:0:0:
344,332,37246,1,0,0:0:0:0:
452,291,37476,1,0,0:0:0:0:
432,195,37707,2,0,L|404:131,1,37.5,2|0,0:0|0:0,0:0:0:0:
406,148,37937,1,0,0:0:0:0:
391,135,38053,1,0,0:0:0:0:
344,246,38283,1,0,0:0:0:0:
350,83,38514,1,0,0:0:0:0:
213,83,38744,6,0,L|285:142,1,75,2|0,0:0|0:0,0:0:0:0:
286,142,39090,1,0,0:0:0:0:
146,156,39320,1,0,0:0:0:0:
255,226,39551,2,0,L|218:171,1,37.5,2|0,0:0|0:0,0:0:0:0:
218,187,39781,1,0,0:0:0:0:
226,168,39895,1,0,0:0:0:0:
366,208,40127,1,0,0:0:0:0:
366,208,40358,1,0,0:0:0:0:
195,268,40587,6,0,L|287:296,1,75,2|0,0:0|0:0,0:0:0:0:
292,295,40933,1,0,0:0:0:0:
215,168,41163,1,0,0:0:0:0:
117,225,41394,2,0,L|89:161,1,37.5,2|0,0:0|0:0,0:0:0:0:
86,169,41624,1,0,0:0:0:0:
72,146,41740,1,0,0:0:0:0:
192,71,41970,1,0,0:0:0:0:
310,131,42201,1,0,0:0:0:0:
392,260,42431,6,0,P|348:250|313:210,1,75,2|0,0:0|0:0,0:0:0:0:
305,214,42777,1,0,0:0:0:0:
226,304,43007,1,0,0:0:0:0:
133,243,43238,2,0,L|105:179,1,37.5,2|0,0:0|0:0,0:0:0:0:
102,187,43468,1,0,0:0:0:0:
91,162,43584,1,0,0:0:0:0:
182,108,43814,1,0,0:0:0:0:
212,198,44045,1,0,0:0:0:0:
177,285,44275,6,0,P|201:313|295:334,1,104.999996795654,10|0,0:0|0:0,0:0:0:0:
277,331,44621,1,0,0:0:0:0:
256,136,44851,1,0,0:0:0:0:
85,155,45082,2,0,P|77:180|75:206,1,52.4999983978272,2|0,0:0|0:0,0:0:0:0:
79,221,45312,1,0,0:0:0:0:
84,235,45428,1,0,0:0:0:0:
306,185,45658,1,0,0:0:0:0:
116,85,45889,1,0,0:0:0:0:
361,112,46118,6,0,P|315:66|274:59,1,104.999996795654,2|0,0:0|0:0,0:0:0:0:
268,62,46464,1,0,0:0:0:0:
278,149,46694,1,0,0:0:0:0:
195,105,46925,2,0,P|188:130|186:157,1,52.4999983978272,2|0,0:0|0:0,0:0:0:0:
182,172,47155,1,0,0:0:0:0:
183,187,47271,1,0,0:0:0:0:
63,139,47501,1,0,0:0:0:0:
260,287,47732,1,0,0:0:0:0:
429,329,47962,6,0,P|445:266|431:228,1,104.999996795654,2|0,0:0|0:0,0:0:0:0:
423,219,48308,1,0,0:0:0:0:
473,61,48538,1,0,0:0:0:0:
293,115,48769,2,0,P|285:140|283:166,1,52.4999983978272,2|0,0:0|0:0,0:0:0:0:
284,179,48999,1,0,0:0:0:0:
287,193,49115,1,0,0:0:0:0:
201,62,49345,1,0,0:0:0:0:
274,286,49576,1,0,0:0:0:0:
103,274,49806,6,0,P|175:319|212:331,1,104.999996795654,2|0,0:0|0:0,0:0:0:0:
208,331,50152,1,0,0:0:0:0:
101,149,50382,1,0,0:0:0:0:
271,238,50613,2,0,L|219:242,1,52.4999983978272,2|0,0:0|0:0,0:0:0:0:
203,240,50843,1,0,0:0:0:0:
187,235,50959,1,0,0:0:0:0:
289,97,51189,1,0,0:0:0:0:
259,316,51420,1,0,0:0:0:0:
110,305,51649,6,0,P|71:252|42:202,1,104.999996795654,2|0,0:0|0:0,0:0:0:0:
51,204,51995,1,0,0:0:0:0:
223,251,52225,1,0,0:0:0:0:
107,111,52456,2,0,L|154:132,1,52.4999983978272,2|0,0:0|0:0,0:0:0:0:
169,137,52686,1,0,0:0:0:0:
183,143,52802,1,0,0:0:0:0:
125,297,53032,1,0,0:0:0:0:
274,155,53263,1,0,0:0:0:0:
429,194,53493,6,0,P|388:120|361:91,1,104.999996795654,2|0,0:0|0:0,0:0:0:0:
365,93,53839,1,0,0:0:0:0:
370,304,54069,1,0,0:0:0:0:
265,144,54300,2,0,L|312:165,1,52.4999983978272,2|0,0:0|0:0,0:0:0:0:
325,175,54530,1,0,0:0:0:0:
337,187,54646,1,0,0:0:0:0:
181,259,54876,1,0,0:0:0:0:
313,82,55107,1,0,0:0:0:0:
133,74,55337,6,0,P|154:125|187:163,1,104.999996795654,2|0,0:0|0:0,0:0:0:0:
194,171,55683,1,0,0:0:0:0:
69,275,55913,1,0,0:0:0:0:
261,229,56144,2,0,L|308:250,1,52.4999983978272,2|0,0:0|0:0,0:0:0:0:
322,257,56374,1,0,0:0:0:0:
337,260,56490,1,0,0:0:0:0:
181,259,56720,1,0,0:0:0:0:
232,61,56951,1,0,0:0:0:0:
440,53,57181,6,0,P|451:112|451:166,1,104.999996795654,2|0,0:0|0:0,0:0:0:0:
447,172,57527,1,0,0:0:0:0:
363,300,57757,1,0,0:0:0:0:
199,322,57988,2,0,L|246:343,1,52.4999983978272,2|0,0:0|0:0,0:0:0:0:
261,350,58218,1,0,0:0:0:0:
276,350,58334,1,0,0:0:0:0:
162,226,58564,1,0,0:0:0:0:
326,94,58795,1,0,0:0:0:0:
208,202,59024,6,0,P|192:140|198:83,1,120,2|0,0:0|0:0,0:0:0:0:
223,59,59370,1,0,0:0:0:0:
440,119,59600,1,8,0:0:0:0:
327,220,59831,2,0,L|250:140,1,60,2|0,0:0|0:0,0:0:0:0:
260,154,60061,1,0,0:0:0:0:
225,147,60177,1,0,0:0:0:0:
189,274,60407,1,8,0:0:0:0:
350,99,60638,1,8,0:0:0:0:
417,237,60868,6,0,P|378:288|330:318,1,120,2|0,0:0|0:0,0:0:0:0:
302,330,61214,1,0,0:0:0:0:
72,327,61444,1,8,0:0:0:0:
280,256,61675,2,0,P|314:239|361:186,1,60,2|0,0:0|0:0,0:0:0:0:
348,202,61905,1,0,0:0:0:0:
359,184,62021,1,0,0:0:0:0:
209,143,62251,1,8,0:0:0:0:
441,312,62482,1,8,0:0:0:0:
441,122,62712,6,0,P|386:163|354:203,1,120,2|0,0:0|0:0,0:0:0:0:
333,222,63058,1,0,0:0:0:0:
134,258,63288,1,8,0:0:0:0:
241,288,63519,2,0,P|275:271|322:218,1,60,2|0,0:0|0:0,0:0:0:0:
319,234,63749,1,0,0:0:0:0:
333,222,63865,1,0,0:0:0:0:
259,98,64095,1,8,0:0:0:0:
206,348,64326,1,8,0:0:0:0:
71,122,64556,6,0,P|126:163|158:203,1,120,2|0,0:0|0:0,0:0:0:0:
179,222,64902,1,0,0:0:0:0:
343,207,65132,1,8,0:0:0:0:
283,325,65363,2,0,P|249:308|202:255,1,60,2|0,0:0|0:0,0:0:0:0:
213,281,65593,1,0,0:0:0:0:
195,261,65709,1,0,0:0:0:0:
352,238,65939,1,8,0:0:0:0:
110,309,66170,1,8,0:0:0:0:
172,76,66399,6,0,P|239:88|320:136,1,150,2|0,0:0|0:0,0:0:0:0:
359,163,66745,1,0,0:0:0:0:
153,205,66975,1,8,0:0:0:0:
351,347,67206,2,0,P|317:330|265:269,1,75,2|0,0:0|0:0,0:0:0:0:
250,272,67436,1,0,0:0:0:0:
212,232,67552,1,0,0:0:0:0:
262,58,67782,1,8,0:0:0:0:
198,339,68013,1,8,0:0:0:0:
435,125,68243,6,0,P|449:192|437:285,1,150,2|0,0:0|0:0,0:0:0:0:
415,307,68589,1,0,0:0:0:0:
327,90,68819,1,8,0:0:0:0:
309,333,69050,2,0,P|271:326|204:281,1,75,2|0,0:0|0:0,0:0:0:0:
191,288,69280,1,0,0:0:0:0:
143,260,69396,1,0,0:0:0:0:
322,143,69626,1,8,0:0:0:0:
129,335,69857,1,8,0:0:0:0:
216,38,70087,6,0,B|155:74|155:74|95:144,1,150,2|0,0:0|0:0,0:0:0:0:
93,182,70433,1,0,0:0:0:0:
310,94,70663,1,8,0:0:0:0:
203,333,70894,2,0,P|240:326|307:281,1,75,2|0,0:0|0:0,0:0:0:0:
321,288,71124,1,0,0:0:0:0:
369,260,71240,1,0,0:0:0:0:
201,117,71470,1,8,0:0:0:0:
448,273,71701,1,8,0:0:0:0:
216,346,71931,6,0,B|155:310|155:310|95:239,1,150,2|0,0:0|0:0,0:0:0:0:
93,202,72277,1,0,0:0:0:0:
310,290,72507,1,8,0:0:0:0:
203,51,72738,2,0,P|240:57|307:102,1,75,2|0,0:0|0:0,0:0:0:0:
321,96,72968,1,0,0:0:0:0:
369,124,73084,1,0,0:0:0:0:
182,259,73314,1,8,0:0:0:0:
416,45,73545,1,8,0:0:0:0:
431,284,73774,6,0,B|416:233|416:233|370:214|370:214|330:169,1,150,2|0,0:0|0:0,0:0:0:0:
303,139,74120,1,0,0:0:0:0:
288,329,74350,1,8,0:0:0:0:
129,70,74581,2,0,B|170:82|170:82|233:121,1,75,2|0,0:0|0:0,0:0:0:0:
239,135,74811,1,0,0:0:0:0:
273,176,74927,1,0,0:0:0:0:
95,312,75157,1,8,0:0:0:0:
366,90,75388,1,8,0:0:0:0:
81,100,75618,6,0,B|96:151|96:151|141:169|141:169|182:215,1,150,2|0,0:0|0:0,0:0:0:0:
209,245,75964,1,0,0:0:0:0:
224,55,76194,1,8,0:0:0:0:
322,332,76425,2,0,B|350:300|350:300|384:234,1,75,2|0,0:0|0:0,0:0:0:0:
382,219,76655,1,0,0:0:0:0:
390,166,76771,1,0,0:0:0:0:
125,123,77001,1,8,0:0:0:0:
430,314,77232,1,8,0:0:0:0:
333,84,77462,6,0,B|348:135|398:146|434:199,1,150,2|0,0:0|0:0,0:0:0:0:
456,224,77808,1,0,0:0:0:0:
472,37,78038,1,8,0:0:0:0:
295,169,78269,2,0,B|266:200|266:200|232:266,1,75,2|0,0:0|0:0,0:0:0:0:
234,281,78499,1,0,0:0:0:0:
226,335,78615,1,0,0:0:0:0:
435,101,78845,1,8,0:0:0:0:
117,201,79076,1,8,0:0:0:0:
258,173,79306,6,0,B|212:135|207:84|158:64,1,150,2|0,0:0|0:0,0:0:0:0:
121,51,79652,1,0,0:0:0:0:
108,237,79882,1,8,0:0:0:0:
331,249,80113,2,0,B|302:281|302:281|240:321,1,75,2|0,0:0|0:0,0:0:0:0:
225,321,80343,1,0,0:0:0:0:
173,334,80459,1,0,0:0:0:0:
426,150,80689,1,8,0:0:0:0:
112,289,80920,1,8,0:0:0:0:
101,166,81149,6,0,P|132:207|211:245,1,104.999996795654
213,256,81495,1,0,0:0:0:0:
254,262,81610,2,0,P|308:256|352:218,1,104.999996795654
360,185,81956,1,0,0:0:0:0:
353,143,82071,2,0,P|408:159|472:210,1,104.999996795654
433,224,82417,1,0,0:0:0:0:
455,259,82532,2,0,P|410:286|360:300,1,104.999996795654
317,300,82878,1,0,0:0:0:0:
323,341,82993,2,0,L|240:268,1,104.999996795654
209,246,83339,1,0,0:0:0:0:
180,214,83454,2,0,P|211:178|269:192,1,104.999996795654
272,225,83800,5,0,0:0:0:0:
293,261,83915,2,0,L|347:171,1,104.999996795654
326,131,84261,1,0,0:0:0:0:
296,98,84376,2,0,L|191:96,1,104.999996795654
165,133,84722,1,0,0:0:0:0:
151,171,84837,2,0,L|209:263,1,104.999996795654
250,263,85183,1,0,0:0:0:0:
293,261,85298,2,0,L|347:171,1,104.999996795654
326,131,85644,1,0,0:0:0:0:
296,98,85759,2,0,L|191:96,1,104.999996795654
165,133,86105,1,0,0:0:0:0:
151,171,86220,2,0,L|209:263,1,104.999996795654
250,263,86566,1,0,0:0:0:0:
293,261,86681,2,0,L|347:171,1,104.999996795654
326,131,87027,1,0,0:0:0:0:
296,98,87142,2,0,L|191:96,1,104.999996795654
165,133,87488,1,0,0:0:0:0:
151,171,87603,2,0,L|209:263,1,104.999996795654
256,192,87948,12,14,88524,0:0:0:0:
202,132,88985,5,0,0:0:0:0:
128,237,89216,2,2,L|291:253,1,120
127,125,89677,1,8,0:0:0:0:
256,107,89907,1,8,0:0:0:0:
76,179,90137,1,8,0:0:0:0:
267,272,90368,6,0,L|145:73,1,120,2|0,0:0|0:0,0:0:0:0:
282,61,90829,1,0,0:0:0:0:
311,187,91060,2,2,L|454:265,1,120
205,310,91521,1,8,0:0:0:0:
258,122,91751,1,8,0:0:0:0:
453,161,91981,1,8,0:0:0:0:
303,300,92212,6,0,B|360:317|360:317|421:311,1,120,2|0,0:0|0:0,0:0:0:0:
359,129,92673,1,0,0:0:0:0:
202,242,92904,2,2,B|245:283|245:283|348:313,1,120
440,218,93365,1,8,0:0:0:0:
228,145,93595,1,8,0:0:0:0:
455,125,93825,1,8,0:0:0:0:
208,50,94056,6,0,B|245:54|245:54|273:68|273:68|325:60,1,120,2|0,0:0|0:0,0:0:0:0:
129,149,94517,1,0,0:0:0:0:
242,302,94748,2,2,P|187:277|144:236,1,120
335,282,95209,1,8,0:0:0:0:
322,123,95439,1,8,0:0:0:0:
338,301,95669,1,8,0:0:0:0:
137,308,95899,6,0,B|191:332|191:332|254:318,1,120,2|0,0:0|0:0,0:0:0:0:
111,220,96360,1,0,0:0:0:0:
242,82,96591,2,2,P|187:106|144:147,1,120
385,170,97052,1,8,0:0:0:0:
322,245,97282,1,8,0:0:0:0:
350,39,97512,1,8,0:0:0:0:
375,308,97743,6,0,B|321:332|321:332|257:318,1,120,2|0,0:0|0:0,0:0:0:0:
401,220,98204,1,0,0:0:0:0:
270,82,98435,2,2,P|324:106|367:147,1,120
127,170,98896,1,8,0:0:0:0:
190,245,99126,1,8,0:0:0:0:
162,39,99356,1,8,0:0:0:0:
367,147,99587,6,0,B|313:171|313:171|260:213,1,120,2|0,0:0|0:0,0:0:0:0:
436,256,100048,1,0,0:0:0:0:
249,128,100278,2,2,B|310:130|310:130|367:147,1,120
107,132,100740,1,8,0:0:0:0:
157,132,100970,1,8,0:0:0:0:
211,131,101200,1,8,0:0:0:0:
231,242,101431,6,0,B|199:280|199:280|162:279|124:308,1,120,2|0,0:0|0:0,0:0:0:0:
333,336,101892,1,0,0:0:0:0:
189,170,102122,2,2,B|239:154|268:168|306:188,1,120
84,219,102584,1,8,0:0:0:0:
84,219,102814,1,8,0:0:0:0:
84,219,103044,1,8,0:0:0:0:
160,201,103274,6,0,P|150:263|76:297,1,120,2|0,0:0|0:0,0:0:0:0:
333,336,103735,1,0,0:0:0:0:
86,181,103965,2,2,P|122:133|186:127,1,120
318,107,104427,1,8,0:0:0:0:
160,201,104657,1,8,0:0:0:0:
346,174,104887,1,8,0:0:0:0:
183,239,105118,6,0,L|262:148,1,120,2|0,0:0|0:0,0:0:0:0:
333,336,105579,1,0,0:0:0:0:
178,152,105809,2,2,L|278:248,1,120
287,69,106271,1,8,0:0:0:0:
143,221,106501,1,8,0:0:0:0:
280,251,106731,1,8,0:0:0:0:
121,165,106962,6,0,L|200:74,1,120,2|0,0:0|0:0,0:0:0:0:
215,328,107423,1,0,0:0:0:0:
346,214,107653,2,2,L|446:310,1,120
368,83,108115,1,8,0:0:0:0:
143,221,108345,1,8,0:0:0:0:
143,221,108575,1,8,0:0:0:0:
148,306,108806,6,0,P|207:273|227:215,1,120,2|0,0:0|0:0,0:0:0:0:
131,102,109267,1,0,0:0:0:0:
311,230,109497,2,2,P|368:258|411:326,1,120
262,125,109959,1,8,0:0:0:0:
438,186,110189,1,8,0:0:0:0:
146,87,110419,1,8,0:0:0:0:
121,287,110649,6,0,B|160:288|160:288|192:270|192:270|224:288|224:288|288:288,1,150,2|0,0:0|0:0,0:0:0:0:
334,101,111110,1,0,0:0:0:0:
382,293,111340,2,2,P|324:244|277:186,1,150
85,178,111802,1,8,0:0:0:0:
296,174,112032,1,8,0:0:0:0:
50,178,112262,1,8,0:0:0:0:
270,317,112493,6,0,B|297:289|297:289|296:245|340:242|340:242|382:194,1,150,2|0,0:0|0:0,0:0:0:0:
334,101,112954,1,0,0:0:0:0:
365,312,113184,2,2,L|260:205,1,150
130,97,113646,1,8,0:0:0:0:
332,179,113876,1,8,0:0:0:0:
169,291,114106,1,8,0:0:0:0:
159,93,114337,6,0,B|128:135|128:135|90:151|90:151|73:205,1,150,2|0,0:0|0:0,0:0:0:0:
332,100,114798,1,0,0:0:0:0:
399,278,115028,2,2,L|249:219,1,150
423,118,115490,1,8,0:0:0:0:
445,281,115720,1,8,0:0:0:0:
212,107,115950,1,8,0:0:0:0:
80,306,116181,6,0,P|168:261|169:194,1,150,2|0,0:0|0:0,0:0:0:0:
385,66,116642,1,0,0:0:0:0:
326,205,116872,2,2,P|262:156|176:146,1,150
263,286,117334,5,8,0:0:0:0:
290,281,117564,1,8,0:0:0:0:
317,269,117794,1,8,0:0:0:0:
336,257,118025,5,14,0:0:0:0:
242,160,125400,6,0,L|288:188,7,44.999998626709,2|0|0|0|0|0|2|2,0:0|0:0|0:0|0:0|0:0|0:0|0:0|0:0,0:0:0:0:
173,182,127243,6,0,L|193:231,7,44.999998626709,2|0|0|0|0|0|2|2,0:0|0:0|0:0|0:0|0:0|0:0|0:0|0:0,0:0:0:0:
321,213,129087,6,0,B|345:211|345:211|373:197,7,44.999998626709,2|0|0|0|0|0|2|2,0:0|0:0|0:0|0:0|0:0|0:0|0:0|0:0,0:0:0:0:
284,99,130931,6,0,L|237:71,7,44.999998626709,2|0|0|0|0|0|2|2,0:0|0:0|0:0|0:0|0:0|0:0|0:0|0:0,0:0:0:0:
199,107,132775,6,0,L|152:79,7,44.999998626709,2|0|0|0|0|0|2|2,0:0|0:0|0:0|0:0|0:0|0:0|0:0|0:0,0:0:0:0:
196,163,134618,6,0,L|142:176,5,44.999998626709,2|0|0|0|0|0,0:0|0:0|0:0|0:0|0:0|0:0,0:0:0:0:
208,208,136001,2,2,L|172:234,1,44.999998626709
293,211,136462,6,0,L|313:259,2,44.999998626709,2|0|0,0:0|0:0|0:0,0:0:0:0:
325,174,137153,2,0,L|373:195,2,44.999998626709
326,126,137845,2,2,P|389:114|389:114,1,44.999998626709
221,127,138306,6,0,L|200:78,2,44.999998626709,2|0|0,0:0|0:0|0:0,0:0:0:0:
189,163,138997,2,0,L|141:142,2,44.999998626709
188,211,139689,2,2,P|124:222|124:222,1,44.999998626709
364,196,140150,6,0,P|321:224|321:224,3,44.999998626709,2|0|0|0,2:0|2:0|2:0|2:0,0:0:0:0:
351,277,140610,2,0,P|267:280|267:280,1,44.999998626709
283,324,140841,2,0,L|218:290,1,44.999998626709
195,335,141071,2,0,P|171:270|171:270,1,44.999998626709
116,295,141301,2,0,P|141:234|141:234,1,44.999998626709
85,222,141532,6,2,L|136:196,1,44.999998626709
126,64,141993,6,0,P|175:90|175:90,1,44.999998626709,2|0,0:0|0:0,0:0:0:0:
146,125,142223,2,0,P|200:139|200:139,1,44.999998626709
221,105,142453,2,0,P|260:144|260:144,1,44.999998626709
210,178,142684,2,0,P|259:203|259:203,1,44.999998626709
231,238,142914,2,0,P|285:251|285:251,1,44.999998626709
305,217,143144,2,0,P|344:256|344:256,1,44.999998626709
373,239,143376,6,2,L|380:291,1,44.999998626709
138,115,143837,6,0,P|169:102|205:98,3,67.4999979400635,2|0|0|0,0:0|0:0|0:0|0:0,0:0:0:0:
266,79,144413,2,0,P|233:83|202:97,3,67.4999979400635
258,156,144989,2,0,P|221:175|178:173,2,75,8|2|2,0:0|0:0|0:0,0:0:0:0:
391,231,145681,6,0,P|365:252|332:266,3,67.4999979400635,2|0|0|0,0:0|0:0|0:0|0:0,0:0:0:0:
279,302,146257,2,0,P|309:289|335:267,3,67.4999979400635
266,226,146833,2,0,P|298:197|341:189,2,75,8|2|2,0:0|0:0|0:0,0:0:0:0:
94,180,147525,6,0,P|118:208|178:229,1,89.9999972534181,2|0,0:0|0:0,0:0:0:0:
194,237,147871,1,0,0:0:0:0:
331,126,148101,1,0,0:0:0:0:
177,153,148332,2,0,P|181:118|197:79,1,44.999998626709,2|0,0:0|0:0,0:0:0:0:
190,85,148562,1,0,0:0:0:0:
203,60,148678,1,0,0:0:0:0:
375,68,148908,1,8,0:0:0:0:
311,152,149139,1,8,0:0:0:0:
426,271,149368,6,0,P|401:242|361:209,1,89.9999972534181,2|0,0:0|0:0,0:0:0:0:
339,188,149714,1,0,0:0:0:0:
190,115,149944,1,0,0:0:0:0:
290,284,150175,2,0,P|260:303|220:316,1,44.999998626709,2|0,0:0|0:0,0:0:0:0:
225,316,150405,1,0,0:0:0:0:
195,318,150521,1,0,0:0:0:0:
342,183,150751,1,8,0:0:0:0:
176,236,150982,1,8,0:0:0:0:
79,127,151212,6,0,P|116:124|169:129,1,89.9999972534181,2|0,0:0|0:0,0:0:0:0:
200,130,151558,1,0,0:0:0:0:
357,184,151788,1,0,0:0:0:0:
166,233,152019,2,0,P|173:267|193:304,1,44.999998626709,2|0,0:0|0:0,0:0:0:0:
190,301,152249,1,0,0:0:0:0:
210,324,152365,1,0,0:0:0:0:
201,124,152595,1,8,0:0:0:0:
299,292,152826,1,8,0:0:0:0:
426,113,153056,6,0,P|401:141|361:175,1,89.9999972534181,2|0,0:0|0:0,0:0:0:0:
339,195,153402,1,0,0:0:0:0:
190,268,153632,1,0,0:0:0:0:
289,100,153863,2,0,P|260:80|220:67,1,44.999998626709,2|0,0:0|0:0,0:0:0:0:
225,68,154093,1,0,0:0:0:0:
195,66,154209,1,0,0:0:0:0:
342,201,154439,1,8,0:0:0:0:
342,201,154670,1,8,0:0:0:0:
79,256,154900,6,0,P|116:259|169:254,1,89.9999972534181,2|0,0:0|0:0,0:0:0:0:
200,253,155246,1,0,0:0:0:0:
357,199,155476,1,0,0:0:0:0:
166,150,155707,2,0,P|173:116|193:79,1,44.999998626709,2|0,0:0|0:0,0:0:0:0:
190,82,155937,1,0,0:0:0:0:
210,59,156053,1,0,0:0:0:0:
215,237,156283,1,8,0:0:0:0:
267,218,156514,1,8,0:0:0:0:
86,113,156743,6,0,B|110:144|110:144|151:175,1,89.9999972534181,2|0,0:0|0:0,0:0:0:0:
172,195,157089,1,0,0:0:0:0:
321,268,157319,1,0,0:0:0:0:
222,100,157550,2,0,B|251:82|251:82|291:67,1,44.999998626709,2|0,0:0|0:0,0:0:0:0:
286,68,157780,1,0,0:0:0:0:
316,66,157896,1,0,0:0:0:0:
170,201,158126,1,8,0:0:0:0:
170,200,158357,1,8,0:0:0:0:
432,256,158587,6,0,B|402:266|402:266|378:252|378:252|342:254,1,89.9999972534181,2|0,0:0|0:0,0:0:0:0:
311,253,158933,1,0,0:0:0:0:
458,147,159163,1,0,0:0:0:0:
224,159,159394,2,0,P|216:124|197:87,1,44.999998626709,2|0,0:0|0:0,0:0:0:0:
199,90,159624,1,0,0:0:0:0:
177,71,159740,1,0,0:0:0:0:
347,95,159970,1,8,0:0:0:0:
126,193,160201,1,8,0:0:0:0:
425,271,160431,6,0,B|402:240|402:240|361:209,1,89.9999972534181,2|0,0:0|0:0,0:0:0:0:
339,188,160777,1,0,0:0:0:0:
190,115,161007,1,0,0:0:0:0:
289,284,161238,2,0,B|261:302|261:302|220:316,1,44.999998626709,2|0,0:0|0:0,0:0:0:0:
225,315,161468,1,0,0:0:0:0:
195,318,161584,1,0,0:0:0:0:
255,67,161814,1,8,0:0:0:0:
342,183,162045,1,8,0:0:0:0:
119,112,162275,6,0,P|150:153|221:190,1,89.9999972534181
215,209,162621,1,0,0:0:0:0:
237,247,162736,2,0,P|291:241|320:197,1,89.9999972534181
329,172,163082,1,0,0:0:0:0:
353,126,163197,2,0,P|408:142|461:187,1,89.9999972534181
440,212,163543,1,0,0:0:0:0:
442,260,163658,2,0,P|397:287|354:299,1,89.9999972534181
322,302,164004,1,0,0:0:0:0:
268,314,164119,2,0,L|190:246,1,89.9999972534181
161,220,164465,1,0,0:0:0:0:
146,173,164580,2,0,P|185:148|223:113,1,89.9999972534181
264,120,164926,5,0,0:0:0:0:
301,165,165041,2,0,L|342:78,1,89.9999972534181
401,106,165387,1,0,0:0:0:0:
437,161,165502,2,0,L|356:232,1,89.9999972534181
318,168,165848,1,0,0:0:0:0:
249,190,165963,2,0,L|305:280,1,89.9999972534181
356,285,166309,1,0,0:0:0:0:
420,274,166424,2,0,L|436:174,1,89.9999972534181
399,127,166770,1,0,0:0:0:0:
342,95,166885,2,0,L|243:95,1,89.9999972534181
191,121,167231,1,0,0:0:0:0:
150,171,167346,2,0,L|202:263,1,89.9999972534181
249,271,167692,1,0,0:0:0:0:
307,267,167807,2,0,L|360:181,1,89.9999972534181
413,215,168153,1,0,0:0:0:0:
422,282,168268,2,0,L|317:280,1,104.999996795654
281,223,168614,1,0,0:0:0:0:
231,266,168729,2,0,L|175:177,1,104.999996795654
256,192,169074,12,14,169650,0:0:0:0:
202,252,170111,5,0,0:0:0:0:
128,147,170342,2,2,P|203:131|299:126,1,134.999995880127
127,259,170803,1,8,0:0:0:0:
256,277,171033,1,8,0:0:0:0:
76,205,171263,1,8,0:0:0:0:
267,112,171494,6,0,B|251:166|251:166|167:268,1,134.999995880127,2|0,0:0|0:0,0:0:0:0:
282,323,171955,1,0,0:0:0:0:
306,192,172186,2,2,B|361:152|361:152|459:115,1,134.999995880127
205,74,172647,1,8,0:0:0:0:
258,262,172877,1,8,0:0:0:0:
258,262,173107,1,8,0:0:0:0:
303,84,173338,6,0,B|360:67|360:67|441:83,1,134.999995880127,2|0,0:0|0:0,0:0:0:0:
302,214,173799,1,0,0:0:0:0:
153,95,174030,2,2,B|196:54|196:54|308:24,1,134.999995880127
440,166,174491,1,8,0:0:0:0:
228,239,174721,1,8,0:0:0:0:
455,259,174951,1,8,0:0:0:0:
191,331,175182,6,0,B|245:330|245:330|271:312|271:312|338:289,1,134.999995880127,2|0,0:0|0:0,0:0:0:0:
129,235,175643,1,0,0:0:0:0:
242,82,175874,2,2,P|187:107|129:173,1,134.999995880127
335,102,176335,1,8,0:0:0:0:
322,261,176565,1,8,0:0:0:0:
338,83,176795,1,8,0:0:0:0:
137,76,177025,6,0,B|203:65|203:65|278:78,1,134.999995880127,2|0,0:0|0:0,0:0:0:0:
111,164,177486,1,0,0:0:0:0:
238,309,177717,2,2,P|189:259|126:235,1,134.999995880127
385,214,178178,1,8,0:0:0:0:
322,139,178408,1,8,0:0:0:0:
350,345,178638,1,8,0:0:0:0:
375,76,178869,6,0,B|322:58|322:58|288:75|288:75|235:73,1,134.999995880127,2|0,0:0|0:0,0:0:0:0:
401,164,179330,1,0,0:0:0:0:
270,302,179561,2,2,P|324:278|379:221,1,134.999995880127
127,213,180022,1,8,0:0:0:0:
127,213,180252,1,8,0:0:0:0:
127,213,180482,1,8,0:0:0:0:
367,237,180713,6,0,B|301:208|301:208|247:164,1,134.999995880127,2|0,0:0|0:0,0:0:0:0:
436,128,181174,1,0,0:0:0:0:
312,288,181404,2,2,P|362:310|438:255,1,134.999995880127
147,210,181866,1,8,0:0:0:0:
175,250,182096,1,8,0:0:0:0:
205,295,182326,1,8,0:0:0:0:
231,142,182557,6,0,B|199:95|152:114|107:67,1,134.999995880127,2|0,0:0|0:0,0:0:0:0:
333,48,183018,1,0,0:0:0:0:
189,213,183248,2,2,B|366:204,1,134.999995880127
84,165,183710,1,8,0:0:0:0:
84,165,183940,1,8,0:0:0:0:
84,165,184170,1,8,0:0:0:0:
163,179,184400,6,0,P|153:117|73:82,1,134.999995880127,2|0,0:0|0:0,0:0:0:0:
333,48,184861,1,0,0:0:0:0:
87,203,185091,2,2,P|123:251|200:252,1,134.999995880127
318,277,185553,1,8,0:0:0:0:
160,182,185783,1,8,0:0:0:0:
346,210,186013,1,8,0:0:0:0:
183,145,186244,6,0,L|311:232,1,134.999995880127,2|0,0:0|0:0,0:0:0:0:
333,48,186705,1,0,0:0:0:0:
198,220,186935,2,2,L|328:139,1,134.999995880127
287,315,187397,1,8,0:0:0:0:
143,162,187627,1,8,0:0:0:0:
280,133,187857,1,8,0:0:0:0:
121,219,188088,6,0,L|223:323,1,134.999995880127,2|0,0:0|0:0,0:0:0:0:
215,56,188549,1,0,0:0:0:0:
346,170,188779,2,2,L|453:65,1,134.999995880127
368,301,189241,1,8,0:0:0:0:
143,162,189471,1,8,0:0:0:0:
143,162,189701,1,8,0:0:0:0:
148,78,189932,6,0,P|210:108|225:174,1,134.999995880127,2|0,0:0|0:0,0:0:0:0:
131,282,190393,1,0,0:0:0:0:
311,154,190623,2,2,P|368:126|411:54,1,134.999995880127
262,259,191085,1,8,0:0:0:0:
438,198,191315,1,8,0:0:0:0:
146,297,191545,1,8,0:0:0:0:
122,109,191775,6,0,B|155:94|155:94|186:115|186:115|219:94|219:94|278:128,1,150,2|0,0:0|0:0,0:0:0:0:
334,283,192236,1,0,0:0:0:0:
382,91,192466,2,2,P|324:140|222:309,1,150
85,206,192928,1,8,0:0:0:0:
296,210,193158,1,8,0:0:0:0:
50,206,193388,1,8,0:0:0:0:
268,64,193619,6,0,B|297:95|297:95|308:131|342:140|342:140|380:187,1,150,2|0,0:0|0:0,0:0:0:0:
334,283,194080,1,0,0:0:0:0:
365,72,194310,2,2,L|260:179,1,150
130,287,194772,1,8,0:0:0:0:
332,205,195002,1,8,0:0:0:0:
169,93,195232,1,8,0:0:0:0:
159,291,195463,6,0,B|128:249|128:249|90:232|90:232|73:179,1,150,2|0,0:0|0:0,0:0:0:0:
332,284,195924,1,0,0:0:0:0:
399,106,196154,2,2,L|249:165,1,150
423,266,196616,1,8,0:0:0:0:
445,103,196846,1,8,0:0:0:0:
212,277,197076,1,8,0:0:0:0:
80,78,197307,6,0,P|168:123|169:190,1,150,2|0,0:0|0:0,0:0:0:0:
385,318,197768,1,0,0:0:0:0:
326,179,197998,2,2,P|262:228|176:238,1,150
175,97,198460,5,8,0:0:0:0:
175,97,198690,1,8,0:0:0:0:
175,97,198920,1,8,0:0:0:0:
175,97,199150,6,0,P|239:104|284:188,1,112.500004291535,14|0,0:0|0:0,0:0:0:0:
289,117,199611,2,0,P|246:81|191:78,1,112.500004291535
291,149,200072,2,0,P|253:96|158:97,1,112.500004291535
218,58,200533,2,0,P|269:77|299:124,1,112.500004291535
122,224,200993,6,0,P|166:185|230:231,1,112.500004291535
303,174,201454,2,0,P|259:212|195:166,1,112.500004291535
187,108,201915,2,0,P|226:152|180:216,1,112.500004291535
237,289,202376,2,0,P|198:245|244:181,1,112.500004291535
237,289,202837,2,0,P|198:245|244:181,1,112.500004291535
322,190,203759,6,0,L|291:72,1,112.500004291535
347,67,204220,2,0,L|241:146,1,112.500004291535
330,134,204680,2,0,L|231:83,1,112.500004291535
273,173,205141,2,0,B|272:177|312:68,1,112.500004291535
348,149,205603,6,0,L|217:105,1,75
289,99,205833,2,0,L|292:174,1,75
245,144,206064,2,0,L|303:98,1,75
276,125,206294,2,0,L|348:149,1,75
328,105,206525,2,0,P|243:183|243:183,1,75
125,178,207216,6,0,L|141:97,1,63.7500012159348
148,89,207447,2,0,L|118:222,1,127.50000243187
189,58,207908,2,0,L|116:172,1,127.50000243187
239,43,208368,2,0,L|138:120,1,127.50000243187
169,84,208829,2,0,L|291:46,1,127.50000243187,0|0,0:3|0:3,0:3:0:0:
338,67,209290,2,0,L|211:61,1,127.50000243187
258,54,209751,2,0,L|376:103,1,127.50000243187
399,149,210212,2,0,L|299:57,1,127.50000243187
124,111,211134,6,0,L|167:99,1,37.5
245,247,211595,2,0,P|255:210|255:210,1,37.5
401,149,212056,2,0,L|372:121,1,37.5
101,213,212517,2,0,L|128:184,1,37.5
273,120,212978,6,0,L|253:156,1,37.5
286,171,213208,2,0,L|266:207,1,37.5
231,193,213439,2,0,L|211:229,1,37.5
245,243,213669,2,0,L|225:279,1,37.5
