osu file format v14

[General]
AudioFilename: audio.ogg
AudioLeadIn: 0
PreviewTime: 53754
Countdown: 0
SampleSet: Normal
StackLeniency: 0.7
Mode: 1
LetterboxInBreaks: 0
WidescreenStoryboard: 1

[Editor]
DistanceSpacing: 1.1
BeatDivisor: 4
GridSize: 32
TimelineZoom: 2.3

[Metadata]
Title:Toy Doll
TitleUnicode:Toy Doll
Artist:Mia Taylor (CV: Uchida Shu)
ArtistUnicode:ミア・テイラー (CV: 内田秀)
Creator:Nao Tomori
Version:Muzukashii
Source:ラブライブ!虹ヶ咲学園スクールアイドル同好会
Tags:love live! nijigasaki high school idol club gakuen doukou kai nijigaku ニジガク llas sifas スクスタ festival all stars スクールアイドルフェスティバル perfect dream project pdp anime video game version ver english pop punk rock lovelive! dōkōkai doukoukai 4thアルバム fourth 4th album L!L!L! (Love the Life We Live) insert 2nd solo song second idols inner taiko
BeatmapID:4289217
BeatmapSetID:2053402

[Difficulty]
HPDrainRate:6
CircleSize:5
OverallDifficulty:4.5
ApproachRate:5
SliderMultiplier:1.4
SliderTickRate:1

[Events]
//Background and Video events
0,0,"avril lavigne real.jpeg",0,95
//Break Periods
//Storyboard Layer 0 (Background)
//Storyboard Layer 1 (Fail)
//Storyboard Layer 2 (Pass)
//Storyboard Layer 3 (Foreground)
//Storyboard Layer 4 (Overlay)
//Storyboard Sound Samples

[TimingPoints]
-3845,342.857142857143,4,1,0,80,1,0
1640,-86.9565217391304,4,1,0,80,0,0
2154,-133.333333333333,4,1,0,50,0,0
9868,-100,4,1,0,70,0,0
10125,-80,4,1,0,70,0,0
10468,-100,4,1,0,70,0,0
10811,-80,4,1,0,70,0,0
11154,-100,4,1,0,70,0,0
23840,-119.047619047619,4,1,0,60,0,0
28425,-116.279069767442,4,1,0,70,0,0
28511,-114.285714285714,4,1,0,70,0,0
28597,-111.111111111111,4,1,0,70,0,0
28682,-108.695652173913,4,1,0,70,0,0
28768,-106.382978723404,4,1,0,70,0,0
28854,-104.166666666667,4,1,0,70,0,0
28940,-102.040816326531,4,1,0,70,0,0
29068,-100,4,1,0,70,0,0
34854,-119.047619047619,4,1,0,60,0,0
39397,-116.279069767442,4,1,0,70,0,0
39482,-113.636363636364,4,1,0,70,0,0
39568,-111.111111111111,4,1,0,70,0,0
39654,-108.695652173913,4,1,0,70,0,0
39740,-106.382978723404,4,1,0,70,0,0
39825,-104.166666666667,4,1,0,70,0,0
39911,-102.040816326531,4,1,0,70,0,0
39997,-100,4,1,0,70,0,0
45482,-100,4,1,0,70,0,0
45825,-74.0740740740741,4,1,0,90,0,0
46168,-100,4,1,0,70,0,0
48568,-74.0740740740741,4,1,0,90,0,0
48911,-100,4,1,0,70,0,0
55082,-100,4,1,0,70,0,0
55168,-100,4,1,0,70,0,0
55254,-100,4,1,0,70,0,0
55425,-100,4,1,0,70,0,0
55511,-100,4,1,0,70,0,0
55597,-100,4,1,0,70,0,0
55854,-98.0392156862745,4,1,0,70,0,0
55940,-96.1538461538461,4,1,0,70,0,0
56025,-94.3396226415094,4,1,0,70,0,0
56111,-92.5925925925926,4,1,0,70,0,0
56197,-90.9090909090909,4,1,0,70,0,0
56282,-89.2857142857143,4,1,0,70,0,0
56368,-87.719298245614,4,1,0,70,0,0
56454,-86.2068965517241,4,1,0,70,0,0
56497,-86.2068965517241,4,1,0,80,0,1
65025,-68.9655172413793,4,1,0,90,0,1
65368,-86.2068965517241,4,1,0,80,0,1
65711,-68.9655172413793,4,1,0,90,0,1
65754,-68.9655172413793,4,1,0,90,0,1
66054,-86.2068965517241,4,1,0,80,0,1
66140,-86.2068965517241,4,1,0,80,0,1
66225,-86.2068965517241,4,1,0,80,0,1
66311,-86.2068965517241,4,1,0,80,0,1
66397,-86.2068965517241,4,1,0,80,0,1
66482,-86.2068965517241,4,1,0,80,0,1
66568,-86.2068965517241,4,1,0,80,0,1
66654,-86.2068965517241,4,1,0,80,0,1
66740,-86.2068965517241,4,1,0,80,0,1
66825,-86.2068965517241,4,1,0,80,0,1
66911,-86.2068965517241,4,1,0,80,0,1
66997,-86.2068965517241,4,1,0,80,0,1
67082,-86.2068965517241,4,1,0,80,0,1
67168,-86.2068965517241,4,1,0,80,0,1
67254,-86.2068965517241,4,1,0,80,0,1
67340,-86.2068965517241,4,1,0,80,0,1
67425,-86.2068965517241,4,1,0,80,0,1
75997,-68.9655172413793,4,1,0,90,0,1
76340,-86.2068965517241,4,1,0,80,0,1
76682,-68.9655172413793,4,1,0,90,0,1
77025,-86.2068965517241,4,1,0,80,0,1
77111,-86.2068965517241,4,1,0,80,0,1
77196,-86.2068965517241,4,1,0,80,0,1
77282,-86.2068965517241,4,1,0,80,0,1
77368,-86.2068965517241,4,1,0,80,0,1
77453,-86.2068965517241,4,1,0,80,0,1
77539,-86.2068965517241,4,1,0,80,0,1
77625,-86.2068965517241,4,1,0,80,0,1
77711,-86.2068965517241,4,1,0,80,0,1
77796,-86.2068965517241,4,1,0,80,0,1
77882,-86.2068965517241,4,1,0,80,0,1
77968,-86.2068965517241,4,1,0,80,0,1
78053,-86.2068965517241,4,1,0,80,0,1
78139,-86.2068965517241,4,1,0,80,0,1
78225,-86.2068965517241,4,1,0,80,0,1
78311,-86.2068965517241,4,1,0,80,0,1
78396,-86.2068965517241,4,1,0,80,0,1
78440,-86.2068965517241,4,1,0,80,0,0
78740,-100,4,1,0,70,0,0
89111,-103.092783505155,4,1,0,70,0,0
89197,-106.382978723404,4,1,0,70,0,0
89282,-109.89010989011,4,1,0,70,0,0
89368,-100,4,1,0,70,0,0

[HitObjects]
186,165,1640,5,4,0:0:0:0:
185,165,2325,1,0,0:0:0:0:
186,165,3011,1,0,0:0:0:0:
186,165,3354,1,0,0:0:0:0:
186,165,3697,1,0,0:0:0:0:
186,166,4382,1,0,0:0:0:0:
186,166,5068,1,0,0:0:0:0:
186,166,5754,1,0,0:0:0:0:
186,166,6097,1,0,0:0:0:0:
187,166,6440,1,0,0:0:0:0:
187,166,7125,1,0,0:0:0:0:
187,166,7640,1,0,0:0:0:0:
187,166,8154,1,0,0:0:0:0:
186,168,9182,1,0,0:0:0:0:
186,170,9868,1,0,0:0:0:0:
185,170,10040,1,0,0:0:0:0:
184,170,10211,1,12,0:0:0:0:
269,148,10554,1,0,0:0:0:0:
269,148,10725,1,0,0:0:0:0:
269,148,10897,1,12,0:0:0:0:
269,148,11240,1,0,0:0:0:0:
269,148,11582,1,8,0:0:0:0:
208,122,11925,1,8,0:0:0:0:
208,122,12011,1,8,0:0:0:0:
208,122,12097,1,8,0:0:0:0:
208,122,12268,1,0,0:0:0:0:
208,111,12354,1,0,0:0:0:0:
207,111,12440,1,0,0:0:0:0:
207,111,12611,1,12,0:0:0:0:
205,115,13297,1,0,0:0:0:0:
205,115,13468,1,0,0:0:0:0:
205,115,13640,1,8,0:0:0:0:
191,117,13811,1,0,0:0:0:0:
254,138,14154,1,0,0:0:0:0:
254,138,14325,1,8,0:0:0:0:
176,106,14668,1,0,0:0:0:0:
254,138,14840,1,8,0:0:0:0:
254,138,15011,1,8,0:0:0:0:
236,137,15182,1,0,0:0:0:0:
236,137,15525,1,0,0:0:0:0:
236,137,15697,1,8,0:0:0:0:
236,137,16040,1,8,0:0:0:0:
283,63,16211,1,0,0:0:0:0:
222,106,16382,1,0,0:0:0:0:
206,113,16554,1,8,0:0:0:0:
199,131,17240,1,0,0:0:0:0:
199,131,17411,1,8,0:0:0:0:
199,131,17754,1,0,0:0:0:0:
212,137,17840,1,0,0:0:0:0:
199,131,17925,1,0,0:0:0:0:
199,131,18097,1,4,0:0:0:0:
227,143,18440,1,8,0:0:0:0:
228,143,18782,1,0,0:0:0:0:
228,143,18954,1,0,0:0:0:0:
228,143,19125,1,8,0:0:0:0:
228,143,19297,1,0,0:0:0:0:
229,143,19640,1,0,0:0:0:0:
229,143,19811,1,8,0:0:0:0:
229,143,20154,1,0,0:0:0:0:
229,143,20325,1,0,0:0:0:0:
229,143,20497,1,8,0:0:0:0:
229,143,20668,1,8,0:0:0:0:
240,170,21182,1,8,0:0:0:0:
224,137,21354,1,8,0:0:0:0:
224,137,21525,1,0,0:0:0:0:
224,137,21697,1,8,0:0:0:0:
249,119,22040,1,0,0:0:0:0:
249,119,22211,1,8,0:0:0:0:
220,96,22382,1,0,0:0:0:0:
220,96,22554,1,8,0:0:0:0:
220,96,22725,1,8,0:0:0:0:
220,96,23068,1,12,0:0:0:0:
202,111,23582,1,0,0:0:0:0:
231,140,23925,1,0,0:0:0:0:
231,140,24268,1,8,0:0:0:0:
231,140,24611,1,8,0:0:0:0:
231,140,24782,1,0,0:0:0:0:
231,140,24954,1,8,0:0:0:0:
231,139,25297,1,8,0:0:0:0:
231,139,25640,1,8,0:0:0:0:
231,139,25811,1,8,0:0:0:0:
231,139,25982,1,0,0:0:0:0:
208,139,26668,1,0,0:0:0:0:
208,139,27011,1,8,0:0:0:0:
207,140,27354,1,0,0:0:0:0:
207,140,27525,1,8,0:0:0:0:
207,140,27697,1,0,0:0:0:0:
206,141,28040,1,8,0:0:0:0:
205,137,28382,1,0,0:0:0:0:
205,137,28554,1,0,0:0:0:0:
204,137,28725,1,8,0:0:0:0:
199,125,29068,1,4,0:0:0:0:
240,147,29411,1,8,0:0:0:0:
240,147,29582,1,0,0:0:0:0:
240,147,29925,1,0,0:0:0:0:
240,147,30097,1,8,0:0:0:0:
142,104,30268,1,0,0:0:0:0:
162,153,30611,1,0,0:0:0:0:
162,153,30782,1,8,0:0:0:0:
162,153,31125,1,8,0:0:0:0:
162,153,31297,1,8,0:0:0:0:
162,153,31468,1,8,0:0:0:0:
137,105,31640,1,8,0:0:0:0:
160,155,31811,1,0,0:0:0:0:
164,132,32325,1,0,0:0:0:0:
165,132,32668,1,0,0:0:0:0:
165,132,33011,1,0,0:0:0:0:
165,132,33182,1,8,0:0:0:0:
165,132,33268,1,8,0:0:0:0:
165,132,33354,1,8,0:0:0:0:
165,132,33525,1,0,0:0:0:0:
191,140,33697,1,0,0:0:0:0:
191,140,33868,1,8,0:0:0:0:
191,140,34211,1,8,0:0:0:0:
191,140,34554,1,4,0:0:0:0:
212,147,34897,1,0,0:0:0:0:
212,147,35240,1,8,0:0:0:0:
212,147,35582,1,8,0:0:0:0:
212,147,35754,1,8,0:0:0:0:
212,147,35925,1,0,0:0:0:0:
212,149,36268,1,8,0:0:0:0:
212,149,36440,1,8,0:0:0:0:
212,149,36611,1,0,0:0:0:0:
212,149,36782,1,0,0:0:0:0:
212,149,36954,1,8,0:0:0:0:
211,151,37640,1,8,0:0:0:0:
211,151,37982,1,0,0:0:0:0:
211,151,38325,1,8,0:0:0:0:
211,151,38497,1,8,0:0:0:0:
211,151,38668,1,0,0:0:0:0:
211,151,39011,1,8,0:0:0:0:
182,150,39354,1,0,0:0:0:0:
182,150,39525,1,0,0:0:0:0:
182,150,39697,1,8,0:0:0:0:
182,150,39782,1,8,0:0:0:0:
182,150,39868,1,8,0:0:0:0:
182,150,40040,1,12,0:0:0:0:
224,160,40554,1,0,0:0:0:0:
223,160,40897,1,0,0:0:0:0:
223,160,41068,1,8,0:0:0:0:
223,160,41240,1,0,0:0:0:0:
222,160,41582,1,0,0:0:0:0:
222,160,41754,1,8,0:0:0:0:
222,160,42097,1,8,0:0:0:0:
222,160,42268,1,8,0:0:0:0:
222,160,42440,1,0,0:0:0:0:
222,160,42611,1,0,0:0:0:0:
222,160,42782,1,8,0:0:0:0:
222,160,43125,1,8,0:0:0:0:
222,160,43297,1,0,0:0:0:0:
223,160,43640,1,0,0:0:0:0:
223,160,43811,1,8,0:0:0:0:
223,160,43982,1,0,0:0:0:0:
223,160,44497,1,0,0:0:0:0:
223,160,44668,1,0,0:0:0:0:
223,160,44840,1,8,0:0:0:0:
223,160,45011,1,12,0:0:0:0:
224,160,45525,1,0,0:0:0:0:
224,160,45868,1,12,0:0:0:0:
224,160,46211,1,0,0:0:0:0:
224,160,46554,1,8,0:0:0:0:
224,160,46725,1,8,0:0:0:0:
224,160,46897,1,0,0:0:0:0:
224,160,47240,1,8,0:0:0:0:
223,161,47754,1,0,0:0:0:0:
223,161,47925,1,8,0:0:0:0:
223,161,48097,1,8,0:0:0:0:
223,161,48268,1,0,0:0:0:0:
223,162,48611,1,12,0:0:0:0:
221,201,48954,1,0,0:0:0:0:
221,201,49125,1,8,0:0:0:0:
221,201,49297,1,0,0:0:0:0:
221,201,49640,1,8,0:0:0:0:
220,201,49982,1,8,0:0:0:0:
220,201,50154,1,0,0:0:0:0:
220,201,50497,1,0,0:0:0:0:
190,191,50668,1,8,0:0:0:0:
190,191,50840,1,8,0:0:0:0:
190,191,51011,1,0,0:0:0:0:
190,191,51354,1,8,0:0:0:0:
190,191,51525,1,0,0:0:0:0:
190,191,51697,1,8,0:0:0:0:
190,191,52040,1,0,0:0:0:0:
190,191,52211,1,8,0:0:0:0:
190,191,52382,1,0,0:0:0:0:
190,191,52725,1,8,0:0:0:0:
192,182,52897,1,8,0:0:0:0:
192,182,53068,1,0,0:0:0:0:
262,137,53240,1,0,0:0:0:0:
192,182,53411,1,8,0:0:0:0:
191,183,53497,1,8,0:0:0:0:
198,115,53582,1,8,0:0:0:0:
192,182,53754,1,4,0:0:0:0:
213,233,55125,1,8,0:0:0:0:
213,233,55211,1,8,0:0:0:0:
213,233,55297,1,8,0:0:0:0:
213,233,55468,1,0,0:0:0:0:
213,233,55554,1,0,0:0:0:0:
213,233,55640,1,0,0:0:0:0:
85,102,55811,2,0,P|180:62|252:143,1,210
203,186,56497,1,4,0:0:0:0:
231,172,57011,1,8,0:0:0:0:
231,172,57182,1,0,0:0:0:0:
202,174,57525,1,0,0:0:0:0:
202,174,57697,1,8,0:0:0:0:
200,90,57782,1,8,0:0:0:0:
202,174,57868,1,8,0:0:0:0:
202,174,58040,1,8,0:0:0:0:
202,174,58211,1,0,0:0:0:0:
308,177,58554,1,0,0:0:0:0:
308,177,58725,1,0,0:0:0:0:
302,180,58897,1,8,0:0:0:0:
299,184,59068,1,8,0:0:0:0:
299,184,59240,1,0,0:0:0:0:
274,189,59754,1,8,0:0:0:0:
259,192,59925,1,0,0:0:0:0:
259,192,60268,1,8,0:0:0:0:
259,192,60440,1,0,0:0:0:0:
259,192,60525,1,0,0:0:0:0:
259,192,60611,1,0,0:0:0:0:
259,192,60782,1,0,0:0:0:0:
253,188,60954,1,8,0:0:0:0:
252,189,61297,1,8,0:0:0:0:
252,189,61640,1,0,0:0:0:0:
238,86,61725,1,0,0:0:0:0:
252,189,61811,1,0,0:0:0:0:
250,194,61982,1,8,0:0:0:0:
218,89,62154,1,0,0:0:0:0:
244,202,62325,1,0,0:0:0:0:
244,202,62497,1,8,0:0:0:0:
244,202,62840,1,0,0:0:0:0:
220,129,63011,1,8,0:0:0:0:
215,141,63182,1,8,0:0:0:0:
215,141,63354,1,0,0:0:0:0:
149,119,63525,5,0,0:0:0:0:
212,145,63697,1,8,0:0:0:0:
169,62,64040,1,8,0:0:0:0:
224,183,64211,1,0,0:0:0:0:
224,183,64382,1,8,0:0:0:0:
218,180,64725,1,0,0:0:0:0:
218,180,64897,1,0,0:0:0:0:
218,180,65068,1,12,0:0:0:0:
218,180,65411,1,0,0:0:0:0:
218,180,65583,1,0,0:0:0:0:
218,180,65754,1,12,0:0:0:0:
146,150,66097,1,8,0:0:0:0:
146,150,66182,1,8,0:0:0:0:
146,150,66268,1,8,0:0:0:0:
146,150,66440,1,0,0:0:0:0:
219,117,66525,1,0,0:0:0:0:
145,157,66611,1,0,0:0:0:0:
145,157,66782,1,8,0:0:0:0:
145,157,66868,1,8,0:0:0:0:
145,157,66954,1,8,0:0:0:0:
145,157,67125,1,0,0:0:0:0:
145,157,67297,1,0,0:0:0:0:
174,155,67468,1,12,0:0:0:0:
235,159,67982,1,8,0:0:0:0:
235,159,68154,1,0,0:0:0:0:
235,159,68497,1,0,0:0:0:0:
208,155,68668,1,8,0:0:0:0:
208,155,68754,1,8,0:0:0:0:
208,155,68840,1,8,0:0:0:0:
208,155,69011,1,8,0:0:0:0:
208,155,69182,1,0,0:0:0:0:
310,148,69525,1,0,0:0:0:0:
310,148,69697,1,0,0:0:0:0:
305,149,69868,1,8,0:0:0:0:
305,149,70040,1,0,0:0:0:0:
291,148,70211,1,8,0:0:0:0:
286,153,70725,1,0,0:0:0:0:
286,153,70811,1,0,0:0:0:0:
286,153,70897,1,0,0:0:0:0:
286,153,71068,1,0,0:0:0:0:
286,153,71240,1,8,0:0:0:0:
286,153,71411,1,8,0:0:0:0:
264,152,71582,1,0,0:0:0:0:
264,152,71754,1,0,0:0:0:0:
264,152,71925,1,8,0:0:0:0:
224,154,72268,1,0,0:0:0:0:
224,154,72440,1,8,0:0:0:0:
224,154,72611,1,0,0:0:0:0:
224,154,72782,1,0,0:0:0:0:
224,154,72954,1,8,0:0:0:0:
224,154,73297,1,0,0:0:0:0:
224,154,73468,1,8,0:0:0:0:
206,39,73640,1,8,0:0:0:0:
189,107,73811,1,0,0:0:0:0:
208,139,74154,1,0,0:0:0:0:
206,142,74497,1,0,0:0:0:0:
206,142,74668,1,8,0:0:0:0:
206,142,74840,1,0,0:0:0:0:
211,70,74925,1,0,0:0:0:0:
206,142,75011,1,0,0:0:0:0:
206,142,75354,1,8,0:0:0:0:
203,143,75440,1,8,0:0:0:0:
206,142,75525,1,8,0:0:0:0:
206,142,75697,1,0,0:0:0:0:
185,146,75868,1,0,0:0:0:0:
202,143,76040,1,12,0:0:0:0:
230,146,76382,1,0,0:0:0:0:
230,146,76554,1,0,0:0:0:0:
230,146,76725,1,12,0:0:0:0:
190,83,77068,1,8,0:0:0:0:
167,106,77240,1,0,0:0:0:0:
167,106,77411,1,8,0:0:0:0:
167,106,77582,1,0,0:0:0:0:
207,98,77754,2,4,P|281:74|344:212,1,243.600007434082
176,131,78440,1,4,0:0:0:0:
246,176,79125,1,8,0:0:0:0:
246,176,79297,1,0,0:0:0:0:
246,176,79640,1,0,0:0:0:0:
288,181,79982,1,0,0:0:0:0:
288,181,80154,1,8,0:0:0:0:
288,181,80325,1,0,0:0:0:0:
288,181,80497,1,8,0:0:0:0:
216,64,80668,1,0,0:0:0:0:
288,181,80840,1,8,0:0:0:0:
150,102,81011,1,0,0:0:0:0:
288,181,81182,1,8,0:0:0:0:
149,98,81525,1,8,0:0:0:0:
267,189,81868,1,8,0:0:0:0:
267,189,82040,1,0,0:0:0:0:
267,189,82125,1,0,0:0:0:0:
267,189,82211,1,0,0:0:0:0:
267,189,82382,1,8,0:0:0:0:
265,187,82897,1,8,0:0:0:0:
265,187,83240,1,8,0:0:0:0:
162,112,83325,1,8,0:0:0:0:
162,112,83411,1,8,0:0:0:0:
265,187,83582,1,0,0:0:0:0:
265,187,83668,1,0,0:0:0:0:
265,187,83754,1,0,0:0:0:0:
206,149,83925,1,4,0:0:0:0:
206,153,84611,1,8,0:0:0:0:
206,153,84782,1,0,0:0:0:0:
206,153,84954,1,0,0:0:0:0:
206,153,85125,1,8,0:0:0:0:
205,153,85640,1,8,0:0:0:0:
205,153,85811,1,0,0:0:0:0:
205,153,85982,1,8,0:0:0:0:
255,171,86154,1,0,0:0:0:0:
255,171,86325,1,8,0:0:0:0:
293,111,86411,1,8,0:0:0:0:
255,171,86497,1,8,0:0:0:0:
172,92,86668,1,0,0:0:0:0:
241,171,86840,1,0,0:0:0:0:
241,171,87011,1,8,0:0:0:0:
241,171,87182,1,0,0:0:0:0:
232,171,87525,1,8,0:0:0:0:
232,171,87697,1,0,0:0:0:0:
232,171,87868,1,0,0:0:0:0:
232,171,87954,1,0,0:0:0:0:
232,171,88040,1,0,0:0:0:0:
232,171,88211,1,8,0:0:0:0:
249,88,88297,1,8,0:0:0:0:
232,171,88382,1,8,0:0:0:0:
232,171,88554,1,8,0:0:0:0:
218,166,88897,1,12,0:0:0:0:
218,166,89412,1,4,0:0:0:0:
