osu file format v14

[General]
AudioFilename: audio.mp3
AudioLeadIn: 0
PreviewTime: 51230
Countdown: 0
SampleSet: Normal
StackLeniency: 0
Mode: 0
LetterboxInBreaks: 0
WidescreenStoryboard: 0

[Editor]
Bookmarks: 717,10128,28362,30715,42480,51892,74833,82480,88215
DistanceSpacing: 0.4
BeatDivisor: 4
GridSize: 32
TimelineZoom: 1

[Metadata]
Title:My Sweet Maiden (TV Size)
TitleUnicode:My Sweet Maiden (TV Size)
Artist:Mia REGINA
ArtistUnicode:Mia REGINA
Creator:Sonnyc
Version:Expert
Source:sin 七つの大罪
Tags:the seven mortal sins deadly nanatsu no taizai japanese anime animation opening
BeatmapID:2269277
BeatmapSetID:1085168

[Difficulty]
HPDrainRate:6
CircleSize:3.7
OverallDifficulty:8.5
ApproachRate:9
SliderMultiplier:3
SliderTickRate:2

[Events]
//Background and Video events
0,0,"bg.jpg",0,0
//Break Periods
2,28562,29527
2,73268,74233
//Storyboard Layer 0 (Background)
//Storyboard Layer 1 (Fail)
//Storyboard Layer 2 (Pass)
//Storyboard Layer 3 (Foreground)
//Storyboard Layer 4 (Overlay)
//Storyboard Sound Samples

[TimingPoints]
717,294.117647058824,4,2,1,40,1,0
717,-200,4,2,1,40,0,0
10128,294.117647058824,3,1,1,50,1,0
10569,-166.666666666667,3,1,1,50,0,0
22480,-200,3,1,1,50,0,0
24245,-200,3,1,1,60,0,0
26010,294.117647058824,4,1,1,70,1,0
30127,-125,4,1,1,70,0,0
46892,-166.666666666667,4,2,1,50,0,0
49539,-166.666666666667,4,1,1,70,0,0
51892,-62.5,4,1,1,80,0,1
53068,-100,4,1,1,80,0,1
54245,-76.9230769230769,4,1,1,80,0,1
55421,-125,4,1,1,80,0,1
56010,-100,4,1,1,80,0,1
56598,-90.9090909090909,4,1,1,80,0,0
57774,-76.9230769230769,4,1,1,80,0,0
61304,-47.6190476190476,4,1,1,80,0,1
62480,-100,4,1,1,80,0,1
63657,-76.9230769230769,4,1,1,80,0,1
64833,-125,4,1,1,80,0,1
66010,-111.111111111111,4,1,1,80,0,1
68362,-71.4285714285714,4,1,1,80,0,1
69245,-76.9230769230769,4,1,1,80,0,1
71010,-100,4,1,1,80,0,0
75421,-83.3333333333333,4,1,1,80,0,1
77774,-40,4,1,1,80,0,1
80127,-40,4,1,1,80,0,0
82480,-100,4,1,1,60,0,0
87186,-166.666666666667,4,2,1,40,0,0

[Colours]
Combo1 : 213,213,213
Combo2 : 231,146,88
Combo3 : 239,214,188
Combo4 : 228,37,142
Combo5 : 243,173,208
Combo6 : 147,153,236
Combo7 : 218,211,248
Combo8 : 215,40,40

[HitObjects]
26,187,717,22,0,P|68:93|229:137,1,300,2|0,0:0|0:0,0:0:0:0:
155,277,1599,2,0,L|229:271,1,75,2|0,0:0|0:0,0:0:0:0:
293,316,1893,2,0,P|415:253|496:365,2,300,2|2|2,0:0|0:0|0:0,0:0:0:0:
0,190,4246,86,0,L|150:208,1,150,2|0,0:0|0:0,0:0:0:0:
238,117,4834,2,0,L|388:99,1,150,2|0,0:0|0:0,0:0:0:0:
512,83,5422,1,2,0:0:0:0:
512,83,6599,22,0,L|362:65,1,150,2|0,0:0|0:0,0:0:0:0:
274,155,7187,2,0,L|124:137,1,150,2|0,0:0|0:0,0:0:0:0:
0,121,7775,1,2,0:0:0:0:
256,192,7849,12,4,10128,0:0:0:0:
22,187,10569,38,0,P|67:251|164:225,1,179.999994506836
101,177,11010,1,4,0:3:0:0:
351,370,11598,6,0,L|441:378,1,89.9999972534181
506,332,11892,1,4,0:3:0:0:
246,287,12333,2,0,P|291:223|388:249,1,179.999994506836
325,297,12774,1,4,0:3:0:0:
346,48,13657,101,4,0:0:0:0:
22,187,14098,2,0,P|67:251|164:225,1,179.999994506836
101,177,14539,1,4,0:3:0:0:
414,356,15128,5,0,0:0:0:0:
414,356,15422,1,4,0:3:0:0:
290,105,15863,2,0,P|372:125|425:58,1,179.999994506836
346,48,16304,1,4,0:3:0:0:
461,280,17186,102,0,P|342:246|295:370,1,269.999991760254,4|0,0:0|0:0,0:0:0:0:
65,313,17922,1,0,0:0:0:0:
65,313,18068,1,4,0:3:0:0:
414,217,18657,6,0,L|406:127,1,89.9999972534181
445,57,18951,2,0,P|326:23|279:147,1,269.999991760254,4|0,0:3|0:0,0:0:0:0:
49,90,19687,1,0,0:0:0:0:
49,90,19833,1,4,0:3:0:0:
463,323,20422,102,0,L|373:331,1,89.9999972534181
295,339,20716,1,4,0:0:0:0:
157,119,21304,5,0,0:0:0:0:
286,144,21598,1,0,0:0:0:0:
157,119,21892,1,0,0:0:0:0:
286,144,22186,1,0,0:0:0:0:
157,119,22481,2,0,P|231:135|98:171,1,450
427,37,23951,101,0,0:0:0:0:
437,79,24098,1,0,0:0:0:0:
446,122,24245,1,4,0:0:0:0:
114,128,24833,5,2,0:0:0:0:
274,159,25128,1,4,0:0:0:0:
83,288,25422,1,0,0:0:0:0:
243,319,25717,1,0,0:0:0:0:
114,128,26010,1,6,0:0:0:0:
256,192,26083,12,4,28362,0:0:0:0:
105,109,30127,53,0,0:0:0:0:
331,161,30421,1,0,0:0:0:0:
235,66,30715,102,0,P|357:11|460:186,2,360,6|0|2,0:0|0:0|0:0,0:0:0:0:
331,161,31892,1,6,0:0:0:0:
84,108,32480,5,2,0:0:0:0:
57,305,32774,1,0,0:0:0:0:
203,95,33068,1,6,0:0:0:0:
168,345,33362,1,0,0:0:0:0:
320,72,33657,1,2,0:0:0:0:
274,381,33951,1,0,0:0:0:0:
274,381,34098,2,0,P|344:230|503:275,1,360,10|8,0:0|0:0,0:0:0:0:
289,36,35127,102,0,B|335:42|364:76|364:76|517:39,2,240,2|6|0,0:0|0:0|0:0,0:0:0:0:
223,149,36010,2,0,B|177:143|148:109|148:109|-5:146,1,240,2|0,0:0|0:0,0:0:0:0:
289,36,36598,5,2,0:0:0:0:
222,345,37186,1,2,0:0:0:0:
289,36,37774,1,4,0:0:0:0:
256,192,37848,12,4,38804,0:0:0:0:
256,192,40127,85,4,0:0:0:0:
256,192,40201,12,4,41157,0:0:0:0:
221,152,42186,5,2,0:0:0:0:
221,152,42333,1,0,0:0:0:0:
221,152,42480,2,2,B|419:127|419:127|497:170|489:260,2,360,6|2|2,0:0|0:0|0:0,0:0:0:0:
378,282,43657,2,2,B|179:306|179:306|101:263|109:173,2,360,6|2|2,0:0|0:0|0:0,0:0:0:0:
221,152,44833,1,6,0:0:0:0:
256,192,44907,12,8,46451,0:0:0:0:
299,136,46892,101,2,2:0:0:0:
193,158,47186,1,2,2:0:0:0:
91,175,47480,2,0,P|114:257|366:266,1,359.999989013672,0|2,2:0|2:0,2:0:0:0:
419,206,48362,1,0,0:0:0:0:
419,206,48657,2,0,P|396:124|144:115,1,359.999989013672,0|2,2:0|2:0,2:0:0:0:
307,358,49539,5,8,1:0:0:0:
256,192,49612,12,8,50715,1:0:0:0:
228,220,51304,37,2,2:0:0:0:
257,351,51598,1,2,2:0:0:0:
12,141,51892,102,2,B|9:201|76:243|140:212|157:154|138:114|138:114|110:59|155:-6|226:-4|265:42|263:86|263:86|262:147|326:189|392:158|408:101|389:60,2,720,6|2|10,0:0|0:0|0:0,0:0:0:0:
320,324,53068,2,2,P|260:235|194:360,1,300,2|8,0:0|0:0,0:0:0:0:
486,170,53657,5,2,0:0:0:0:
17,267,53951,1,10,0:0:0:0:
398,382,54245,102,2,B|466:352|470:245|369:206|305:257|303:316|303:316|301:389|202:430|130:350|155:273|209:251,2,584.999973220826,2|2|10,0:0|0:0|0:0,0:0:0:0:
54,275,55421,2,2,L|79:36,1,240,2|8,0:0|0:0,0:0:0:0:
292,384,56010,5,2,0:0:0:0:
236,1,56304,1,8,0:0:0:0:
467,215,56598,70,0,B|456:265|412:297|412:297|184:269,1,330.000010070801,4|8,0:0|0:0,0:0:0:0:
368,62,57186,2,0,B|140:34|140:34|96:66|85:116,1,330.000010070801,2|8,0:0|0:0,0:0:0:0:
509,229,57774,6,0,B|495:289|443:327|443:327|169:294,1,389.999982147218,4|8,0:0|0:0,0:0:0:0:
391,45,58362,2,0,B|117:10|117:10|64:49|51:110,1,389.999982147218,2|8,0:0|0:0,0:0:0:0:
482,314,58951,102,2,B|61:262|61:262|119:274|162:336|132:409,2,584.999973220826,6|2|10,0:0|0:0|0:0,0:0:0:0:
41,361,60127,1,2,0:0:0:0:
302,191,60716,37,0,0:0:0:0:
272,383,61010,1,10,0:0:0:0:
497,176,61304,102,2,B|544:111|490:10|379:24|342:103|369:160|369:160|402:232|327:320|219:280|202:194|242:144|242:144|291:82|238:-18|125:-3|88:73|115:129,2,944.99997116089,6|2|10,0:0|0:0|0:0,0:0:0:0:
154,291,62480,2,2,P|279:363|418:319,1,300,2|8,0:0|0:0,0:0:0:0:
4,117,63068,5,2,0:0:0:0:
512,185,63362,1,8,0:0:0:0:
114,382,63657,102,2,B|46:352|42:245|143:206|207:257|209:316|209:316|211:389|310:430|382:350|357:273|303:251,2,584.999973220826,2|2|10,0:0|0:0|0:0,0:0:0:0:
458,275,64833,2,2,L|433:36,1,240,2|8,0:0|0:0,0:0:0:0:
163,339,65421,5,2,0:0:0:0:
139,83,65715,1,2,0:0:0:0:
385,374,66010,70,2,B|449:360|488:307|488:307|456:29,2,404.999987640381
126,9,67186,2,2,B|62:23|23:76|23:76|55:354,2,404.999987640381
351,187,68362,86,2,B|360:138|360:138|271:100|174:106|174:106|150:244|150:244|239:282|336:276|336:276|346:219,1,629.999980773926,6|6,0:0|0:0,0:0:0:0:
30,314,69245,21,2,0:0:0:0:
30,314,69392,1,0,0:0:0:0:
30,314,69539,2,2,B|451:262|451:262|393:274|350:336|380:409,2,584.999973220826
471,361,70715,1,6,0:0:0:0:
471,361,71010,1,2,0:0:0:0:
256,192,71083,12,4,73068,0:0:0:0:
191,247,74833,37,2,0:0:0:0:
160,87,75127,1,2,0:0:0:0:
51,249,75421,70,2,B|70:332|142:385|142:385|512:340,2,539.999983520508,6|2|10,0:0|0:0|0:0,0:0:0:0:
464,119,76598,2,2,B|445:36|373:-17|373:-17|3:28,2,539.999983520508,2|2|10,0:0|0:0|0:0,0:0:0:0:
0,264,77774,86,2,B|-51:178|-7:56|111:64|149:171|127:245|127:245|98:340|171:449|292:399|297:294|253:227|253:227|200:144|247:15|363:32|403:137|380:210,2,1125,6|6|6,0:0|0:0|0:0,0:0:0:0:
512,384,79539,21,2,0:0:0:0:
512,384,80127,1,2,0:0:0:0:
256,192,80201,12,0,81892,0:0:0:0:
36,333,82480,6,0,B|94:326|94:326|108:332|119:342|119:342|179:336,3,150,10|8|8|10,0:0|0:0|0:0|0:0,0:0:0:0:
61,241,83362,2,0,B|119:234|119:234|133:240|144:250|144:250|204:244,3,150,10|8|8|10,0:0|0:0|0:0|0:0,0:0:0:0:
205,243,84245,1,10,0:0:0:0:
439,69,84833,86,0,B|381:62|381:62|367:68|356:78|356:78|296:72,3,150,10|8|8|10,0:0|0:0|0:0|0:0,0:0:0:0:
468,160,85715,2,0,B|410:153|410:153|396:159|385:169|385:169|325:163,3,150,10|8|8|10,0:0|0:0|0:0|0:0,0:0:0:0:
443,345,86598,21,10,0:0:0:0:
443,345,86892,1,10,0:0:0:0:
298,282,87186,86,0,B|335:249|335:249|317:114,1,179.999994506836,2|0,2:0|2:0,2:0:0:0:
306,41,87627,1,2,2:0:0:0:
306,41,87921,1,2,2:0:0:0:
306,41,88215,1,2,2:0:0:0:
