osu file format v14

[General]
AudioFilename: audio.mp3
AudioLeadIn: 0
PreviewTime: 51011
Countdown: 0
SampleSet: Soft
StackLeniency: 0.4
Mode: 0
LetterboxInBreaks: 0
WidescreenStoryboard: 0

[Editor]
DistanceSpacing: 0.8
BeatDivisor: 4
GridSize: 8
TimelineZoom: 1

[Metadata]
Title:My Sweet Maiden (TV Size)
TitleUnicode:My Sweet Maiden (TV Size)
Artist:Mia REGINA
ArtistUnicode:Mia REGINA
Creator:Sakura Blossom
Version:Easy
Source:sin 七つの大罪
Tags:japanese anime Seven Mortal Sins Nanatsu no Taizai Hari Creamy Candy Aisha xfraczynho Canderos
BeatmapID:1919694
BeatmapSetID:904473

[Difficulty]
HPDrainRate:2.5
CircleSize:2.5
OverallDifficulty:2.5
ApproachRate:3.5
SliderMultiplier:0.6
SliderTickRate:1

[Events]
//Background and Video events
0,0,"papers.co-ah93-butterfly-blue-anime-girl-illust-art-35-3840x2160-4k-wallpaper.jpg",0,0
//Break Periods
//Storyboard Layer 0 (Background)
//Storyboard Layer 1 (Fail)
//Storyboard Layer 2 (Pass)
//Storyboard Layer 3 (Foreground)
//Storyboard Layer 4 (Overlay)
//Storyboard Sound Samples

[TimingPoints]
155,281.69014084507,4,2,99,40,1,0
248,-100,4,2,99,35,0,0
342,-100,4,2,99,45,0,0
436,-100,4,2,99,35,0,0
530,-100,4,2,99,55,0,0
624,-100,4,2,99,65,0,0
717,294.117647058824,4,2,99,40,1,0
717,-100,4,2,99,40,0,0
2334,-100,4,2,99,15,0,0
2481,-100,4,2,99,40,0,0
5422,-100,4,2,99,55,0,0
6158,-100,4,2,99,25,0,0
6231,-100,4,2,99,35,0,0
6305,-100,4,2,99,45,0,0
6378,-100,4,2,99,55,0,0
6452,-100,4,2,99,65,0,0
6599,-100,4,2,99,45,0,0
6893,-100,4,2,99,35,0,0
7187,-100,4,2,99,45,0,0
7481,-100,4,2,99,35,0,0
10128,294.117647058824,3,2,99,55,1,0
10128,-100,3,2,99,55,0,0
15422,-100,3,2,99,60,0,0
16745,-100,3,2,99,35,0,0
16819,-100,3,2,99,45,0,0
16892,-100,3,2,99,55,0,0
16966,-100,3,2,99,65,0,0
17186,-100,3,2,99,55,0,0
19833,-100,3,2,99,55,0,0
20716,-100,3,2,99,55,0,0
24245,-100,3,2,99,60,0,0
26011,294.117647058824,4,2,99,60,1,0
26011,-100,4,2,99,60,0,0
28363,-100,4,2,99,60,0,0
30128,-100,4,2,99,60,0,0
30716,-100,4,2,99,60,0,0
31599,-100,4,2,99,65,0,0
37628,-100,4,2,99,45,0,0
37702,-100,4,2,99,55,0,0
37775,-133.333333333333,4,2,99,65,0,0
38658,-133.333333333333,4,2,99,30,0,0
38805,-133.333333333333,4,2,99,65,0,0
39981,-133.333333333333,4,2,99,30,0,0
40128,-133.333333333333,4,2,99,65,0,0
41011,-133.333333333333,4,2,99,30,0,0
41158,-133.333333333333,4,2,99,65,0,0
41746,-133.333333333333,4,2,99,30,0,0
41893,-133.333333333333,4,2,99,65,0,0
42481,-100,4,2,99,65,0,0
47187,-100,4,2,99,65,0,0
49540,-100,4,2,99,75,0,0
49687,-100,4,2,99,60,0,0
49981,-100,4,2,99,75,0,0
50128,-100,4,2,99,60,0,0
50422,-100,4,2,99,75,0,0
50569,-100,4,2,99,45,0,0
50643,-100,4,2,99,55,0,0
50716,-100,4,2,99,75,0,0
51893,-100,4,2,99,75,0,1
59393,-100,4,2,99,85,0,1
59540,-100,4,2,99,65,0,1
59834,-100,4,2,99,85,0,1
59981,-100,4,2,99,45,0,1
60055,-100,4,2,99,50,0,1
60128,-100,4,2,99,75,0,1
60863,-100,4,2,99,55,0,1
60937,-100,4,2,99,60,0,1
61011,-100,4,2,99,65,0,1
61084,-100,4,2,99,70,0,1
61158,-100,4,2,99,75,0,1
61231,-100,4,2,99,80,0,1
61305,-100,4,2,99,85,0,1
68216,-100,4,2,99,55,0,1
68290,-100,4,2,99,65,0,1
68363,-100,4,2,99,85,0,1
68511,-100,4,2,99,65,0,1
68805,-100,4,2,99,85,0,1
68952,-100,4,2,99,55,0,1
69025,-100,4,2,99,65,0,1
69099,-100,4,2,99,85,0,1
69393,-100,4,2,99,65,0,1
69834,-100,4,2,99,85,0,1
69981,-100,4,2,99,55,0,1
70055,-100,4,2,99,65,0,1
70128,-100,4,2,99,85,0,1
70275,-100,4,2,99,60,0,1
70349,-100,4,2,99,65,0,1
70422,-100,4,2,99,70,0,1
70496,-100,4,2,99,75,0,1
70569,-100,4,2,99,80,0,1
70716,-100,4,2,99,75,0,0
71305,-100,4,2,99,75,0,0
75128,-100,4,2,99,55,0,0
75202,-100,4,2,99,60,0,0
75275,-100,4,2,99,65,0,0
75349,-100,4,2,99,70,0,0
75422,-100,4,2,99,85,0,1
77040,-100,4,2,99,55,0,1
77113,-100,4,2,99,65,0,1
77187,-100,4,2,99,85,0,1
77775,-100,4,2,99,80,0,0
80128,-100,4,2,99,85,0,1
80275,-100,4,2,99,55,0,1
80349,-100,4,2,99,65,0,1
80422,-100,4,2,99,85,0,1
87187,-100,4,2,99,62,0,0

[Colours]
Combo1 : 255,255,128
Combo2 : 255,128,192
Combo3 : 0,64,128
Combo4 : 255,128,255

[HitObjects]
387,122,718,5,2,0:0:0:0:
286,285,1893,2,0,B|244:337|244:337|199:371,2,120,2|2|2,0:0|0:0|0:0,0:0:0:0:
187,120,4246,2,0,B|145:68|145:68|100:34,2,120,2|2|2,0:0|0:0|0:0,0:0:0:0:
352,217,6599,1,2,0:0:0:0:
414,289,7187,1,2,0:0:0:0:
319,307,7775,6,0,B|255:322|215:258|215:258|118:289|144:229|60:230|60:230|61:176|27:158,1,360,2|0,0:0|0:0,0:0:0:0:
27,69,10128,6,0,P|90:79|127:111,2,90,2|0|0,3:2|0:0|3:0,0:0:0:0:
37,164,11598,1,0,3:0:0:0:
34,211,11892,2,0,L|30:312,2,90,2|0|2,3:2|0:0|3:2,0:0:0:0:
130,211,13363,1,0,3:0:0:0:
177,215,13657,6,0,B|226:220|226:220|276:211,2,90,4|2|2,3:2|3:2|3:2,0:0:0:0:
183,119,15128,1,2,3:2:0:0:
157,78,15422,2,0,L|112:-4,2,90,2|2|2,3:2|3:2|3:2,0:0:0:0:
230,201,17186,6,0,L|326:164,1,90,4|0,3:2|3:2,0:0:0:0:
382,145,18069,1,0,3:0:0:0:
427,229,18657,1,0,3:0:0:0:
447,272,18951,2,0,L|488:359,2,90,2|0|2,3:2|0:0|3:2,0:0:0:0:
356,305,20422,5,2,3:2:0:0:
308,311,20716,2,0,L|187:322,1,120,6|0,3:2|0:0,0:0:0:0:
140,326,21598,2,0,L|78:220,1,120,2|0,3:2|3:0,0:0:0:0:
55,181,22480,1,2,3:2:0:0:
196,151,23363,1,2,0:0:0:0:
287,261,24245,6,0,B|304:280|304:280|353:271|408:285,1,120,4|0,3:2|0:0,0:0:0:0:
445,292,25128,2,0,B|464:275|464:275|455:226|469:171,1,120,4|0,3:2|0:0,0:0:0:0:
473,133,26011,1,4,3:2:0:0:
256,192,26158,12,4,28363,3:2:0:0:
381,322,30128,5,8,3:2:0:0:
393,275,30422,1,8,3:2:0:0:
410,230,30716,2,0,L|500:159,2,90,4|0|8,3:2|0:0|0:0,0:0:0:0:
362,233,31893,1,4,3:2:0:0:
272,198,32481,2,0,L|192:172,1,60,0|0,3:2|3:0,0:0:0:0:
170,160,33069,6,0,L|156:101,1,60,4|0,3:2|3:2,0:0:0:0:
164,53,33658,2,0,P|78:22|69:23,2,90,0|12|8,0:0|0:0|0:0,0:0:0:0:
206,27,34834,2,0,P|245:42|263:54,1,60,0|8,3:0|3:2,0:0:0:0:
288,90,35422,6,0,L|336:156,1,60,8|0,0:0|3:0,0:0:0:0:
324,186,36011,2,0,L|353:262,1,60,0|0,3:0|3:0,0:0:0:0:
337,289,36599,2,0,B|279:323|279:323|215:341,1,120,0|0,3:0|3:0,0:0:0:0:
148,44,37775,6,0,P|221:81|286:136,1,157.500006008148,4|4,3:2|3:2,0:0:0:0:
432,180,40128,2,0,P|430:221|336:278,2,157.500006008148,4|4|0,3:2|3:2|3:2,0:0:0:0:
414,135,42481,6,0,B|382:97|382:97|340:70,2,90,4|0|8,3:2|0:0|3:2,0:0:0:0:
411,183,43658,2,0,B|393:229|393:229|391:279,2,90,4|0|8,3:2|0:0|3:2,0:0:0:0:
453,161,44834,6,0,L|492:103,1,60,4|8,3:2|3:2,0:0:0:0:
485,63,45422,2,0,L|427:23,1,60,8|8,3:2|3:2,0:0:0:0:
379,51,46011,2,0,B|371:102|371:102|356:137,2,90,8|8|8,3:2|3:2|3:2,0:0:0:0:
352,11,47187,6,0,P|228:31|235:123,1,240
92,250,49540,6,2,P|48:277|3:298,2,90,2|8|8,3:2|3:2|3:2,0:0:0:0:
132,223,50716,1,8,3:2:0:0:
219,261,51305,2,0,P|226:227|225:188,1,60
211,156,51893,6,0,P|152:123|117:119,2,90,4|0|8,3:2|0:0|0:0,0:0:0:0:
258,154,53069,1,0,3:2:0:0:
316,77,53658,2,0,P|336:104|352:140,1,60,0|0,3:2|0:0,0:0:0:0:
351,175,54246,6,0,P|436:185|444:182,2,90,0|0|8,0:0|0:0|0:0,0:0:0:0:
303,183,55422,2,0,P|283:210|267:246,1,60,0|8,3:2|0:0,0:0:0:0:
250,277,56011,2,0,P|259:310|276:345,1,60,0|0,3:2|0:0,0:0:0:0:
306,364,56599,6,0,P|340:357|379:358,1,60,4|8,3:2|0:0,0:0:0:0:
413,356,57187,1,0,3:2:0:0:
485,292,57775,2,0,P|478:258|479:219,1,60,4|8,3:2|0:0,0:0:0:0:
489,186,58363,1,0,3:2:0:0:
462,93,58952,6,0,P|486:39|514:22,2,90,4|8|8,3:2|3:2|3:2,3:2:0:0:
421,119,60128,2,0,P|387:112|348:113,1,60,8|12,3:2|3:2,0:0:0:0:
315,124,60716,1,0,3:2:0:0:
276,152,61011,1,8,3:2:0:0:
247,190,61305,6,0,B|277:228|277:228|317:257,2,90,4|0|8,3:2|0:0|3:2,0:0:0:0:
211,157,62481,1,0,3:2:0:0:
130,208,63069,2,0,P|117:175|111:137,1,60,0|8,3:2|0:0,0:0:0:0:
87,109,63658,6,0,B|50:75|50:75|6:54,2,90,0|0|8,3:2|0:0|0:0,0:0:0:0:
134,104,64834,1,0,3:2:0:0:
201,172,65422,2,0,P|233:184|271:190,1,60,0|8,3:2|0:0,0:0:0:0:
301,210,66011,6,0,L|392:279,2,90,0|8|8,3:2|3:2|3:2,0:0:0:0:
294,162,67187,2,0,L|308:48,2,90,8|8|8,3:2|3:2|3:2,0:0:0:0:
258,188,68363,6,0,P|196:215|147:234,1,120,12|0,3:2|3:2,0:0:0:0:
101,248,69246,1,8,3:2:0:0:
56,264,69540,2,0,L|18:348,2,90,0|0|8,3:2|3:2|3:2,0:0:0:0:
53,216,70716,5,4,3:2:0:0:
38,121,71305,2,0,L|0:37,2,90,0|4|0,3:2|3:2|3:2,0:0:0:0:
57,164,72481,1,0,3:2:0:0:
152,154,73069,6,0,P|182:150|212:150,1,60,4|0,3:2|3:2,0:0:0:0:
255,170,73658,2,0,L|293:254,2,90,0|4|0,3:2|3:2|3:2,0:0:0:0:
254,122,74834,1,0,3:2:0:0:
263,74,75128,1,8,0:0:0:0:
308,59,75422,6,0,L|399:-10,2,90,4|0|8,3:2|0:0|3:2,0:0:0:0:
308,106,76598,2,0,L|322:220,2,90,0|0|8,3:2|3:2|3:2,0:0:0:0:
263,74,77774,6,0,P|201:47|152:28,1,120,4|0,3:2|0:0,0:0:0:0:
103,24,78658,2,0,P|86:49|74:76,1,60,12|0,3:2|0:0,0:0:0:0:
29,161,79540,1,8,3:2:0:0:
32,280,80128,6,0,L|54:368,1,90,12|8,3:2|3:2,0:0:0:0:
143,360,81011,2,0,L|230:381,1,90,8|8,3:2|3:2,0:0:0:0:
316,354,81893,2,0,P|340:328|372:306,1,60,8|8,3:2|3:2,0:0:0:0:
414,289,82481,6,0,P|435:252|453:207,1,90,8|8,3:2|3:2,0:0:0:0:
436,119,83363,2,0,P|401:95|365:61,1,90,8|8,3:2|3:2,0:0:0:0:
278,42,84246,2,0,P|251:55|222:64,1,60,8|8,3:2|3:2,0:0:0:0:
179,105,84834,6,0,L|93:64,1,90,12|8,3:2|3:2,0:0:0:0:
57,146,85716,2,0,L|138:185,1,90,8|8,3:2|3:2,0:0:0:0:
228,185,86599,2,0,P|241:211|250:240,1,60,8|8,3:2|3:2,0:0:0:0:
275,294,87187,6,0,L|292:393,1,90,2|2,0:0|0:0,0:0:0:0:
345,358,87922,2,0,L|409:352,1,60,2|2,0:0|0:0,0:0:0:0:
